osu file format v14

[General]
AudioFilename: GO!GO!MANIAC.mp3
AudioLeadIn: 0
PreviewTime: -1
Countdown: 1
SampleSet: Normal
StackLeniency: 0.7
Mode: 0
LetterboxInBreaks: 0
WidescreenStoryboard: 0

[Editor]
Bookmarks: 13445,86045
DistanceSpacing: 0.6
BeatDivisor: 4
GridSize: 4
TimelineZoom: 4.399998

[Metadata]
Title:GO!GO!MANIAC
TitleUnicode:GO!GO!MANIAC
Artist:Toyosaki Aki
ArtistUnicode:Toyosaki Aki
Creator:-Light -
Version:Insane
Source:K-on
Tags:akiyama mio Tainaka Ritsu Hirasawa Yui Kotobuki Tsumigi Nakano Azusa
BeatmapID:834302
BeatmapSetID:381364

[Difficulty]
HPDrainRate:7
CircleSize:4.3
OverallDifficulty:7
ApproachRate:9
SliderMultiplier:1.1
SliderTickRate:1

[Events]
//Background and Video events
//Break Periods
//Storyboard Layer 0 (Background)
//Storyboard Layer 1 (Fail)
//Storyboard Layer 2 (Pass)
//Storyboard Layer 3 (Foreground)
//Storyboard Sound Samples

[TimingPoints]
1205,240,4,1,0,80,1,0
3005,-100,4,1,0,60,0,0
4925,-100,4,1,0,80,0,0
8885,-100,4,1,0,80,0,1
14525,-100,4,1,0,80,0,0
57845,-100,4,1,0,80,0,1
69365,-100,4,1,0,80,0,0

[Colours]
Combo1 : 0,255,0
Combo2 : 255,0,0
Combo3 : 0,0,255
Combo4 : 255,255,0
Combo5 : 255,0,255

[HitObjects]
52,64,1205,6,0,L|120:64,1,55
148,192,1445,2,0,L|216:192,1,55
352,264,1805,1,0,0:0:0:0:
352,264,2045,2,0,L|388:325,1,55
352,120,2405,2,0,L|388:59,1,55
424,80,2885,6,0,L|424:160,2,55
424,268,3365,2,0,B|376:268|376:268|352:220|309:261,1,110
216,304,3845,1,0,0:0:0:0:
64,252,4085,2,0,L|120:200,1,55
232,168,4325,2,0,L|184:116,1,55
76,88,4565,2,0,P|88:44|148:24,1,110
392,64,5045,6,0,L|312:64,1,55
296,176,5285,2,0,L|220:176,1,55
144,60,5645,1,0,0:0:0:0:
76,156,5885,2,0,P|72:192|84:220,1,55
172,192,6245,1,0,0:0:0:0:
172,192,6365,1,0,0:0:0:0:
152,272,6725,2,0,P|204:268|240:224,1,110
108,64,7205,1,0,0:0:0:0:
416,64,7445,1,0,0:0:0:0:
416,296,7685,1,0,0:0:0:0:
108,296,7925,1,0,0:0:0:0:
120,80,8885,6,0,P|104:120|116:144,1,55
208,176,9125,2,0,P|216:212|188:240,1,55
104,304,9365,1,0,0:0:0:0:
392,80,9605,6,0,P|408:120|396:144,1,55
304,176,9845,2,0,P|296:212|324:240,1,55
400,296,10085,1,0,0:0:0:0:
196,324,10325,6,0,P|156:312|140:284,1,55
224,228,10565,2,0,P|252:204|252:172,1,55
312,88,10805,2,0,P|256:64|208:92,2,110
396,94,11525,2,0,P|381:146|336:176,1,110
308,288,12005,2,0,B|264:296|240:256,1,55
192,204,12245,2,0,B|196:160|168:140,1,55
96,160,12485,2,0,B|64:140|68:108,1,55
160,48,12725,5,0,0:0:0:0:
176,52,12845,1,0,0:0:0:0:
200,64,12965,1,0,0:0:0:0:
220,80,13085,1,0,0:0:0:0:
260,112,13205,2,0,P|280:140|320:152,1,55
336,160,13445,2,0,P|360:184|360:224,1,55
348,240,13685,1,0,0:0:0:0:
320,252,13805,1,0,0:0:0:0:
304,280,13925,1,0,0:0:0:0:
296,312,14045,1,0,0:0:0:0:
272,340,14165,2,0,P|228:332|204:308,1,55
200,300,14405,2,0,P|204:264|176:232,1,55
412,72,14645,5,0,0:0:0:0:
412,72,14885,1,0,0:0:0:0:
296,192,15125,1,0,0:0:0:0:
260,200,15245,1,0,0:0:0:0:
232,220,15365,1,0,0:0:0:0:
212,256,15485,1,0,0:0:0:0:
204,84,15605,5,0,0:0:0:0:
204,84,15845,1,0,0:0:0:0:
396,204,16085,1,0,0:0:0:0:
396,224,16205,1,0,0:0:0:0:
396,252,16325,1,0,0:0:0:0:
396,284,16445,1,0,0:0:0:0:
288,96,16565,5,0,0:0:0:0:
288,96,16805,1,0,0:0:0:0:
131,157,17045,2,0,P|104:152|79:164,1,55
127,243,17285,2,0,P|154:251|180:246,1,55
412,156,17525,5,0,0:0:0:0:
412,156,17765,1,0,0:0:0:0:
278,255,18005,1,0,0:0:0:0:
278,255,18125,1,0,0:0:0:0:
278,255,18245,1,0,0:0:0:0:
278,255,18365,1,0,0:0:0:0:
278,255,18485,1,0,0:0:0:0:
112,97,18965,6,0,L|240:97,1,110
312,48,19445,2,0,P|332:92|296:156,1,110
229,201,19805,2,0,P|264:243|317:254,1,110
348,328,20165,2,0,P|404:312|420:248,1,110
416,120,20645,6,0,B|400:160|352:156,1,55
172,220,21005,1,0,0:0:0:0:
132,308,21125,2,0,P|88:292|76:232,1,110
208,96,21605,2,0,P|260:120|316:84,1,110
256,192,22085,12,0,23045,0:0:0:0:
320,80,23285,6,0,L|392:80,2,55
92,84,23765,2,0,P|108:132|160:168,1,110
320,320,24245,1,0,0:0:0:0:
320,320,24485,2,0,L|320:244,1,55
184,120,24965,1,0,0:0:0:0:
152,180,25205,6,0,P|152:208|176:240,2,55
156,332,25685,2,0,P|212:320|252:280,1,110
380,152,26165,1,0,0:0:0:0:
184,120,26405,1,0,0:0:0:0:
184,160,26525,1,0,0:0:0:0:
396,96,26885,5,0,0:0:0:0:
376,204,27125,1,0,0:0:0:0:
368,228,27245,1,0,0:0:0:0:
353,245,27365,1,0,0:0:0:0:
314,340,27605,2,0,P|271:312|248:252,1,110
108,160,28085,1,0,0:0:0:0:
164,56,28325,2,0,P|196:48|220:56,1,55
84,64,29045,6,0,L|200:64,1,110
192,136,29405,2,0,L|312:136,1,110
308,208,29765,2,0,L|444:208,1,110
424,288,30125,2,0,P|400:320|328:324,1,110
264,280,30485,2,0,L|132:280,1,110
108,80,30965,5,0,0:0:0:0:
108,80,31085,1,0,0:0:0:0:
108,80,31205,2,0,L|180:80,1,55
136,156,31445,1,0,0:0:0:0:
136,156,31565,1,0,0:0:0:0:
136,156,31685,2,0,L|200:156,1,55
164,232,31925,1,0,0:0:0:0:
164,232,32045,1,0,0:0:0:0:
164,232,32165,2,0,L|224:232,1,55
192,304,32405,1,0,0:0:0:0:
192,304,32525,1,0,0:0:0:0:
192,304,32645,2,0,L|260:304,1,55
332,296,32885,6,0,P|364:292|376:268,2,55
336,200,33365,2,0,L|272:180,1,55
184,208,33605,2,0,L|180:132,1,55
104,120,33845,1,0,0:0:0:0:
104,120,34085,1,0,0:0:0:0:
216,80,34205,2,0,P|268:88|324:60,1,110
318,64,34565,1,0,0:0:0:0:
324,68,34685,1,0,0:0:0:0:
404,76,34805,5,0,0:0:0:0:
416,104,34925,1,0,0:0:0:0:
424,136,35045,1,0,0:0:0:0:
428,172,35165,1,0,0:0:0:0:
424,208,35285,2,0,L|400:260,1,55
384,280,35525,2,0,L|320:304,1,55
300,304,35765,1,0,0:0:0:0:
262,303,35885,1,0,0:0:0:0:
225,300,36005,1,0,0:0:0:0:
184,287,36125,1,0,0:0:0:0:
141,266,36245,2,0,L|88:224,1,55
74,196,36485,2,0,L|90:136,1,55
64,56,36725,6,0,L|200:56,1,110
152,176,37085,2,0,L|272:176,1,110
236,280,37445,2,0,L|360:280,1,110
404,248,37805,1,0,0:0:0:0:
424,228,37925,1,0,0:0:0:0:
436,196,38045,1,0,0:0:0:0:
440,164,38165,2,0,P|432:120|372:88,1,110
240,100,38645,1,0,0:0:0:0:
216,76,38765,1,0,0:0:0:0:
240,53,38885,1,0,0:0:0:0:
263,76,39005,1,0,0:0:0:0:
152,184,39125,1,0,0:0:0:0:
128,160,39245,1,0,0:0:0:0:
152,137,39365,1,0,0:0:0:0:
175,160,39485,1,0,0:0:0:0:
252,236,39605,1,0,0:0:0:0:
228,212,39725,1,0,0:0:0:0:
252,189,39845,1,0,0:0:0:0:
275,212,39965,1,0,0:0:0:0:
344,156,40085,1,0,0:0:0:0:
320,132,40205,1,0,0:0:0:0:
344,109,40325,1,0,0:0:0:0:
367,132,40445,1,0,0:0:0:0:
360,248,40565,6,0,P|412:240|432:256,2,55
273,259,41045,1,0,0:0:0:0:
204,316,41285,2,0,P|192:280|200:200,1,110
248,148,41765,1,0,0:0:0:0:
256,256,41885,2,0,P|320:232|352:176,1,110
417,63,42485,6,0,L|349:63,1,55
344,64,42725,2,0,L|276:64,1,55
348,152,42965,2,0,L|280:152,1,55
256,152,43205,2,0,L|188:152,1,55
248,236,43445,2,0,L|180:236,1,55
168,232,43685,2,0,L|100:232,1,55
180,320,43925,2,0,L|112:320,1,55
88,320,44165,2,0,L|20:320,1,55
24,320,44405,6,0,L|24:192,1,110
24,124,44765,2,0,L|148:124,1,110
240,192,45125,2,0,L|240:68,1,110
320,200,45485,2,0,L|456:200,1,110
380,68,45845,2,0,L|380:132,1,55
443,106,46085,2,0,L|443:182,1,55
416,272,46565,6,0,P|384:256|368:232,1,55
340,240,46805,1,0,0:0:0:0:
318,265,46925,1,0,0:0:0:0:
287,271,47045,1,0,0:0:0:0:
253,273,47165,1,0,0:0:0:0:
214,268,47285,2,0,P|194:236|190:100,2,165
305,73,48485,6,0,L|368:73,5,55
432,74,49205,2,0,B|434:151|434:151|435:188|369:214,1,165
196,216,50165,1,0,0:0:0:0:
200,220,50405,5,0,0:0:0:0:
200,220,50525,1,0,0:0:0:0:
200,220,50645,2,0,L|135:219,1,55
138,146,50885,1,0,0:0:0:0:
138,146,51005,1,0,0:0:0:0:
138,146,51125,2,0,L|71:146,1,55
208,140,51365,2,0,B|268:128|300:152|324:172|320:248|396:188,1,220
376,44,52085,5,0,0:0:0:0:
460,96,52325,1,0,0:0:0:0:
452,212,52565,2,0,P|434:247|402:253,3,55
308,316,53045,1,0,0:0:0:0:
196,312,53285,1,0,0:0:0:0:
176,208,53525,2,0,P|164:172|145:154,3,55
244,100,54005,1,0,0:0:0:0:
96,44,54245,6,0,P|47:104|57:148,3,110
255,129,55205,1,0,0:0:0:0:
346,266,55445,1,0,0:0:0:0:
174,265,55685,1,0,0:0:0:0:
134,74,55925,6,0,L|136:147,1,55
216,114,56165,2,0,L|214:181,1,55
296,157,56405,2,0,L|294:237,1,55
373,198,56645,2,0,L|373:277,1,55
445,244,56885,2,0,L|446:321,1,55
255,185,57365,5,0,0:0:0:0:
258,189,57485,1,0,0:0:0:0:
408,64,57845,6,0,P|424:104|412:128,1,55
328,184,58085,2,0,P|320:220|348:248,1,55
420,312,58325,1,0,0:0:0:0:
96,52,58565,6,0,P|80:92|92:116,1,55
184,180,58805,2,0,P|192:216|164:244,1,55
84,312,59045,1,0,0:0:0:0:
208,306,59285,5,0,0:0:0:0:
233,307,59405,1,0,0:0:0:0:
264,306,59525,1,0,0:0:0:0:
300,305,59645,1,0,0:0:0:0:
376,298,59765,6,0,L|436:297,2,55
376,216,60245,2,0,L|376:136,1,55
416,64,60605,1,0,0:0:0:0:
416,64,60725,2,0,P|366:40|317:68,2,110
156,64,61685,6,0,P|104:104|104:164,1,110
272,152,62165,2,0,P|276:204|240:260,1,110
48,292,62645,2,0,P|84:332|144:368,1,110
288,344,63125,2,0,B|288:276|288:276|276:256|292:228,1,110
344,124,63485,1,0,0:0:0:0:
344,124,63605,2,0,P|372:140|400:224,1,110
408,204,63965,2,0,P|423:176|483:116,1,110
472,112,64325,2,0,P|436:84|364:64,1,110
375,64,64685,2,0,P|332:88|252:96,1,110
264,96,65045,1,0,0:0:0:0:
245,147,65165,1,0,0:0:0:0:
218,165,65285,1,0,0:0:0:0:
116,104,65525,6,0,P|128:76|164:64,3,55
220,152,66005,1,0,0:0:0:0:
396,104,66245,6,0,P|384:76|348:64,3,55
292,152,66725,1,0,0:0:0:0:
253,233,67085,2,0,L|254:313,3,55
252,288,67685,1,0,0:0:0:0:
353,287,67925,6,0,P|393:283|421:205,1,110
480,136,68285,2,0,P|408:120|364:140,1,110
276,220,68645,2,0,P|237:215|184:168,1,110
104,68,69365,6,0,B|107:118|107:118|89:141|88:171|116:188,1,110
297,178,69845,6,0,B|294:228|294:228|312:251|313:281|285:298,1,110
397,49,70325,6,0,B|400:99|400:99|382:122|381:152|409:169,1,110
215,176,70805,6,0,B|218:226|218:226|200:249|199:279|227:296,1,110
389,101,71285,5,0,0:0:0:0:
389,101,71525,1,0,0:0:0:0:
352,200,71765,2,0,L|276:202,1,55
292,304,72005,2,0,L|215:306,1,55
98,96,72245,5,0,0:0:0:0:
98,96,72485,1,0,0:0:0:0:
200,166,72725,1,0,0:0:0:0:
201,185,72845,1,0,0:0:0:0:
201,206,72965,1,0,0:0:0:0:
202,228,73085,1,0,0:0:0:0:
431,126,73205,6,0,P|382:102|324:129,1,110
380,225,73685,1,0,0:0:0:0:
367,212,73805,1,0,0:0:0:0:
380,200,73925,1,0,0:0:0:0:
391,212,74045,1,0,0:0:0:0:
254,189,74165,6,0,L|253:60,1,110
162,77,74645,2,0,P|178:116|167:142,1,55
96,172,74885,2,0,P|93:210|104:230,1,55
196,288,75125,1,0,0:0:0:0:
300,94,75605,6,0,P|343:106|313:168,1,110
184,268,76085,2,0,P|175:311|244:313,1,110,0|0,0:0|0:0,0:2:0:0:
336,232,76445,2,0,P|348:183|301:164,1,110
140,164,76805,2,0,P|127:115|174:96,1,110
444,72,77405,2,0,L|445:184,1,110
444,181,77765,1,0,0:0:0:0:
256,264,78005,1,0,0:0:0:0:
92,256,78245,1,0,0:0:0:0:
176,120,78485,1,0,0:0:0:0:
256,192,78965,12,0,79685,0:0:0:0:
100,80,79925,6,0,L|174:81,2,55
356,72,80405,2,0,P|387:126|358:178,1,110
371,166,80885,1,0,0:0:0:0:
212,304,81125,2,0,L|146:336,1,55
412,80,81845,6,0,L|338:81,2,55
160,68,82325,2,0,P|129:122|158:174,1,110
144,162,82805,1,0,0:0:0:0:
296,272,83045,2,0,L|362:304,1,55
409,294,83765,5,0,0:0:0:0:
368,288,83885,1,0,0:0:0:0:
356,248,84005,1,0,0:0:0:0:
420,160,84245,2,0,P|442:128|408:61,1,110
188,114,84725,1,0,0:0:0:0:
84,224,84965,2,0,P|71:254|79:278,1,55
201,308,85685,6,0,P|163:286|139:212,1,110
310,75,86045,2,0,P|356:105|374:156,1,110
374,227,86405,2,0,P|356:278|310:308,1,110
137,156,86765,2,0,P|155:105|201:75,1,110
201,75,87125,1,0,0:0:0:0:
296,55,87365,1,0,0:0:0:0:
417,62,87605,5,0,0:0:0:0:
417,62,87725,1,0,0:0:0:0:
412,167,87965,2,0,L|416:245,1,55
331,223,88205,2,0,L|335:295,1,55
245,274,88445,2,0,L|246:341,1,55
136,334,88805,1,0,0:0:0:0:
