osu file format v14

[General]
AudioFilename: audio.mp3
AudioLeadIn: 1000
PreviewTime: 42886
Countdown: 0
SampleSet: Soft
StackLeniency: 0.4
Mode: 0
LetterboxInBreaks: 0
EpilepsyWarning: 1
WidescreenStoryboard: 1

[Editor]
Bookmarks: 49063
DistanceSpacing: 1.2
BeatDivisor: 2
GridSize: 4
TimelineZoom: 0.7999998

[Metadata]
Title:Saiai Darling!
TitleUnicode:最愛Darling! (モモ・ナナバージョン)
Artist:Toyosaki Aki & Kanae Itou
ArtistUnicode:Toyosaki Aki & Kanae Itou
Creator:Acnos
Version:Easy
Source:To Love-Ru Trouble Darkness 2nd
Tags:nana momo deviluke
BeatmapID:1094486
BeatmapSetID:490451

[Difficulty]
HPDrainRate:2
CircleSize:2
OverallDifficulty:2
ApproachRate:2
SliderMultiplier:0.90000000596046
SliderTickRate:1

[Events]
//Background and Video events
0,0,"Background.jpg",0,0
//Break Periods
2,78273,85476
2,164690,170104
//Storyboard Layer 0 (Background)
//Storyboard Layer 1 (Fail)
//Storyboard Layer 2 (Pass)
//Storyboard Layer 3 (Foreground)
//Storyboard Sound Samples

[TimingPoints]
480,451.127819548872,4,2,1,70,1,0
14916,-100,4,3,1,60,0,0
18525,-100,4,2,1,70,0,0
21231,-100,4,2,1,80,0,0
22134,-100,4,3,1,60,0,0
25743,-100,4,2,1,70,0,0
29352,-100,4,2,2,70,0,0
36570,-100,4,2,1,70,0,0
40179,-100,4,2,3,70,0,0
43788,-100,4,2,1,80,0,1
51006,-100,4,2,2,70,0,0
54615,-100,4,2,1,70,0,0
56419,-100,4,2,1,60,0,0
58224,-100,4,2,1,80,0,1
62735,-100,4,2,1,80,0,1
65442,-100,4,2,2,75,0,1
67246,-100,4,2,1,75,0,1
69051,-100,4,2,2,75,0,1
70855,-100,4,2,1,75,0,1
72660,-100,4,2,1,80,0,0
78073,-100,4,2,3,70,0,0
87096,-100,4,3,1,70,0,0
90705,-100,4,2,1,70,0,0
94314,-100,4,3,1,70,0,0
97923,-100,4,2,1,70,0,0
101532,-100,4,2,2,70,0,0
108750,-100,4,2,1,70,0,0
112354,-100,4,2,3,70,0,0
115968,-100,4,2,1,80,0,1
123186,-100,4,2,2,70,0,0
126795,-100,4,2,1,70,0,0
130404,-100,4,2,1,80,0,1
135592,-100,4,2,1,80,0,1
137622,-100,4,2,2,75,0,1
139427,-100,4,2,1,75,0,1
141231,-100,4,2,2,75,0,1
143036,-100,4,2,1,75,0,1
144840,-100,4,2,1,70,0,0
151156,-100,4,2,1,80,0,0
152058,-100,4,2,1,70,0,0
152961,-100,4,2,1,80,0,0
153863,-100,4,2,1,70,0,0
154765,-100,4,2,1,80,0,0
155667,-100,4,2,1,70,0,0
156570,-100,4,2,1,80,0,0
157472,-100,4,2,1,70,0,0
158374,-100,4,2,1,80,0,0
159276,-100,4,2,1,70,0,0
160179,-100,4,2,1,80,0,0
161081,-100,4,2,1,70,0,0
161983,-100,4,2,1,80,0,0
162886,-100,4,2,1,70,0,0
163788,-100,4,2,1,80,0,0
175517,-100,4,2,1,70,0,0
177322,-100,4,2,1,90,0,0
178224,-100,4,2,1,70,0,0
179126,-100,4,2,1,80,0,0
186344,-100,4,2,1,70,0,0
193562,-100,4,2,1,80,0,1
200780,-100,4,2,2,75,0,1
202585,-100,4,2,1,75,0,1
204389,-100,4,2,2,75,0,1
206194,-100,4,2,1,75,0,1
207998,-100,4,2,1,70,0,0
215216,-100,4,2,3,70,0,0

[Colours]
Combo1 : 194,84,150
Combo2 : 145,117,255
Combo3 : 251,132,215
Combo4 : 255,9,132
Combo5 : 148,235,48
Combo6 : 120,216,192

[HitObjects]
176,144,14916,5,8,0:0:0:0:
384,80,15818,2,0,P|440:144|432:200,1,135.000000894069,0|8,0:0|0:0,0:0:0:0:
360,332,17171,1,0,0:0:0:0:
292,248,17622,1,0,0:0:0:0:
292,140,18073,1,0,0:0:0:0:
208,72,18525,6,0,P|160:40|120:40,1,90.000000596046,4|8,0:0|0:0,0:0:0:0:
136,144,19427,2,0,P|146:193|177:231,1,90.000000596046,0|8,0:3|0:0,0:0:0:0:
180,332,20329,2,0,P|231:319|263:276,1,90.000000596046,0|8,0:3|0:0,0:0:0:0:
292,192,21231,1,4,0:0:0:0:
392,232,21683,1,4,0:0:0:0:
384,124,22134,5,8,0:0:0:0:
176,80,23036,2,0,P|120:144|120:208,1,135.000000894069,0|8,0:0|0:0,0:0:0:0:
220,316,24389,1,0,0:0:0:0:
288,232,24840,1,0,0:0:0:0:
216,152,25292,1,0,0:0:0:0:
288,72,25743,6,0,P|328:48|384:48,1,90.000000596046,4|8,0:0|0:0,0:0:0:0:
368,152,26645,2,0,P|408:192|416:232,1,90.000000596046,0|8,0:0|0:0,0:0:0:0:
312,232,27547,1,0,0:0:0:0:
208,232,27998,1,8,0:0:0:0:
152,320,28449,2,0,P|112:280|104:240,1,90.000000596046,4|4,0:0|0:0,0:0:0:0:
144,144,29352,5,8,0:0:0:0:
304,288,30254,2,0,P|392:296|440:224,1,180.000001192092,2|8,0:0|0:0,0:0:0:0:
320,48,32058,1,2,0:0:0:0:
216,24,32510,1,0,0:0:0:0:
112,56,32961,6,0,B|80:96|80:176|112:232,1,180.000001192092,8|2,0:0|0:0,0:0:0:0:
324,248,34765,2,0,P|372:268|460:260,2,135.000000894069,8|0|0,0:0|0:0|0:0,0:0:0:0:
252,168,36570,6,0,P|192:144|168:120,1,90.000000596046,4|2,0:0|0:0,0:0:0:0:
136,28,37472,2,0,P|91:57|70:110,1,90.000000596046,0|2,0:0|0:0,0:0:0:0:
52,196,38374,1,0,0:0:0:0:
156,228,38825,1,2,0:0:0:0:
224,312,39276,2,0,P|291:312|325:289,1,90.000000596046,0|2,0:0|0:0,0:0:0:0:
376,216,40179,6,0,P|338:185|296:161,1,90.000000596046,4|2,0:0|0:0,0:0:0:0:
152,96,41307,2,0,P|128:144|120:192,1,90.000000596046,4|2,0:0|0:0,0:0:0:0:
200,80,43788,5,4,0:0:0:0:
304,119,44239,2,0,L|344:200,1,90.000000596046,8|2,0:0|0:0,0:0:0:0:
356,308,45141,1,8,0:0:0:0:
256,336,45592,2,0,P|208:328|176:296,1,90.000000596046,6|8,0:0|0:0,0:0:0:0:
72,272,46495,2,0,P|96:224|136:200,1,90.000000596046,2|8,0:0|0:0,0:0:0:0:
220,152,47397,5,6,0:0:0:0:
304,220,47848,2,0,L|348:308,2,90.000000596046,8|2|8,0:0|0:0|0:0,0:0:0:0:
348,120,49201,2,0,P|272:116|219:152,2,135.000000894069,4|0|0,0:0|0:0|0:0,0:0:0:0:
456,140,51006,6,0,P|440:176|400:216,1,90.000000596046,8|0,0:0|0:3,0:3:0:0:
356,308,51908,2,0,P|303:308|248:304,1,90.000000596046
160,280,52810,5,4,0:0:0:0:
72,216,53261,1,0,0:0:0:0:
44,112,53713,2,0,P|73:68|111:46,1,90.000000596046
208,28,54615,6,0,P|255:41|296:64,1,90.000000596046,2|8,0:0|0:0,0:0:0:0:
400,76,55517,2,0,P|384:128|356:156,1,90.000000596046,2|8,0:0|0:0,0:0:0:0:
300,244,56419,2,0,P|244:304|228:364,2,135.000000894069
256,144,58224,5,6,0:0:0:0:
192,56,58675,2,0,P|152:104|144:144,1,90.000000596046,8|2,0:0|0:0,0:0:0:0:
168,236,59577,1,8,0:0:0:0:
112,328,60028,2,0,P|176:352|208:344,1,90.000000596046,6|8,0:0|0:0,0:0:0:0:
296,308,60931,2,0,P|348:264|357:232,1,90.000000596046,2|8,0:0|0:0,0:0:0:0:
356,136,61833,5,6,0:0:0:0:
248,152,62284,1,8,0:0:0:0:
140,152,62735,2,0,P|140:92|164:64,1,90.000000596046,2|0,0:0|0:0,0:0:0:0:
260,40,63637,2,0,P|308:56|340:96,1,90.000000596046,4|0,0:0|0:0,0:0:0:0:
248,152,64540,1,0,0:0:0:0:
200,248,64991,1,0,0:0:0:0:
248,344,65442,6,0,L|336:304,1,90.000000596046,2|8,0:0|0:0,0:0:0:0:
424,256,66344,2,0,L|384:176,1,90.000000596046,2|8,0:0|0:0,0:0:0:0:
320,88,67246,2,0,P|272:68|220:80,1,90.000000596046,2|8,0:0|0:0,0:0:0:0:
264,176,68149,1,2,0:0:0:0:
96,40,69051,6,0,P|64:88|72:136,1,90.000000596046,0|8,0:0|0:0,0:0:0:0:
172,128,69953,2,0,P|172:184|140:224,1,90.000000596046,0|8,0:0|0:0,0:0:0:0:
88,296,70855,1,2,0:0:0:0:
184,344,71307,2,0,P|248:336|272:312,1,90.000000596046,8|2,0:0|0:0,0:0:0:0:
336,240,72209,1,8,0:0:0:0:
312,136,72660,5,2,0:0:0:0:
120,240,73562,2,0,B|136:192|104:152|104:152|112:96|160:80,1,180.000001192092,0|2,0:0|0:0,0:0:0:0:
256,56,74916,1,2,0:0:0:0:
256,192,75367,12,0,78073,0:0:0:0:
144,144,87096,5,8,0:0:0:0:
344,64,87998,2,0,P|400:128|408:184,1,135.000000894069,0|8,0:0|0:0,0:0:0:0:
392,336,89352,1,0,0:0:0:0:
304,276,89803,1,0,0:0:0:0:
332,172,90254,1,0,0:0:0:0:
260,92,90705,5,4,0:0:0:0:
152,96,91156,2,0,P|106:129|89:174,1,90.000000596046,8|0,0:0|0:0,0:0:0:0:
192,192,92058,2,0,P|215:230|216:274,1,90.000000596046,8|0,0:0|0:0,0:0:0:0:
128,336,92961,2,0,P|161:366|204:377,1,90.000000596046,8|4,0:0|0:0,0:0:0:0:
312,352,93863,1,4,0:0:0:0:
368,256,94314,5,8,0:0:0:0:
228,92,95216,2,0,P|159:77|96:108,1,135.000000894069,0|8,0:0|0:0,0:0:0:0:
72,260,96570,1,0,0:0:0:0:
176,284,97021,1,0,0:0:0:0:
244,200,97472,1,0,0:0:0:0:
228,92,97923,5,4,0:0:0:0:
344,104,98374,2,0,P|392:120|424:152,1,90.000000596046,8|0,0:0|0:0,0:0:0:0:
332,208,99276,2,0,P|300:256|268:272,1,90.000000596046,8|0,0:0|0:0,0:0:0:0:
168,300,100179,1,8,0:0:0:0:
88,228,100630,2,0,L|72:136,1,90.000000596046,4|12,0:0|0:0,0:0:0:0:
152,68,101532,5,8,0:0:0:0:
368,64,102434,2,0,P|448:80|472:168,1,180.000001192092,2|8,0:0|0:0,0:0:0:0:
328,328,104239,1,0,0:0:0:0:
232,368,104690,1,0,0:0:0:0:
128,336,105141,6,0,P|120:296|148:152,1,180.000001192092,8|0,0:0|0:0,0:0:0:0:
232,96,106495,1,0,0:0:0:0:
336,128,106946,2,0,P|392:80|460:84,2,135.000000894069,8|0|0,0:0|0:0|0:0,0:0:0:0:
428,188,108750,6,0,P|392:228|356:244,1,90.000000596046,4|2,0:0|0:0,0:0:0:0:
296,324,109652,2,0,P|264:284|256:244,1,90.000000596046,0|2,0:0|0:0,0:0:0:0:
232,140,110555,1,0,0:0:0:0:
312,68,111006,1,2,0:0:0:0:
404,124,111457,2,0,P|456:160|476:192,1,90.000000596046,0|2,0:0|0:0,0:0:0:0:
368,228,112359,6,0,B|304:291,1,90.000000596046,4|2,0:0|0:0,0:0:0:0:
152,240,113487,2,0,B|216:176,1,90.000000596046,4|2,0:0|0:0,0:0:0:0:
120,208,115968,6,0,P|112:168|128:112,1,90.000000596046,6|8,0:0|0:0,0:0:0:0:
200,48,116870,1,2,0:0:0:0:
280,120,117322,1,8,0:0:0:0:
380,80,117773,2,0,P|388:120|372:176,1,90.000000596046,6|8,0:0|0:0,0:0:0:0:
320,260,118675,1,2,0:0:0:0:
216,220,119126,1,8,0:0:0:0:
176,320,119577,6,0,P|136:296|112:256,1,90.000000596046,6|8,0:0|0:0,0:0:0:0:
72,160,120479,1,2,0:0:0:0:
116,60,120931,1,8,0:0:0:0:
220,36,121382,2,0,P|300:52|340:100,2,135.000000894069,4|2|0,0:0|0:0|0:0,0:0:0:0:
240,144,123186,6,0,L|207:238,1,90.000000596046,8|0,0:0|0:0,0:0:0:0:
288,320,124089,2,0,P|328:308|368:280,1,90.000000596046
420,188,124991,1,4,0:0:0:0:
352,104,125442,1,0,0:0:0:0:
256,56,125893,2,0,P|198:59|164:86,1,90.000000596046
232,168,126795,6,0,L|160:224,1,90.000000596046,2|8,0:0|0:0,0:0:0:0:
104,320,127698,2,0,L|175:375,1,90.000000596046,2|8,0:0|0:0,0:0:0:0:
248,296,128600,2,0,L|392:272,2,135.000000894069
152,248,130404,5,4,0:0:0:0:
48,272,130855,2,0,P|54:229|86:173,1,90.000000596046,8|2,0:0|0:0,0:0:0:0:
120,88,131758,1,8,0:0:0:0:
208,152,132209,2,0,P|264:120|312:120,1,90.000000596046,6|10,0:0|0:0,0:0:0:0:
392,136,133111,1,2,0:0:0:0:
432,240,133562,1,8,0:0:0:0:
320,280,134013,6,0,L|216:280,1,90.000000596046,6|8,0:0|0:0,0:0:0:0:
120,280,134916,2,0,L|96:192,1,90.000000596046,2|2,0:0|0:0,0:0:0:0:
176,120,135818,6,0,P|208:88|256:72,1,90.000000596046,12|2,0:0|0:0,0:0:0:0:
272,176,136720,1,8,0:0:0:0:
312,272,137171,1,2,0:0:0:0:
216,320,137622,6,0,L|144:264,1,90.000000596046,2|8,0:0|0:0,0:0:0:0:
104,168,138525,2,0,L|200:144,1,90.000000596046,2|8,0:0|0:0,0:0:0:0:
280,80,139427,1,2,0:0:0:0:
376,136,139878,2,0,L|392:232,1,90.000000596046,8|2,0:0|0:0,0:0:0:0:
200,320,141231,6,0,L|120:280,1,90.000000596046,2|8,0:0|0:0,0:0:0:0:
112,168,142134,2,0,L|200:128,1,90.000000596046,2|8,0:0|0:0,0:0:0:0:
304,128,143036,1,2,0:0:0:0:
256,224,143487,2,0,L|320:296,1,90.000000596046,8|2,0:0|0:0,0:0:0:0:
412,240,144389,2,0,P|420:192|404:152,1,90.000000596046,8|4,0:0|0:0,0:0:0:0:
232,296,145743,6,0,B|176:304|144:280|144:280|136:240|168:192,1,180.000001192092,0|2,0:0|0:0,0:0:0:0:
224,112,147096,1,2,0:0:0:0:
256,192,147547,12,0,150254,0:0:0:0:
104,216,152058,5,2,0:0:0:0:
312,160,152961,1,4,0:0:0:0:
248,248,153412,1,0,0:0:0:0:
184,344,153863,6,0,P|272:360|344:312,1,180.000001192092,2|4,0:0|0:0,0:0:0:0:
424,112,155667,1,2,0:0:0:0:
216,48,156570,1,4,0:0:0:0:
128,112,157021,1,0,0:0:0:0:
40,176,157472,6,0,P|136:216|216:176,1,180.000001192092,0|4,0:0|0:0,0:0:0:0:
352,32,159276,1,2,0:0:0:0:
480,200,160179,1,4,0:0:0:0:
400,272,160630,1,0,0:0:0:0:
320,344,161081,6,0,P|232:344|168:280,1,180.000001192092,2|4,0:0|0:0,0:0:0:0:
228,76,162886,1,2,0:0:0:0:
408,196,163788,1,4,0:0:0:0:
348,284,164239,1,0,0:0:0:0:
424,184,171908,6,0,P|392:224|352:256,1,90.000000596046
296,328,172810,2,0,P|256:295|224:256,1,90.000000596046,4|0,0:0|0:0,0:0:0:0:
168,176,173713,1,2,0:0:0:0:
328,32,174615,1,4,0:0:0:0:
320,248,175517,6,0,P|353:218|381:183,1,90.000000596046
424,80,176419,2,0,P|381:65|337:59,1,90.000000596046,4|0,0:0|0:0,0:0:0:0:
232,80,177322,1,0,0:0:0:0:
168,136,179126,6,0,P|160:224|232:280,1,180.000001192092,4|0,0:0|0:0,0:0:0:0:
440,248,180931,1,4,0:0:0:0:
360,48,181833,1,0,0:0:0:0:
152,96,182735,6,0,P|84:152|95:243,1,180.000001192092,4|0,0:0|0:0,0:0:0:0:
280,344,184540,1,4,0:0:0:0:
464,232,185442,1,0,0:0:0:0:
400,104,186344,6,0,P|360:128|328:168,1,90.000000596046,2|0,0:0|0:0,0:0:0:0:
320,272,187246,2,0,P|280:304|240:320,1,90.000000596046
136,296,188149,1,4,0:0:0:0:
184,200,188600,1,0,0:0:0:0:
72,192,189051,2,8,P|96:136|120:104,1,90.000000596046,0|2,0:0|0:0,0:0:0:0:
288,80,189953,6,0,L|384:104,1,90.000000596046
384,208,190855,2,0,L|288:232,1,90.000000596046
200,176,191758,2,0,L|112:232,2,90.000000596046
384,72,193562,5,4,0:0:0:0:
416,176,194013,2,0,P|360:176|328:160,1,90.000000596046,8|2,0:0|0:0,0:0:0:0:
256,80,194916,1,8,0:0:0:0:
184,160,195367,2,0,P|176:224|192:256,1,90.000000596046,6|8,0:0|0:0,0:0:0:0:
248,336,196269,1,2,0:0:0:0:
336,272,196720,1,8,0:0:0:0:
424,336,197171,6,0,P|440:288|440:248,1,90.000000596046,6|8,0:0|0:0,0:0:0:0:
432,144,198073,1,2,0:0:0:0:
376,56,198525,1,0,0:0:0:0:
296,128,198976,2,0,P|256:168|216:192,1,90.000000596046,4|0,0:0|0:0,0:0:0:0:
128,144,199878,2,0,P|80:192|64:224,1,90.000000596046
112,312,200780,6,0,P|160:328|208:320,1,90.000000596046,2|8,0:0|0:0,0:0:0:0:
296,280,201683,1,0,0:0:0:0:
392,320,202134,1,8,0:0:0:0:
464,240,202585,2,0,P|456:176|448:144,1,90.000000596046,2|8,0:0|0:0,0:0:0:0:
416,48,203487,1,2,0:0:0:0:
328,104,203938,1,8,0:0:0:0:
240,48,204389,6,0,P|208:80|192:128,1,90.000000596046,0|8,0:0|0:0,0:0:0:0:
216,224,205292,1,0,0:0:0:0:
160,312,205743,1,8,0:0:0:0:
56,296,206194,2,0,P|48:240|56:200,1,90.000000596046,0|8,0:0|0:0,0:0:0:0:
88,104,207096,1,0,0:0:0:0:
184,64,207547,1,8,0:0:0:0:
280,112,207998,5,4,0:0:0:0:
480,192,208901,1,0,0:0:0:0:
448,296,209352,1,0,0:0:0:0:
336,320,209803,2,0,B|248:296|248:296|232:248|168:248,1,180.000001192092,2|0,0:0|0:0,3:0:0:0:
72,256,211156,1,0,0:0:0:0:
84,148,211607,5,0,0:0:0:0:
288,84,212510,1,2,0:0:0:0:
256,192,213186,12,0,215216,0:0:0:0:
