osu file format v14

[General]
AudioFilename: audio.mp3
AudioLeadIn: 0
PreviewTime: 18582
Countdown: 0
SampleSet: Soft
StackLeniency: 0.2
Mode: 0
LetterboxInBreaks: 0
WidescreenStoryboard: 0

[Editor]
DistanceSpacing: 0.3
BeatDivisor: 8
GridSize: 4
TimelineZoom: 1.200006

[Metadata]
Title:Mama jabet bebe
TitleUnicode:ماما تجبت بيبي
Artist:Toyor el jannah
ArtistUnicode:طيور الجننه
Creator:LegendofWarior
Version:My mother brought a BABY!
Source:
Tags:Arab, toyor el jannah, mother, brough, a baby, female vocals / singing, video
BeatmapID:1988586
BeatmapSetID:952315

[Difficulty]
HPDrainRate:6.5
CircleSize:4.1
OverallDifficulty:8.5
ApproachRate:9.3
SliderMultiplier:3.57
SliderTickRate:1

[Events]
//Background and Video events
0,0,"maxresdefault (1).jpg",0,0
Video,0,"mama jabet bebe.mp4"
//Break Periods
//Storyboard Layer 0 (Background)
//Storyboard Layer 1 (Fail)
//Storyboard Layer 2 (Pass)
//Storyboard Layer 3 (Foreground)
//Storyboard Sound Samples

[TimingPoints]
15999,666.666666666667,4,2,0,60,1,0
15999,-100,4,2,0,60,0,0
18665,-71.4285714285714,4,2,0,60,0,0
19915,-71.4285714285714,4,2,0,5,0,0
19998,-71.4285714285714,4,2,0,60,0,0
22582,-71.4285714285714,4,2,0,5,0,0
22665,-71.4285714285714,4,2,0,60,0,0
25248,-71.4285714285714,4,2,0,5,0,0
25332,-71.4285714285714,4,2,0,60,0,0
27915,-71.4285714285714,4,2,0,5,0,0
27998,-71.4285714285714,4,2,0,60,0,0
29332,-86.9565217391304,4,2,0,60,0,0
34665,-71.4285714285714,4,2,0,60,0,0
39999,-86.9565217391304,4,2,0,60,0,0
44582,-86.9565217391304,4,2,0,5,0,0
44665,-86.9565217391304,4,2,0,60,0,0
45332,-71.4285714285714,4,2,0,60,0,0
46582,-71.4285714285714,4,2,0,5,0,0
46665,-71.4285714285714,4,2,0,60,0,0
49249,-71.4285714285714,4,2,0,5,0,0
49332,-71.4285714285714,4,2,0,60,0,0
51915,-71.4285714285714,4,2,0,5,0,0
51999,-71.4285714285714,4,2,0,60,0,0
54582,-71.4285714285714,4,2,0,5,0,0
54665,-71.4285714285714,4,2,0,60,0,0
55999,-86.9565217391304,4,2,0,60,0,0
57249,-86.9565217391304,4,2,0,5,0,0
57332,-86.9565217391304,4,2,0,60,0,0

[Colours]
Combo1 : 65,48,222
Combo2 : 170,15,15
Combo3 : 168,150,19
Combo4 : 28,123,35

[HitObjects]
115,166,15998,6,0,L|99:260,1,89.25
215,334,16332,2,0,L|199:240,1,89.25
181,109,16665,2,0,P|132:82|69:98,1,89.25
282,57,16998,2,0,P|335:41|368:-14,1,89.25
362,30,17248,1,0,0:0:0:0:
367,42,17332,2,0,B|382:67|382:67|362:134,1,89.25
452,239,17665,2,0,B|437:214|437:214|457:147,1,89.25
399,305,17998,2,0,P|449:327|499:305,1,89.25
481,146,18332,1,0,0:0:0:0:
454,156,18665,6,0,B|378:124|314:155|353:173|274:218|210:164,1,249.899992373657
132,78,19165,1,0,0:0:0:0:
66,310,19332,2,0,P|96:251|76:162,1,124.949996186829
14,50,19665,2,0,B|61:22|61:22|211:51,1,187.424994280243
211,27,19998,2,0,L|345:2,1,124.949996186829
481,146,20332,2,0,L|347:121,1,124.949996186829
242,209,20665,2,0,B|260:183|260:183|167:203,1,124.949996186829
162,220,20915,1,0,0:0:0:0:
155,237,20998,1,0,0:0:0:0:
25,337,21165,1,0,0:0:0:0:
32,320,21248,1,0,0:0:0:0:
42,304,21332,6,0,B|62:204|62:204|35:145|35:145|65:40,1,249.899992373657
211,27,21832,1,0,0:0:0:0:
291,268,21998,2,0,L|246:134,1,124.949996186829
384,267,22332,2,0,P|338:349|221:324,1,187.424994280243
224,376,22665,2,0,P|160:349|81:357,1,124.949996186829
15,213,22998,2,0,P|79:186|129:125,1,124.949996186829
211,27,23332,2,0,L|256:161,1,124.949996186829
268,152,23582,1,0,0:0:0:0:
285,158,23665,1,0,0:0:0:0:
485,36,23832,1,0,0:0:0:0:
478,53,23915,1,0,0:0:0:0:
468,69,23999,6,0,B|445:238|445:238|425:131,1,249.899992373657
356,29,24498,1,0,0:0:0:0:
176,255,24665,2,0,P|243:241|309:298,1,124.949996186829
60,341,24998,2,0,P|87:238|67:140,1,187.424994280243
94,141,25332,2,0,P|95:75|117:7,1,124.949996186829
303,282,25665,2,0,P|302:216|280:148,1,124.949996186829
239,354,25998,2,0,P|307:380|376:342,1,124.949996186829
370,354,26248,1,0,0:0:0:0:
386,344,26332,1,0,0:0:0:0:
503,191,26498,1,0,0:0:0:0:
485,183,26582,1,0,0:0:0:0:
467,175,26665,6,0,P|345:126|218:158,1,249.899992373657
176,255,27165,1,0,0:0:0:0:
71,49,27332,2,0,P|85:107|64:180,1,124.949996186829
250,14,27665,2,0,P|236:72|294:183,1,187.424994280243
299,202,27998,2,0,B|331:181|331:181|444:212,1,124.949996186829
501,345,28332,2,0,B|469:366|469:366|356:335,1,124.949996186829
214,187,28665,2,0,P|219:250|279:284,1,124.949996186829
260,300,28915,1,0,0:0:0:0:
253,317,28998,1,0,0:0:0:0:
77,342,29165,1,0,0:0:0:0:
71,324,29248,1,0,0:0:0:0:
66,305,29332,6,0,P|80:256|70:189,1,102.637501957655
191,71,29665,2,0,P|177:120|187:187,1,102.637501957655
352,208,29998,2,0,P|327:163|272:123,1,102.637501957655
294,286,30332,2,0,P|343:300|410:289,1,102.637501957655
491,120,30665,2,0,L|512:249,1,102.637501957655
412,8,30998,2,0,L|391:137,1,102.637501957655
352,208,31332,1,0,0:0:0:0:
285,126,31498,1,0,0:0:0:0:
290,111,31582,1,0,0:0:0:0:
295,96,31665,1,0,0:0:0:0:
181,41,31832,1,0,0:0:0:0:
186,56,31916,1,0,0:0:0:0:
191,71,31998,6,0,B|149:58|149:58|55:102,1,102.637501957655
31,260,32332,2,0,B|69:239|69:239|105:141,1,102.637501957655
229,255,32665,2,0,L|268:365,1,102.637501957655
257,178,32999,2,0,P|181:182|152:217,1,102.637501957655
393,295,33332,2,0,P|469:291|498:256,1,102.637501957655
383,111,33665,2,0,L|344:221,1,102.637501957655
281,335,33999,1,0,0:0:0:0:
257,178,34165,1,0,0:0:0:0:
255,162,34249,1,0,0:0:0:0:
253,146,34332,1,0,0:0:0:0:
138,297,34499,1,0,0:0:0:0:
136,313,34583,1,0,0:0:0:0:
132,334,34665,6,0,L|-2:346,1,124.949996186829
132,166,34999,2,0,L|266:178,1,124.949996186829
59,211,35332,2,0,P|48:135|84:89,1,124.949996186829
65,80,35582,1,0,0:0:0:0:
58,62,35665,1,0,0:0:0:0:
201,209,35832,1,0,0:0:0:0:
263,21,35999,2,0,L|252:147,1,124.949996186829
409,0,36332,2,0,L|420:126,1,124.949996186829
504,256,36665,2,0,P|447:290|372:270,1,124.949996186829
375,293,36915,1,0,0:0:0:0:
359,304,36999,1,0,0:0:0:0:
138,297,37165,1,0,0:0:0:0:
154,286,37249,1,0,0:0:0:0:
170,275,37332,6,0,L|200:130,1,124.949996186829
335,79,37665,2,0,L|365:224,1,124.949996186829
376,211,37915,1,0,0:0:0:0:
391,221,37999,1,0,0:0:0:0:
410,29,38165,1,0,0:0:0:0:
395,19,38249,1,0,0:0:0:0:
380,9,38332,2,0,P|309:-2|257:49,1,124.949996186829
83,170,38665,2,0,P|154:181|206:130,1,124.949996186829
189,133,38915,1,0,0:0:0:0:
184,114,38999,1,0,0:0:0:0:
274,243,39165,1,0,0:0:0:0:
416,98,39332,2,0,L|386:243,1,124.949996186829
407,228,39582,1,0,0:0:0:0:
423,235,39665,1,0,0:0:0:0:
278,329,39832,1,0,0:0:0:0:
262,336,39915,1,0,0:0:0:0:
246,343,39999,6,0,P|183:338|148:289,1,102.637501957655
194,152,40332,2,0,P|235:200|225:259,1,102.637501957655
83,170,40665,2,0,P|88:107|137:71,1,102.637501957655
106,67,40915,1,0,0:0:0:0:
98,53,40999,1,0,0:0:0:0:
194,152,41165,1,0,0:0:0:0:
269,32,41332,2,0,B|294:65|294:65|266:137,1,102.637501957655
408,141,41665,2,0,B|383:174|383:174|411:246,1,102.637501957655
493,120,41999,2,0,P|462:72|390:65,1,102.637501957655
415,44,42249,1,0,0:0:0:0:
410,29,42332,1,0,0:0:0:0:
269,32,42499,1,0,0:0:0:0:
264,47,42582,1,0,0:0:0:0:
259,60,42665,6,0,L|243:184,1,102.637501957655
136,222,42999,1,0,0:0:0:0:
121,227,43082,1,0,0:0:0:0:
106,232,43165,1,0,0:0:0:0:
3,348,43332,2,0,P|59:327|113:357,1,102.637501957655
112,338,43582,1,0,0:0:0:0:
127,335,43665,1,0,0:0:0:0:
261,301,43832,1,0,0:0:0:0:
276,306,43915,1,0,0:0:0:0:
291,311,43999,2,0,P|347:332|401:302,1,102.637501957655
493,120,44332,2,0,B|525:146|525:146|493:280,1,153.956252936482
472,234,44665,2,0,P|416:213|362:243,1,102.637501957655
363,222,44915,1,0,0:0:0:0:
348,216,44999,2,0,B|268:200|268:200|283:248,1,102.637501957655
136,222,45249,1,0,0:0:0:0:
149,208,45332,6,0,P|192:120|92:18,1,249.899992373657
10,156,45832,1,0,0:0:0:0:
7,348,45999,2,0,P|51:287|29:215,1,124.949996186829
265,120,46332,2,0,B|250:76|250:76|94:131,1,187.424994280243
92,112,46665,2,0,B|122:16|122:16|84:47,1,124.949996186829
348,117,46999,2,0,P|319:189|255:200,1,124.949996186829
466,25,47332,2,0,P|496:96|458:149,1,124.949996186829
481,153,47582,1,0,0:0:0:0:
484,171,47665,1,0,0:0:0:0:
319,317,47832,1,0,0:0:0:0:
322,299,47915,1,0,0:0:0:0:
325,281,47999,6,0,B|235:253|235:253|167:266|167:266|73:247,1,249.899992373657
10,156,48499,1,0,0:0:0:0:
275,100,48665,2,0,L|123:132,1,124.949996186829
327,172,48999,2,0,P|372:88|291:19,1,187.424994280243
304,8,49332,2,0,L|152:40,1,124.949996186829
163,27,49582,1,0,0:0:0:0:
145,20,49665,2,0,L|-7:52,1,124.949996186829
10,156,49999,2,0,L|162:188,1,124.949996186829
147,193,50249,1,0,0:0:0:0:
161,204,50332,1,0,0:0:0:0:
311,292,50499,1,0,0:0:0:0:
325,281,50582,1,0,0:0:0:0:
339,270,50665,6,0,B|313:216|313:216|401:18,1,249.899992373657
240,128,51165,1,0,0:0:0:0:
512,238,51332,2,0,P|449:204|376:230,1,124.949996186829
191,334,51665,2,0,P|233:238|216:151,1,187.424994280243
240,128,51999,2,0,L|85:93,1,124.949996186829
14,275,52332,2,0,L|169:240,1,124.949996186829
45,20,52665,2,0,L|10:175,1,124.949996186829
32,153,52915,1,0,0:0:0:0:
47,164,52999,1,0,0:0:0:0:
191,334,53165,1,0,0:0:0:0:
206,323,53249,1,0,0:0:0:0:
221,312,53332,6,0,B|292:255|368:300|337:310|405:362|467:295,1,249.899992373657
388,198,53832,1,0,0:0:0:0:
469,35,53999,2,0,L|482:188,1,124.949996186829
310,0,54332,2,0,L|291:234,1,187.424994280243
274,209,54665,2,0,B|243:177|243:177|108:190,1,124.949996186829
14,275,54999,2,0,B|45:307|45:307|180:294,1,124.949996186829
38,40,55332,2,0,L|51:193,1,124.949996186829
61,177,55582,1,0,0:0:0:0:
74,190,55665,1,0,0:0:0:0:
194,94,55832,1,0,0:0:0:0:
181,81,55915,1,0,0:0:0:0:
162,66,55999,6,0,P|212:58|257:9,1,102.637501957655
324,82,56332,2,0,P|374:90|419:139,1,102.637501957655
362,296,56665,2,0,P|332:254|335:188,1,102.637501957655
320,192,56915,1,0,0:0:0:0:
310,179,56999,2,0,B|187:171|187:171|225:201,1,153.956252936482
199,216,57332,2,0,P|178:272|180:335,1,102.637501957655
75,190,57665,2,0,P|50:135|4:92,1,102.637501957655
247,12,57999,2,0,P|192:36|149:82,1,102.637501957655
170,78,58249,1,0,0:0:0:0:
179,90,58332,1,0,0:0:0:0:
91,218,58499,5,0,0:0:0:0:
83,204,58582,1,0,0:0:0:0:
72,187,58665,2,0,P|136:177|190:164,1,102.637501957655
337,269,58999,2,0,P|273:259|219:246,1,102.637501957655
393,203,59332,2,0,P|427:258|418:318,1,102.637501957655
296,357,59665,2,0,P|310:294|359:258,1,102.637501957655
484,169,59999,2,0,P|429:203|368:194,1,102.637501957655
224,79,60332,2,0,P|286:93|322:142,1,102.637501957655
206,259,60665,2,0,P|172:204|181:143,1,102.637501957655
157,162,60915,1,0,0:0:0:0:
142,157,60999,1,0,0:0:0:0:
