osu file format v14

[General]
AudioFilename: audio.mp3
AudioLeadIn: 0
PreviewTime: 45968
Countdown: 0
SampleSet: Soft
StackLeniency: 0.7
Mode: 0
LetterboxInBreaks: 0
WidescreenStoryboard: 1

[Editor]
DistanceSpacing: 0.5
BeatDivisor: 4
GridSize: 4
TimelineZoom: 1.2

[Metadata]
Title:Wagon
TitleUnicode:ワゴン
Artist:Toyama Nao
ArtistUnicode:東山奈央
Creator:_kotachi_
Version:dahkjdas' Expert
Source:
Tags:dahkjdas EnuHQ Shikibe Mayu kazato Asa Shizuku- Lemaire Repl4y -Magic- touyama jpop j-pop pop japanese 冷めない魔法 Samenai Mahou
BeatmapID:3418890
BeatmapSetID:1669004

[Difficulty]
HPDrainRate:5
CircleSize:3.8
OverallDifficulty:8.8
ApproachRate:9.3
SliderMultiplier:1.85
SliderTickRate:1

[Events]
//Background and Video events
0,0,"BG.jpg",0,0
//Break Periods
2,34590,37898
2,95172,98496
2,124299,131991
2,142939,146846
//Storyboard Layer 0 (Background)
//Storyboard Layer 1 (Fail)
//Storyboard Layer 2 (Pass)
//Storyboard Layer 3 (Foreground)
//Storyboard Layer 4 (Overlay)
//Storyboard Sound Samples

[TimingPoints]
604,291.26213592233,4,2,1,50,1,0
604,-166.666666666667,4,2,1,50,0,0
3807,-95.2380952380952,4,2,1,50,0,0
3953,-95.2380952380952,4,2,1,70,0,0
5264,-95.2380952380952,4,2,1,70,0,0
5482,-95.2380952380952,4,2,1,5,0,0
5555,-95.2380952380952,4,2,1,70,0,0
7812,-95.2380952380952,4,2,1,70,0,0
7885,-95.2380952380952,4,2,1,70,0,0
10142,-95.2380952380952,4,2,1,5,0,0
10215,-95.2380952380952,4,2,1,70,0,0
13273,-95.2380952380952,4,2,2,70,0,0
13565,-95.2380952380952,4,2,1,70,0,0
15312,-166.666666666667,4,2,1,70,0,0
15603,-166.666666666667,4,2,1,5,0,0
15749,-111.111111111111,4,2,1,60,0,0
15968,-111.111111111111,4,2,1,5,0,0
16040,-111.111111111111,4,2,1,60,0,0
18006,-111.111111111111,4,2,1,5,0,0
18079,-111.111111111111,4,2,1,60,0,0
19463,-111.111111111111,4,2,1,5,0,0
19536,-111.111111111111,4,2,1,60,0,0
20409,-100,4,2,1,70,0,0
20846,-100,4,2,2,70,0,0
21065,-100,4,2,2,5,0,0
21137,-100,4,2,1,70,0,0
22958,-100,4,2,1,5,0,0
23031,-100,4,2,1,70,0,0
23904,-100,4,2,2,70,0,0
24050,-100,4,2,1,70,0,0
25070,-111.111111111111,4,2,1,60,0,0
25288,-111.111111111111,4,2,1,5,0,0
25361,-111.111111111111,4,2,1,60,0,0
28565,-111.111111111111,4,2,1,60,0,0
29438,-100,4,2,1,60,0,0
29730,-100,4,2,1,70,0,0
30167,-100,4,2,2,70,0,0
30385,-100,4,2,2,5,0,0
30458,-100,4,2,1,70,0,0
32278,-100,4,2,1,5,0,0
32351,-100,4,2,1,70,0,0
33225,-133.333333333333,4,2,1,70,0,0
34390,-166.666666666667,4,2,1,40,0,0
38468,-166.666666666667,4,2,1,40,0,0
39050,-133.333333333333,4,2,1,50,0,0
43710,-133.333333333333,4,2,1,60,0,0
45167,-111.111111111111,4,2,1,60,0,0
45458,-111.111111111111,4,2,1,60,0,0
46040,-90.9090909090909,4,2,1,75,0,1
47424,-90.9090909090909,4,2,1,5,0,1
47497,-90.9090909090909,4,2,1,75,0,1
49390,-90.9090909090909,4,2,2,75,0,1
49681,-90.9090909090909,4,2,1,75,0,1
50919,-90.9090909090909,4,2,1,5,0,1
50992,-90.9090909090909,4,2,1,75,0,1
51866,-90.9090909090909,4,2,2,75,0,1
52084,-90.9090909090909,4,2,2,5,0,1
52157,-90.9090909090909,4,2,1,75,0,1
53249,-90.9090909090909,4,2,1,5,0,1
53322,-90.9090909090909,4,2,1,75,0,1
54196,-90.9090909090909,4,2,2,75,0,1
54269,-90.9090909090909,4,2,1,75,0,1
54633,-80,4,2,2,75,0,1
54705,-80,4,2,2,5,0,1
54924,-80,4,2,2,75,0,1
54997,-80,4,2,2,5,0,1
55215,-90.9090909090909,4,2,1,75,0,1
56744,-90.9090909090909,4,2,1,5,0,1
56817,-90.9090909090909,4,2,1,75,0,1
57036,-90.9090909090909,4,2,1,5,0,1
57108,-90.9090909090909,4,2,1,75,0,1
58710,-90.9090909090909,4,2,2,75,0,1
59002,-90.9090909090909,4,2,1,75,0,1
61186,-90.9090909090909,4,2,2,75,0,1
61332,-90.9090909090909,4,2,1,75,0,1
62060,-133.333333333333,4,2,1,75,0,1
62642,-80,4,2,2,75,0,1
62861,-80,4,2,2,5,0,1
62934,-80,4,2,2,75,0,1
63152,-80,4,2,2,5,0,1
63225,-80,4,2,2,75,0,1
63516,-250,4,2,1,75,0,0
65555,-250,4,2,1,5,0,0
65701,-250,4,2,1,75,0,0
65846,-95.2380952380952,4,2,1,70,0,0
68176,-95.2380952380952,4,2,2,70,0,0
68322,-95.2380952380952,4,2,1,70,0,0
70725,-95.2380952380952,4,2,1,5,0,0
70798,-95.2380952380952,4,2,1,70,0,0
74002,-133.333333333333,4,2,1,70,0,0
74438,-133.333333333333,4,2,2,70,0,0
74730,-133.333333333333,4,2,2,50,0,0
75167,-111.111111111111,4,2,1,60,0,0
75458,-111.111111111111,4,2,1,60,0,0
79827,-100,4,2,1,70,0,0
80264,-100,4,2,2,70,0,0
80482,-100,4,2,2,5,0,0
80555,-100,4,2,1,70,0,0
82375,-100,4,2,1,5,0,0
82448,-100,4,2,1,70,0,0
83322,-100,4,2,2,70,0,0
83468,-100,4,2,1,70,0,0
84487,-111.111111111111,4,2,1,60,0,0
89147,-100,4,2,1,70,0,0
89584,-100,4,2,2,70,0,0
89803,-100,4,2,1,5,0,0
89875,-100,4,2,1,70,0,0
91477,-100,4,2,2,70,0,0
91696,-100,4,2,2,5,0,0
91769,-100,4,2,1,70,0,0
92642,-100,4,2,1,70,0,0
93807,-250,4,2,1,40,0,0
94171,-250,4,2,1,5,0,0
94244,-250,4,2,1,70,0,0
94390,-133.333333333333,4,2,1,70,0,0
94463,-133.333333333333,4,2,1,5,0,0
94608,-133.333333333333,4,2,1,70,0,0
94681,-133.333333333333,4,2,1,5,0,0
94827,-133.333333333333,4,2,1,70,0,0
94972,-166.666666666667,4,2,1,60,0,0
99341,-133.333333333333,4,2,2,60,0,0
99487,-133.333333333333,4,2,1,60,0,0
99633,-111.111111111111,4,2,1,70,0,0
101963,-100,4,2,1,70,0,0
104293,-133.333333333333,4,2,1,60,0,0
105167,-133.333333333333,4,2,1,60,0,0
105458,-100,4,2,1,70,0,0
105555,-100,4,2,1,5,0,0
105652,-100,4,2,1,70,0,0
105749,-100,4,2,1,5,0,0
105846,-100,4,2,1,70,0,0
106040,-200,4,2,1,70,0,0
106623,-90.9090909090909,4,2,1,75,0,1
108006,-90.9090909090909,4,2,1,5,0,1
108079,-90.9090909090909,4,2,1,75,0,1
109972,-90.9090909090909,4,2,2,75,0,1
110264,-90.9090909090909,4,2,1,75,0,1
112448,-90.9090909090909,4,2,2,75,0,1
112739,-90.9090909090909,4,2,1,75,0,1
113904,-90.9090909090909,4,2,1,75,0,1
114778,-90.9090909090909,4,2,2,75,0,1
114851,-90.9090909090909,4,2,1,75,0,1
115215,-80,4,2,2,75,0,1
115288,-80,4,2,2,5,0,1
115506,-80,4,2,2,75,0,1
115579,-80,4,2,2,5,0,1
115798,-90.9090909090909,4,2,1,75,0,1
117327,-90.9090909090909,4,2,1,5,0,1
117400,-90.9090909090909,4,2,1,75,0,1
118273,-90.9090909090909,4,2,1,75,0,1
119293,-90.9090909090909,4,2,2,75,0,1
119584,-90.9090909090909,4,2,1,75,0,1
121186,-90.9090909090909,4,2,1,75,0,1
121769,-90.9090909090909,4,2,2,75,0,1
121914,-90.9090909090909,4,2,1,75,0,1
122351,-90.9090909090909,4,2,1,75,0,1
122642,-133.333333333333,4,2,1,75,0,1
123225,-80,4,2,1,75,0,1
123443,-80,4,2,1,5,0,1
123516,-80,4,2,1,75,0,1
123735,-80,4,2,1,5,0,1
123807,-80,4,2,1,75,0,1
124099,-80,4,2,1,70,0,0
132472,-90.9090909090909,4,2,2,40,0,0
132934,-90.9090909090909,4,2,2,5,0,0
133031,-90.9090909090909,4,2,2,70,0,0
133128,-90.9090909090909,4,2,2,5,0,0
133225,-90.9090909090909,4,2,2,70,0,0
133322,-90.9090909090909,4,2,2,5,0,0
133419,-90.9090909090909,4,2,1,70,0,0
133637,-90.9090909090909,4,2,1,5,0,0
133710,-90.9090909090909,4,2,1,70,0,0
135968,-90.9090909090909,4,2,1,70,0,0
136040,-90.9090909090909,4,2,1,70,0,0
142739,-200,4,2,1,70,0,0
147400,-166.666666666667,4,2,1,50,0,0
149730,-166.666666666667,4,2,1,35,0,0
149875,-166.666666666667,4,2,1,5,0,0
150021,-142.857142857143,4,2,1,45,0,0
150167,-142.857142857143,4,2,1,5,0,0
150312,-125,4,2,1,55,0,0
150458,-125,4,2,1,5,0,0
150603,-111.111111111111,4,2,1,55,0,0
150749,-111.111111111111,4,2,1,5,0,0
150895,-90.9090909090909,4,2,1,70,0,0
150968,-90.9090909090909,4,2,1,5,0,0
151477,-133.333333333333,4,2,1,70,0,0
152060,-111.111111111111,4,2,2,70,0,0
152278,-111.111111111111,4,2,1,5,0,0
152351,-111.111111111111,4,2,1,70,0,0
152642,-111.111111111111,4,2,1,40,0,0
152788,-111.111111111111,4,2,1,50,0,0
152934,-111.111111111111,4,2,1,60,0,0
153079,-111.111111111111,4,2,1,70,0,0
153225,-90.9090909090909,4,2,1,75,0,1
155191,-90.9090909090909,4,2,1,5,0,1
155264,-90.9090909090909,4,2,1,75,0,1
156574,-90.9090909090909,4,2,2,75,0,1
156866,-90.9090909090909,4,2,1,75,0,1
159050,-90.9090909090909,4,2,2,75,0,1
159341,-90.9090909090909,4,2,1,75,0,1
161380,-90.9090909090909,4,2,2,75,0,1
161453,-90.9090909090909,4,2,1,75,0,1
161817,-80,4,2,2,75,0,1
161890,-80,4,2,2,5,0,1
162108,-80,4,2,2,75,0,1
162181,-80,4,2,2,5,0,1
162254,-80,4,2,1,75,0,1
162400,-90.9090909090909,4,2,1,75,0,1
163419,-90.9090909090909,4,2,1,75,0,1
163565,-90.9090909090909,4,2,2,75,0,1
164002,-90.9090909090909,4,2,1,75,0,1
164293,-90.9090909090909,4,2,2,75,0,1
164438,-90.9090909090909,4,2,1,75,0,1
164584,-90.9090909090909,4,2,1,75,0,1
165458,-90.9090909090909,4,2,2,75,0,1
165749,-90.9090909090909,4,2,1,75,0,1
170701,-80,4,2,1,75,0,0
171720,-133.333333333333,4,2,1,60,0,0
171866,-95.2380952380952,4,2,1,70,0,0
172084,-95.2380952380952,4,2,1,5,0,0
172157,-95.2380952380952,4,2,1,70,0,0
176744,-95.2380952380952,4,2,1,5,0,0
176817,-95.2380952380952,4,2,1,70,0,0
179875,-95.2380952380952,4,2,2,70,0,0
181477,-95.2380952380952,4,2,1,70,0,0
182205,-95.2380952380952,4,2,2,70,0,0
182351,-95.2380952380952,4,2,1,70,0,0
184536,-95.2380952380952,4,2,2,70,0,0
184827,-95.2380952380952,4,2,1,70,0,0
185773,-95.2380952380952,4,2,1,5,0,0
185846,-95.2380952380952,4,2,1,70,0,0
188176,-90.9090909090909,4,2,2,70,0,0
188249,-90.9090909090909,4,2,2,5,0,0
188613,-90.9090909090909,4,2,2,70,0,0
188686,-90.9090909090909,4,2,2,5,0,0
189050,-90.9090909090909,4,2,2,70,0,0
189123,-90.9090909090909,4,2,2,5,0,0
189487,-90.9090909090909,4,2,2,70,0,0
189560,-90.9090909090909,4,2,2,5,0,0
189924,-250,4,2,1,90,0,0
189997,-250,4,2,1,50,0,0
192837,-250,4,2,1,50,0,0
193419,-250,4,2,1,40,0,0
194002,-250,4,2,1,30,0,0
194584,-250,4,2,1,20,0,0
195021,-250,4,2,1,5,0,0

[Colours]
Combo1 : 255,223,128
Combo2 : 255,157,255
Combo3 : 255,183,219
Combo4 : 255,172,132

[HitObjects]
76,59,604,6,0,L|85:180,1,110.999996612549,2|0,0:0|0:0,0:0:0:0:
162,133,1040,1,0,0:0:0:0:
162,133,1186,2,0,P|181:96|205:79,2,55.4999983062745,2|0|0,0:0|0:0|0:0,0:0:0:0:
242,155,1623,2,0,L|364:165,1,110.999996612549,2|0,0:0|0:0,0:0:0:0:
443,244,2060,2,0,L|384:246,1,55.4999983062745
312,289,2351,2,0,L|316:357,1,55.4999983062745,2|0,0:0|0:0,0:0:0:0:
404,359,2642,1,0,0:0:0:0:
404,359,2788,1,0,0:0:0:0:
222,374,2934,6,0,L|230:251,1,110.999996612549,2|0,0:0|0:0,0:0:0:0:
282,197,3370,1,0,0:0:0:0:
282,197,3516,2,0,P|242:177|214:179,1,55.4999983062745,2|0,0:0|0:0,0:0:0:0:
30,222,3807,1,8,0:1:0:0:
17,229,3880,1,8,0:1:0:0:
3,235,3953,6,0,P|29:298|154:270,1,194.249994071961,12|8,0:0|0:0,0:0:0:0:
155,91,4390,1,8,0:0:0:0:
168,204,4536,1,8,0:1:0:0:
69,102,4681,1,8,0:0:0:0:
246,170,4827,1,8,0:0:0:0:
81,236,4972,2,0,L|26:230,1,48.5624985179902,8|8,0:0|0:0,0:0:0:0:
65,84,5118,2,0,L|56:17,1,48.5624985179902,8|8,0:0|0:0,0:0:0:0:
168,204,5264,6,0,L|180:359,1,145.68749555397,12|0,0:1|0:0,0:0:0:0:
183,373,5555,1,8,0:0:0:0:
78,316,5701,1,2,0:0:0:0:
271,232,5846,2,0,L|266:347,1,97.1249970359803,10|8,0:1|0:1,0:0:0:0:
338,157,6137,1,8,0:0:0:0:
181,282,6283,6,0,B|306:266|306:266|382:301,1,194.249994071961,10|8,0:1|0:1,0:0:0:0:
450,184,6720,1,8,0:0:0:0:
460,325,6866,1,2,0:0:0:0:
359,194,7011,2,0,P|353:131|353:73,1,97.1249970359803,10|8,0:1|0:1,0:0:0:0:
474,22,7303,1,8,0:0:0:0:
450,184,7448,1,2,0:0:0:0:
271,85,7594,6,0,P|210:91|140:38,1,145.68749555397,8|0,0:1|0:0,0:0:0:0:
130,24,7885,2,0,L|125:157,1,97.1249970359803,8|2,0:0|0:0,0:0:0:0:
224,175,8176,1,10,0:1:0:0:
53,208,8322,1,10,0:1:0:0:
241,169,8468,1,8,0:0:0:0:
91,307,8613,6,0,L|80:100,1,194.249994071961,8|8,0:1|0:1,0:0:0:0:
235,73,9050,1,8,0:0:0:0:
126,193,9196,1,8,0:1:0:0:
293,150,9341,1,8,0:0:0:0:
146,54,9487,1,8,0:1:0:0:
188,249,9633,1,8,0:0:0:0:
367,182,9778,1,8,0:0:0:0:
379,175,9851,1,8,0:0:0:0:
391,168,9924,6,0,L|398:326,1,145.68749555397,12|0,0:1|0:0,0:0:0:0:
399,337,10215,1,8,0:0:0:0:
485,244,10361,1,2,0:0:0:0:
307,296,10506,2,0,P|248:285|219:240,1,97.1249970359803,10|8,0:1|0:1,0:0:0:0:
234,119,10798,1,8,0:0:0:0:
439,144,10943,6,0,P|389:127|296:214,1,194.249994071961,10|10,0:1|0:1,0:0:0:0:
304,61,11380,1,8,0:0:0:0:
392,217,11526,1,2,0:0:0:0:
202,241,11671,2,0,L|208:138,1,97.1249970359803,10|8,0:1|0:1,0:0:0:0:
213,60,11963,1,8,0:0:0:0:
369,219,12108,1,2,0:0:0:0:
185,321,12254,6,0,P|130:306|129:180,1,194.249994071961,12|8,0:1|0:0,0:0:0:0:
300,109,12691,1,2,0:0:0:0:
139,172,12837,1,10,0:1:0:0:
306,123,12982,1,8,0:1:0:0:
154,158,13128,1,8,0:0:0:0:
289,273,13273,6,0,L|496:268,1,194.249994071961,12|8,0:1|0:1,0:0:0:0:
483,268,13637,1,8,0:1:0:0:
483,268,13710,1,8,0:0:0:0:
368,231,13856,1,8,0:0:0:0:
368,231,13929,1,8,0:0:0:0:
368,231,14002,1,8,0:0:0:0:
472,158,14147,1,8,0:0:0:0:
282,186,14293,1,8,0:0:0:0:
489,155,14438,1,8,0:0:0:0:
324,110,14584,5,8,0:3:0:0:
476,65,14730,1,8,0:3:0:0:
453,258,14875,1,4,0:3:0:0:
411,116,15021,1,4,0:3:0:0:
411,116,15094,1,8,0:1:0:0:
411,116,15167,1,8,0:1:0:0:
312,267,15312,2,0,P|271:269|186:281,1,110.999996612549,12|0,0:0|0:0,0:0:0:0:
46,175,15749,6,0,P|81:207|168:195,1,124.874996189118,12|0,0:1|0:0,0:0:0:0:
169,189,16040,2,0,L|175:81,1,83.2499974594117,8|0,0:0|0:0,0:0:0:0:
339,264,16332,2,0,L|334:166,1,83.2499974594117,10|8,0:1|0:1,0:0:0:0:
325,94,16623,1,8,0:0:0:0:
252,221,16769,1,2,0:0:0:0:
325,94,16914,2,0,L|320:-4,1,83.2499974594117,10|0,0:1|0:0,0:0:0:0:
412,193,17205,6,0,B|349:197|349:197|318:216|318:216|237:222,1,166.499994918823,8|8,0:0|0:1,0:0:0:0:
90,172,17642,1,8,0:1:0:0:
168,270,17788,2,0,L|178:125,1,124.874996189118,8|0,0:0|0:0,0:0:0:0:
180,124,18079,5,10,0:1:0:0:
91,79,18225,1,2,0:0:0:0:
252,62,18370,2,0,P|265:105|263:154,1,83.2499974594117,8|2,0:0|0:0,0:0:0:0:
170,30,18662,1,10,0:1:0:0:
170,30,18807,1,8,0:1:0:0:
351,132,18953,2,0,P|344:176|322:220,1,83.2499974594117,8|0,0:0|0:1,0:0:0:0:
256,273,19244,6,0,P|184:277|112:284,1,124.874996189118,8|0,0:1|0:0,0:0:0:0:
112,291,19536,2,0,P|46:281|5:271,1,83.2499974594117,8|0,0:0|0:1,0:0:0:0:
145,192,19827,1,10,0:1:0:0:
13,275,19972,1,10,0:1:0:0:
167,365,20118,1,8,0:0:0:0:
68,212,20264,1,8,0:0:0:0:
62,201,20336,1,8,0:0:0:0:
56,189,20409,6,0,P|45:115|39:-20,1,185,12|8,0:1|0:0,0:0:0:0:
265,67,20846,2,0,P|233:106|135:93,1,138.75,12|0,0:1|0:0,0:0:0:0:
130,92,21137,1,8,0:1:0:0:
299,175,21283,1,8,0:0:0:0:
63,267,21429,6,0,P|113:213|224:229,1,185,12|8,0:1|0:1,0:0:0:0:
293,369,21866,5,8,0:0:0:0:
154,296,22011,1,0,0:0:0:0:
299,175,22157,2,0,P|304:238|306:287,1,92.5,10|8,0:1|0:1,0:0:0:0:
199,374,22448,2,0,P|204:299|209:245,1,92.5,8|0,0:0|0:0,0:0:0:0:
387,219,22739,6,0,P|452:214|504:271,1,138.75,12|0,0:1|0:0,0:0:0:0:
503,286,23031,1,8,0:0:0:0:
499,143,23176,1,0,0:0:0:0:
418,298,23322,1,10,0:1:0:0:
302,189,23468,1,8,0:1:0:0:
418,298,23613,2,0,L|431:172,1,92.5,10|0,0:0|0:0,0:0:0:0:
440,70,23904,5,12,0:1:0:0:
270,98,24050,1,10,0:1:0:0:
458,65,24196,1,8,0:0:0:0:
311,5,24341,1,8,0:0:0:0:
311,5,24414,1,8,0:0:0:0:
311,5,24487,1,8,0:0:0:0:
355,157,24633,1,8,0:0:0:0:
212,175,24778,1,8,0:0:0:0:
357,72,24924,1,8,0:0:0:0:
378,261,25070,6,0,P|309:265|236:275,1,124.874996189118,12|0,0:1|0:0,0:0:0:0:
233,276,25361,1,8,0:0:0:0:
330,348,25506,1,0,0:0:0:0:
286,189,25652,1,10,0:1:0:0:
159,290,25798,1,8,0:1:0:0:
286,189,25943,2,0,P|299:121|305:78,1,83.2499974594117,8|2,0:0|0:0,0:0:0:0:
185,20,26235,6,0,P|172:88|166:131,1,83.2499974594117,10|0,0:1|0:0,0:0:0:0:
39,160,26526,2,0,B|139:150|90:200|197:191,1,166.499994918823,8|8,0:0|0:1,0:0:0:0:
376,167,26963,1,8,0:1:0:0:
260,274,27108,2,0,P|212:285|174:285,1,83.2499974594117,8|0,0:0|0:0,0:0:0:0:
23,239,27400,5,10,0:1:0:0:
23,239,27545,1,2,0:0:0:0:
99,377,27691,2,0,P|93:310|91:259,1,83.2499974594117,8|2,0:0|0:0,0:0:0:0:
197,190,27982,1,10,0:1:0:0:
89,274,28128,1,8,0:1:0:0:
236,359,28273,2,0,P|294:351|346:348,1,83.2499974594117,8|0,0:0|0:0,0:0:0:0:
399,214,28565,5,8,0:1:0:0:
274,261,28710,1,8,0:1:0:0:
429,340,28856,1,8,0:0:0:0:
290,263,29002,1,8,0:1:0:0:
447,168,29147,2,0,L|436:280,1,83.2499974594117,8|8,0:0|0:1,0:0:0:0:
297,337,29438,2,0,L|293:273,1,46.25,8|8,0:0|0:0,0:0:0:0:
365,178,29584,2,0,L|357:238,1,46.25,8|4,0:3|0:3,0:0:0:0:
213,318,29730,6,0,P|135:304|-11:290,1,185,12|8,0:1|0:0,0:0:0:0:
133,207,30167,2,0,P|202:210|251:151,1,138.75,12|0,0:1|0:0,0:0:0:0:
253,140,30458,1,10,0:1:0:0:
151,90,30603,1,8,0:0:0:0:
330,236,30749,6,0,P|338:145|347:40,1,185,12|8,0:1|0:1,0:0:0:0:
471,241,31186,1,8,0:0:0:0:
364,149,31332,1,0,0:0:0:0:
315,322,31477,2,0,L|414:315,1,92.5,10|8,0:1|0:1,0:0:0:0:
456,141,31769,2,0,L|348:150,1,92.5,8|0,0:0|0:0,0:0:0:0:
245,264,32060,6,0,P|192:259|84:250,1,138.75,12|0,0:1|0:0,0:0:0:0:
85,260,32351,2,0,L|80:147,1,92.5,8|0,0:0|0:0,0:0:0:0:
169,157,32642,1,10,0:1:0:0:
0,218,32788,1,8,0:1:0:0:
180,322,32934,1,8,0:0:0:0:
176,136,33079,1,8,0:1:0:0:
106,251,33225,5,12,0:0:0:0:
106,251,33370,1,8,0:0:0:0:
85,65,33516,1,8,0:3:0:0:
85,65,33662,1,8,0:3:0:0:
4,176,33807,2,0,L|90:172,1,69.3750026464463,4|4,0:3|0:3,0:0:0:0:
219,136,34099,2,0,L|131:129,1,69.3750026464463,8|8,0:1|0:1,0:0:0:0:
2,91,34390,1,12,0:1:0:0:
340,115,38468,6,0,L|333:193,1,55.4999983062745,2|0,0:0|0:0,0:0:0:0:
181,193,38759,2,0,L|186:256,1,55.4999983062745,4|0,0:0|0:0,0:0:0:0:
384,246,39050,6,0,P|340:209|250:227,1,138.750005292893,12|8,0:1|0:0,0:0:0:0:
128,323,39487,1,8,0:3:0:0:
211,373,39633,1,10,0:1:0:0:
209,271,39778,1,10,0:1:0:0:
112,318,39924,2,0,L|16:306,1,69.3750026464463,8|0,0:0|0:0,0:0:0:0:
137,196,40215,6,0,L|134:119,1,69.3750026464463,10|8,0:1|0:1,0:0:0:0:
136,112,40434,1,0,0:0:0:0:
136,112,40506,1,8,0:0:0:0:
54,219,40652,1,8,0:3:0:0:
54,219,40725,1,4,0:3:0:0:
54,219,40798,1,10,0:1:0:0:
76,44,40943,1,8,0:1:0:0:
216,160,41089,1,8,0:0:0:0:
216,160,41235,1,0,0:0:0:0:
278,52,41380,6,0,P|324:43|398:95,1,138.750005292893,10|8,0:1|0:0,0:0:0:0:
318,204,41817,1,8,0:3:0:0:
318,204,41890,1,4,0:3:0:0:
318,204,41963,2,0,P|314:160|316:113,1,69.3750026464463,10|4,0:1|0:3,0:0:0:0:
403,180,42254,1,2,3:2:0:0:
239,250,42400,1,8,0:0:0:0:
379,281,42545,5,2,0:0:0:0:
379,281,42691,1,8,0:1:0:0:
221,248,42837,1,8,0:0:0:0:
356,364,42982,1,12,0:3:0:0:
356,364,43055,1,4,0:3:0:0:
356,364,43128,2,0,P|401:366|434:349,1,69.3750026464463,10|8,0:1|0:1,0:0:0:0:
496,309,43419,1,12,0:0:0:0:
295,292,43565,1,0,0:0:0:0:
285,295,43637,1,0,0:0:0:0:
275,298,43710,6,0,P|213:298|166:212,1,138.750005292893,12|0,0:1|0:0,0:0:0:0:
233,55,44147,1,8,0:1:0:0:
233,55,44220,1,8,0:1:0:0:
233,55,44293,2,0,L|236:125,1,69.3750026464463,12|0,0:0|0:0,0:0:0:0:
250,216,44584,2,0,L|251:119,1,69.3750026464463,10|0,0:1|0:0,0:0:0:0:
321,97,44875,6,0,L|406:91,1,69.3750026464463,10|0,0:0|0:0,0:0:0:0:
167,180,45167,2,0,L|58:166,1,83.2499974594117,8|0,0:1|0:0,0:0:0:0:
297,288,45458,1,8,0:0:0:0:
332,266,45531,1,8,0:0:0:0:
373,264,45603,1,8,0:0:0:0:
409,282,45676,1,8,0:0:0:0:
430,318,45749,1,8,0:1:0:0:
99,120,46040,6,0,P|139:184|261:165,1,203.500006210327,12|8,0:1|0:0,0:0:0:0:
190,108,46477,1,0,0:0:0:0:
345,66,46623,2,0,P|349:123|352:194,1,101.750003105164,10|8,0:1|0:1,0:0:0:0:
460,299,46914,2,0,P|465:229|474:172,1,101.750003105164,8|0,0:0|0:0,0:0:0:0:
213,319,47205,6,0,P|259:272|356:284,1,152.625004657746,10|0,0:1|0:0,0:0:0:0:
363,286,47497,1,10,0:0:0:0:
214,196,47642,1,0,0:0:0:0:
302,359,47788,1,10,0:1:0:0:
135,266,47934,1,8,0:1:0:0:
327,155,48079,2,0,L|316:279,1,101.750003105164,10|0,0:0|0:0,0:0:0:0:
168,350,48370,6,0,P|116:355|69:321,1,101.750003105164,10|0,0:1|0:0,0:0:0:0:
108,185,48662,2,0,P|160:180|207:214,1,101.750003105164,10|0,0:0|0:0,0:0:0:0:
28,240,48953,1,10,0:1:0:0:
183,97,49099,1,8,0:1:0:0:
7,76,49244,1,8,0:0:0:0:
135,266,49390,6,0,B|213:259|213:259|263:279|263:279|360:273,1,203.500006210327,12|8,0:1|0:1,0:0:0:0:
409,93,49827,1,10,0:0:0:0:
276,190,49972,1,2,0:0:0:0:
450,260,50118,1,10,0:1:0:0:
415,77,50264,1,10,0:1:0:0:
371,198,50409,1,8,0:0:0:0:
320,50,50555,1,8,0:0:0:0:
317,34,50628,1,8,0:0:0:0:
315,18,50701,6,0,P|261:70|172:46,1,152.625004657746,12|0,0:1|0:0,0:0:0:0:
167,46,50992,2,0,L|171:174,1,101.750003105164,10|0,0:0|0:0,0:0:0:0:
29,237,51283,2,0,L|35:111,1,101.750003105164,10|8,0:1|0:1,0:0:0:0:
40,42,51574,1,10,0:0:0:0:
172,235,51720,1,0,0:0:0:0:
289,31,51866,6,0,L|277:194,1,152.625004657746,12|0,0:1|0:0,0:0:0:0:
276,208,52157,1,8,0:0:0:0:
390,136,52303,1,12,0:1:0:0:
194,157,52448,1,0,0:0:0:0:
372,227,52594,1,10,0:1:0:0:
228,319,52739,1,8,0:0:0:0:
384,220,52885,1,2,0:0:0:0:
213,325,53031,6,0,B|110:307|110:307|52:327,1,152.625004657746,12|0,0:1|0:0,0:0:0:0:
41,334,53322,2,0,L|49:216,1,101.750003105164,10|0,0:0|0:0,0:0:0:0:
183,88,53613,1,10,0:1:0:0:
142,232,53759,1,8,0:1:0:0:
313,191,53904,2,0,L|208:175,1,101.750003105164,10|0,0:0|0:0,0:0:0:0:
22,15,54196,5,12,3:1:0:0:
39,61,54268,1,8,3:2:0:0:
80,89,54341,1,8,0:0:0:0:
130,88,54414,1,8,0:0:0:0:
170,57,54487,1,8,0:0:0:0:
54,172,54633,2,0,B|49:199|49:199|52:230,1,57.8125,12|0,0:1|0:0,0:0:0:0:
250,88,54924,2,0,B|257:60|257:60|250:19,1,57.8125,12|0,0:1|0:0,0:0:0:0:
138,260,55215,6,0,P|176:200|317:230,1,203.500006210327,12|8,0:1|0:1,0:0:0:0:
235,283,55652,1,8,0:0:0:0:
235,283,55798,1,0,0:0:0:0:
383,145,55943,2,0,P|389:206|390:269,1,101.750003105164,10|8,0:1|0:1,0:0:0:0:
195,151,56235,2,0,P|199:89|209:27,1,101.750003105164,8|0,0:0|0:0,0:0:0:0:
444,76,56526,6,0,P|395:114|294:103,1,152.625004657746,10|0,0:1|0:0,0:0:0:0:
284,99,56817,1,10,0:0:0:0:
358,27,56963,1,0,0:0:0:0:
389,155,57108,2,0,P|394:215|399:275,1,101.750003105164,10|8,0:1|0:1,0:0:0:0:
226,258,57400,1,10,0:0:0:0:
310,203,57545,1,2,0:0:0:0:
226,258,57691,6,0,P|159:265|100:275,1,101.750003105164,10|0,0:1|0:0,0:0:0:0:
5,144,57982,2,0,P|70:148|144:158,1,101.750003105164,10|0,0:0|0:0,0:0:0:0:
236,164,58273,1,10,0:1:0:0:
45,233,58419,1,8,0:1:0:0:
213,162,58565,1,8,0:0:0:0:
51,33,58710,6,0,B|39:100|39:100|56:162|56:162|42:245,1,203.500006210327,12|8,0:1|0:1,0:0:0:0:
21,372,59147,1,10,0:0:0:0:
202,255,59293,1,2,0:0:0:0:
96,313,59438,1,10,0:1:0:0:
249,376,59584,1,10,0:1:0:0:
79,306,59730,1,8,0:0:0:0:
237,177,59875,1,2,0:0:0:0:
177,324,60021,6,0,P|168:261|162:197,1,101.750003105164,12|0,0:1|0:0,0:0:0:0:
313,113,60312,2,0,P|322:176|328:240,1,101.750003105164,10|0,0:1|0:0,0:0:0:0:
84,222,60603,2,0,P|91:158|102:95,1,101.750003105164,10|0,0:1|0:0,0:0:0:0:
407,212,60895,2,0,P|399:275|388:338,1,101.750003105164,10|0,0:1|0:0,0:0:0:0:
174,252,61186,5,12,0:1:0:0:
174,252,61332,1,8,0:1:0:0:
325,213,61477,1,8,0:0:0:0:
325,213,61623,1,2,0:0:0:0:
152,62,61769,5,4,0:3:0:0:
335,123,61914,1,2,0:0:0:0:
162,158,62060,2,0,L|7:145,1,138.750005292893,12|0,0:1|0:0,0:0:0:0:
297,31,62642,6,0,P|373:17|404:123,1,173.4375,12|0,0:1|0:0,0:0:0:0:
512,126,62934,2,0,P|427:124|326:161,1,173.4375,12|0,0:1|0:0,0:0:0:0:
320,168,63225,1,12,0:1:0:0:
498,40,63370,1,2,0:0:0:0:
307,188,63516,2,0,P|293:267|288:379,1,185,12|4,0:1|1:2,0:0:0:0:
256,192,64317,12,0,65555,0:0:0:0:
326,202,65701,5,4,0:3:0:0:
326,202,65773,1,4,0:3:0:0:
326,202,65846,2,0,L|481:196,1,145.68749555397,12|0,0:1|0:0,0:0:0:0:
495,193,66137,1,8,0:0:0:0:
442,21,66283,1,2,0:0:0:0:
401,155,66429,1,10,0:1:0:0:
331,55,66574,1,8,0:1:0:0:
510,114,66720,1,8,0:0:0:0:
326,202,66866,6,0,B|258:195|258:195|211:207|211:207|120:191,1,194.249994071961,10|10,0:1|0:1,0:0:0:0:
94,112,67303,2,0,B|124:100|124:100|224:117,1,97.1249970359803,8|2,0:0|0:0,0:0:0:0:
8,159,67594,2,0,L|4:45,1,97.1249970359803,10|8,0:1|0:1,0:0:0:0:
187,110,67885,2,0,L|177:228,1,97.1249970359803,8|2,0:0|0:0,0:0:0:0:
1,366,68176,5,12,0:1:0:0:
122,308,68322,1,2,0:0:0:0:
23,245,68468,1,8,0:0:0:0:
121,327,68613,1,2,0:0:0:0:
183,168,68759,1,10,0:1:0:0:
217,351,68904,1,10,0:1:0:0:
101,212,69050,1,8,0:0:0:0:
119,346,69196,6,0,P|211:337|334:336,1,194.249994071961,8|8,0:1|0:1,0:0:0:0:
410,207,69633,2,0,P|346:202|299:194,1,97.1249970359803,8|8,0:0|0:1,0:0:0:0:
230,181,69924,1,8,0:0:0:0:
384,101,70070,1,8,0:1:0:0:
210,179,70215,1,8,0:0:0:0:
400,281,70361,1,8,0:0:0:0:
413,286,70434,1,8,0:0:0:0:
426,291,70506,6,0,P|481:261|485:173,1,145.68749555397,12|0,0:1|0:0,0:0:0:0:
475,164,70798,1,8,0:0:0:0:
319,245,70943,1,2,0:0:0:0:
384,101,71089,2,0,L|388:207,1,97.1249970359803,10|8,0:1|0:1,0:0:0:0:
303,331,71380,1,8,0:0:0:0:
146,189,71526,6,0,P|184:135|300:158,1,194.249994071961,10|10,0:1|0:1,0:0:0:0:
153,280,71963,1,8,0:0:0:0:
59,165,72108,1,2,0:0:0:0:
235,215,72254,2,0,P|243:278|244:324,1,97.1249970359803,10|8,0:1|0:1,0:0:0:0:
183,369,72545,1,8,0:0:0:0:
334,278,72691,1,2,0:0:0:0:
146,189,72837,5,12,0:1:0:0:
316,273,72982,1,2,0:0:0:0:
164,280,73128,1,8,0:0:0:0:
164,280,73273,1,2,0:0:0:0:
229,107,73419,5,10,0:1:0:0:
235,250,73565,1,8,0:1:0:0:
77,156,73710,1,8,0:0:0:0:
248,258,73856,1,8,0:0:0:0:
260,265,73929,1,8,0:0:0:0:
272,272,74002,6,0,P|320:269|351:240,1,69.3750026464463,8|8,0:0|0:3,0:0:0:0:
284,191,74293,1,4,0:3:0:0:
379,335,74438,2,0,L|389:180,1,138.750005292893,12|2,0:1|0:0,0:0:0:0:
390,97,74875,1,2,0:0:0:0:
287,189,75167,6,0,L|195:182,1,83.2499974594117,12|0,0:1|0:0,0:0:0:0:
73,105,75458,2,0,L|172:101,1,83.2499974594117,8|0,0:0|0:0,0:0:0:0:
255,97,75749,1,10,0:1:0:0:
255,97,75895,1,10,0:1:0:0:
114,186,76040,1,8,0:0:0:0:
110,14,76186,1,2,0:0:0:0:
270,102,76332,6,0,L|265:209,1,83.2499974594117,10|2,0:1|0:0,0:0:0:0:
144,259,76623,2,0,P|93:267|38:176,1,166.499994918823,8|8,0:0|0:1,0:0:0:0:
219,194,77060,1,8,0:1:0:0:
219,194,77205,2,0,P|232:258|234:299,1,83.2499974594117,8|0,0:0|0:0,0:0:0:0:
226,365,77497,5,10,0:1:0:0:
226,365,77642,1,2,0:0:0:0:
399,269,77788,1,8,0:0:0:0:
447,369,77934,1,2,0:0:0:0:
320,321,78079,2,0,P|314:277|313:218,1,83.2499974594117,10|8,0:1|0:1,0:0:0:0:
460,126,78370,2,0,P|466:170|467:228,1,83.2499974594117,10|0,0:0|0:0,0:0:0:0:
239,153,78662,5,8,0:1:0:0:
239,153,78807,1,8,0:1:0:0:
383,179,78953,1,8,0:0:0:0:
383,179,79099,1,8,0:1:0:0:
210,248,79244,5,8,0:0:0:0:
361,174,79390,1,8,0:1:0:0:
193,71,79536,1,8,0:0:0:0:
293,225,79681,1,8,0:0:0:0:
297,236,79754,1,8,0:0:0:0:
302,248,79827,6,0,P|363:266|448:184,1,185,12|8,0:1|0:0,0:0:0:0:
310,147,80264,2,0,P|250:148|195:82,1,138.75,12|0,0:1|0:0,0:0:0:0:
193,71,80555,1,10,0:1:0:0:
391,111,80701,1,8,0:0:0:0:
207,228,80846,6,0,B|85:216|154:272|28:256,1,185,12|8,0:1|0:1,0:0:0:0:
114,153,81283,1,8,0:0:0:0:
114,153,81429,1,0,0:0:0:0:
172,315,81574,2,0,P|225:322|279:287,1,92.5,10|8,0:1|0:1,0:0:0:0:
352,269,81866,2,0,L|345:376,1,92.5,8|0,0:0|0:0,0:0:0:0:
207,228,82157,6,0,L|199:65,1,138.75,12|0,0:1|0:0,0:0:0:0:
200,66,82448,1,8,0:0:0:0:
200,66,82594,1,2,0:0:0:0:
118,154,82739,1,10,0:1:0:0:
294,129,82885,1,10,0:1:0:0:
99,156,83031,2,0,L|6:152,1,92.5,8|0,0:0|0:0,0:0:0:0:
131,364,83322,6,0,B|143:317|143:317|134:271,1,92.5,12|8,0:1|0:0,0:0:0:0:
129,251,83540,1,8,0:0:0:0:
129,251,83613,1,8,0:0:0:0:
50,315,83759,1,8,0:0:0:0:
197,178,83904,1,8,0:0:0:0:
217,218,83976,1,8,0:0:0:0:
253,247,84049,1,8,0:0:0:0:
297,259,84122,1,8,0:0:0:0:
343,252,84196,2,0,L|452:247,1,92.5,8|4,0:3|0:3,0:0:0:0:
298,157,84487,6,0,B|288:115|288:115|298:50,1,83.2499974594117,12|0,0:1|0:0,0:0:0:0:
462,69,84778,2,0,B|471:112|471:112|459:170,1,83.2499974594117,12|0,0:0|0:0,0:0:0:0:
379,111,85070,1,10,0:1:0:0:
379,111,85215,1,10,0:1:0:0:
384,16,85361,1,8,0:0:0:0:
470,169,85506,1,2,0:0:0:0:
301,179,85652,6,0,L|194:166,1,83.2499974594117,10|0,0:1|0:0,0:0:0:0:
10,270,85943,2,0,P|52:220|163:244,1,166.499994918823,10|8,0:0|0:1,0:0:0:0:
61,131,86380,1,8,0:1:0:0:
61,131,86526,2,0,P|49:80|50:38,1,83.2499974594117,8|0,0:0|0:0,0:0:0:0:
210,175,86817,6,0,P|171:210|134:231,1,83.2499974594117,10|2,0:1|0:0,0:0:0:0:
176,14,87108,2,0,P|226:29|262:50,1,83.2499974594117,8|2,0:0|0:0,0:0:0:0:
152,104,87400,1,10,0:1:0:0:
152,104,87545,1,8,0:1:0:0:
338,16,87691,2,0,P|348:77|344:119,1,83.2499974594117,10|0,0:0|0:0,0:0:0:0:
318,212,87982,5,8,0:1:0:0:
318,212,88128,1,8,0:1:0:0:
444,160,88273,1,8,0:0:0:0:
274,136,88419,1,8,0:1:0:0:
298,306,88565,1,12,0:0:0:0:
426,251,88710,1,8,0:1:0:0:
227,244,88856,2,0,L|222:185,1,41.6249987297059,8|8,0:0|0:0,0:0:0:0:
379,317,89002,2,0,L|368:380,1,41.6249987297059,8|4,0:3|0:3,0:0:0:0:
247,372,89147,6,0,P|171:363|52:350,1,185,12|8,0:1|0:0,0:0:0:0:
85,186,89584,2,0,P|141:192|231:202,1,138.75,12|0,0:1|0:0,0:0:0:0:
245,204,89875,1,10,0:1:0:0:
128,276,90021,1,8,0:0:0:0:
221,119,90167,6,0,B|283:127|283:127|324:156|324:156|430:146,1,185,12|8,0:1|0:1,0:0:0:0:
351,66,90603,1,8,0:0:0:0:
328,245,90749,1,0,0:0:0:0:
473,95,90895,2,0,L|484:205,1,92.5,10|8,0:1|0:1,0:0:0:0:
322,256,91186,2,0,L|315:158,1,92.5,8|0,0:0|0:0,0:0:0:0:
502,371,91477,6,0,P|475:327|386:322,1,138.75,12|0,0:1|0:0,0:0:0:0:
377,334,91769,2,0,L|262:350,1,92.5,8|0,0:0|0:0,0:0:0:0:
425,207,92060,1,10,0:1:0:0:
322,256,92205,1,8,0:1:0:0:
504,243,92351,1,10,0:0:0:0:
341,173,92497,1,0,0:0:0:0:
492,86,92642,5,10,0:1:0:0:
492,86,92788,1,8,0:1:0:0:
425,207,92934,1,8,0:0:0:0:
356,28,93079,1,8,0:0:0:0:
356,28,93152,1,8,0:0:0:0:
356,28,93225,1,8,0:0:0:0:
412,121,93370,1,8,0:0:0:0:
304,99,93516,1,8,0:0:0:0:
460,42,93662,1,8,0:0:0:0:
421,221,93807,6,0,L|325:213,1,92.5,2|0,0:0|0:0,0:0:0:0:
238,270,94244,1,8,0:0:0:0:
228,271,94317,1,8,0:0:0:0:
218,276,94390,6,0,P|189:285|171:298,1,34.6875013232232,8|0,0:0|0:0,0:0:0:0:
254,149,94608,2,0,L|247:204,1,34.6875013232232,8|0,0:3|0:0,0:0:0:0:
235,361,94827,1,4,0:3:0:0:
104,247,94972,1,12,0:1:0:0:
349,144,99050,6,0,L|287:151,1,55.4999983062745,10|2,0:1|0:0,0:0:0:0:
142,86,99341,2,0,L|242:67,1,69.3750026464463,12|0,0:1|0:0,0:0:0:0:
222,73,99560,1,0,0:0:0:0:
233,77,99633,6,0,P|259:127|198:221,1,166.499994918823,12|8,0:1|0:0,0:0:0:0:
118,182,100070,1,0,0:0:0:0:
187,301,100215,2,0,P|245:296|282:264,1,83.2499974594117,8|8,0:0|0:1,0:0:0:0:
345,156,100506,1,8,0:0:0:0:
210,216,100652,1,8,0:1:0:0:
324,354,100798,6,0,P|372:351|422:349,1,83.2499974594117,8|0,0:0|0:0,0:0:0:0:
492,194,101089,1,8,0:0:0:0:
362,266,101235,1,8,0:1:0:0:
459,278,101380,1,8,0:0:0:0:
337,113,101526,1,8,0:1:0:0:
351,273,101671,1,8,0:0:0:0:
405,163,101817,1,8,0:1:0:0:
261,285,101963,6,0,L|161:278,1,92.5,12|0,0:0|0:0,0:0:0:0:
9,285,102254,2,0,B|0:332|0:332|15:392,1,92.5,8|8,0:0|0:1,0:0:0:0:
82,217,102545,2,0,B|91:170|91:170|76:110,1,92.5,8|8,0:0|0:1,0:0:0:0:
46,26,102837,1,8,0:0:0:0:
4,173,102982,1,8,0:1:0:0:
166,146,103128,5,12,0:0:0:0:
47,102,103273,1,8,0:1:0:0:
216,72,103419,1,8,0:0:0:0:
187,228,103565,1,8,0:0:0:0:
187,228,103637,1,8,0:0:0:0:
187,228,103710,5,8,0:0:0:0:
270,144,103856,1,8,0:0:0:0:
105,168,104002,2,0,P|93:225|108:277,1,92.5,10|0,0:1|0:0,0:0:0:0:
256,285,104293,6,0,B|384:272|312:339|454:326,1,208.125007939339,12|8,0:1|0:1,0:0:0:0:
462,331,104803,1,8,0:1:0:0:
471,335,104875,2,0,L|467:258,1,69.3750026464463,12|0,0:0|0:0,0:0:0:0:
337,251,105167,2,0,L|341:168,1,69.3750026464463,8|0,0:1|0:0,0:0:0:0:
413,144,105458,6,0,B|433:168|413:222,1,61.6666666666667,10|0,1:2|0:0,0:0:0:0:
265,209,105652,2,0,B|244:184|264:130,1,61.6666666666667,10|0,1:2|0:0,0:0:0:0:
269,129,105846,1,10,1:2:0:0:
503,171,106040,1,4,0:3:0:0:
503,171,106623,6,0,P|489:242|475:384,1,203.500006210327,12|8,0:1|0:0,0:0:0:0:
397,220,107060,1,0,0:0:0:0:
287,324,107205,2,0,P|363:315|409:314,1,101.750003105164,10|8,0:1|0:1,0:0:0:0:
329,149,107497,2,0,P|253:158|207:159,1,101.750003105164,8|0,0:0|0:0,0:0:0:0:
101,257,107788,6,0,P|177:248|265:242,1,152.625004657746,10|0,0:1|0:0,0:0:0:0:
278,240,108079,1,10,0:0:0:0:
101,169,108225,1,0,0:0:0:0:
182,342,108370,1,10,0:1:0:0:
227,158,108516,1,8,0:1:0:0:
363,335,108662,2,0,P|307:329|238:319,1,101.750003105164,10|2,0:0|0:0,0:0:0:0:
54,214,108953,6,0,P|119:210|185:200,1,101.750003105164,10|0,0:1|0:0,0:0:0:0:
117,371,109244,2,0,P|65:362|-8:355,1,101.750003105164,10|0,0:0|0:0,0:0:0:0:
227,158,109536,1,10,0:1:0:0:
196,324,109681,1,8,0:1:0:0:
54,214,109827,1,8,0:0:0:0:
209,338,109972,6,0,P|261:354|357:245,1,203.500006210327,12|8,0:1|0:1,0:0:0:0:
208,110,110409,1,10,0:0:0:0:
369,174,110555,1,2,0:0:0:0:
262,263,110701,1,10,0:1:0:0:
384,167,110846,1,10,0:1:0:0:
240,186,110992,1,8,0:0:0:0:
435,311,111137,1,8,0:0:0:0:
449,317,111210,1,8,0:0:0:0:
463,323,111283,6,0,P|479:254|483:205,1,101.750003105164,12|0,0:1|0:0,0:0:0:0:
294,307,111574,2,0,P|345:355|386:383,1,101.750003105164,10|0,0:0|0:0,0:0:0:0:
384,167,111866,2,0,P|316:187|271:208,1,101.750003105164,10|8,0:1|0:1,0:0:0:0:
386,266,112157,1,10,0:0:0:0:
386,266,112303,1,0,0:0:0:0:
208,168,112448,5,12,0:1:0:0:
290,289,112594,1,0,0:0:0:0:
290,117,112739,1,8,0:0:0:0:
148,235,112885,2,0,L|27:244,1,101.750003105164,12|0,0:1|0:0,0:0:0:0:
204,119,113176,1,10,0:1:0:0:
30,164,113322,1,8,0:0:0:0:
168,311,113468,1,2,0:0:0:0:
118,150,113613,6,0,B|106:109|106:109|121:23,1,101.750003105164,12|0,0:1|0:0,0:0:0:0:
280,10,113904,2,0,B|292:51|292:51|277:137,1,101.750003105164,10|0,0:0|0:0,0:0:0:0:
255,214,114196,1,10,0:1:0:0:
198,83,114341,1,8,0:1:0:0:
339,178,114487,2,0,P|393:184|470:194,1,101.750003105164,10|0,0:0|0:0,0:0:0:0:
244,364,114778,5,12,0:1:0:0:
195,375,114850,1,8,3:2:0:0:
149,355,114923,1,8,0:0:0:0:
123,312,114996,1,8,0:0:0:0:
127,262,115069,1,8,0:0:0:0:
270,272,115215,2,0,P|233:275|187:283,1,57.8125,12|0,0:1|0:0,0:0:0:0:
18,179,115506,2,0,P|55:182|101:190,1,57.8125,12|0,0:1|0:0,0:0:0:0:
285,175,115798,6,0,P|226:195|147:78,1,203.500006210327,12|8,0:1|0:1,0:0:0:0:
39,88,116235,1,8,0:0:0:0:
39,88,116380,1,0,0:0:0:0:
224,7,116526,2,0,P|227:77|228:114,1,101.750003105164,10|8,0:1|0:1,0:0:0:0:
159,292,116817,2,0,P|162:222|164:185,1,101.750003105164,8|0,0:0|0:0,0:0:0:0:
425,162,117108,6,0,P|316:175|266:189,1,152.625004657746,10|0,0:1|0:0,0:0:0:0:
251,196,117400,1,10,0:0:0:0:
341,132,117545,1,0,0:0:0:0:
200,106,117691,5,10,0:1:0:0:
354,215,117837,1,8,0:1:0:0:
191,273,117982,2,0,P|124:266|72:250,1,101.750003105164,10|0,0:0|0:0,0:0:0:0:
281,370,118273,6,0,P|325:313|455:348,1,203.500006210327,10|10,0:1|0:0,0:0:0:0:
427,162,118710,1,0,0:0:0:0:
389,271,118856,1,10,0:1:0:0:
503,208,119002,5,8,0:1:0:0:
310,232,119147,1,8,0:0:0:0:
472,316,119293,6,0,P|480:248|501:97,1,203.500006210327,12|8,0:1|0:1,0:0:0:0:
512,9,119730,1,10,0:0:0:0:
404,148,119875,1,2,0:0:0:0:
498,114,120021,1,10,0:1:0:0:
309,97,120167,1,10,0:1:0:0:
484,111,120312,1,12,0:0:0:0:
359,29,120458,1,2,0:0:0:0:
360,244,120603,6,0,P|412:239|468:234,1,101.750003105164,12|0,0:1|0:0,0:0:0:0:
257,192,120895,2,0,P|205:197|149:201,1,101.750003105164,10|0,0:1|0:0,0:0:0:0:
319,339,121186,2,0,P|371:334|427:329,1,101.750003105164,10|0,0:1|0:0,0:0:0:0:
304,99,121477,2,0,P|252:104|196:108,1,101.750003105164,10|0,0:0|0:0,0:0:0:0:
35,132,121769,5,12,0:1:0:0:
35,132,121914,1,8,0:1:0:0:
195,22,122060,1,10,0:0:0:0:
195,22,122205,1,0,0:0:0:0:
205,206,122351,2,0,L|90:196,1,101.750003105164,4|0,0:3|0:0,0:0:0:0:
16,375,122642,6,0,P|50:339|139:341,1,138.750005292893,12|0,0:1|0:0,0:0:0:0:
361,258,123225,6,0,B|293:250|233:283|233:283|302:297,1,173.4375,10|0,0:0|0:0,0:0:0:0:
380,274,123516,2,0,B|448:282|508:249|508:249|439:235,1,173.4375,10|0,0:0|0:0,0:0:0:0:
439,243,123807,1,10,0:0:0:0:
365,369,123953,1,8,0:0:0:0:
321,168,124099,1,12,0:1:0:0:
44,132,132545,6,0,L|48:171,1,25.4375007762909,2|2,0:0|0:0,0:0:0:0:
79,138,132618,2,0,L|62:173,1,25.4375007762909,2|2,0:0|0:0,0:0:0:0:
107,159,132691,2,0,L|75:181,1,25.4375007762909,2|2,0:0|0:0,0:0:0:0:
119,192,132764,2,0,L|80:196,1,25.4375007762909,2|2,0:0|0:0,0:0:0:0:
118,223,132837,6,0,L|39:234,1,67.8333354034424,12|0,0:1|0:0,0:0:0:0:
192,121,133031,2,0,L|179:33,1,67.8333354034424,12|0,0:1|0:0,0:0:0:0:
244,272,133225,2,0,L|238:370,1,67.8333354034424,12|0,0:1|0:0,0:0:0:0:
312,151,133419,6,0,P|368:138|448:207,1,152.625004657746,12|0,0:1|0:0,0:0:0:0:
449,213,133710,2,0,L|473:93,1,101.750003105164,10|0,0:0|0:0,0:0:0:0:
359,231,134002,1,10,0:1:0:0:
403,50,134147,1,10,0:1:0:0:
222,151,134293,1,8,0:0:0:0:
378,241,134438,2,0,P|314:253|241:269,1,101.750003105164,2|8,0:0|0:1,0:0:0:0:
151,295,134730,5,2,0:0:0:0:
151,295,134803,1,2,0:0:0:0:
151,295,134875,1,8,0:0:0:0:
306,170,135021,1,2,0:0:0:0:
116,134,135167,1,10,0:1:0:0:
200,216,135312,1,10,0:1:0:0:
64,301,135458,1,10,0:0:0:0:
220,216,135603,1,2,0:0:0:0:
41,188,135749,6,0,B|32:136|32:136|42:88|42:88|32:20,1,152.625004657746,8|0,0:1|0:0,0:0:0:0:
31,12,136040,1,10,0:0:0:0:
116,134,136186,1,0,0:0:0:0:
173,25,136332,5,10,0:1:0:0:
32,110,136477,1,10,0:1:0:0:
192,193,136623,1,8,0:0:0:0:
264,43,136769,6,0,L|385:35,1,101.750003105164,2|8,0:0|0:1,0:0:0:0:
281,214,137060,1,2,0:0:0:0:
105,179,137205,1,8,0:0:0:0:
267,130,137351,1,2,0:0:0:0:
267,130,137424,1,2,0:0:0:0:
267,130,137497,1,10,0:1:0:0:
124,256,137642,1,8,0:1:0:0:
303,303,137788,5,10,0:0:0:0:
257,281,137860,1,10,0:0:0:0:
208,288,137933,1,10,0:0:0:0:
171,322,138006,1,10,0:0:0:0:
158,371,138079,1,12,0:1:0:0:
192,193,138225,1,2,0:0:0:0:
192,193,138298,1,2,0:0:0:0:
192,193,138370,1,10,0:0:0:0:
248,377,138516,1,2,0:0:0:0:
88,246,138662,5,10,0:1:0:0:
280,220,138807,1,10,0:1:0:0:
102,157,138953,1,10,0:0:0:0:
139,321,139099,2,0,L|279:309,1,101.750003105164,2|8,0:0|0:1,0:0:0:0:
368,273,139390,1,2,0:0:0:0:
383,275,139463,1,2,0:0:0:0:
398,277,139536,1,8,0:0:0:0:
354,377,139681,6,0,P|301:351|300:193,1,203.500006210327,2|10,0:0|0:1,0:0:0:0:
363,57,140118,1,10,0:0:0:0:
192,136,140264,1,2,0:0:0:0:
397,92,140409,6,0,L|329:110,1,50.8750015525818,12|0,0:1|0:0,0:0:0:0:
180,138,140555,2,0,L|123:148,1,50.8750015525818,2|2,0:0|0:0,0:0:0:0:
398,143,140700,6,0,L|327:142,1,50.8750015525818,10|2,0:0|0:0,0:0:0:0:
169,141,140846,2,0,L|111:135,1,50.8750015525818,2|2,0:0|0:0,0:0:0:0:
367,183,140992,6,0,L|299:164,1,50.8750015525818,10|2,0:1|0:0,0:0:0:0:
157,143,141137,2,0,L|89:124,1,50.8750015525818,10|2,0:1|0:0,0:0:0:0:
248,242,141283,1,8,0:0:0:0:
257,253,141356,1,8,0:0:0:0:
266,264,141429,2,0,L|339:256,1,50.8750015525818,8|4,0:3|0:3,0:0:0:0:
217,350,141574,6,0,P|144:357|97:231,1,203.500006210327,12|8,0:0|0:1,0:0:0:0:
293,153,142011,2,0,P|366:146|413:272,1,203.500006210327,12|8,0:0|0:1,0:0:0:0:
184,271,142448,1,12,0:0:0:0:
216,250,142520,1,8,0:3:0:0:
252,241,142593,1,4,0:3:0:0:
290,243,142666,1,4,0:3:0:0:
325,257,142739,1,12,0:1:0:0:
340,109,147400,6,0,L|163:119,1,166.499994918823,2|2,0:0|0:0,0:0:0:0:
166,121,147909,1,2,0:0:0:0:
158,124,147982,2,0,L|101:120,1,55.4999983062745,2|0,0:0|0:0,0:0:0:0:
20,116,148273,1,2,0:0:0:0:
20,116,148419,1,0,0:0:0:0:
252,172,148565,6,0,L|248:45,1,110.999996612549,2|0,0:0|0:0,0:0:0:0:
166,218,149002,2,0,L|159:334,1,110.999996612549,2|0,0:0|0:0,0:0:0:0:
241,318,149438,2,0,L|244:385,1,55.4999983062745,2|0,0:0|0:0,0:0:0:0:
83,238,149730,6,0,L|79:295,1,55.4999983062745,2|0,0:0|0:0,0:0:0:0:
212,190,150021,2,0,P|167:183|126:199,1,64.7499980239869,2|0,0:0|0:0,0:0:0:0:
48,364,150312,2,0,P|95:371|142:347,1,74,2|0,0:0|0:0,0:0:0:0:
269,280,150603,2,0,L|156:285,1,83.2499974594117,2|0,0:0|0:0,0:0:0:0:
0,263,150895,6,0,L|62:270,1,50.8750015525818,8|0,1:0|0:0,0:0:0:0:
293,143,151477,2,0,B|296:111|296:111|292:86|292:86|296:48,2,92.5000035285951
195,356,152060,6,0,L|188:229,1,124.874996189118,12|0,0:1|0:0,0:0:0:0:
143,197,152351,1,8,3:1:0:0:
182,209,152424,1,0,3:0:0:0:
223,202,152497,1,0,3:0:0:0:
252,172,152570,1,0,3:0:0:0:
260,131,152642,1,8,1:0:0:0:
290,102,152715,1,0,1:0:0:0:
330,91,152788,1,0,1:0:0:0:
370,100,152861,1,0,1:0:0:0:
401,132,152934,5,8,1:0:0:0:
352,140,153006,1,0,1:0:0:0:
307,120,153079,1,0,1:0:0:0:
281,78,153152,1,0,1:0:0:0:
282,28,153225,6,0,L|290:256,1,203.500006210327,12|12,0:1|0:0,0:0:0:0:
192,143,153662,1,0,0:0:0:0:
260,321,153807,2,0,P|333:311|394:301,1,101.750003105164,10|8,0:1|0:1,0:0:0:0:
369,177,154099,1,8,0:0:0:0:
241,322,154244,1,0,0:0:0:0:
113,207,154390,6,0,P|101:152|102:84,1,101.750003105164,10|0,0:1|0:0,0:0:0:0:
287,21,154681,2,0,P|289:77|276:144,1,101.750003105164,10|0,0:0|0:0,0:0:0:0:
182,250,154972,2,0,P|105:238|2:224,1,152.625004657746,10|0,0:1|0:0,0:0:0:0:
5,222,155264,1,10,0:0:0:0:
187,148,155409,1,0,0:0:0:0:
59,40,155555,6,0,L|63:161,1,101.750003105164,10|0,0:1|0:0,0:0:0:0:
182,250,155846,2,0,L|188:137,1,101.750003105164,10|0,0:0|0:0,0:0:0:0:
191,53,156137,1,10,0:1:0:0:
280,154,156283,1,8,0:1:0:0:
96,227,156429,1,8,0:0:0:0:
298,145,156574,6,0,B|306:221|306:221|287:265|287:265|293:355,1,203.500006210327,12|8,0:1|0:1,0:0:0:0:
383,288,157011,1,10,0:0:0:0:
202,318,157157,1,2,0:0:0:0:
401,283,157303,2,0,L|507:297,1,101.750003105164,10|10,0:1|0:1,0:0:0:0:
383,376,157594,1,8,0:0:0:0:
458,196,157739,1,8,0:0:0:0:
463,181,157812,1,8,0:0:0:0:
469,166,157885,6,0,P|464:95|426:52,1,101.750003105164,12|0,0:1|0:0,0:0:0:0:
294,198,158176,2,0,P|357:229|414:217,1,101.750003105164,10|0,0:0|0:0,0:0:0:0:
340,35,158468,2,0,P|281:74|262:129,1,101.750003105164,10|8,0:1|0:1,0:0:0:0:
368,131,158759,1,10,0:0:0:0:
195,201,158904,1,0,0:0:0:0:
341,306,159050,6,0,P|269:300|217:291,1,101.750003105164,12|0,0:1|0:0,0:0:0:0:
32,358,159341,1,8,0:0:0:0:
32,358,159487,2,0,P|97:346|152:341,1,101.750003105164,12|0,0:1|0:0,0:0:0:0:
257,212,159778,1,10,0:1:0:0:
74,262,159924,1,8,0:0:0:0:
241,216,160070,1,2,0:0:0:0:
176,376,160215,6,0,L|166:260,1,101.750003105164,12|0,0:1|0:0,0:0:0:0:
138,86,160506,2,0,L|129:208,1,101.750003105164,10|0,0:0|0:0,0:0:0:0:
167,274,160798,1,10,0:1:0:0:
47,128,160943,1,8,0:1:0:0:
225,202,161089,2,0,L|344:195,1,101.750003105164,10|0,0:0|0:0,0:0:0:0:
467,14,161380,5,12,0:1:0:0:
417,22,161452,1,8,3:2:0:0:
383,58,161525,1,8,0:0:0:0:
377,108,161598,1,8,0:0:0:0:
402,151,161671,1,8,0:0:0:0:
294,78,161817,2,0,L|289:13,1,57.8125,12|0,0:1|0:0,0:0:0:0:
487,142,162108,2,0,L|479:218,1,57.8125,12|0,0:1|0:0,0:0:0:0:
348,274,162400,6,0,B|283:271|283:271|215:291|215:291|148:282,1,203.500006210327,12|8,0:1|0:1,0:0:0:0:
297,357,162837,1,12,0:0:0:0:
203,202,162982,1,0,0:0:0:0:
203,202,163055,1,0,0:0:0:0:
203,202,163128,2,0,P|195:139|198:67,1,101.750003105164,12|0,0:1|0:0,0:0:0:0:
239,11,163419,1,12,0:0:0:0:
103,150,163565,1,2,0:0:0:0:
298,129,163710,5,12,0:1:0:0:
119,57,163856,1,0,0:0:0:0:
315,135,164002,2,0,L|423:127,1,101.750003105164,12|0,0:0|0:0,0:0:0:0:
211,287,164293,2,0,L|344:280,1,101.750003105164,12|0,0:1|0:0,0:0:0:0:
191,151,164584,1,12,0:0:0:0:
370,210,164730,1,2,0:0:0:0:
195,302,164875,6,0,P|137:307|100:167,1,203.500006210327,12|12,0:1|0:0,0:0:0:0:
138,47,165312,1,0,0:0:0:0:
163,222,165458,1,14,0:1:0:0:
308,118,165603,1,0,0:0:0:0:
272,327,165749,1,8,0:0:0:0:
82,192,165895,6,0,P|174:202|305:221,1,203.500006210327,12|8,0:1|0:1,0:0:0:0:
462,81,166332,1,10,0:0:0:0:
406,224,166477,1,2,0:0:0:0:
351,71,166623,1,8,0:1:0:0:
492,172,166769,1,10,0:1:0:0:
340,274,166914,1,12,0:0:0:0:
409,141,167060,1,8,0:0:0:0:
409,141,167133,1,8,0:0:0:0:
409,141,167205,5,12,0:1:0:0:
225,210,167351,1,8,0:1:0:0:
400,347,167497,1,12,0:0:0:0:
304,199,167642,1,0,0:0:0:0:
229,313,167788,1,10,0:1:0:0:
191,134,167934,1,8,0:1:0:0:
119,340,168079,1,12,0:0:0:0:
346,293,168225,1,0,0:0:0:0:
115,258,168370,6,0,L|107:125,1,101.750003105164,10|8,0:1|0:1,0:0:0:0:
175,46,168662,2,0,P|240:59|269:93,1,101.750003105164,12|0,0:0|0:0,0:0:0:0:
23,234,168953,5,10,0:1:0:0:
224,205,169099,1,8,0:1:0:0:
41,88,169244,1,8,0:0:0:0:
197,133,169390,1,8,0:0:0:0:
197,133,169463,1,8,0:0:0:0:
197,133,169536,5,8,0:0:0:0:
73,164,169681,1,8,0:3:0:0:
274,137,169827,5,4,0:3:0:0:
91,160,169972,1,10,0:1:0:0:
314,65,170118,5,8,0:0:0:0:
107,156,170264,1,8,0:3:0:0:
310,210,170409,5,4,0:3:0:0:
122,153,170555,1,8,0:1:0:0:
228,360,170701,1,12,0:0:0:0:
395,163,171720,5,8,0:0:0:0:
395,163,171866,2,0,P|352:120|264:146,1,145.68749555397,12|0,0:1|0:0,0:0:0:0:
259,153,172157,1,8,0:0:0:0:
311,34,172303,1,2,0:0:0:0:
171,147,172448,2,0,P|113:141|66:96,1,97.1249970359803,10|8,0:1|0:1,0:0:0:0:
65,29,172739,1,8,0:0:0:0:
211,62,172885,6,0,P|193:165|180:281,1,194.249994071961,10|10,0:1|0:1,0:0:0:0:
346,307,173322,2,0,P|337:249|321:189,1,97.1249970359803,8|2,0:0|0:0,0:0:0:0:
290,129,173613,1,10,0:1:0:0:
435,231,173759,1,8,0:1:0:0:
255,314,173904,1,8,0:0:0:0:
419,237,174050,1,2,0:0:0:0:
238,215,174196,6,0,P|164:225|128:234,1,97.1249970359803,10|2,0:1|0:0,0:0:0:0:
380,146,174487,1,8,0:0:0:0:
380,146,174633,1,2,0:0:0:0:
261,126,174778,1,10,0:1:0:0:
419,237,174924,1,10,0:1:0:0:
445,57,175070,1,8,0:0:0:0:
326,225,175215,6,0,L|319:337,1,97.1249970359803,10|0,0:1|0:0,0:0:0:0:
113,195,175506,1,8,0:1:0:0:
113,195,175579,1,0,0:0:0:0:
113,195,175652,1,8,0:0:0:0:
238,252,175798,1,8,0:1:0:0:
67,349,175943,1,8,0:0:0:0:
158,267,176089,1,8,0:1:0:0:
19,199,176235,1,8,0:0:0:0:
175,349,176380,1,8,0:0:0:0:
186,358,176453,1,8,0:0:0:0:
196,368,176526,6,0,P|203:278|213:186,1,145.68749555397,12|0,0:1|0:0,0:0:0:0:
213,194,176817,1,8,0:0:0:0:
121,36,176963,1,2,0:0:0:0:
288,90,177108,2,0,P|219:99|170:108,1,97.1249970359803,10|8,0:1|0:1,0:0:0:0:
91,152,177400,1,8,0:0:0:0:
295,184,177545,6,0,B|361:180|361:180|414:201|414:201|487:195,1,194.249994071961,10|10,0:1|0:1,0:0:0:0:
340,270,177982,1,8,0:0:0:0:
434,115,178128,1,2,0:0:0:0:
340,270,178273,2,0,L|211:277,1,97.1249970359803,10|8,0:1|0:1,0:0:0:0:
167,134,178565,2,0,L|64:126,1,97.1249970359803,8|2,0:0|0:0,0:0:0:0:
274,140,178856,5,12,0:1:0:0:
157,229,179002,1,2,0:0:0:0:
288,127,179147,1,8,0:0:0:0:
300,307,179293,1,2,0:0:0:0:
141,221,179438,1,10,0:1:0:0:
214,369,179584,1,8,0:1:0:0:
251,222,179730,1,8,0:0:0:0:
126,316,179875,6,0,P|69:322|17:329,1,97.1249970359803,12|0,0:1|0:0,0:0:0:0:
188,124,180167,5,0,3:0:0:0:
194,147,180239,1,0,3:0:0:0:
192,171,180312,1,8,3:1:0:0:
19,188,180458,1,0,3:0:0:0:
13,165,180530,1,0,3:0:0:0:
15,141,180603,1,8,1:0:0:0:
92,53,180749,5,0,1:0:0:0:
92,53,180822,1,0,1:0:0:0:
92,53,180895,2,0,L|83:119,1,48.5624985179902,8|0,1:0|1:0,0:0:0:0:
129,265,181040,2,0,L|124:201,1,48.5624985179902,0|0,1:0|1:0,0:0:0:0:
170,89,181186,5,12,0:1:0:0:
46,179,181332,1,0,0:0:0:0:
216,271,181477,2,0,P|285:262|339:252,1,97.1249970359803,12|2,0:0|0:0,0:0:0:0:
387,137,181769,1,10,0:1:0:0:
256,181,181914,1,10,0:1:0:0:
404,130,182060,1,8,0:0:0:0:
393,343,182205,6,0,B|328:339|328:339|279:362|279:362|199:352,1,194.249994071961,12|10,0:1|0:1,0:0:0:0:
40,189,182642,1,10,0:0:0:0:
78,304,182788,1,2,0:0:0:0:
174,115,182934,1,10,0:1:0:0:
154,249,183079,1,10,0:1:0:0:
272,149,183225,5,10,0:0:0:0:
94,72,183370,1,2,0:0:0:0:
250,239,183516,2,0,P|303:234|369:231,1,97.1249970359803,12|2,0:1|0:0,0:0:0:0:
442,169,183807,1,10,0:0:0:0:
124,353,184099,5,10,0:1:0:0:
92,182,184244,1,10,0:1:0:0:
127,369,184390,1,8,0:0:0:0:
160,124,184536,6,0,P|107:96|2:192,1,194.249994071961,12|8,0:1|0:1,0:0:0:0:
5,177,184900,1,8,0:1:0:0:
8,191,184972,2,0,L|12:244,1,48.5624985179902,8|8,0:0|0:0,0:0:0:0:
127,369,185118,2,0,L|135:290,1,48.5624985179902,8|8,0:1|0:1,0:0:0:0:
142,197,185264,2,0,L|148:268,1,48.5624985179902,8|8,0:3|0:3,0:0:0:0:
48,324,185409,2,0,L|-7:337,1,48.5624985179902,4|8,0:3|0:1,0:0:0:0:
227,254,185555,2,0,P|313:266|403:280,1,145.68749555397,12|0,0:0|0:0,0:0:0:0:
395,271,185846,6,0,L|402:376,1,97.1249970359803,12|0,0:1|0:0,0:0:0:0:
138,313,186137,2,0,L|131:216,1,97.1249970359803,8|10,0:0|0:1,0:0:0:0:
283,204,186429,2,0,L|290:309,1,97.1249970359803,8|10,0:0|0:1,0:0:0:0:
33,369,186720,2,0,L|26:272,1,97.1249970359803,10|10,0:0|0:1,0:0:0:0:
5,69,187011,5,8,0:0:0:0:
140,135,187157,1,10,0:1:0:0:
10,174,187303,1,10,0:0:0:0:
93,56,187448,1,10,0:1:0:0:
195,210,187594,1,10,0:0:0:0:
187,62,187739,1,8,0:1:0:0:
277,228,187885,1,10,0:0:0:0:
185,43,188031,1,10,0:1:0:0:
110,253,188176,6,0,L|44:259,1,50.8750015525818,12|0,0:1|0:0,0:0:0:0:
391,155,188613,2,0,L|466:163,1,50.8750015525818,12|0,0:1|0:0,0:0:0:0:
108,87,189050,2,0,L|26:93,1,50.8750015525818,12|0,0:1|0:0,0:0:0:0:
406,258,189487,2,0,L|481:266,1,50.8750015525818,12|0,0:1|0:0,0:0:0:0:
53,364,189924,1,12,0:1:0:0:
256,192,189997,12,0,195021,0:0:0:0:
