osu file format v14

[General]
AudioFilename: audio.mp3
AudioLeadIn: 0
PreviewTime: 45968
Countdown: 0
SampleSet: Soft
StackLeniency: 0.7
Mode: 0
LetterboxInBreaks: 0
WidescreenStoryboard: 1

[Editor]
Bookmarks: 66429
DistanceSpacing: 1.7
BeatDivisor: 3
GridSize: 4
TimelineZoom: 3.599999

[Metadata]
Title:Wagon
TitleUnicode:ワゴン
Artist:Toyama Nao
ArtistUnicode:東山奈央
Creator:_kotachi_
Version:Lemaire's Extra
Source:
Tags:dahkjdas EnuHQ Shikibe Mayu kazato Asa Shizuku- Lemaire Repl4y -Magic- touyama jpop j-pop pop japanese 冷めない魔法 Samenai Mahou
BeatmapID:3595125
BeatmapSetID:1669004

[Difficulty]
HPDrainRate:5
CircleSize:3.8
OverallDifficulty:9
ApproachRate:9.5
SliderMultiplier:1.65
SliderTickRate:1

[Events]
//Background and Video events
0,0,"BG.jpg",0,0
//Break Periods
2,142939,146875
//Storyboard Layer 0 (Background)
//Storyboard Layer 1 (Fail)
//Storyboard Layer 2 (Pass)
//Storyboard Layer 3 (Foreground)
//Storyboard Layer 4 (Overlay)
//Storyboard Sound Samples

[TimingPoints]
604,291.26213592233,4,2,1,50,1,0
604,-125,4,2,1,50,0,0
3953,-83.3333333333333,4,2,1,70,0,0
5264,-90.9090909090909,4,2,1,70,0,0
5482,-90.9090909090909,4,2,1,5,0,0
5555,-90.9090909090909,4,2,1,70,0,0
8103,-90.9090909090909,4,2,1,5,0,0
8176,-90.9090909090909,4,2,1,70,0,0
10142,-90.9090909090909,4,2,1,5,0,0
10215,-90.9090909090909,4,2,1,70,0,0
12181,-90.9090909090909,4,2,1,5,0,0
12254,-90.9090909090909,4,2,1,70,0,0
13273,-90.9090909090909,4,2,2,70,0,0
13565,-90.9090909090909,4,2,1,70,0,0
15312,-83.3333333333333,4,2,1,70,0,0
15603,-90.9090909090909,4,2,1,5,0,0
15749,-90.9090909090909,4,2,1,60,0,0
15968,-90.9090909090909,4,2,1,5,0,0
16040,-100,4,2,1,60,0,0
19171,-100,4,2,1,5,0,0
19244,-100,4,2,1,60,0,0
19463,-100,4,2,1,5,0,0
19536,-100,4,2,1,60,0,0
20409,-83.3333333333333,4,2,1,70,0,0
20846,-83.3333333333333,4,2,2,70,0,0
21065,-83.3333333333333,4,2,2,5,0,0
21137,-83.3333333333333,4,2,1,70,0,0
21866,-90.9090909090909,4,2,1,70,0,0
23832,-90.9090909090909,4,2,1,5,0,0
23904,-90.9090909090909,4,2,2,70,0,0
24050,-90.9090909090909,4,2,1,70,0,0
25070,-90.9090909090909,4,2,1,60,0,0
25288,-90.9090909090909,4,2,1,5,0,0
25361,-90.9090909090909,4,2,1,60,0,0
26453,-90.9090909090909,4,2,1,5,0,0
26526,-90.9090909090909,4,2,1,60,0,0
28492,-90.9090909090909,4,2,1,5,0,0
28565,-90.9090909090909,4,2,1,60,0,0
29730,-83.3333333333333,4,2,1,70,0,0
30167,-83.3333333333333,4,2,2,70,0,0
30385,-83.3333333333333,4,2,2,5,0,0
30458,-83.3333333333333,4,2,1,70,0,0
31186,-90.9090909090909,4,2,1,70,0,0
31404,-90.9090909090909,4,2,1,5,0,0
31477,-90.9090909090909,4,2,1,70,0,0
34390,-166.666666666667,4,2,1,40,0,0
35118,-166.666666666667,4,2,1,5,0,0
35264,-166.666666666667,4,2,1,40,0,0
36647,-166.666666666667,4,2,1,5,0,0
36720,-166.666666666667,4,2,1,40,0,0
38468,-125,4,2,1,40,0,0
38686,-125,4,2,1,5,0,0
38759,-125,4,2,1,40,0,0
38977,-125,4,2,1,5,0,0
39050,-90.9090909090909,4,2,1,50,0,0
43419,-71.4285714285714,4,2,1,50,0,0
43637,-71.4285714285714,4,2,1,5,0,0
43710,-125,4,2,1,60,0,0
44511,-125,4,2,1,5,0,0
44584,-125,4,2,1,60,0,0
44803,-125,4,2,1,5,0,0
44875,-125,4,2,1,60,0,0
45094,-125,4,2,1,5,0,0
45167,-125,4,2,1,60,0,0
45385,-125,4,2,1,5,0,0
45458,-125,4,2,1,60,0,0
46040,-83.3333333333333,4,2,1,75,0,1
47424,-83.3333333333333,4,2,1,5,0,1
47497,-83.3333333333333,4,2,1,75,0,1
49317,-83.3333333333333,4,2,1,75,0,1
49390,-83.3333333333333,4,2,2,75,0,1
49681,-83.3333333333333,4,2,1,75,0,1
50919,-83.3333333333333,4,2,1,5,0,1
50992,-83.3333333333333,4,2,1,75,0,1
51866,-83.3333333333333,4,2,2,75,0,1
52157,-83.3333333333333,4,2,1,75,0,1
53249,-83.3333333333333,4,2,1,5,0,1
53322,-83.3333333333333,4,2,1,75,0,1
54123,-83.3333333333333,4,2,1,5,0,1
54196,-83.3333333333333,4,2,2,75,0,1
54269,-83.3333333333333,4,2,1,75,0,1
54633,-83.3333333333333,4,2,2,75,0,1
54851,-83.3333333333333,4,2,2,5,0,1
54924,-250,4,2,2,75,0,1
55142,-83.3333333333333,4,2,2,5,0,1
55215,-83.3333333333333,4,2,1,75,0,1
56744,-83.3333333333333,4,2,1,5,0,1
56817,-83.3333333333333,4,2,1,75,0,1
57036,-83.3333333333333,4,2,1,5,0,1
57108,-83.3333333333333,4,2,1,75,0,1
58710,-83.3333333333333,4,2,2,75,0,1
59002,-83.3333333333333,4,2,1,75,0,1
60531,-83.3333333333333,4,2,1,5,0,1
60603,-83.3333333333333,4,2,1,75,0,1
60822,-83.3333333333333,4,2,1,5,0,1
60895,-83.3333333333333,4,2,1,75,0,1
61186,-83.3333333333333,4,2,2,75,0,1
61332,-83.3333333333333,4,2,1,75,0,1
62060,-100,4,2,1,75,0,1
62642,-90.9090909090909,4,2,2,75,0,1
62861,-83.3333333333333,4,2,2,5,0,1
62934,-83.3333333333333,4,2,2,75,0,1
63152,-83.3333333333333,4,2,2,5,0,1
63225,-111.111111111111,4,2,2,75,0,1
63443,-83.3333333333333,4,2,2,5,0,1
63516,-500.000000000005,4,2,1,75,0,1
64171,-83.3333333333333,4,2,1,5,0,1
64244,-83.3333333333333,4,2,1,75,0,1
65628,-83.3333333333333,4,2,1,5,0,1
65701,-83.3333333333333,4,2,1,75,0,1
65846,-90.9090909090909,4,2,1,70,0,0
66065,-90.9090909090909,4,2,1,5,0,0
66137,-90.9090909090909,4,2,1,70,0,0
68176,-90.9090909090909,4,2,2,70,0,0
68322,-90.9090909090909,4,2,1,70,0,0
68686,-90.9090909090909,4,2,1,5,0,0
68759,-90.9090909090909,4,2,1,70,0,0
70725,-90.9090909090909,4,2,1,5,0,0
70798,-90.9090909090909,4,2,1,70,0,0
74438,-333.333333333334,4,2,2,70,0,0
74730,-90.9090909090909,4,2,2,50,0,0
75167,-100,4,2,1,60,0,0
75385,-100,4,2,1,5,0,0
75458,-100,4,2,1,60,0,0
77424,-100,4,2,1,5,0,0
77497,-100,4,2,1,60,0,0
78589,-100,4,2,1,5,0,0
78662,-100,4,2,1,60,0,0
79244,-90.9090909090909,4,2,1,60,0,0
79827,-83.3333333333333,4,2,1,70,0,0
80264,-83.3333333333333,4,2,2,70,0,0
80482,-83.3333333333333,4,2,2,5,0,0
80555,-83.3333333333333,4,2,1,70,0,0
82594,-90.9090909090909,4,2,1,70,0,0
83031,-83.3333333333333,4,2,1,70,0,0
83249,-83.3333333333333,4,2,1,5,0,0
83322,-100,4,2,2,70,0,0
83468,-100,4,2,1,70,0,0
84196,-83.3333333333333,4,2,1,70,0,0
84487,-90.9090909090909,4,2,1,60,0,0
84997,-90.9090909090909,4,2,1,5,0,0
85070,-90.9090909090909,4,2,1,60,0,0
86162,-90.9090909090909,4,2,1,5,0,0
86235,-90.9090909090909,4,2,1,60,0,0
87909,-90.9090909090909,4,2,1,5,0,0
87982,-100,4,2,1,60,0,0
89147,-83.3333333333333,4,2,1,70,0,0
89584,-83.3333333333333,4,2,2,70,0,0
89803,-83.3333333333333,4,2,1,5,0,0
89875,-83.3333333333333,4,2,1,70,0,0
91477,-90.9090909090909,4,2,2,70,0,0
91769,-90.9090909090909,4,2,1,70,0,0
92351,-76.9230769230769,4,2,1,70,0,0
92570,-90.9090909090909,4,2,1,5,0,0
92642,-90.9090909090909,4,2,1,70,0,0
93807,-200,4,2,1,40,0,0
94171,-90.9090909090909,4,2,1,5,0,0
94244,-76.9230769230769,4,2,1,70,0,0
94390,-76.9230769230769,4,2,1,70,0,0
94536,-76.9230769230769,4,2,1,5,0,0
94608,-76.9230769230769,4,2,1,70,0,0
94754,-76.9230769230769,4,2,1,5,0,0
94827,-76.9230769230769,4,2,1,70,0,0
94900,-76.9230769230769,4,2,1,5,0,0
94972,-111.111111111111,4,2,1,60,0,0
95701,-90.9090909090908,4,2,1,60,0,0
99341,-76.9230769230769,4,2,2,60,0,0
99560,-90.9090909090909,4,2,1,5,0,0
99633,-83.3333333333333,4,2,1,70,0,0
104002,-71.4285714285714,4,2,1,70,0,0
104220,-71.4285714285714,4,2,1,5,0,0
104293,-125,4,2,1,60,0,0
105094,-90.9090909090909,4,2,1,5,0,0
105167,-76.9230769230769,4,2,1,60,0,0
105385,-76.9230769230769,4,2,1,5,0,0
105458,-58.8235294117647,4,2,1,70,0,0
105555,-58.8235294117647,4,2,1,5,0,0
105652,-66.6666666666667,4,2,1,70,0,0
105749,-58.8235294117647,4,2,1,5,0,0
105846,-66.6666666666667,4,2,1,70,0,0
105943,-66.6666666666667,4,2,1,5,0,0
106040,-200,4,2,1,70,0,0
106550,-76.9230769230769,4,2,1,5,0,0
106623,-83.3333333333333,4,2,1,75,0,1
108006,-83.3333333333333,4,2,1,5,0,1
108079,-83.3333333333333,4,2,1,75,0,1
109972,-83.3333333333333,4,2,2,75,0,1
110264,-83.3333333333333,4,2,1,75,0,1
111502,-83.3333333333333,4,2,1,5,0,1
111574,-83.3333333333333,4,2,1,75,0,1
112375,-83.3333333333333,4,2,1,5,0,1
112448,-83.3333333333333,4,2,2,75,0,1
112739,-83.3333333333333,4,2,1,75,0,1
113322,-90.9090909090909,4,2,1,75,0,1
113540,-90.9090909090909,4,2,1,5,0,1
113613,-90.9090909090909,4,2,1,75,0,1
113832,-83.3333333333333,4,2,1,5,0,1
113904,-83.3333333333333,4,2,1,75,0,1
114705,-83.3333333333333,4,2,1,5,0,1
114778,-83.3333333333333,4,2,2,75,0,1
114851,-83.3333333333333,4,2,1,75,0,1
115215,-83.3333333333333,4,2,2,75,0,1
115434,-83.3333333333333,4,2,2,5,0,1
115506,-83.3333333333333,4,2,2,75,0,1
115725,-83.3333333333333,4,2,2,5,0,1
115798,-83.3333333333333,4,2,1,75,0,1
117327,-83.3333333333333,4,2,1,5,0,1
117400,-83.3333333333333,4,2,1,75,0,1
118201,-83.3333333333333,4,2,1,5,0,1
118273,-83.3333333333333,4,2,1,75,0,1
119293,-83.3333333333333,4,2,2,75,0,1
119584,-83.3333333333333,4,2,1,75,0,1
121113,-83.3333333333333,4,2,1,5,0,1
121186,-83.3333333333333,4,2,1,75,0,1
121404,-83.3333333333333,4,2,1,5,0,1
121477,-83.3333333333333,4,2,1,75,0,1
121769,-83.3333333333333,4,2,2,75,0,1
121914,-83.3333333333333,4,2,1,75,0,1
121987,-83.3333333333333,4,2,1,5,0,1
122060,-83.3333333333333,4,2,1,75,0,1
122278,-83.3333333333333,4,2,1,5,0,1
122351,-83.3333333333333,4,2,1,75,0,1
122570,-83.3333333333333,4,2,1,5,0,1
122642,-100,4,2,1,75,0,1
124099,-500,4,2,1,70,0,0
124827,-500,4,2,2,5,0,0
124972,-222.222222222222,4,2,2,60,0,0
125701,-500,4,2,2,5,0,0
125846,-90.9090909090909,4,2,2,60,0,0
126429,-500,4,2,1,60,0,0
127157,-500,4,2,2,5,0,0
127303,-500,4,2,2,60,0,0
128031,-500,4,2,2,5,0,0
128176,-90.9090909090909,4,2,2,60,0,0
128759,-500,4,2,1,60,0,0
128904,-90.9090909090909,4,2,2,60,0,0
130603,-500,4,2,2,5,0,0
130701,-500,4,2,2,60,0,0
130798,-500,4,2,2,5,0,0
130895,-500,4,2,2,60,0,0
130992,-500,4,2,2,5,0,0
131089,-333.333333333333,4,2,1,60,0,0
131380,-500,4,2,2,5,0,0
131526,-250,4,2,2,60,0,0
131817,-500,4,2,2,5,0,0
131963,-166.666666666667,4,2,2,60,0,0
132327,-500,4,2,2,5,0,0
132400,-500,4,2,2,5,0,0
132472,-500,4,2,2,40,0,0
132545,-111.111111111111,4,2,2,40,0,0
132837,-76.9230769230769,4,2,2,70,0,0
132934,-76.9230769230769,4,2,2,5,0,0
133031,-76.9230769230769,4,2,2,70,0,0
133128,-76.9230769230769,4,2,2,5,0,0
133225,-76.9230769230769,4,2,2,70,0,0
133322,-76.9230769230769,4,2,2,5,0,0
133419,-83.3333333333333,4,2,1,70,0,0
133637,-83.3333333333333,4,2,1,5,0,0
133710,-90.9090909090909,4,2,1,70,0,0
147400,-166.666666666667,4,2,1,50,0,0
148492,-125,4,2,1,5,0,0
148565,-125,4,2,1,50,0,0
149730,-125,4,2,1,35,0,0
149875,-125,4,2,1,5,0,0
150021,-111.111111111111,4,2,1,45,0,0
150167,-100,4,2,1,5,0,0
150312,-100,4,2,1,55,0,0
150458,-90.9090909090909,4,2,1,5,0,0
150603,-90.9090909090909,4,2,1,55,0,0
150749,-90.9090909090909,4,2,1,5,0,0
150895,-90.9090909090909,4,2,1,70,0,0
150968,-100,4,2,1,5,0,0
151477,-111.111111111111,4,2,1,70,0,0
152060,-83.3333333333333,4,2,2,70,0,0
152278,-83.3333333333333,4,2,1,5,0,0
152351,-76.9230769230769,4,2,1,70,0,0
152642,-76.9230769230769,4,2,1,40,0,0
152788,-76.9230769230769,4,2,1,50,0,0
152934,-76.9230769230769,4,2,1,60,0,0
153079,-83.3333333333333,4,2,1,70,0,0
153225,-83.3333333333333,4,2,1,75,0,1
154608,-83.3333333333333,4,2,1,5,0,1
154681,-83.3333333333333,4,2,1,75,0,1
156574,-83.3333333333333,4,2,2,75,0,1
156866,-83.3333333333333,4,2,1,75,0,1
158103,-83.3333333333333,4,2,1,5,0,1
158176,-83.3333333333333,4,2,1,75,0,1
158977,-83.3333333333333,4,2,1,5,0,1
159050,-83.3333333333333,4,2,2,75,0,1
159341,-83.3333333333333,4,2,1,75,0,1
160434,-83.3333333333333,4,2,1,5,0,1
160506,-83.3333333333333,4,2,1,75,0,1
161307,-83.3333333333333,4,2,1,5,0,1
161380,-83.3333333333333,4,2,2,75,0,1
161453,-83.3333333333333,4,2,1,75,0,1
161817,-83.3333333333333,4,2,2,75,0,1
161890,-83.3333333333333,4,2,2,5,0,1
162108,-83.3333333333333,4,2,2,75,0,1
162181,-83.3333333333333,4,2,2,5,0,1
162254,-83.3333333333333,4,2,1,75,0,1
162837,-76.9230769230769,4,2,1,75,0,1
163055,-76.9230769230769,4,2,1,5,0,1
163128,-83.3333333333333,4,2,2,75,0,1
163419,-83.3333333333333,4,2,1,75,0,1
163637,-83.3333333333333,4,2,1,5,0,1
163710,-83.3333333333333,4,2,2,75,0,1
163929,-83.3333333333333,4,2,2,5,0,1
164002,-83.3333333333333,4,2,1,75,0,1
164293,-83.3333333333333,4,2,2,75,0,1
164438,-83.3333333333333,4,2,1,75,0,1
165458,-83.3333333333333,4,2,2,75,0,1
165676,-83.3333333333333,4,2,1,5,0,1
165749,-83.3333333333333,4,2,1,75,0,1
167060,-76.9230769230769,4,2,1,75,0,1
167715,-76.9230769230769,4,2,1,5,0,1
167788,-76.9230769230769,4,2,1,75,0,1
168298,-76.9230769230769,4,2,1,5,0,1
168370,-76.9230769230769,4,2,1,75,0,1
171283,-333.333333333333,4,2,1,50,0,1
171720,-83.3333333333333,4,2,1,60,0,1
171866,-90.9090909090909,4,2,1,70,0,0
172084,-90.9090909090909,4,2,1,5,0,0
172157,-90.9090909090909,4,2,1,70,0,0
176744,-90.9090909090909,4,2,1,5,0,0
176817,-90.9090909090909,4,2,1,70,0,0
179875,-76.9230769230769,4,2,2,70,0,0
180094,-90.9090909090909,4,2,1,5,0,0
180167,-83.3333333333333,4,2,1,70,0,0
181404,-83.3333333333333,4,2,1,5,0,0
181477,-83.3333333333333,4,2,1,70,0,0
182205,-83.3333333333333,4,2,2,70,0,0
182351,-83.3333333333333,4,2,1,70,0,0
184536,-83.3333333333333,4,2,2,70,0,0
184827,-83.3333333333333,4,2,1,70,0,0
185555,-76.9230769230769,4,2,1,70,0,0
185773,-83.3333333333333,4,2,1,5,0,0
185846,-76.9230769230769,4,2,1,70,0,0
186065,-83.3333333333333,4,2,1,5,0,0
186137,-83.3333333333333,4,2,1,70,0,0
188176,-100,4,2,2,70,0,0
188613,-83.3333333333333,4,2,2,70,0,0
189924,-83.3333333333333,4,2,1,90,0,0
192837,-83.3333333333333,4,2,1,50,0,0
193419,-83.3333333333333,4,2,1,40,0,0
194002,-83.3333333333333,4,2,1,30,0,0
194584,-83.3333333333333,4,2,1,20,0,0
195021,-83.3333333333333,4,2,1,5,0,0

[Colours]
Combo1 : 255,223,128
Combo2 : 255,157,255
Combo3 : 255,183,219
Combo4 : 255,172,132

[HitObjects]
191,301,604,6,0,P|253:286|322:278,1,132,2|0,0:0|0:0,0:0:0:0:
380,365,1040,1,0,0:0:0:0:
468,305,1186,2,0,P|481:273|483:238,1,66,2|0,0:0|0:0,0:0:0:0:
372,76,1477,1,0,0:0:0:0:
298,148,1623,2,0,P|310:211|322:290,1,132,2|0,0:0|0:0,0:0:0:0:
240,368,2060,2,0,P|212:363|172:358,1,66,0|0,0:0|0:0,0:0:0:0:
38,266,2351,2,0,P|101:256|168:239,1,132,2|0,0:0|0:0,0:0:0:0:
262,211,2788,1,0,0:0:0:0:
216,117,2934,6,0,P|279:101|332:137,1,132,2|0,0:0|0:0,0:0:0:0:
386,229,3370,1,0,0:0:0:0:
474,165,3516,2,0,P|466:129|462:95,1,66,2|0,0:0|0:0,0:0:0:0:
367,317,3807,5,8,0:1:0:0:
367,317,3880,1,8,0:1:0:0:
367,317,3953,2,0,B|249:284|249:284|212:312|231:361,1,197.99999395752,12|8,0:0|0:0,0:0:0:0:
332,137,4390,5,8,0:0:0:0:
132,265,4536,1,8,0:1:0:0:
301,379,4681,5,8,0:0:0:0:
172,77,4827,1,8,0:0:0:0:
16,287,4972,5,8,0:0:0:0:
45,281,5044,1,8,0:0:0:0:
74,276,5117,1,8,0:0:0:0:
103,271,5190,1,8,0:0:0:0:
132,265,5264,6,0,P|122:216|112:177,1,90.7500027694703,12|0,0:1|0:0,0:0:0:0:
297,52,5555,2,0,P|285:95|276:140,1,90.7500027694703,8|2,0:0|0:0,0:0:0:0:
415,364,5846,1,10,0:1:0:0:
477,278,5992,2,0,P|441:254|388:264,1,90.7500027694703,8|8,0:1|0:0,0:0:0:0:
192,383,6283,2,0,B|238:334|238:334|207:214,1,181.500005538941,10|8,0:1|0:1,0:0:0:0:
91,38,6720,2,0,P|61:76|72:126,1,90.7500027694703,8|2,0:0|0:0,0:0:0:0:
209,223,7011,2,0,P|253:211|299:203,1,90.7500027694703,10|8,0:1|0:1,0:0:0:0:
462,85,7303,5,8,0:0:0:0:
289,14,7448,1,2,0:0:0:0:
289,14,7521,1,0,0:0:0:0:
289,14,7594,2,0,P|284:53|274:113,1,90.7500027694703,8|2,0:1|0:0,0:0:0:0:
455,286,7885,2,0,P|391:271|346:318,1,136.125004154205,8|0,0:0|0:0,0:0:0:0:
335,344,8176,2,0,P|294:335|236:327,1,90.7500027694703,10|10,0:1|0:1,0:0:0:0:
49,220,8468,1,8,0:0:0:0:
129,362,8613,2,0,P|149:257|169:179,1,181.500005538941,8|8,0:1|0:1,0:0:0:0:
121,37,9050,5,8,0:0:0:0:
271,261,9196,1,8,0:1:0:0:
351,50,9341,5,8,0:0:0:0:
121,209,9487,1,8,0:1:0:0:
445,148,9633,5,8,0:0:0:0:
245,25,9778,1,8,0:0:0:0:
245,25,9851,1,8,0:0:0:0:
245,25,9924,2,0,P|255:70|269:144,1,90.7500027694703,12|0,0:1|0:0,0:0:0:0:
441,341,10215,2,0,P|449:296|459:252,1,90.7500027694703,8|2,0:0|0:0,0:0:0:0:
163,192,10506,1,10,0:1:0:0:
253,286,10652,2,0,P|299:291|342:260,1,90.7500027694703,8|8,0:1|0:0,0:0:0:0:
464,84,10943,6,0,B|410:15|341:61|341:61|365:112,1,181.500005538941,10|10,0:1|0:1,0:0:0:0:
458,252,11380,1,8,0:0:0:0:
231,183,11526,1,2,0:0:0:0:
313,374,11671,2,0,P|320:324|328:282,1,90.7500027694703,10|8,0:1|0:1,0:0:0:0:
212,17,11963,2,0,L|233:151,1,136.125004154205,8|0,0:0|0:0,0:0:0:0:
231,183,12254,6,0,L|140:169,1,90.7500027694703,12|2,0:1|0:0,0:0:0:0:
18,333,12545,2,0,L|109:319,1,90.7500027694703,8|2,0:0|0:0,0:0:0:0:
327,284,12837,1,10,0:1:0:0:
141,169,12982,1,8,0:1:0:0:
238,383,13128,1,8,0:0:0:0:
408,219,13273,6,0,B|318:204|344:279|239:259,1,181.500005538941,12|8,0:1|0:1,0:0:0:0:
27,156,13710,1,8,0:0:0:0:
93,340,13856,1,8,0:0:0:0:
93,340,13929,1,8,0:0:0:0:
93,340,14002,6,0,P|101:292|115:237,1,90.7500027694703,8|8,0:0|0:0,0:0:0:0:
61,52,14293,1,8,0:0:0:0:
222,228,14438,1,8,0:0:0:0:
322,201,14584,1,8,0:3:0:0:
422,174,14730,1,8,0:3:0:0:
140,106,14875,5,4,0:3:0:0:
401,283,15021,1,4,0:3:0:0:
401,283,15094,1,8,0:1:0:0:
401,283,15167,1,8,0:1:0:0:
239,359,15312,6,0,L|271:158,1,197.99999395752,12|0,0:0|0:0,0:0:0:0:
285,53,15749,5,12,0:1:0:0:
285,53,16040,6,0,B|230:67|230:67|209:104|209:104|145:119,1,165,8|10,0:0|0:1,0:0:0:0:
4,86,16477,1,8,0:1:0:0:
36,266,16623,2,0,P|47:226|54:185,1,82.5,8|2,0:0|0:0,0:0:0:0:
117,361,16914,2,0,P|200:345|279:336,1,165,10|8,0:1|0:0,0:0:0:0:
464,274,17351,1,0,0:0:0:0:
387,111,17497,2,0,P|378:147|370:207,1,82.5,8|8,0:1|0:1,0:0:0:0:
279,335,17788,2,0,P|273:294|263:254,1,82.5,8|0,0:0|0:0,0:0:0:0:
58,65,18079,5,10,0:1:0:0:
127,147,18225,1,2,0:0:0:0:
220,94,18370,1,8,0:0:0:0:
54,52,18516,1,2,0:0:0:0:
121,170,18662,2,0,P|112:206|104:260,1,82.5,10|8,0:1|0:1,0:0:0:0:
222,368,18953,2,0,P|264:318|248:257,1,123.75,8|0,0:0|0:0,0:0:0:0:
237,239,19244,6,0,P|278:244|327:255,1,82.5,8|0,0:1|0:0,0:0:0:0:
491,107,19536,2,0,P|450:115|409:120,1,82.5,8|0,0:0|0:1,0:0:0:0:
158,68,19827,1,10,0:1:0:0:
248,0,19972,2,0,P|272:32|267:87,1,82.5,10|8,0:1|0:0,0:0:0:0:
107,334,20264,1,8,0:0:0:0:
107,334,20337,1,8,0:0:0:0:
107,334,20409,6,0,B|156:256|236:306|236:306|209:360,1,197.99999395752,12|8,0:1|0:0,0:0:0:0:
8,120,20846,6,0,B|89:134|89:134|106:162|106:162|188:175,1,197.99999395752,12|8,0:1|0:1,0:0:0:0:
477,127,21283,1,8,0:0:0:0:
378,21,21429,6,0,P|309:76|332:175,1,197.99999395752,12|8,0:1|0:1,0:0:0:0:
488,275,21866,6,0,P|452:251|386:265,1,90.7500027694703,8|0,0:0|0:0,0:0:0:0:
332,354,22157,2,0,P|296:378|230:364,1,90.7500027694703,10|8,0:1|0:1,0:0:0:0:
69,256,22448,1,8,0:0:0:0:
146,384,22594,1,0,0:0:0:0:
146,384,22667,1,0,0:0:0:0:
146,384,22739,6,0,P|161:286|177:202,1,181.500005538941,12|8,0:1|0:0,0:0:0:0:
13,89,23176,1,0,0:0:0:0:
102,22,23322,2,0,P|112:63|121:119,1,90.7500027694703,10|8,0:1|0:1,0:0:0:0:
293,64,23613,2,0,P|249:72|211:50,1,90.7500027694703,10|0,0:0|0:0,0:0:0:0:
40,220,23904,5,12,0:1:0:0:
315,187,24050,1,10,0:1:0:0:
211,50,24196,5,8,0:0:0:0:
143,329,24341,1,8,0:0:0:0:
143,329,24414,1,8,0:0:0:0:
143,329,24487,5,8,0:0:0:0:
180,246,24633,1,8,0:0:0:0:
123,175,24778,1,8,0:0:0:0:
39,206,24924,1,8,0:0:0:0:
143,329,25070,6,0,P|235:313|325:305,1,181.500005538941,12|8,0:1|0:0,0:0:0:0:
493,221,25506,1,0,0:0:0:0:
408,153,25652,2,0,P|381:187|394:248,1,90.7500027694703,10|8,0:1|0:1,0:0:0:0:
478,55,25943,2,0,P|431:46|375:32,1,90.7500027694703,8|2,0:0|0:0,0:0:0:0:
289,173,26235,2,0,P|226:180|145:197,1,136.125004154205,10|0,0:1|0:0,0:0:0:0:
129,181,26526,2,0,P|104:146|122:85,1,90.7500027694703,8|0,0:0|0:0,0:0:0:0:
194,16,26817,1,8,0:1:0:0:
0,50,26963,1,8,0:1:0:0:
129,181,27108,2,0,P|119:220|109:278,1,90.7500027694703,8|0,0:0|0:0,0:0:0:0:
194,382,27400,5,10,0:1:0:0:
287,202,27545,1,2,0:0:0:0:
451,349,27691,5,8,0:0:0:0:
224,282,27837,1,2,0:0:0:0:
346,351,27982,6,0,P|353:306|363:262,1,90.7500027694703,10|8,0:1|0:1,0:0:0:0:
179,29,28273,2,0,P|188:73|196:117,1,90.7500027694703,8|0,0:0|0:0,0:0:0:0:
224,282,28565,5,8,0:1:0:0:
94,218,28710,1,8,0:1:0:0:
328,185,28856,5,8,0:0:0:0:
243,375,29002,1,8,0:1:0:0:
70,211,29147,5,8,0:0:0:0:
346,174,29293,1,8,0:1:0:0:
197,143,29438,5,8,0:0:0:0:
199,163,29510,1,8,0:0:0:0:
203,185,29583,1,8,0:3:0:0:
207,208,29656,1,4,0:3:0:0:
210,230,29730,6,0,B|173:227|142:220|142:220|99:250|99:250|62:240|4:236,1,197.99999395752,12|8,0:1|0:0,0:0:0:0:
304,333,30167,6,0,P|392:364|461:293,1,197.99999395752,12|10,0:1|0:1,0:0:0:0:
210,118,30603,1,8,0:0:0:0:
392,38,30749,6,0,P|378:122|362:264,1,197.99999395752,12|8,0:1|0:1,0:0:0:0:
143,373,31186,6,0,P|102:326|124:260,1,136.125004154205,8|0,0:0|0:0,0:0:0:0:
142,247,31477,2,0,P|184:256|232:261,1,90.7500027694703,10|8,0:1|0:1,0:0:0:0:
509,182,31769,1,8,0:0:0:0:
392,38,31914,1,0,0:0:0:0:
392,38,31987,1,0,0:0:0:0:
392,38,32060,2,0,P|399:78|408:137,1,90.7500027694703,12|0,0:1|0:0,0:0:0:0:
246,351,32351,2,0,P|239:311|230:252,1,90.7500027694703,8|0,0:0|0:0,0:0:0:0:
297,96,32642,5,10,0:1:0:0:
385,339,32788,1,8,0:1:0:0:
441,233,32934,2,0,P|396:229|337:221,1,90.7500027694703,8|8,0:0|0:1,0:0:0:0:
73,176,33225,5,12,0:0:0:0:
313,91,33370,1,8,0:0:0:0:
231,261,33516,5,8,0:3:0:0:
139,33,33662,1,8,0:3:0:0:
82,319,33807,5,4,0:3:0:0:
157,369,33953,1,4,0:3:0:0:
245,345,34099,1,8,0:1:0:0:
274,256,34244,1,8,0:1:0:0:
229,179,34390,6,0,P|155:197|81:209,1,148.49999546814,12|0,0:1|0:0,0:0:0:0:
274,256,34972,2,0,P|322:263|372:276,1,98.9999969787599,2|0,0:0|0:0,0:0:0:0:
471,205,35409,2,0,L|462:149,1,49.4999984893799,2|0,0:0|0:0,0:0:0:0:
425,44,35701,1,0,0:0:0:0:
352,89,35846,2,0,L|345:138,1,49.4999984893799,2|0,0:0|0:0,0:0:0:0:
274,256,36137,1,0,0:0:0:0:
201,209,36283,2,0,L|193:160,1,49.4999984893799,2|0,0:0|0:0,0:0:0:0:
12,65,36574,1,0,0:0:0:0:
104,17,36720,6,0,P|119:88|71:145,1,148.49999546814,4|0,0:0|0:0,0:0:0:0:
0,265,37303,2,0,P|22:256|59:252,1,49.4999984893799,2|0,0:0|0:0,0:0:0:0:
136,282,37594,1,0,0:0:0:0:
67,346,37739,2,0,P|45:355|8:359,1,49.4999984893799,2|0,0:0|0:0,0:0:0:0:
117,190,38031,1,0,0:0:0:0:
234,321,38176,2,0,P|229:346|224:390,1,49.4999984893799,2|0,0:0|0:0,0:0:0:0:
117,190,38468,6,0,P|166:200|204:170,1,99
264,96,38759,2,0,P|217:89|166:80,1,99,4|0,0:0|0:0,0:0:0:0:
278,243,39050,6,0,P|320:234|373:227,1,90.7500027694703,12|0,0:1|0:0,0:0:0:0:
511,49,39341,2,0,P|466:42|421:33,1,90.7500027694703,8|8,0:0|0:3,0:0:0:0:
202,172,39633,1,10,0:1:0:0:
178,259,39778,1,10,0:1:0:0:
228,334,39924,1,8,0:0:0:0:
318,341,40070,1,0,0:0:0:0:
318,341,40142,1,0,0:0:0:0:
318,341,40215,6,0,P|327:288|331:240,1,90.7500027694703,10|8,0:1|0:1,0:0:0:0:
302,55,40506,1,8,0:0:0:0:
202,172,40652,2,0,L|263:161,1,45.3750013847352,8|4,0:3|0:3,0:0:0:0:
386,147,40798,1,10,0:1:0:0:
330,251,40943,1,8,0:1:0:0:
302,55,41089,2,0,L|198:43,1,90.7500027694703,8|0,0:0|0:0,0:0:0:0:
44,326,41380,6,0,P|87:332|130:303,1,90.7500027694703,10|8,0:1|0:1,0:0:0:0:
219,174,41671,1,8,0:0:0:0:
49,127,41817,1,8,0:3:0:0:
53,147,41889,1,4,0:3:0:0:
57,167,41962,5,10,0:1:0:0:
289,261,42108,1,4,0:3:0:0:
206,71,42254,5,2,3:2:0:0:
125,309,42400,1,8,0:0:0:0:
345,173,42545,2,0,L|255:159,1,90.7500027694703,2|8,0:0|0:1,0:0:0:0:
35,323,42837,2,0,L|125:309,1,90.7500027694703,8|12,0:0|0:3,0:0:0:0:
153,290,43055,1,4,0:3:0:0:
153,290,43128,2,0,P|157:246|126:193,1,90.7500027694703,10|8,0:1|0:1,0:0:0:0:
0,58,43419,6,0,B|29:66|57:70|57:70|80:100|80:100|117:103|162:116,1,173.24999471283,12|0,0:0|0:0,0:0:0:0:
279,58,43710,6,0,B|248:57|221:35|221:35|254:197,1,198,12|8,0:1|0:1,0:0:0:0:
328,226,44220,5,8,0:1:0:0:
338,234,44293,2,0,P|347:281|311:320,1,99,12|0,0:0|0:0,0:0:0:0:
279,322,44584,2,0,P|231:305|170:299,1,99,10|0,0:1|0:0,0:0:0:0:
104,313,44875,5,10,0:0:0:0:
129,176,45167,5,8,0:1:0:0:
159,38,45458,5,8,0:0:0:0:
179,74,45530,1,8,0:0:0:0:
171,117,45603,1,8,0:0:0:0:
137,141,45676,1,8,0:0:0:0:
95,138,45749,1,8,0:1:0:0:
65,107,46040,6,0,B|114:120|144:122|144:122|173:158|173:158|207:156|260:170,1,197.99999395752,12|8,0:1|0:0,0:0:0:0:
489,311,46477,1,0,0:0:0:0:
386,371,46623,2,0,P|378:322|372:268,1,98.9999969787599,10|8,0:1|0:1,0:0:0:0:
280,52,46914,2,0,P|274:97|265:151,1,98.9999969787599,8|0,0:0|0:0,0:0:0:0:
92,352,47205,6,0,B|145:276|221:326|221:326|199:368,1,197.99999395752,10|10,0:1|0:0,0:0:0:0:
0,215,47642,1,0,0:0:0:0:
175,98,47788,2,0,P|126:90|68:77,1,98.9999969787599,10|8,0:1|0:1,0:0:0:0:
229,246,48079,2,0,P|279:234|336:225,1,98.9999969787599,10|0,0:0|0:0,0:0:0:0:
510,117,48370,6,0,P|441:50|354:89,1,197.99999395752,10|10,0:1|0:0,0:0:0:0:
298,343,48807,1,0,0:0:0:0:
404,288,48953,2,0,P|410:238|418:190,1,98.9999969787599,10|8,0:1|0:1,0:0:0:0:
121,138,49244,1,8,0:0:0:0:
222,15,49390,6,0,P|240:97|261:225,1,197.99999395752,12|8,0:1|0:1,0:0:0:0:
414,346,49827,2,0,P|373:315|313:335,1,98.9999969787599,10|2,0:0|0:0,0:0:0:0:
92,237,50118,1,10,0:1:0:0:
188,384,50264,2,0,P|195:334|206:283,1,98.9999969787599,10|8,0:1|0:0,0:0:0:0:
471,74,50555,1,8,0:0:0:0:
471,74,50628,1,8,0:0:0:0:
471,74,50701,6,0,B|491:121|455:153|455:153|332:123,1,197.99999395752,12|10,0:1|0:0,0:0:0:0:
70,80,51137,1,0,0:0:0:0:
161,17,51283,2,0,P|169:61|175:114,1,98.9999969787599,10|8,0:1|0:1,0:0:0:0:
342,320,51574,2,0,P|347:270|356:222,1,98.9999969787599,10|0,0:0|0:0,0:0:0:0:
471,74,51866,6,0,B|368:56|406:149|278:125,1,197.99999395752,12|8,0:1|0:0,0:0:0:0:
105,56,52303,6,0,B|139:45|161:23|161:23|134:172,1,197.99999395752,12|10,0:1|0:1,0:0:0:0:
73,299,52739,6,0,P|109:269|173:284,1,98.9999969787599,8|2,0:0|0:0,0:0:0:0:
394,349,53031,1,12,0:1:0:0:
214,178,53176,1,0,0:0:0:0:
266,376,53322,2,0,P|274:325|286:269,1,98.9999969787599,10|0,0:0|0:0,0:0:0:0:
466,35,53613,5,10,0:1:0:0:
378,240,53759,1,8,0:1:0:0:
292,65,53904,5,10,0:0:0:0:
489,193,54050,1,0,0:0:0:0:
318,347,54196,5,12,3:1:0:0:
281,337,54268,1,8,3:2:0:0:
245,327,54341,1,8,0:0:0:0:
210,318,54414,1,8,0:0:0:0:
174,309,54487,1,8,0:0:0:0:
0,75,54633,6,0,P|41:22|120:51,1,148.49999546814,12|0,0:1|0:0,0:0:0:0:
156,104,54924,6,0,L|146:152,1,49.5,12|0,0:1|0:0,0:0:0:0:
187,217,55215,6,0,B|262:204|262:204|295:233|295:233|392:214,1,197.99999395752,12|8,0:1|0:1,0:0:0:0:
336,29,55652,2,0,P|330:77|320:137,1,98.9999969787599,8|0,0:0|0:0,0:0:0:0:
235,317,55943,1,10,0:1:0:0:
57,170,56089,1,8,0:1:0:0:
31,268,56235,2,0,P|82:275|122:246,1,98.9999969787599,8|0,0:0|0:0,0:0:0:0:
316,93,56526,6,0,P|264:44|184:75,1,148.49999546814,10|0,0:1|0:0,0:0:0:0:
174,90,56817,2,0,P|184:136|195:213,1,98.9999969787599,10|0,0:0|0:0,0:0:0:0:
382,368,57108,2,0,P|388:319|396:270,1,98.9999969787599,10|8,0:1|0:1,0:0:0:0:
416,108,57400,1,10,0:0:0:0:
275,304,57545,1,2,0:0:0:0:
275,304,57618,1,0,0:0:0:0:
275,304,57691,6,0,P|240:331|172:322,1,98.9999969787599,10|0,0:1|0:0,0:0:0:0:
8,111,57982,2,0,P|43:84|111:93,1,98.9999969787599,10|0,0:0|0:0,0:0:0:0:
320,214,58273,1,10,0:1:0:0:
218,49,58419,2,0,L|204:147,1,98.9999969787599,8|8,0:1|0:0,0:0:0:0:
187,330,58710,6,0,B|244:253|319:306|319:306|276:379,1,197.99999395752,12|8,0:1|0:1,0:0:0:0:
22,199,59147,1,10,0:0:0:0:
80,358,59293,2,0,L|101:250,1,98.9999969787599,2|10,0:0|0:1,0:0:0:0:
133,42,59584,1,10,0:1:0:0:
263,241,59730,1,8,0:0:0:0:
437,77,59875,5,2,0:0:0:0:
437,77,59948,1,0,0:0:0:0:
437,77,60021,2,0,P|465:114|447:180,1,98.9999969787599,12|0,0:1|0:0,0:0:0:0:
328,302,60312,2,0,P|255:284|150:275,1,148.49999546814,10|0,0:1|0:0,0:0:0:0:
160,298,60603,6,0,P|172:364|242:355,1,148.49999546814,10|0,0:1|0:0,0:0:0:0:
251,345,60895,1,10,0:1:0:0:
170,126,61040,1,0,0:0:0:0:
170,126,61113,1,0,0:0:0:0:
170,126,61186,5,12,0:1:0:0:
73,270,61332,1,8,0:1:0:0:
26,59,61477,5,8,0:0:0:0:
215,280,61623,1,2,0:0:0:0:
256,6,61769,5,4,0:3:0:0:
58,284,61914,1,2,0:0:0:0:
348,205,62060,6,0,L|96:169,1,247.5,12|0,0:1|0:0,0:0:0:0:
380,4,62642,6,0,B|393:61|393:61|390:82|390:82|404:137,1,136.125004154205,12|0,0:1|0:0,0:0:0:0:
436,270,62934,6,0,P|498:242|481:173,1,148.49999546814,12|0,0:1|0:0,0:0:0:0:
403,136,63225,6,0,L|293:153,1,111.374996601105,12|0,0:1|0:0,0:0:0:0:
278,178,63516,6,0,L|359:166,1,82.5,12|4,0:1|1:2,0:0:0:0:
256,192,64317,12,0,65628,0:0:0:0:
440,226,65701,5,4,0:3:0:0:
440,226,65773,1,4,0:3:0:0:
440,226,65846,2,0,P|457:290|392:344,1,136.125004154205,12|0,0:1|0:0,0:0:0:0:
383,346,66137,2,0,P|334:333|286:327,1,90.7500027694703,8|2,0:0|0:0,0:0:0:0:
109,117,66429,1,10,0:1:0:0:
89,234,66574,2,0,P|133:227|177:215,1,90.7500027694703,8|8,0:1|0:0,0:0:0:0:
426,46,66866,6,0,B|400:41|365:21|365:21|405:160,1,181.500005538941,10|10,0:1|0:1,0:0:0:0:
275,358,67303,1,8,0:0:0:0:
435,262,67448,1,2,0:0:0:0:
435,262,67521,1,0,0:0:0:0:
435,262,67594,2,0,P|387:255|329:244,1,90.7500027694703,10|8,0:1|0:1,0:0:0:0:
68,189,67885,1,8,0:0:0:0:
275,358,68031,1,2,0:0:0:0:
197,170,68176,6,0,P|186:214|176:275,1,90.7500027694703,12|2,0:1|0:0,0:0:0:0:
0,74,68468,2,0,P|64:84|105:34,1,136.125004154205,8|0,0:0|0:0,0:0:0:0:
108,14,68759,1,10,0:1:0:0:
334,150,68904,2,0,L|232:172,1,90.7500027694703,10|8,0:1|0:0,0:0:0:0:
101,380,69196,6,0,B|116:293|116:293|111:275|111:275|124:188,1,181.500005538941,8|8,0:1|0:1,0:0:0:0:
140,25,69633,5,8,0:0:0:0:
238,246,69778,1,8,0:1:0:0:
296,69,69924,5,8,0:0:0:0:
122,201,70070,1,8,0:1:0:0:
413,153,70215,5,8,0:0:0:0:
309,358,70361,1,8,0:0:0:0:
309,358,70434,1,8,0:0:0:0:
309,358,70506,6,0,P|301:311|289:265,1,90.7500027694703,12|0,0:1|0:0,0:0:0:0:
114,131,70798,2,0,P|146:161|196:156,1,90.7500027694703,8|2,0:0|0:0,0:0:0:0:
457,39,71089,1,10,0:1:0:0:
325,14,71235,2,0,P|332:58|343:102,1,90.7500027694703,8|8,0:1|0:0,0:0:0:0:
485,269,71526,6,0,B|451:279|422:283|422:283|403:316|403:316|364:320|317:340,1,181.500005538941,10|10,0:1|0:1,0:0:0:0:
136,266,71963,2,0,P|130:307|116:376,1,90.7500027694703,8|2,0:0|0:0,0:0:0:0:
86,164,72254,1,10,0:1:0:0:
255,250,72400,2,0,P|300:256|338:217,1,90.7500027694703,8|8,0:1|0:0,0:0:0:0:
450,38,72691,1,2,0:0:0:0:
450,38,72764,1,0,0:0:0:0:
450,38,72837,6,0,P|402:33|356:25,1,90.7500027694703,12|2,0:1|0:0,0:0:0:0:
86,164,73128,2,0,P|131:168|175:176,1,90.7500027694703,8|2,0:0|0:0,0:0:0:0:
405,307,73419,1,10,0:1:0:0:
299,368,73565,2,0,P|274:329|283:284,1,90.7500027694703,8|8,0:1|0:0,0:0:0:0:
452,137,73856,1,8,0:0:0:0:
454,152,73929,1,8,0:0:0:0:
457,167,74002,5,8,0:0:0:0:
177,263,74147,1,8,0:3:0:0:
287,119,74293,1,4,0:3:0:0:
392,375,74438,6,0,L|401:317,1,49.4999984893799,12|2,0:1|0:0,0:0:0:0:
416,228,74875,1,2,0:0:0:0:
416,228,75167,6,0,B|360:239|360:239|337:267|337:267|261:285,1,165,12|8,0:1|0:0,0:0:0:0:
61,322,75603,1,0,0:0:0:0:
153,377,75749,2,0,P|161:334|167:287,1,82.5,10|10,0:1|0:1,0:0:0:0:
129,55,76040,1,8,0:0:0:0:
0,125,76186,1,2,0:0:0:0:
112,206,76332,2,0,L|198:189,1,82.5,10|2,0:1|0:0,0:0:0:0:
400,323,76623,2,0,P|323:339|267:283,1,165,8|8,0:0|0:1,0:0:0:0:
301,84,77060,1,8,0:1:0:0:
374,169,77205,2,0,P|361:209|350:256,1,82.5,8|0,0:0|0:0,0:0:0:0:
184,376,77497,5,10,0:1:0:0:
30,201,77642,1,2,0:0:0:0:
97,334,77788,2,0,P|105:291|115:245,1,82.5,8|2,0:0|0:0,0:0:0:0:
137,97,78079,1,10,0:1:0:0:
193,187,78225,1,8,0:1:0:0:
285,131,78370,2,0,P|330:124|365:113,1,82.5,10|0,0:0|0:0,0:0:0:0:
510,87,78662,5,8,0:1:0:0:
303,25,78807,1,8,0:1:0:0:
354,230,78953,5,8,0:0:0:0:
423,0,79099,1,8,0:1:0:0:
512,199,79244,6,0,P|468:187|423:177,1,90.7500027694703,8|8,0:0|0:1,0:0:0:0:
125,130,79536,1,8,0:0:0:0:
238,354,79681,1,8,0:0:0:0:
238,354,79754,1,8,0:0:0:0:
238,354,79827,6,0,B|306:290|256:222|256:222|229:236|208:271,1,197.99999395752,12|8,0:1|0:0,0:0:0:0:
0,146,80264,6,0,B|41:140|75:129|75:129|111:156|111:156|146:144|202:134,1,197.99999395752,12|10,0:1|0:1,0:0:0:0:
391,267,80701,1,8,0:0:0:0:
394,56,80846,6,0,B|364:51|339:25|339:25|371:174,1,197.99999395752,12|8,0:1|0:1,0:0:0:0:
314,353,81283,6,0,P|274:320|212:343,1,98.9999969787599,8|0,0:0|0:0,0:0:0:0:
53,211,81574,1,10,0:1:0:0:
120,360,81720,2,0,P|129:308|142:250,1,98.9999969787599,8|8,0:1|0:0,0:0:0:0:
49,49,82011,1,0,0:0:0:0:
49,49,82084,1,0,0:0:0:0:
49,49,82157,6,0,B|23:98|66:125|66:125|199:92,1,197.99999395752,12|8,0:1|0:0,0:0:0:0:
407,54,82594,1,2,0:0:0:0:
282,27,82739,2,0,P|288:68|303:121,1,90.7500027694703,10|10,0:1|0:1,0:0:0:0:
463,327,83031,6,0,P|411:273|329:316,1,148.49999546814,8|0,0:0|0:0,0:0:0:0:
336,305,83322,1,12,0:1:0:0:
75,227,83468,1,8,0:0:0:0:
75,227,83540,1,8,0:0:0:0:
75,227,83613,1,8,0:0:0:0:
301,115,83759,1,8,0:0:0:0:
223,366,83904,5,8,0:0:0:0:
215,323,83976,1,8,0:0:0:0:
209,282,84049,1,8,0:0:0:0:
204,243,84122,1,8,0:0:0:0:
197,202,84196,2,0,L|189:133,1,49.4999984893799,8|8,0:3|0:3,0:0:0:0:
36,73,84341,2,0,L|30:122,1,49.4999984893799,4|4,0:3|0:3,0:0:0:0:
31,317,84487,6,0,P|113:295|209:281,1,181.500005538941,12|12,0:1|0:0,0:0:0:0:
448,280,84924,1,0,0:0:0:0:
381,360,85070,2,0,P|337:369|294:326,1,90.7500027694703,10|10,0:1|0:1,0:0:0:0:
225,187,85361,1,8,0:0:0:0:
440,67,85506,1,2,0:0:0:0:
331,34,85652,6,0,P|337:75|349:139,1,90.7500027694703,10|0,0:1|0:0,0:0:0:0:
216,321,85943,2,0,P|259:276|225:194,1,136.125004154205,10|0,0:0|0:0,0:0:0:0:
225,187,86235,2,0,P|182:198|127:211,1,90.7500027694703,8|8,0:1|0:1,0:0:0:0:
361,358,86526,2,0,P|404:345|448:335,1,90.7500027694703,8|0,0:0|0:0,0:0:0:0:
509,182,86817,5,10,0:1:0:0:
345,123,86963,1,2,0:0:0:0:
381,254,87108,5,8,0:0:0:0:
447,47,87254,1,2,0:0:0:0:
214,102,87400,2,0,P|172:89|122:80,1,90.7500027694703,10|8,0:1|0:1,0:0:0:0:
37,236,87691,2,0,P|95:257|144:185,1,136.125004154205,10|0,0:0|0:1,0:0:0:0:
150,186,87982,5,8,0:1:0:0:
1,60,88128,1,8,0:1:0:0:
190,0,88273,5,8,0:0:0:0:
0,152,88419,1,8,0:1:0:0:
234,243,88565,5,8,0:0:0:0:
82,113,88710,1,8,0:1:0:0:
16,332,88856,5,8,0:0:0:0:
45,337,88928,1,8,0:0:0:0:
76,344,89001,1,8,0:3:0:0:
106,350,89074,1,4,0:3:0:0:
136,356,89147,6,0,P|164:274|67:244,1,197.99999395752,12|8,0:1|0:0,0:0:0:0:
259,25,89584,6,0,B|244:107|244:107|251:123|251:123|234:219,1,197.99999395752,12|10,0:1|0:1,0:0:0:0:
358,350,90021,1,8,0:0:0:0:
512,132,90167,6,0,B|405:111|445:204|325:181,1,197.99999395752,12|8,0:1|0:1,0:0:0:0:
35,99,90603,2,0,P|71:66|131:83,1,98.9999969787599,8|0,0:0|0:0,0:0:0:0:
187,269,90895,2,0,L|204:168,1,98.9999969787599,10|8,0:1|0:1,0:0:0:0:
229,0,91186,1,8,0:0:0:0:
410,160,91332,5,0,0:0:0:0:
410,160,91404,1,0,0:0:0:0:
410,160,91477,2,0,P|372:187|311:167,1,90.7500027694703,12|0,0:1|0:0,0:0:0:0:
117,71,91769,2,0,L|99:166,1,90.7500027694703,8|0,0:0|0:0,0:0:0:0:
52,369,92060,1,10,0:1:0:0:
217,174,92205,1,8,0:1:0:0:
9,231,92351,2,0,B|70:249|70:249|91:282|91:282|184:306,1,160.874992635727,10|0,0:0|0:0,0:0:0:0:
169,300,92642,5,10,0:1:0:0:
377,170,92788,1,8,0:1:0:0:
180,60,92934,5,8,0:0:0:0:
347,352,93079,1,8,0:0:0:0:
347,352,93152,1,8,0:0:0:0:
347,352,93225,1,8,0:0:0:0:
113,220,93370,5,8,0:0:0:0:
245,195,93516,1,8,0:0:0:0:
377,170,93662,1,8,0:0:0:0:
113,60,93807,6,0,L|97:192,1,123.75,2|8,0:0|0:0,0:0:0:0:
113,220,94317,5,8,0:0:0:0:
113,220,94390,2,0,P|153:254|212:239,1,107.249995090485,8|0,0:0|0:0,0:0:0:0:
258,151,94608,2,0,P|298:117|358:133,1,107.249995090485,8|0,0:3|0:0,0:0:0:0:
442,203,94827,2,0,P|448:227|456:265,1,53.6249975452424,4|0,0:3|0:0,0:0:0:0:
362,358,94972,6,0,P|351:319|340:274,1,74.2499977340699,12|2,0:1|0:0,0:0:0:0:
442,74,95264,1,10,0:1:0:0:
375,143,95409,1,2,0:0:0:0:
280,123,95555,1,10,0:1:0:0:
250,30,95701,2,0,P|226:37|201:42,1,45.3750013847352,2|2,0:0|0:0,0:0:0:0:
161,124,95846,2,0,P|116:108|69:103,1,90.7500027694703,10|2,0:1|0:0,0:0:0:0:
82,306,96137,5,10,0:1:0:0:
146,234,96282,1,2,0:0:0:0:
241,254,96428,1,10,0:1:0:0:
270,347,96574,1,2,0:0:0:0:
365,367,96720,1,10,0:1:0:0:
429,295,96866,2,0,P|424:271|422:245,1,45.3750013847352,2|2,0:0|0:0,0:0:0:0:
350,190,97011,2,0,P|365:148|377:86,1,90.7500027694703,10|2,0:1|0:0,0:0:0:0:
206,13,97303,5,8,0:1:0:0:
108,83,97448,1,2,0:0:0:0:
181,176,97594,1,10,0:1:0:0:
83,246,97739,2,0,P|95:284|106:332,1,90.7500027694703,2|8,0:0|0:1,0:0:0:0:
252,373,98031,5,2,0:0:0:0:
377,196,98176,1,10,0:1:0:0:
442,292,98322,2,0,P|405:315|345:302,1,90.7500027694703,2|8,0:0|0:1,0:0:0:0:
181,176,98613,5,2,0:0:0:0:
390,59,98759,1,10,0:1:0:0:
264,35,98904,2,0,P|275:75|287:132,1,90.7500027694703,2|10,0:0|0:1,0:0:0:0:
50,294,99196,5,2,0:0:0:0:
111,378,99341,2,0,P|168:321|137:240,1,160.874992635727,12|0,0:1|0:0,0:0:0:0:
81,181,99633,6,0,P|131:173|188:159,1,98.9999969787599,12|0,0:1|0:0,0:0:0:0:
491,77,99924,2,0,P|441:69|384:55,1,98.9999969787599,8|0,0:0|0:0,0:0:0:0:
163,1,100215,5,8,0:0:0:0:
303,241,100361,1,8,0:1:0:0:
394,58,100506,5,8,0:0:0:0:
150,275,100652,1,8,0:1:0:0:
253,29,100798,6,0,P|262:73|272:131,1,98.9999969787599,8|0,0:0|0:0,0:0:0:0:
434,341,101089,2,0,P|442:292|452:243,1,98.9999969787599,8|8,0:0|0:1,0:0:0:0:
492,78,101380,5,8,0:0:0:0:
226,205,101526,1,8,0:1:0:0:
452,243,101671,5,8,0:0:0:0:
179,92,101817,1,8,0:1:0:0:
310,376,101963,6,0,P|318:323|333:258,1,98.9999969787599,12|0,0:0|0:0,0:0:0:0:
95,31,102254,2,0,P|86:85|72:149,1,98.9999969787599,8|8,0:0|0:1,0:0:0:0:
49,273,102545,5,8,0:0:0:0:
288,164,102691,1,8,0:1:0:0:
0,62,102837,5,8,0:0:0:0:
231,271,102982,1,8,0:1:0:0:
377,73,103128,5,12,0:0:0:0:
116,207,103273,1,8,0:1:0:0:
470,245,103419,5,8,0:0:0:0:
206,37,103565,1,8,0:0:0:0:
206,37,103637,1,8,0:0:0:0:
206,37,103710,2,0,P|219:91|226:137,1,98.9999969787599,8|8,0:0|0:0,0:0:0:0:
422,359,104002,6,0,P|346:344|368:270,1,173.24999471283,10|0,0:1|0:0,0:0:0:0:
470,245,104293,6,0,P|375:248|271:213,1,198,12|8,0:1|0:1,0:0:0:0:
227,301,104803,1,8,0:1:0:0:
227,301,104875,2,0,P|177:305|125:327,1,99,12|0,0:0|0:0,0:0:0:0:
57,261,105167,5,8,0:1:0:0:
73,162,105312,1,0,0:0:0:0:
92,62,105458,2,0,B|130:70|130:70|141:82|141:82|187:91,1,93.500001783371,10|0,1:2|0:0,0:0:0:0:
309,17,105652,6,0,P|325:54|334:113,1,82.5000031471254,10|0,1:2|0:0,0:0:0:0:
483,164,105846,6,0,P|468:201|432:249,1,82.5000031471254,10|0,1:2|0:0,0:0:0:0:
254,324,106040,6,0,P|246:265|319:280,1,144.375,4|0,0:3|0:0,0:0:0:0:
350,355,106623,6,0,B|269:344|269:344|239:371|239:371|153:357,1,197.99999395752,12|8,0:1|0:0,0:0:0:0:
20,178,107060,1,0,0:0:0:0:
111,109,107205,2,0,P|123:156|133:224,1,98.9999969787599,10|8,0:1|0:1,0:0:0:0:
266,334,107497,2,0,P|273:285|286:237,1,98.9999969787599,8|0,0:0|0:0,0:0:0:0:
477,106,107788,6,0,P|409:171|316:143,1,197.99999395752,10|10,0:1|0:0,0:0:0:0:
379,49,108225,1,0,0:0:0:0:
214,210,108370,2,0,P|204:157|191:105,1,98.9999969787599,10|8,0:1|0:1,0:0:0:0:
57,268,108662,2,0,P|93:297|156:281,1,98.9999969787599,10|2,0:0|0:0,0:0:0:0:
379,49,108953,6,0,B|335:28|335:28|286:115|374:165,1,197.99999395752,10|10,0:1|0:0,0:0:0:0:
347,351,109390,1,0,0:0:0:0:
510,269,109536,2,0,P|463:266|407:257,1,98.9999969787599,10|8,0:1|0:1,0:0:0:0:
96,193,109827,1,8,0:0:0:0:
202,367,109972,6,0,B|219:269|219:269|215:251|215:251|230:162,1,197.99999395752,12|8,0:1|0:1,0:0:0:0:
449,60,110409,1,10,0:0:0:0:
320,28,110555,2,0,P|331:73|340:130,1,98.9999969787599,2|10,0:0|0:1,0:0:0:0:
472,294,110846,2,0,P|432:262|377:272,1,98.9999969787599,10|8,0:1|0:0,0:0:0:0:
152,334,111137,1,8,0:0:0:0:
152,334,111210,1,8,0:0:0:0:
152,334,111283,6,0,B|181:349|208:369|208:369|181:212,1,197.99999395752,12|10,0:1|0:0,0:0:0:0:
71,56,111720,1,0,0:0:0:0:
7,151,111866,2,0,P|44:180|100:170,1,98.9999969787599,10|8,0:1|0:1,0:0:0:0:
302,32,112157,1,10,0:0:0:0:
430,269,112303,1,0,0:0:0:0:
485,106,112448,6,0,B|416:120|416:120|394:159|394:159|304:180,1,197.99999395752,12|8,0:1|0:0,0:0:0:0:
114,350,112885,6,0,P|196:343|158:245,1,197.99999395752,12|10,0:1|0:1,0:0:0:0:
62,14,113322,6,0,L|40:162,1,136.125004154205,8|0,0:0|0:0,0:0:0:0:
37,176,113613,5,12,0:1:0:0:
250,118,113759,1,0,0:0:0:0:
378,285,113904,5,10,0:0:0:0:
178,251,114050,1,0,0:0:0:0:
395,109,114196,5,10,0:1:0:0:
258,363,114341,1,8,0:1:0:0:
41,148,114487,2,0,L|141:132,1,98.9999969787599,10|0,0:0|0:0,0:0:0:0:
478,57,114778,5,12,0:1:0:0:
452,22,114850,1,8,3:2:0:0:
413,4,114923,1,8,0:0:0:0:
370,7,114996,1,8,0:0:0:0:
334,30,115070,1,8,0:0:0:0:
365,254,115215,6,0,P|377:179|401:87,1,148.49999546814,12|0,0:1|0:0,0:0:0:0:
242,5,115506,6,0,P|228:78|282:116,1,148.49999546814,12|0,0:1|0:0,0:0:0:0:
460,281,115798,6,0,B|390:270|390:270|353:299|353:299|266:282,1,197.99999395752,12|8,0:1|0:1,0:0:0:0:
0,166,116235,2,0,P|36:137|100:147,1,98.9999969787599,8|0,0:0|0:0,0:0:0:0:
263,191,116526,1,10,0:1:0:0:
80,320,116671,1,8,0:1:0:0:
192,351,116817,2,0,P|185:302|175:247,1,98.9999969787599,8|0,0:0|0:0,0:0:0:0:
14,40,117108,6,0,B|-13:85|31:118|31:118|80:103|136:90,1,197.99999395752,10|10,0:1|0:0,0:0:0:0:
462,105,117545,1,0,0:0:0:0:
453,218,117691,2,0,P|415:256|358:253,1,98.9999969787599,10|8,0:1|0:1,0:0:0:0:
224,155,117982,2,0,P|231:103|244:43,1,98.9999969787599,10|0,0:0|0:0,0:0:0:0:
48,237,118273,6,0,B|172:215|108:322|263:288,1,197.99999395752,10|10,0:1|0:0,0:0:0:0:
410,207,118710,1,0,0:0:0:0:
357,384,118856,2,0,P|348:337|334:286,1,98.9999969787599,10|8,0:1|0:1,0:0:0:0:
447,29,119147,1,8,0:0:0:0:
349,100,119293,2,0,P|419:168|506:143,1,197.99999395752,12|8,0:1|0:1,0:0:0:0:
276,0,119730,5,10,0:0:0:0:
349,100,119875,1,2,0:0:0:0:
248,186,120021,1,10,0:1:0:0:
321,286,120167,2,0,P|369:275|423:268,1,98.9999969787599,10|12,0:1|0:0,0:0:0:0:
176,79,120458,5,2,0:0:0:0:
176,79,120531,1,0,0:0:0:0:
176,79,120603,2,0,P|128:90|74:97,1,98.9999969787599,12|0,0:1|0:0,0:0:0:0:
110,358,120895,6,0,P|173:305|144:231,1,148.49999546814,10|0,0:1|0:0,0:0:0:0:
151,222,121186,6,0,P|227:206|297:195,1,148.49999546814,10|0,0:1|0:0,0:0:0:0:
318,192,121477,1,10,0:0:0:0:
510,290,121623,1,0,0:0:0:0:
510,290,121696,1,2,0:0:0:0:
510,290,121769,6,0,P|501:357|433:355,1,148.49999546814,12|0,0:1|0:0,0:0:0:0:
392,281,122060,6,0,P|403:203|415:134,1,148.49999546814,10|0,0:0|0:0,0:0:0:0:
344,73,122351,6,0,B|293:85|293:85|270:119|270:119|208:134,1,148.49999546814,4|0,0:3|0:0,0:0:0:0:
72,80,122642,6,0,B|113:71|137:34|137:34|105:215,1,247.5,12|8,0:1|0:1,0:0:0:0:
82,349,123225,5,10,0:0:0:0:
356,226,123370,1,8,0:1:0:0:
166,140,123516,5,10,0:0:0:0:
298,327,123662,1,8,0:1:0:0:
379,45,123807,5,10,0:0:0:0:
179,262,123953,1,8,0:0:0:0:
480,310,124099,5,12,0:1:0:0:
124,129,124972,5,12,0:1:0:0:
295,358,125846,6,0,P|307:288|319:220,2,121.000003692627,12|12|12,0:1|0:1|0:1,0:0:0:0:
337,108,126429,5,12,0:1:0:0:
32,297,127303,5,12,0:1:0:0:
123,67,128176,6,0,P|136:128|146:193,2,121.000003692627,12|12|12,0:1|0:1|0:1,0:0:0:0:
28,146,128759,5,14,0:1:0:0:
146,186,128904,1,2,0:0:0:0:
249,102,129050,1,2,0:0:0:0:
369,144,129195,1,2,0:0:0:0:
369,144,129633,5,12,0:1:0:0:
249,102,129778,1,2,0:0:0:0:
146,186,129924,1,2,0:0:0:0:
28,146,130069,1,2,0:0:0:0:
267,231,130506,6,0,P|253:295|242:363,2,121.000003692627,12|12|12,0:1|0:1|0:1,0:0:0:0:
452,63,131089,6,0,P|457:90|466:117,1,49.4999984893799,12|0,0:1|0:0,0:0:0:0:
354,280,131526,6,0,P|361:246|366:203,1,66,2|0,0:0|0:0,0:0:0:0:
174,116,131963,6,0,P|241:139|291:91,1,148.49999546814,12|0,0:1|0:0,0:0:0:0:
487,248,132545,6,0,L|509:223,1,18.5624994335175,2|2,0:0|0:0,0:0:0:0:
469,228,132618,6,0,L|483:206,1,18.5624994335175,2|2,0:0|0:0,0:0:0:0:
447,217,132691,6,0,L|453:194,1,18.5624994335175,2|2,0:0|0:0,0:0:0:0:
421,216,132764,6,0,L|421:188,1,18.5624994335175,2|2,0:0|0:0,0:0:0:0:
398,227,132837,6,0,P|387:264|382:309,1,71.4999967269899,12|0,0:1|0:0,0:0:0:0:
179,328,133031,6,0,P|164:295|144:265,1,71.4999967269899,12|0,0:1|0:0,0:0:0:0:
236,105,133225,6,0,P|246:139|251:174,1,71.4999967269899,12|0,0:1|0:0,0:0:0:0:
65,344,133419,6,0,P|11:300|39:225,1,148.49999546814,12|0,0:1|0:0,0:0:0:0:
53,212,133710,2,0,P|99:221|149:226,1,90.7500027694703,10|0,0:0|0:0,0:0:0:0:
426,297,134002,1,10,0:1:0:0:
332,364,134147,2,0,P|309:324|318:275,1,90.7500027694703,10|8,0:1|0:0,0:0:0:0:
503,129,134438,2,0,P|453:122|408:115,1,90.7500027694703,2|8,0:0|0:1,0:0:0:0:
163,43,134730,5,2,0:0:0:0:
164,35,134802,1,2,0:0:0:0:
166,27,134875,1,8,0:0:0:0:
261,118,135021,1,2,0:0:0:0:
147,172,135167,1,10,0:1:0:0:
245,247,135312,2,0,P|295:237|353:229,1,90.7500027694703,10|10,0:1|0:0,0:0:0:0:
495,341,135603,6,0,B|453:365|453:365|400:308|456:241,1,181.500005538941,2|2,0:0|0:0,0:0:0:0:
327,40,136040,2,0,P|337:81|346:131,1,90.7500027694703,10|0,0:0|0:0,0:0:0:0:
129,266,136332,1,10,0:1:0:0:
226,335,136477,2,0,P|234:290|244:246,1,90.7500027694703,10|8,0:1|0:0,0:0:0:0:
157,112,136769,2,0,P|101:174|4:131,1,181.500005538941,2|2,0:0|0:0,0:0:0:0:
170,7,137205,5,8,0:0:0:0:
260,172,137351,2,0,P|303:160|359:151,1,90.7500027694703,2|10,0:0|0:1,0:0:0:0:
207,267,137642,1,8,0:1:0:0:
403,72,137788,1,10,0:0:0:0:
441,94,137860,1,10,0:0:0:0:
461,134,137933,1,10,0:0:0:0:
457,178,138006,1,10,0:0:0:0:
429,213,138079,5,12,0:1:0:0:
180,152,138225,1,2,0:0:0:0:
180,152,138298,1,2,0:0:0:0:
180,152,138370,1,10,0:0:0:0:
388,336,138516,1,2,0:0:0:0:
239,345,138662,2,0,P|250:297|258:256,1,90.7500027694703,10|10,0:1|0:1,0:0:0:0:
211,26,138953,1,10,0:0:0:0:
11,149,139099,6,0,B|76:135|76:135|118:166|118:166|178:152,1,181.500005538941,2|2,0:0|0:0,0:0:0:0:
204,143,139463,1,2,0:0:0:0:
204,143,139536,1,8,0:0:0:0:
398,55,139681,2,0,P|359:32|303:49,1,90.7500027694703,2|8,0:0|0:1,0:0:0:0:
224,285,139972,1,10,0:1:0:0:
329,219,140118,2,0,P|334:170|343:123,1,90.7500027694703,10|2,0:0|0:0,0:0:0:0:
502,302,140409,6,0,B|404:286|446:370|319:347,1,181.500005538941,12|10,0:1|0:0,0:0:0:0:
150,215,140846,1,2,0:0:0:0:
208,374,140992,2,0,P|214:331|225:280,1,90.7500027694703,10|10,0:1|0:1,0:0:0:0:
60,28,141283,5,8,0:0:0:0:
30,61,141355,1,8,0:0:0:0:
27,105,141428,1,8,0:3:0:0:
53,142,141501,1,4,0:3:0:0:
95,154,141574,2,0,B|160:142|160:142|206:167|206:167|287:150,1,181.500005538941,12|8,0:0|0:1,0:0:0:0:
448,98,142011,6,0,B|415:91|393:63|393:63|425:197,1,181.500005538941,12|8,0:0|0:1,0:0:0:0:
340,349,142448,6,0,L|261:339,1,45.3750013847352,12|8,0:0|0:3,0:0:0:0:
217,247,142594,6,0,L|262:252,1,45.3750013847352,4|4,0:3|0:3,0:0:0:0:
443,276,142739,5,12,0:1:0:0:
208,331,147400,6,0,P|274:299|353:306,1,148.49999546814,2|2,0:0|0:0,0:0:0:0:
433,359,147909,1,2,0:0:0:0:
434,343,147982,2,0,P|438:313|447:284,1,49.4999984893799,2|0,0:0|0:0,0:0:0:0:
378,208,148273,2,0,P|375:183|368:159,1,49.4999984893799,2|0,0:0|0:0,0:0:0:0:
496,40,148565,6,0,P|451:81|371:54,1,132,2|0,0:0|0:0,0:0:0:0:
156,176,149002,6,0,P|222:183|287:197,1,132,2|0,0:0|0:0,0:0:0:0:
60,360,149438,6,0,P|54:327|45:295,1,66,2|0,0:0|0:0,0:0:0:0:
142,112,149730,6,0,P|147:144|156:176,1,66,2|0,0:0|0:0,0:0:0:0:
291,342,150021,6,0,P|327:342|361:319,1,74.2499977340699,2|0,0:0|0:0,0:0:0:0:
364,49,150312,6,0,P|334:79|330:131,1,82.5,2|0,0:0|0:0,0:0:0:0:
511,222,150603,6,0,P|466:214|417:207,1,90.7500027694703,2|0,0:0|0:0,0:0:0:0:
160,236,150895,6,0,P|164:256|168:280,1,45.3750013847352,8|0,1:0|0:0,0:0:0:0:
112,348,151477,6,0,P|58:328|0:320,2,98.9999969787599,8|8|8,0:3|0:1|0:1,0:0:0:0:
316,50,152060,6,0,P|372:93|347:159,1,148.49999546814,12|0,0:1|0:0,0:0:0:0:
199,260,152351,5,8,3:1:0:0:
199,260,152424,1,0,3:0:0:0:
199,260,152497,2,0,P|194:230|186:198,1,53.6249975452424,0|0,3:0|3:0,0:0:0:0:
470,278,152641,5,8,1:0:0:0:
470,278,152714,1,0,1:0:0:0:
470,278,152788,2,0,P|455:300|443:324,1,53.6249975452424,0|0,1:0|1:0,0:0:0:0:
300,369,152934,5,8,1:0:0:0:
309,325,153006,1,0,1:0:0:0:
320,281,153079,1,0,1:0:0:0:
330,237,153152,1,0,1:0:0:0:
341,196,153225,6,0,B|271:212|271:212|246:253|246:253|160:274,1,197.99999395752,12|12,0:1|0:0,0:0:0:0:
5,70,153662,1,0,0:0:0:0:
137,40,153807,2,0,P|128:86|120:142,1,98.9999969787599,10|8,0:1|0:1,0:0:0:0:
258,362,154099,2,0,P|267:316|275:260,1,98.9999969787599,8|0,0:0|0:0,0:0:0:0:
413,55,154390,6,0,P|356:124|251:94,1,197.99999395752,10|10,0:1|0:0,0:0:0:0:
101,285,154827,1,0,0:0:0:0:
64,179,154972,2,0,P|113:187|176:194,1,98.9999969787599,10|8,0:1|0:1,0:0:0:0:
467,245,155264,1,10,0:0:0:0:
245,288,155409,1,0,0:0:0:0:
342,372,155555,6,0,B|357:281|357:281|350:257|350:257|361:165,1,197.99999395752,10|10,0:1|0:0,0:0:0:0:
150,98,155992,1,0,0:0:0:0:
243,32,156137,2,0,L|260:132,1,98.9999969787599,10|8,0:1|0:1,0:0:0:0:
118,370,156429,1,8,0:0:0:0:
18,289,156574,2,0,P|82:223|180:262,1,197.99999395752,12|8,0:1|0:1,0:0:0:0:
325,378,157011,5,10,0:0:0:0:
469,271,157157,1,2,0:0:0:0:
259,129,157303,1,10,0:1:0:0:
341,290,157448,2,0,P|351:235|363:187,1,98.9999969787599,10|8,0:1|0:0,0:0:0:0:
256,12,157739,1,8,0:0:0:0:
256,12,157812,1,8,0:0:0:0:
256,12,157885,6,0,B|192:27|192:27|161:76|161:76|83:98,1,197.99999395752,12|10,0:1|0:0,0:0:0:0:
10,274,158322,1,0,0:0:0:0:
138,348,158468,2,0,P|144:298|152:250,1,98.9999969787599,10|8,0:1|0:1,0:0:0:0:
372,299,158759,2,0,P|332:326|284:318,1,98.9999969787599,10|0,0:0|0:0,0:0:0:0:
299,104,159050,6,0,P|395:122|511:134,1,197.99999395752,12|8,0:1|0:0,0:0:0:0:
248,5,159487,6,0,P|181:72|212:169,1,197.99999395752,12|10,0:1|0:1,0:0:0:0:
421,252,159924,5,8,0:0:0:0:
181,294,160070,1,2,0:0:0:0:
316,368,160215,2,0,P|309:314|298:257,1,98.9999969787599,12|0,0:1|0:0,0:0:0:0:
508,36,160506,2,0,P|499:84|492:133,1,98.9999969787599,10|0,0:0|0:0,0:0:0:0:
473,295,160798,5,10,0:1:0:0:
272,149,160943,1,8,0:1:0:0:
316,368,161089,5,10,0:0:0:0:
413,67,161235,1,0,0:0:0:0:
490,259,161380,5,12,0:1:0:0:
446,252,161452,1,8,3:2:0:0:
402,247,161525,1,8,0:0:0:0:
358,242,161598,1,8,0:0:0:0:
314,237,161671,1,8,0:0:0:0:
88,345,161817,6,0,L|79:296,1,49.4999984893799,12|0,0:1|0:0,0:0:0:0:
413,67,162108,6,0,L|421:115,1,49.4999984893799,12|0,0:1|0:0,0:0:0:0:
60,193,162400,6,0,B|92:202|130:208|130:208|154:255|154:255|189:262|237:276,1,197.99999395752,12|8,0:1|0:1,0:0:0:0:
456,357,162837,6,0,B|420:379|420:379|365:330|405:252,1,160.874992635727,12|0,0:0|0:0,0:0:0:0:
458,200,163128,2,0,P|410:193|343:178,1,98.9999969787599,12|0,0:1|0:0,0:0:0:0:
71,56,163419,2,0,P|113:9|201:39,1,148.49999546814,12|0,0:0|0:0,0:0:0:0:
244,95,163710,6,0,P|231:165|223:242,1,148.49999546814,12|0,0:1|0:0,0:0:0:0:
284,306,164002,2,0,P|331:293|391:286,1,98.9999969787599,12|0,0:0|0:0,0:0:0:0:
134,150,164293,2,0,P|87:163|27:170,1,98.9999969787599,12|0,0:1|0:0,0:0:0:0:
114,327,164584,5,12,0:0:0:0:
388,140,164730,1,2,0:0:0:0:
292,364,164875,2,0,L|272:254,1,98.9999969787599,12|0,0:1|0:0,0:0:0:0:
75,9,165167,2,0,L|57:106,1,98.9999969787599,12|0,0:0|0:0,0:0:0:0:
29,300,165458,5,12,0:1:0:0:
169,71,165603,1,8,0:1:0:0:
385,222,165749,1,8,0:0:0:0:
201,382,165895,6,0,B|216:287|216:287|210:265|210:265|225:176,1,197.99999395752,12|8,0:1|0:1,0:0:0:0:
87,11,166332,1,10,0:0:0:0:
4,143,166477,2,0,P|45:171|95:168,1,98.9999969787599,2|8,0:0|0:1,0:0:0:0:
335,72,166769,2,0,L|354:178,1,98.9999969787599,10|12,0:1|0:0,0:0:0:0:
201,382,167060,5,8,0:0:0:0:
201,382,167133,1,8,0:0:0:0:
201,382,167205,1,10,0:1:0:0:
144,101,167351,1,8,0:1:0:0:
41,205,167497,2,0,B|101:222|101:222|118:259|118:259|197:281,1,160.874992635727,14|0,0:0|0:0,0:0:0:0:
256,296,167788,5,10,0:1:0:0:
368,0,167934,1,8,0:1:0:0:
472,104,168079,2,0,B|412:121|412:121|395:158|395:158|316:180,1,160.874992635727,12|0,0:0|0:0,0:0:0:0:
256,192,168370,5,10,0:1:0:0:
497,281,168516,1,8,0:1:0:0:
348,384,168662,2,0,P|356:328|368:260,1,107.249995090485,12|0,0:0|0:0,0:0:0:0:
160,23,168953,2,0,P|152:79|140:147,1,107.249995090485,10|8,0:1|0:1,0:0:0:0:
111,374,169244,1,12,0:0:0:0:
266,94,169390,1,8,0:0:0:0:
266,94,169463,1,8,0:0:0:0:
266,94,169536,1,8,0:0:0:0:
4,232,169681,5,8,0:3:0:0:
127,247,169827,1,4,0:3:0:0:
250,264,169972,1,10,0:1:0:0:
412,93,170118,5,8,0:0:0:0:
198,194,170264,1,8,0:3:0:0:
443,280,170409,5,4,0:3:0:0:
258,54,170555,1,8,0:1:0:0:
111,374,170701,5,12,0:0:0:0:
111,374,171283,6,0,L|123:299,1,74.2499977340699,2|8,0:0|0:0,0:0:0:0:
50,57,171866,6,0,P|-2:105|26:162,1,136.125004154205,12|0,0:1|0:0,0:0:0:0:
52,176,172157,2,0,P|98:165|150:157,1,90.7500027694703,8|2,0:0|0:0,0:0:0:0:
380,317,172448,1,10,0:1:0:0:
258,344,172594,2,0,P|266:296|272:240,1,90.7500027694703,8|8,0:1|0:0,0:0:0:0:
205,70,172885,2,0,B|316:54|262:148|391:121,1,181.500005538941,10|10,0:1|0:1,0:0:0:0:
466,27,173322,1,8,0:0:0:0:
383,214,173468,1,2,0:0:0:0:
383,214,173540,1,0,0:0:0:0:
383,214,173613,2,0,P|376:170|367:125,1,90.7500027694703,10|8,0:1|0:1,0:0:0:0:
224,294,173904,2,0,P|258:322|310:313,1,90.7500027694703,8|2,0:0|0:0,0:0:0:0:
212,188,174196,6,0,B|154:202|154:202|133:243|133:243|42:266,1,181.500005538941,10|8,0:1|0:0,0:0:0:0:
68,148,174633,1,2,0:0:0:0:
210,383,174778,2,0,P|216:338|224:294,1,90.7500027694703,10|10,0:1|0:1,0:0:0:0:
380,64,175070,1,8,0:0:0:0:
477,131,175215,2,0,P|417:196|333:172,1,181.500005538941,10|8,0:1|0:1,0:0:0:0:
158,25,175652,5,8,0:0:0:0:
224,294,175798,1,8,0:1:0:0:
299,85,175943,5,8,0:0:0:0:
76,242,176089,1,8,0:1:0:0:
387,290,176235,5,8,0:0:0:0:
206,383,176380,1,8,0:0:0:0:
206,383,176453,1,8,0:0:0:0:
206,383,176526,6,0,P|216:337|224:288,1,90.7500027694703,12|0,0:1|0:0,0:0:0:0:
104,67,176817,2,0,P|81:105|91:154,1,90.7500027694703,8|2,0:0|0:0,0:0:0:0:
308,361,177108,1,10,0:1:0:0:
165,213,177254,2,0,P|210:209|275:195,1,90.7500027694703,8|8,0:1|0:0,0:0:0:0:
468,46,177545,2,0,B|363:23|363:23|329:52|350:101,1,181.500005538941,10|10,0:1|0:1,0:0:0:0:
444,294,177982,2,0,P|449:248|459:196,1,90.7500027694703,8|2,0:0|0:0,0:0:0:0:
212,59,178273,1,10,0:1:0:0:
332,0,178419,2,0,P|339:44|345:89,1,90.7500027694703,8|8,0:1|0:0,0:0:0:0:
202,318,178710,1,2,0:0:0:0:
202,318,178783,1,0,0:0:0:0:
202,318,178856,6,0,B|154:247|80:295|80:295|97:348,1,181.500005538941,12|8,0:1|0:0,0:0:0:0:
368,202,179293,1,2,0:0:0:0:
301,347,179438,2,0,P|295:300|286:254,1,90.7500027694703,10|10,0:1|0:1,0:0:0:0:
178,31,179730,1,8,0:0:0:0:
28,104,179875,2,0,B|87:118|87:118|109:155|109:155|181:167,1,160.874992635727,12|0,0:1|0:0,0:0:0:0:
263,133,180167,5,0,3:0:0:0:
263,133,180239,1,0,3:0:0:0:
263,133,180312,2,0,L|275:69,1,49.4999984893799,8|0,3:1|3:0,0:0:0:0:
402,203,180458,1,0,3:0:0:0:
402,203,180530,1,0,3:0:0:0:
402,203,180603,2,0,L|411:251,1,49.4999984893799,8|0,1:0|1:0,0:0:0:0:
322,350,180749,5,0,1:0:0:0:
298,370,180821,1,0,1:0:0:0:
270,382,180894,1,8,1:0:0:0:
239,383,180967,1,0,1:0:0:0:
209,374,181040,1,0,1:0:0:0:
184,355,181113,1,0,1:0:0:0:
168,329,181186,6,0,P|180:247|194:183,1,148.49999546814,12|0,0:1|0:0,0:0:0:0:
150,117,181477,2,0,P|102:128|52:135,1,98.9999969787599,12|2,0:0|0:0,0:0:0:0:
287,273,181769,1,10,0:1:0:0:
337,113,181914,2,0,P|327:63|319:8,1,98.9999969787599,10|8,0:1|0:0,0:0:0:0:
462,210,182205,6,0,B|360:198|407:291|283:272,1,197.99999395752,12|10,0:1|0:1,0:0:0:0:
54,168,182642,1,10,0:0:0:0:
137,354,182788,1,2,0:0:0:0:
137,354,182861,1,0,0:0:0:0:
137,354,182934,2,0,P|145:296|155:244,1,98.9999969787599,10|10,0:1|0:1,0:0:0:0:
38,70,183225,2,0,P|46:118|53:167,1,98.9999969787599,10|2,0:0|0:0,0:0:0:0:
242,322,183516,6,0,P|326:300|317:189,1,197.99999395752,12|10,0:1|0:0,0:0:0:0:
130,58,183953,1,0,0:0:0:0:
259,32,184099,2,0,P|252:76|241:144,1,98.9999969787599,10|10,0:1|0:1,0:0:0:0:
29,306,184390,1,8,0:0:0:0:
163,373,184536,2,0,B|142:282|142:282|147:260|147:260|127:179,1,197.99999395752,12|8,0:1|0:1,0:0:0:0:
114,53,184900,5,8,0:1:0:0:
130,58,184972,2,0,L|204:75,1,49.4999984893799,8|8,0:0|0:0,0:0:0:0:
246,188,185118,2,0,L|294:176,1,49.4999984893799,8|8,0:1|0:1,0:0:0:0:
512,96,185264,1,8,0:3:0:0:
489,50,185336,1,8,0:3:0:0:
447,24,185409,1,4,0:3:0:0:
398,24,185482,1,8,0:1:0:0:
355,48,185555,6,0,L|384:237,1,160.874992635727,12|0,0:0|0:0,0:0:0:0:
265,367,185846,6,0,P|329:341|300:268,1,160.874992635727,12|0,0:1|0:0,0:0:0:0:
278,262,186137,5,8,0:0:0:0:
15,314,186283,1,10,0:1:0:0:
90,147,186429,5,8,0:0:0:0:
183,369,186574,1,10,0:1:0:0:
259,89,186720,5,8,0:0:0:0:
118,277,186866,1,10,0:1:0:0:
23,69,187011,6,0,L|133:51,1,98.9999969787599,8|10,0:0|0:1,0:0:0:0:
396,20,187303,5,10,0:0:0:0:
257,219,187448,1,10,0:1:0:0:
455,134,187594,5,10,0:0:0:0:
200,82,187739,1,8,0:1:0:0:
269,350,187885,5,10,0:0:0:0:
333,56,188031,1,10,0:1:0:0:
511,277,188176,6,0,B|449:267|449:267|420:285|420:285|343:271,1,165,12|0,0:1|0:0,0:0:0:0:
381,106,188613,6,0,P|453:86|442:178,1,197.99999395752,12|0,0:1|0:0,0:0:0:0:
276,383,189050,6,0,B|262:289|262:289|250:271|250:271|235:184,1,197.99999395752,12|0,0:1|0:0,0:0:0:0:
0,37,189487,6,0,B|-26:90|20:119|20:119|162:88,1,197.99999395752,12|0,0:1|0:0,0:0:0:0:
312,70,189924,5,12,0:1:0:0:
256,192,189997,12,0,195021,0:0:0:0:
