osu file format v14

[General]
AudioFilename: audio.mp3
AudioLeadIn: 0
PreviewTime: 45968
Countdown: 0
SampleSet: Soft
StackLeniency: 0.7
Mode: 0
LetterboxInBreaks: 0
WidescreenStoryboard: 1

[Editor]
Bookmarks: 65846,75167,79827,84487,89147,93807
DistanceSpacing: 1
BeatDivisor: 4
GridSize: 4
TimelineZoom: 2.999999

[Metadata]
Title:Wagon
TitleUnicode:ワゴン
Artist:Toyama Nao
ArtistUnicode:東山奈央
Creator:_kotachi_
Version:Enu's Hard
Source:
Tags:dahkjdas EnuHQ Shikibe Mayu kazato Asa Shizuku- Lemaire Repl4y -Magic- touyama jpop j-pop pop japanese 冷めない魔法 Samenai Mahou
BeatmapID:3426731
BeatmapSetID:1669004

[Difficulty]
HPDrainRate:4
CircleSize:3.8
OverallDifficulty:7
ApproachRate:8.2
SliderMultiplier:1.34
SliderTickRate:1

[Events]
//Background and Video events
0,0,"BG.jpg",0,0
//Break Periods
2,34590,37748
2,63716,64981
2,95172,98913
2,124299,132699
2,142939,146534
//Storyboard Layer 0 (Background)
//Storyboard Layer 1 (Fail)
//Storyboard Layer 2 (Pass)
//Storyboard Layer 3 (Foreground)
//Storyboard Layer 4 (Overlay)
//Storyboard Sound Samples

[TimingPoints]
604,291.26213592233,4,2,1,50,1,0
604,-133.333333333333,4,2,1,50,0,0
3953,-133.333333333333,4,2,1,70,0,0
4390,-111.111111111111,4,2,1,70,0,0
5264,-100,4,2,1,70,0,0
13273,-100,4,2,2,70,0,0
13710,-100,4,2,1,70,0,0
15603,-100,4,2,1,5,0,0
15749,-117.647058823529,4,2,1,60,0,0
20409,-117.647058823529,4,2,1,70,0,0
20846,-117.647058823529,4,2,2,70,0,0
21283,-117.647058823529,4,2,1,70,0,0
23904,-117.647058823529,4,2,2,70,0,0
24196,-117.647058823529,4,2,1,70,0,0
25070,-117.647058823529,4,2,1,60,0,0
29730,-117.647058823529,4,2,1,70,0,0
30167,-117.647058823529,4,2,2,70,0,0
30603,-117.647058823529,4,2,1,70,0,0
32278,-117.647058823529,4,2,1,5,0,0
32351,-117.647058823529,4,2,1,70,0,0
34390,-117.647058823529,4,2,1,40,0,0
38468,-117.64705882353,4,2,1,40,0,0
39050,-117.64705882353,4,2,1,50,0,0
43710,-117.64705882353,4,2,1,60,0,0
46040,-100,4,2,1,75,0,0
47424,-100,4,2,1,5,0,0
47497,-100,4,2,1,75,0,0
48589,-100,4,2,1,5,0,0
48662,-100,4,2,1,75,0,0
49390,-100,4,2,2,75,0,0
49827,-100,4,2,1,75,0,0
50919,-100,4,2,1,5,0,0
50992,-100,4,2,1,75,0,0
51866,-100,4,2,2,75,0,0
52157,-100,4,2,1,75,0,0
52303,-100,4,2,1,75,0,0
53249,-100,4,2,1,5,0,0
53322,-100,4,2,1,75,0,0
54196,-100,4,2,2,75,0,0
54269,-100,4,2,1,75,0,0
54633,-100,4,2,2,75,0,0
55215,-100,4,2,1,75,0,0
56453,-100,4,2,1,5,0,0
56526,-100,4,2,1,75,0,0
58710,-100,4,2,2,75,0,0
59147,-100,4,2,1,75,0,0
60021,-86.7302688638335,4,2,1,75,0,0
61186,-86.7302688638335,4,2,2,75,0,0
61332,-86.7302688638335,4,2,1,75,0,0
62060,-132.802124833997,4,2,1,75,0,0
62642,-86.9565217391304,4,2,2,75,0,0
63516,-86.9565217391304,4,2,1,75,0,0
65846,-99.9999999999999,4,2,1,70,0,0
68176,-99.9999999999999,4,2,2,70,0,0
68468,-99.9999999999999,4,2,1,70,0,0
74438,-99.9999999999999,4,2,2,70,0,0
75167,-117.647058823529,4,2,1,60,0,0
79827,-117.647058823529,4,2,1,70,0,0
80264,-117.647058823529,4,2,2,70,0,0
80701,-117.647058823529,4,2,1,70,0,0
83322,-117.647058823529,4,2,2,70,0,0
83468,-117.647058823529,4,2,1,70,0,0
83540,-117.647058823529,4,2,1,70,0,0
84487,-117.647058823529,4,2,1,60,0,0
89147,-117.647058823529,4,2,1,70,0,0
89584,-117.647058823529,4,2,2,70,0,0
90021,-117.647058823529,4,2,1,70,0,0
91477,-117.647058823529,4,2,2,70,0,0
91768,-117.647058823529,4,2,1,70,0,0
93807,-117.647058823529,4,2,1,40,0,0
94317,-117.647058823529,4,2,1,70,0,0
94972,-117.647058823529,4,2,1,60,0,0
99633,-100,4,2,1,70,0,0
104293,-111.111111111111,4,2,1,60,0,0
105458,-111.111111111111,4,2,1,70,0,0
106623,-100,4,2,1,75,0,0
108006,-100,4,2,1,5,0,0
108079,-100,4,2,1,75,0,0
109171,-100,4,2,1,5,0,0
109244,-100,4,2,1,75,0,0
109972,-100,4,2,2,75,0,0
110409,-100,4,2,1,75,0,0
111502,-100,4,2,1,5,0,0
111574,-100,4,2,1,75,0,0
112448,-100,4,2,2,75,0,0
112739,-100,4,2,1,75,0,0
112885,-100,4,2,1,75,0,0
113832,-100,4,2,1,5,0,0
113904,-100,4,2,1,75,0,0
114778,-100,4,2,2,75,0,0
114851,-100,4,2,1,75,0,0
115215,-100,4,2,2,75,0,0
115798,-100,4,2,1,75,0,0
117036,-100,4,2,1,5,0,0
117108,-100,4,2,1,75,0,0
119293,-100,4,2,2,75,0,0
119730,-100,4,2,1,75,0,0
120603,-86.7302688638335,4,2,1,75,0,0
121769,-86.7302688638335,4,2,2,75,0,0
121914,-86.7302688638335,4,2,1,75,0,0
122642,-132.802124833997,4,2,1,75,0,0
123225,-100,4,2,1,75,0,0
124099,-100,4,2,1,70,0,0
133637,-100,4,2,1,5,0,0
133710,-100,4,2,1,70,0,0
135968,-100,4,2,1,5,0,0
136040,-100,4,2,1,70,0,0
147400,-133.333333333333,4,2,1,50,0,0
149730,-133.333333333333,4,2,1,35,0,0
150021,-125,4,2,1,45,0,0
150312,-117.647058823529,4,2,1,55,0,0
150603,-111.111111111111,4,2,1,55,0,0
150895,-100,4,2,1,70,0,0
152060,-86.9565217391304,4,2,2,70,0,0
152278,-86.9565217391304,4,2,2,5,0,0
152351,-86.9565217391304,4,2,2,70,0,0
152642,-86.9565217391304,4,2,2,40,0,0
152934,-86.9565217391304,4,2,2,60,0,0
153225,-100,4,2,1,75,0,0
154608,-100,4,2,1,5,0,0
154681,-100,4,2,1,75,0,0
155773,-100,4,2,1,5,0,0
155846,-100,4,2,1,75,0,0
156574,-100,4,2,2,75,0,0
157011,-100,4,2,1,75,0,0
158103,-100,4,2,1,5,0,0
158176,-100,4,2,1,75,0,0
159050,-100,4,2,2,75,0,0
159341,-100,4,2,1,75,0,0
159487,-100,4,2,1,75,0,0
160434,-100,4,2,1,5,0,0
160506,-100,4,2,1,75,0,0
161381,-100,4,2,2,75,0,0
161453,-100,4,2,1,75,0,0
161817,-100,4,2,2,75,0,0
162400,-100,4,2,1,75,0,0
163128,-100,4,2,2,75,0,0
163419,-100,4,2,1,75,0,0
163565,-100,4,2,2,75,0,0
163929,-100,4,2,2,5,0,0
164002,-100,4,2,1,75,0,0
164293,-100,4,2,2,75,0,0
164584,-100,4,2,1,75,0,0
165094,-100,4,2,1,5,0,0
165167,-100,4,2,1,75,0,0
165458,-100,4,2,2,75,0,0
165749,-100,4,2,1,75,0,0
167205,-86.8809730668983,4,2,1,75,0,0
168589,-86.8809730668983,4,2,1,5,0,0
168662,-86.8809730668983,4,2,1,75,0,0
171720,-86.8809730668983,4,2,1,60,0,0
171866,-100,4,2,1,70,0,0
179875,-100,4,2,2,70,0,0
181186,-100,4,2,1,70,0,0
181404,-100,4,2,1,5,0,0
181477,-100,4,2,1,70,0,0
182205,-100,4,2,2,70,0,0
182351,-100,4,2,1,70,0,0
183152,-100,4,2,1,5,0,0
183225,-100,4,2,1,70,0,0
184026,-100,4,2,1,5,0,0
184099,-100,4,2,1,70,0,0
184536,-100,4,2,2,70,0,0
184972,-100,4,2,1,70,0,0
188176,-80,4,2,2,70,0,0
189924,-80,4,2,1,90,0,0
192837,-80,4,2,1,50,0,0
193419,-80,4,2,1,40,0,0
194002,-80,4,2,1,30,0,0
194584,-80,4,2,1,20,0,0

[Colours]
Combo1 : 255,223,128
Combo2 : 255,157,255
Combo3 : 255,183,219
Combo4 : 255,172,132

[HitObjects]
451,28,604,6,0,P|401:37|353:50,1,100.500003833771,2|0,2:0|2:0,2:0:0:0:
322,123,1040,1,0,2:0:0:0:
322,123,1186,2,0,P|273:109|224:100,1,100.500003833771,2|0,2:0|2:0,2:0:0:0:
154,43,1623,6,0,P|131:86|139:135,1,100.500003833771,2|0,2:0|2:0,2:0:0:0:
43,118,2060,1,0,2:0:0:0:
43,118,2205,1,0,2:0:0:0:
43,118,2351,2,0,P|66:161|58:210,1,100.500003833771,2|0,2:0|2:0,2:0:0:0:
29,301,2788,1,0,2:0:0:0:
29,301,2934,6,0,P|78:287|127:278,1,100.500003833771,2|0,2:0|2:0,2:0:0:0:
172,350,3370,1,0,2:0:0:0:
172,350,3516,6,0,P|221:336|270:327,1,100.500003833771,2|8,2:0|2:1,2:0:0:0:
269,327,3880,1,8,2:1:0:0:
269,327,3953,1,12,2:0:0:0:
381,245,4244,5,8,2:0:0:0:
381,245,4390,2,0,P|387:213|394:185,1,60.2999981597901,8|8,2:0|2:1,2:0:0:0:
320,144,4681,2,0,P|313:112|306:84,1,60.2999981597901,8|8,2:0|2:0,2:0:0:0:
230,30,4972,2,0,L|236:0,3,30.149999079895,8|8|8|8,2:0|2:0|2:0|2:0,2:0:0:0:
207,62,5264,6,0,P|141:75|76:92,1,134,12|8,2:1|2:0,2:0:0:0:
0,157,5701,1,2,2:0:0:0:
0,157,5846,2,0,P|65:170|130:187,1,134,10|8,2:1|2:0,2:0:0:0:
219,174,6283,6,0,P|211:206|203:239,1,67,10|0,2:1|2:0,2:0:0:0:
122,284,6574,2,0,P|129:316|137:349,2,67,8|8|2,2:1|2:0|2:0,2:0:0:0:
229,327,7011,2,0,B|312:299|312:299|348:333,1,134,10|8,2:1|2:0,2:0:0:0:
428,380,7448,1,2,2:0:0:0:
428,380,7594,6,0,P|437:348|429:315,1,67,8|2,2:1|2:0,2:0:0:0:
485,245,7885,2,0,P|475:213|483:180,1,67,8|2,2:0|2:0,2:0:0:0:
463,84,8176,1,10,2:1:0:0:
463,84,8322,2,0,P|430:91|397:99,1,67,10|8,2:1|2:0,2:0:0:0:
347,172,8613,6,0,P|282:155|216:141,1,134,8|8,2:1|2:1,2:0:0:0:
143,77,9050,2,0,P|135:109|127:142,1,67,8|8,2:0|2:1,2:0:0:0:
42,164,9341,2,0,P|49:196|57:229,1,67,8|8,2:0|2:1,2:0:0:0:
141,245,9633,2,0,P|133:277|125:310,1,67,8|8,2:0|2:0,2:0:0:0:
156,341,9851,1,8,2:0:0:0:
156,341,9924,6,0,P|220:324|286:310,1,134,12|8,2:1|2:0,2:0:0:0:
359,368,10361,1,2,2:0:0:0:
359,368,10506,2,0,B|382:324|382:324|352:245,1,134,10|8,2:1|2:0,2:0:0:0:
279,198,10943,6,0,P|286:165|295:132,1,67,10|0,2:1|2:0,2:0:0:0:
375,61,11235,2,0,P|383:94|391:127,2,67,10|8|2,2:1|2:0|2:0,2:0:0:0:
284,32,11671,2,0,B|226:39|226:39|211:57|211:57|158:65,1,134,10|8,2:1|2:0,0:0:0:0:
77,15,12108,1,2,2:0:0:0:
77,15,12254,6,0,P|70:47|62:80,1,67,12|2,2:1|2:0,2:0:0:0:
3,142,12545,2,0,P|10:174|18:207,1,67,8|2,2:0|2:0,2:0:0:0:
74,286,12837,2,0,P|42:293|9:301,2,67,10|8|8,2:1|2:1|2:0,2:0:0:0:
109,202,13273,6,0,P|174:215|239:233,1,134,12|8,2:1|2:1,2:0:0:0:
295,302,13710,1,8,2:0:0:0:
360,243,13856,1,8,2:0:0:0:
360,243,13929,1,8,2:0:0:0:
360,243,14002,2,0,P|352:210|344:177,1,67,8|8,2:0|2:0,2:0:0:0:
447,105,14293,2,0,P|439:138|431:171,1,67,8|8,2:0|2:0,2:0:0:0:
357,92,14584,6,0,P|325:83|292:91,1,67,8|8,2:3|2:3,2:0:0:0:
235,27,14875,2,0,P|203:37|170:29,1,67,4|4,2:3|2:3,2:0:0:0:
84,0,15167,1,8,2:1:0:0:
84,0,15312,2,0,P|101:64|115:130,1,134,12|0,2:0|2:0,2:0:0:0:
24,216,15749,6,0,P|76:205|127:239,1,113.90000217247,12|8,2:1|2:0,2:0:0:0:
225,334,16332,2,0,P|255:327|280:321,1,56.9500010862351,10|8,2:1|2:1,2:0:0:0:
344,275,16623,2,0,P|374:282|399:287,1,56.9500010862351,8|2,2:0|2:0,2:0:0:0:
498,248,16914,6,0,P|483:303|472:359,2,113.90000217247,10|8|8,2:1|2:0|2:1,2:0:0:0:
441,180,17642,1,8,2:1:0:0:
441,180,17788,2,0,P|413:174|385:167,1,56.9500010862351,8|0,2:0|2:0,2:0:0:0:
318,96,18079,6,0,P|290:102|262:108,1,56.9500010862351,10|2,2:1|2:0,2:0:0:0:
193,49,18370,1,8,2:0:0:0:
110,165,18662,2,0,P|116:192|122:220,1,56.9500010862351,10|8,2:1|2:1,2:0:0:0:
201,239,18953,2,0,P|194:266|188:294,1,56.9500010862351,8|0,2:0|2:1,2:0:0:0:
123,344,19244,6,0,P|177:334|224:364,1,113.90000217247,8|8,2:1|2:0,2:0:0:0:
343,288,19827,2,0,P|348:260|356:232,1,56.9500010862351,10|10,2:1|2:1,2:0:0:0:
411,173,20118,2,0,P|405:145|397:117,1,56.9500010862351,8|8,2:0|2:0,2:0:0:0:
369,96,20337,1,8,2:0:0:0:
369,96,20409,6,0,P|312:86|258:70,1,113.90000217247,12|8,2:1|2:0,2:0:0:0:
195,12,20846,2,0,P|138:21|84:37,1,113.90000217247,12|8,2:1|2:1,2:0:0:0:
1,129,21283,1,8,2:0:0:0:
0,129,21429,6,0,P|55:119|102:149,1,113.90000217247,12|8,2:1|2:1,2:0:0:0:
37,222,21866,2,0,P|45:249|51:277,1,56.9500010862351,8|0,0:0|2:0,2:0:0:0:
154,288,22157,2,0,P|146:315|140:343,1,56.9500010862351,10|8,2:1|2:1,2:0:0:0:
227,378,22448,2,0,P|254:370|282:364,1,56.9500010862351,8|0,2:0|2:0,2:0:0:0:
342,301,22739,6,0,P|396:317|452:325,1,113.90000217247,12|8,2:1|2:0,2:0:0:0:
489,240,23176,1,0,0:0:0:0:
489,240,23322,2,0,P|484:212|490:184,1,56.9500010862351,10|8,2:1|2:1,2:0:0:0:
409,132,23613,2,0,P|415:104|409:76,1,56.9500010862351,10|0,2:0|2:0,2:0:0:0:
343,12,23904,5,12,2:1:0:0:
343,12,24050,1,10,2:1:0:0:
278,70,24196,2,0,P|251:62|223:56,1,56.9500010862351,8|8,2:0|2:0,2:0:0:0:
187,76,24414,1,8,2:0:0:0:
187,76,24487,2,0,P|159:81|131:90,1,56.9500010862351,8|8,2:0|2:0,2:0:0:0:
50,111,24778,2,0,P|57:138|63:166,1,56.9500010862351,8|8,2:0|2:0,2:0:0:0:
0,220,25070,6,0,P|55:210|102:240,1,113.90000217247,12|8,2:1|2:0,2:0:0:0:
226,349,25652,2,0,P|231:321|239:293,1,56.9500010862351,10|8,2:1|2:1,2:0:0:0:
312,249,25943,2,0,P|306:221|298:193,1,56.9500010862351,8|2,2:0|2:0,2:0:0:0:
257,120,26235,6,0,P|304:149|358:139,2,113.90000217247,10|8|8,2:1|2:0|2:1,2:0:0:0:
197,52,26963,1,8,2:1:0:0:
197,52,27108,2,0,P|169:45|141:50,1,56.9500010862351,8|0,2:0|2:0,2:0:0:0:
59,96,27400,6,0,P|53:68|45:40,2,56.9500010862351,10|2|8,2:1|2:0|2:0,2:0:0:0:
141,137,27837,1,2,2:0:0:0:
141,137,27982,2,0,P|134:164|128:192,1,56.9500010862351,10|8,2:1|2:1,2:0:0:0:
54,239,28273,1,8,2:0:0:0:
144,360,28565,6,0,P|172:355|200:347,1,56.9500010862351,8|8,2:1|2:1,2:0:0:0:
264,292,28856,2,0,P|292:298|320:306,1,56.9500010862351,8|8,2:0|2:1,2:0:0:0:
408,350,29147,2,0,P|403:322|409:294,1,56.9500010862351,8|8,2:0|2:1,2:0:0:0:
487,255,29438,2,0,P|492:227|486:199,1,56.9500010862351,8|8,2:0|2:3,2:0:0:0:
466,182,29657,1,4,2:3:0:0:
466,182,29730,6,0,P|410:194|355:207,1,113.90000217247,12|8,2:1|2:0,2:0:0:0:
366,114,30167,2,0,P|310:126|255:139,1,113.90000217247,12|10,2:1|2:1,2:0:0:0:
279,43,30603,1,8,2:0:0:0:
279,43,30749,6,0,P|223:55|168:68,1,113.90000217247,12|8,2:1|2:1,2:0:0:0:
79,81,31186,2,0,P|86:108|92:136,1,56.9500010862351,8|0,2:0|2:0,2:0:0:0:
174,164,31477,2,0,P|167:191|161:219,1,56.9500010862351,10|8,2:1|2:1,2:0:0:0:
74,243,31769,2,0,P|81:270|87:298,1,56.9500010862351,8|0,2:0|2:0,2:0:0:0:
159,351,32060,6,0,P|200:342|242:332,1,85.4250016293526,12|0,2:1|2:0,2:0:0:0:
263,299,32351,2,0,P|290:306|318:312,1,56.9500010862351,8|0,2:0|2:0,2:0:0:0:
398,288,32642,2,0,P|403:260|397:232,1,56.9500010862351,10|8,2:1|2:1,2:0:0:0:
467,187,32933,2,0,P|462:159|468:131,1,56.9500010862351,8|8,2:0|2:1,2:0:0:0:
419,42,33225,5,12,2:0:0:0:
419,42,33370,1,8,2:0:0:0:
335,92,33516,2,0,P|308:99|280:105,1,56.9500010862351,8|8,2:3|2:3,2:0:0:0:
221,156,33807,2,0,P|193:150|165:142,1,56.9500010862351,4|4,2:3|2:3,2:0:0:0:
106,82,34099,2,0,P|78:87|50:95,1,56.9500010862351,8|8,2:1|2:1,2:0:0:0:
2,157,34390,5,12,2:1:0:0:
22,352,38468,6,0,P|28:322|34:296,1,56.9500010862351,2|0,2:0|2:0,2:0:0:0:
122,306,38759,2,0,P|115:277|109:250,1,56.9500010862351,4|0,2:0|2:0,2:0:0:0:
42,189,39050,2,0,P|96:201|143:172,1,113.90000217247,12|8,2:1|2:0,2:0:0:0:
229,42,39633,2,0,P|256:48|284:54,1,56.9500010862351,10|10,2:1|2:1,2:0:0:0:
350,103,39924,2,0,P|377:96|405:90,1,56.9500010862351,8|0,2:0|2:0,2:0:0:0:
470,17,40215,6,0,P|482:71|495:127,1,113.90000217247,10|8,2:1|2:0,2:0:0:0:
425,183,40652,1,8,2:3:0:0:
425,183,40725,1,4,2:3:0:0:
425,183,40798,2,0,P|431:210|437:238,1,56.9500010862351,10|8,2:1|2:1,2:0:0:0:
507,290,41089,2,0,P|500:317|494:345,1,56.9500010862351,8|0,2:0|2:0,2:0:0:0:
414,383,41380,6,0,P|372:346|316:348,1,113.90000217247,10|8,2:1|2:0,2:0:0:0:
233,384,41817,1,8,2:3:0:0:
233,384,41890,1,4,2:3:0:0:
233,384,41963,2,0,P|238:357|233:328,1,56.9500010862351,10|4,2:1|2:3,2:0:0:0:
146,333,42254,2,0,P|139:305|146:278,1,56.9500010862351,2|8,3:2|2:0,2:0:0:0:
225,238,42545,5,2,2:0:0:0:
225,238,42691,1,8,2:1:0:0:
147,192,42837,2,0,P|119:198|91:204,1,56.9500010862351,8|12,2:0|2:3,2:0:0:0:
55,213,43055,1,4,2:3:0:0:
55,213,43128,2,0,P|48:185|42:157,1,56.9500010862351,10|8,2:1|2:1,2:0:0:0:
0,86,43419,2,0,P|5:58|12:30,1,56.9500010862351,12|0,2:0|2:0,2:0:0:0:
97,10,43710,6,0,P|138:46|194:45,1,113.90000217247,12|0,2:1|2:0,2:0:0:0:
265,0,44147,1,8,2:1:0:0:
265,0,44220,1,8,2:1:0:0:
265,0,44293,2,0,P|271:27|276:55,1,56.9500010862351,12|0,2:0|2:0,2:0:0:0:
361,75,44584,2,0,P|354:102|349:130,1,56.9500010862351,10|0,2:1|2:0,2:0:0:0:
323,213,44875,5,10,2:0:0:0:
457,155,45167,1,8,2:1:0:0:
427,289,45458,2,0,P|424:276|420:261,4,28.4750005431175,8|8|8|8|8,2:0|2:0|2:0|2:0|2:1,2:0:0:0:
311,384,46040,6,0,B|256:370|256:370|240:347|240:347|192:335,1,134,12|8,2:1|2:0,2:0:0:0:
112,383,46477,1,0,2:0:0:0:
112,383,46623,2,0,P|104:349|96:317,1,67,10|8,2:1|2:1,2:0:0:0:
5,342,46914,2,0,P|12:308|20:276,1,67,8|0,2:0|2:0,2:0:0:0:
5,182,47205,6,0,P|54:192|102:204,1,100.5,10|0,2:1|2:0,2:0:0:0:
126,181,47497,2,0,P|159:173|191:165,1,67,10|0,2:0|2:0,2:0:0:0:
261,114,47788,1,10,2:1:0:0:
261,114,47934,1,8,2:1:0:0:
315,187,48079,2,0,P|306:219|298:252,1,67,10|0,2:0|2:0,2:0:0:0:
235,332,48370,6,0,P|284:342|332:354,1,100.5,10|0,2:1|2:0,2:0:0:0:
356,331,48662,2,0,P|389:323|421:315,1,67,10|0,2:0|2:0,2:0:0:0:
488,256,48953,1,10,2:1:0:0:
488,256,49099,1,8,2:1:0:0:
414,193,49244,1,8,2:0:0:0:
480,123,49390,6,0,P|431:79|366:86,1,134,12|8,2:1|2:1,2:0:0:0:
298,138,49827,2,0,P|265:130|233:121,1,67,10|2,2:0|2:0,2:0:0:0:
175,59,50118,2,0,P|142:66|110:75,1,67,10|10,2:1|2:1,2:0:0:0:
41,136,50409,1,8,2:0:0:0:
121,189,50555,1,8,2:0:0:0:
121,189,50628,1,8,2:0:0:0:
121,189,50701,6,0,P|111:238|99:286,1,100.5,12|0,2:1|2:0,2:0:0:0:
115,322,50993,2,0,P|148:314|180:306,1,67,10|0,2:0|2:0,2:0:0:0:
247,253,51283,2,0,P|280:261|312:269,1,67,10|8,2:1|2:1,2:0:0:0:
381,318,51574,2,0,P|414:310|446:302,1,67,10|0,2:0|2:0,2:0:0:0:
512,241,51866,6,0,P|450:257|410:207,1,134,12|8,2:1|2:0,2:0:0:0:
443,117,52303,2,0,P|377:130|312:147,1,134,12|10,2:1|2:1,2:0:0:0:
263,80,52739,2,0,P|230:71|197:63,1,67,8|2,2:0|2:0,2:0:0:0:
126,12,53031,6,0,P|108:60|103:109,1,100.5,12|0,2:1|2:0,2:0:0:0:
136,144,53322,2,0,P|147:177|151:209,1,67,10|0,2:0|2:0,2:0:0:0:
86,265,53613,1,10,2:1:0:0:
86,265,53759,1,8,2:1:0:0:
158,313,53904,2,0,P|191:321|223:329,1,67,10|0,2:0|2:0,2:0:0:0:
302,272,54196,6,0,L|309:304,4,33.5,12|8|8|8|8,3:1|3:2|2:0|2:0|2:0,2:0:0:0:
232,222,54633,1,12,2:1:0:0:
364,120,54924,1,12,2:1:0:0:
220,39,55215,6,0,B|170:53|170:53|154:76|154:76|102:91,1,134,12|8,2:1|2:1,2:0:0:0:
0,94,55652,2,0,P|8:127|16:159,1,67,8|0,2:0|2:0,2:0:0:0:
85,207,55943,1,10,2:1:0:0:
85,207,56089,1,8,2:1:0:0:
6,288,56235,2,0,P|55:282|98:306,1,100.5,8|0,2:0|2:0,2:0:0:0:
118,341,56526,6,0,P|151:333|183:325,1,67,10|0,2:1|2:0,2:0:0:0:
251,274,56817,2,0,P|284:282|316:290,1,67,10|0,2:0|2:0,2:0:0:0:
388,353,57108,1,10,2:1:0:0:
388,353,57254,1,8,2:1:0:0:
439,281,57400,2,0,P|446:248|439:215,1,67,10|2,2:0|2:0,2:0:0:0:
353,141,57691,6,0,P|418:125|483:110,2,134,10|10|10,2:1|2:0|2:1,2:0:0:0:
277,88,58419,1,8,2:1:0:0:
277,88,58565,1,8,2:0:0:0:
206,170,58710,6,0,P|214:202|222:235,1,67,12|0,2:1|2:0,2:0:0:0:
323,228,59002,1,8,2:1:0:0:
323,228,59147,2,0,P|314:260|306:293,1,67,10|2,2:0|2:0,2:0:0:0:
248,369,59438,1,10,2:1:0:0:
248,369,59584,2,0,P|209:318|146:329,1,134,10|2,2:1|2:0,2:0:0:0:
71,384,60021,6,0,P|63:347|53:308,1,77.2509986444298,12|0,2:1|2:0,2:0:0:0:
0,243,60312,2,0,P|7:206|17:167,1,77.2509986444298,10|0,2:1|2:0,2:0:0:0:
88,117,60603,2,0,P|124:126|163:117,1,77.2509986444298,10|0,2:1|2:0,2:0:0:0:
214,52,60895,2,0,P|250:42|289:51,1,77.2509986444298,10|0,2:1|2:0,2:0:0:0:
352,150,61186,6,0,P|368:74|386:0,2,154.50199728886,12|8|4,2:1|2:0|2:3,2:0:0:0:
402,254,61914,1,2,2:0:0:0:
402,254,62060,6,0,P|331:236|280:287,1,151.353000923785,12|0,2:1|2:0,2:0:0:0:
345,367,62642,2,0,P|308:375|269:385,1,77.2509986444298,12|0,2:1|2:0,2:0:0:0:
186,337,62934,2,0,P|149:329|110:319,1,77.2509986444298,12|0,2:1|2:0,2:0:0:0:
12,342,63225,2,0,P|20:305|30:266,1,77.2509986444298,12|0,2:1|2:0,2:0:0:0:
112,228,63516,5,12,2:1:0:0:
254,0,65701,5,4,2:3:0:0:
254,0,65773,1,4,2:3:0:0:
254,0,65846,2,0,P|271:66|285:130,1,134,12|8,2:1|2:0,2:0:0:0:
381,95,66283,1,2,2:0:0:0:
381,95,66429,2,0,P|365:161|351:225,1,134,10|8,2:1|2:0,2:0:0:0:
360,321,66866,6,0,P|327:313|294:304,1,67,10|0,2:1|2:0,2:0:0:0:
196,241,67157,2,0,P|228:232|261:224,2,67,10|8|2,2:1|2:0|2:0,2:0:0:0:
132,316,67594,2,0,B|98:237|98:237|121:191,1,134,10|8,2:1|2:0,2:0:0:0:
126,111,68031,1,2,2:0:0:0:
126,111,68176,6,0,P|93:118|60:127,1,67,12|2,2:1|2:0,2:0:0:0:
118,20,68468,2,0,P|150:27|183:36,1,67,8|2,2:0|2:0,2:0:0:0:
264,87,68759,2,0,P|274:55|298:32,2,67,10|10|8,2:1|2:1|2:0,2:0:0:0:
218,185,69196,6,0,B|304:160|304:160|346:176,1,134,8|8,2:1|2:1,2:0:0:0:
418,122,69633,2,0,P|426:154|434:186,1,67,8|8,2:0|2:1,2:0:0:0:
499,243,69924,2,0,P|490:275|482:307,1,67,8|8,2:0|2:1,2:0:0:0:
433,377,70215,1,8,2:0:0:0:
368,320,70361,1,8,2:0:0:0:
368,320,70433,1,8,2:0:0:0:
368,320,70506,6,0,P|302:334|237:351,1,134,12|8,2:1|2:0,2:0:0:0:
140,382,70943,1,2,2:0:0:0:
140,382,71089,2,0,P|156:317|170:251,1,134,10|8,2:1|2:0,2:0:0:0:
256,221,71526,6,0,P|249:188|240:155,1,67,10|0,2:1|2:0,2:0:0:0:
155,99,71818,2,0,P|147:132|139:165,2,67,10|8|2,2:1|2:0|2:0,2:0:0:0:
244,53,72254,2,0,B|302:57|302:57|318:75|318:75|371:80,1,134,10|8,2:1|2:0,2:0:0:0:
436,1,72691,1,2,2:0:0:0:
436,1,72837,6,0,P|443:33|451:66,1,67,12|2,2:1|2:0,2:0:0:0:
506,131,73128,2,0,P|499:163|491:196,1,67,8|2,2:0|2:0,2:0:0:0:
436,279,73419,2,0,P|468:287|500:280,2,67,10|8|8,2:1|2:1|2:0,2:0:0:0:
397,196,73856,1,8,2:0:0:0:
397,196,73929,1,8,2:0:0:0:
397,196,74002,6,0,P|364:187|332:194,1,67,8|8,2:0|2:3,2:0:0:0:
278,264,74293,2,0,P|244:271|212:263,1,67,4|12,2:3|2:1,2:0:0:0:
9,136,75167,6,0,P|61:147|112:113,1,113.90000217247,12|8,2:1|2:0,2:0:0:0:
195,12,75750,2,0,P|225:19|250:25,1,56.9500010862351,10|10,2:1|2:1,2:0:0:0:
316,75,76041,2,0,P|346:68|371:63,1,56.9500010862351,8|2,2:0|2:0,2:0:0:0:
450,133,76332,6,0,P|465:78|476:22,2,113.90000217247,10|8|8,2:1|2:0|2:1,2:0:0:0:
374,177,77060,1,8,2:1:0:0:
374,177,77206,2,0,P|380:205|387:233,1,56.9500010862351,8|0,2:0|2:0,2:0:0:0:
469,243,77497,6,0,P|463:271|456:299,1,56.9500010862351,10|2,2:1|2:0,2:0:0:0:
386,347,77788,2,0,P|358:340|330:343,1,56.9500010862351,8|2,2:0|2:0,2:0:0:0:
244,314,78079,2,0,P|251:341|247:369,2,56.9500010862351,10|8|10,2:1|2:1|2:0,2:0:0:0:
103,293,78662,6,0,P|91:241|77:182,1,113.90000217247,8|8,2:1|2:0,2:0:0:0:
60,95,79099,1,8,2:1:0:0:
60,95,79244,2,0,P|88:101|116:108,1,56.9500010862351,8|8,2:0|2:1,2:0:0:0:
182,151,79535,2,0,P|210:145|238:138,1,56.9500010862351,8|8,2:0|2:0,2:0:0:0:
287,129,79755,1,8,2:0:0:0:
287,129,79827,6,0,P|297:186|313:240,1,113.90000217247,12|8,2:1|2:0,2:0:0:0:
381,210,80264,2,0,P|372:267|356:321,1,113.90000217247,12|10,2:1|2:1,2:0:0:0:
303,375,80701,1,8,2:0:0:0:
303,375,80846,6,0,P|256:344|201:355,1,113.90000217247,12|8,2:1|2:1,2:0:0:0:
113,372,81283,2,0,P|120:344|113:317,1,56.9500010862351,8|0,2:0|2:0,2:0:0:0:
42,274,81574,2,0,P|34:246|41:219,1,56.9500010862351,10|8,2:1|2:1,2:0:0:0:
111,167,81866,2,0,P|118:139|111:112,1,56.9500010862351,8|0,2:0|2:0,2:0:0:0:
94,23,82157,6,0,P|150:31|204:48,1,113.90000217247,12|8,2:1|2:0,2:0:0:0:
301,76,82594,1,0,0:0:0:0:
301,76,82739,2,0,P|294:103|288:131,1,56.9500010862351,10|10,2:1|2:1,2:0:0:0:
216,192,83030,2,0,P|222:220|229:248,1,56.9500010862351,8|0,2:0|2:0,2:0:0:0:
265,334,83322,6,0,P|238:342|210:348,1,56.9500010862351,12|8,2:1|2:0,2:0:0:0:
174,328,83540,1,8,2:0:0:0:
174,328,83613,2,0,P|146:323|118:314,1,56.9500010862351,8|8,2:0|2:0,2:0:0:0:
30,295,83904,2,0,L|23:322,3,28.4750005431175,8|8|8|8,2:0|2:0|2:0|2:0,2:0:0:0:
37,260,84196,2,0,P|30:232|24:204,1,56.9500010862351,8|4,2:3|2:3,2:0:0:0:
36,101,84487,6,0,P|83:130|137:120,1,113.90000217247,12|12,2:1|2:0,2:0:0:0:
257,28,85070,2,0,P|285:21|312:28,1,56.9500010862351,10|10,2:1|2:1,2:0:0:0:
355,99,85361,2,0,P|383:107|410:100,1,56.9500010862351,8|2,2:0|2:0,2:0:0:0:
500,129,85652,6,0,P|486:73|474:18,2,113.90000217247,10|10|8,2:1|2:0|2:1,2:0:0:0:
433,186,86380,1,8,2:1:0:0:
433,186,86526,2,0,P|439:214|446:242,1,56.9500010862351,8|0,2:0|2:0,2:0:0:0:
494,318,86817,6,0,P|466:324|438:330,1,56.9500010862351,10|2,2:1|2:0,2:0:0:0:
372,380,87108,2,0,P|344:373|316:367,1,56.9500010862351,8|2,2:0|2:0,2:0:0:0:
254,299,87400,2,0,P|226:305|198:311,1,56.9500010862351,10|8,2:1|2:1,2:0:0:0:
138,369,87691,1,10,2:0:0:0:
0,245,87982,6,0,P|28:238|55:245,1,56.9500010862351,8|8,2:1|2:1,2:0:0:0:
118,192,88273,2,0,P|146:200|173:193,1,56.9500010862351,8|8,2:0|2:1,2:0:0:0:
263,195,88565,2,0,P|256:167|250:139,1,56.9500010862351,12|8,2:0|2:1,2:0:0:0:
177,89,88857,2,0,P|183:61|189:33,1,56.9500010862351,8|8,2:0|2:3,2:0:0:0:
230,12,89074,1,4,2:3:0:0:
230,12,89147,6,0,P|266:52|325:50,1,113.90000217247,12|8,2:1|2:0,2:0:0:0:
402,0,89584,2,0,P|414:55|427:110,1,113.90000217247,12|10,2:1|2:1,2:0:0:0:
512,95,90021,1,8,2:0:0:0:
512,95,90167,6,0,P|499:150|486:205,1,113.90000217247,12|8,2:1|2:1,2:0:0:0:
443,287,90603,2,0,P|416:280|388:274,1,56.9500010862351,8|0,2:0|2:0,2:0:0:0:
364,194,90894,2,0,P|337:201|309:207,1,56.9500010862351,10|8,2:1|2:1,2:0:0:0:
281,292,91186,2,0,P|254:285|226:279,1,56.9500010862351,8|0,2:0|2:0,2:0:0:0:
132,301,91477,6,0,P|141:260|151:218,1,85.4250016293526,12|0,2:1|2:0,2:0:0:0:
184,197,91768,2,0,P|177:170|171:142,1,56.9500010862351,8|0,2:0|2:0,2:0:0:0:
98,85,92060,1,10,2:1:0:0:
98,85,92205,1,8,2:1:0:0:
161,30,92351,2,0,P|188:35|216:43,1,56.9500010862351,10|0,2:0|2:0,2:0:0:0:
278,104,92642,6,0,P|305:98|333:90,1,56.9500010862351,10|8,2:1|2:1,2:0:0:0:
422,54,92934,2,0,P|415:82|422:109,1,56.9500010862351,8|8,2:0|2:0,2:0:0:0:
453,138,93152,1,8,2:0:0:0:
453,138,93225,2,0,P|461:166|454:193,1,56.9500010862351,8|8,2:0|2:0,2:0:0:0:
388,247,93516,1,8,2:0:0:0:
388,247,93662,1,8,2:0:0:0:
455,324,93807,6,0,P|371:341|288:360,1,170.850003258705,2|8,2:0|2:0,2:0:0:0:
263,342,94317,1,8,2:0:0:0:
263,342,94390,2,0,L|242:258,2,85.4250016293526,8|8|4,2:0|2:3|2:3,2:0:0:0:
179,384,94972,5,12,2:1:0:0:
145,32,99633,6,0,P|176:39|210:47,1,67,12|0,2:1|2:0,2:0:0:0:
271,103,99924,2,0,P|303:95|336:87,1,67,8|0,2:0|2:0,2:0:0:0:
410,41,100215,1,8,2:0:0:0:
410,41,100361,1,8,2:1:0:0:
464,125,100506,2,0,P|456:157|448:190,1,67,8|8,2:0|2:1,2:0:0:0:
368,245,100798,6,0,P|375:277|383:310,1,67,8|0,2:0|2:0,2:0:0:0:
325,374,101089,2,0,P|292:365|260:372,1,67,8|8,2:0|2:1,2:0:0:0:
206,313,101380,1,8,2:0:0:0:
206,313,101526,1,8,2:1:0:0:
115,381,101671,2,0,P|104:333|92:283,1,100.5,8|0,2:0|2:0,2:0:0:0:
63,259,101963,6,0,P|70:226|78:193,1,67,12|0,2:0|2:0,2:0:0:0:
15,128,102254,2,0,P|7:95|-1:62,1,67,8|8,2:0|2:1,2:0:0:0:
70,2,102545,1,8,2:0:0:0:
70,2,102691,1,8,2:1:0:0:
132,79,102837,2,0,P|164:71|197:63,1,67,8|8,2:0|2:1,2:0:0:0:
279,0,103128,6,0,P|311:7|344:15,1,67,12|8,2:0|2:1,2:0:0:0:
404,90,103419,1,8,2:0:0:0:
336,152,103565,1,8,2:0:0:0:
336,152,103637,1,8,2:0:0:0:
336,152,103710,2,0,P|329:184|338:216,1,67,8|8,2:0|2:0,2:0:0:0:
432,290,104002,2,0,P|441:258|435:225,1,67,10|0,2:1|2:0,2:0:0:0:
330,316,104293,6,0,B|255:296|255:296|240:270|240:270|169:249,1,180.89999447937,12|8,2:1|2:1,2:0:0:0:
146,240,104803,1,8,2:1:0:0:
146,240,104875,1,12,2:0:0:0:
45,132,105167,1,8,2:1:0:0:
173,49,105458,6,0,P|164:87|155:127,2,80.3999975463868,10|8|10,1:2|1:2|1:2,2:0:0:0:
268,115,106040,1,4,2:3:0:0:
468,316,106623,6,0,P|420:272|356:284,1,134,12|8,2:1|2:0,2:0:0:0:
315,355,107060,1,0,2:0:0:0:
315,355,107206,2,0,P|281:347|249:339,1,67,10|8,2:1|2:1,2:0:0:0:
190,282,107497,2,0,P|156:290|124:298,1,67,8|0,2:0|2:0,2:0:0:0:
50,365,107788,6,0,P|32:317|27:268,1,100.5,10|0,2:1|2:0,2:0:0:0:
63,233,108079,2,0,P|74:200|78:168,1,67,10|0,2:0|2:0,2:0:0:0:
15,106,108370,1,10,2:1:0:0:
15,106,108516,1,8,2:1:0:0:
76,41,108662,2,0,P|108:50|141:58,1,67,10|2,2:0|2:0,2:0:0:0:
198,119,108953,6,0,P|247:109|295:97,1,100.5,10|0,2:1|2:0,2:0:0:0:
319,121,109245,2,0,P|352:129|384:137,1,67,10|0,2:0|2:0,2:0:0:0:
452,200,109536,1,10,2:1:0:0:
452,200,109681,1,8,2:1:0:0:
385,256,109827,1,8,2:0:0:0:
453,335,109972,6,0,P|387:348|322:365,1,134,12|8,2:1|2:1,2:0:0:0:
226,376,110409,2,0,P|234:343|243:311,1,67,10|2,2:0|2:0,2:0:0:0:
297,250,110700,2,0,P|290:217|281:185,1,67,10|10,2:1|2:1,2:0:0:0:
347,120,110992,1,8,2:0:0:0:
273,58,111137,1,8,2:0:0:0:
273,58,111210,1,8,2:0:0:0:
273,58,111283,6,0,P|224:68|176:80,1,100.5,12|0,2:1|2:0,2:0:0:0:
152,57,111575,2,0,P|119:49|87:41,1,67,10|0,2:0|2:0,2:0:0:0:
18,99,111866,1,10,2:1:0:0:
18,99,112011,1,8,2:1:0:0:
90,156,112157,2,0,P|96:188|89:221,1,67,10|0,2:0|2:0,2:0:0:0:
5,279,112448,6,0,P|69:295|135:308,1,134,12|8,2:1|2:0,2:0:0:0:
192,373,112885,2,0,P|256:356|322:343,1,134,12|10,2:1|2:1,2:0:0:0:
411,353,113322,2,0,P|402:320|394:287,1,67,8|2,2:0|2:0,2:0:0:0:
455,219,113613,6,0,P|406:209|358:197,1,100.5,12|0,2:1|2:0,2:0:0:0:
334,221,113905,2,0,P|301:229|269:237,1,67,10|0,2:0|2:0,2:0:0:0:
207,293,114196,1,10,2:1:0:0:
207,293,114341,1,8,2:1:0:0:
137,233,114487,2,0,P|145:200|153:168,1,67,10|0,2:0|2:0,2:0:0:0:
52,113,114778,6,0,L|59:145,4,33.5,12|8|8|8|8,2:1|3:2|2:0|2:0|2:0,2:0:0:0:
101,43,115215,1,12,2:1:0:0:
204,154,115506,1,12,2:1:0:0:
292,48,115798,6,0,B|339:61|339:61|358:87|358:87|409:100,1,134,12|8,2:1|2:1,2:0:0:0:
499,90,116235,2,0,P|491:123|483:155,1,67,8|0,2:0|2:0,2:0:0:0:
403,196,116526,1,10,2:1:0:0:
403,196,116672,1,8,2:1:0:0:
482,277,116818,2,0,P|433:271|390:295,1,100.5,8|0,2:0|2:0,2:0:0:0:
370,330,117109,6,0,P|337:322|305:314,1,67,10|0,2:1|2:0,2:0:0:0:
232,344,117400,2,0,P|199:352|167:360,1,67,10|0,2:0|2:0,2:0:0:0:
91,313,117691,1,10,2:1:0:0:
91,313,117837,1,8,2:1:0:0:
151,247,117982,2,0,P|143:214|135:182,1,67,10|0,2:0|2:0,2:0:0:0:
189,79,118273,6,0,P|125:90|77:46,2,134,10|10|10,2:1|2:0|2:1,2:0:0:0:
277,20,119002,1,8,2:1:0:0:
277,20,119147,1,8,2:0:0:0:
332,104,119293,6,0,P|313:168|297:233,1,134,12|8,0:1|0:1,2:0:0:0:
205,267,119730,2,0,P|216:301|222:332,1,67,10|2,2:0|2:0,2:0:0:0:
313,384,120021,1,10,2:1:0:0:
313,384,120167,2,0,P|352:333|415:344,1,134,10|2,2:1|2:0,2:0:0:0:
510,342,120603,6,0,P|502:305|492:266,1,77.2509986444298,12|0,2:1|2:0,2:0:0:0:
424,202,120894,2,0,P|431:165|441:126,1,77.2509986444298,10|0,2:1|2:0,2:0:0:0:
491,29,121186,2,0,P|454:38|417:26,1,77.2509986444298,10|0,2:1|2:0,2:0:0:0:
335,71,121477,2,0,P|298:61|261:73,1,77.2509986444298,10|0,2:0|2:0,2:0:0:0:
186,153,121769,6,0,P|171:73|151:2,2,154.50199728886,12|10|4,2:1|2:0|2:3,2:0:0:0:
150,251,122497,1,0,2:0:0:0:
150,251,122642,6,0,B|251:226|251:226|293:247,1,151.353000923785,12|8,2:1|2:1,2:0:0:0:
364,320,123225,2,0,P|371:287|380:254,1,67,10|8,2:0|2:1,2:0:0:0:
451,210,123516,2,0,P|443:177|434:144,1,67,10|8,2:0|2:1,2:0:0:0:
365,89,123807,1,10,2:0:0:0:
365,89,123953,1,8,2:0:0:0:
295,143,124099,5,12,2:1:0:0:
138,47,133419,6,0,P|188:58|235:69,1,100.5,12|0,2:1|2:0,2:0:0:0:
261,98,133710,2,0,P|293:89|326:81,1,67,10|0,2:0|2:0,2:0:0:0:
401,37,134002,1,10,2:1:0:0:
401,37,134147,1,10,2:1:0:0:
458,106,134293,1,8,2:0:0:0:
386,167,134438,6,0,P|393:199|402:232,1,67,2|8,2:0|2:1,2:0:0:0:
491,240,134730,1,2,2:0:0:0:
491,240,134803,1,2,2:0:0:0:
491,240,134875,2,0,P|483:272|474:305,1,67,8|2,2:0|2:0,2:0:0:0:
398,351,135167,2,0,P|365:360|333:353,1,67,10|10,2:1|2:1,2:0:0:0:
273,284,135458,2,0,P|240:275|208:282,1,67,10|2,2:0|2:0,2:0:0:0:
136,358,135749,6,0,P|125:308|114:261,1,100.5,8|0,2:1|2:0,2:0:0:0:
87,244,136040,2,0,P|95:211|103:178,1,67,10|0,2:0|2:0,2:0:0:0:
168,120,136332,1,10,2:1:0:0:
168,120,136477,1,10,2:1:0:0:
108,48,136623,1,8,2:0:0:0:
180,7,136769,6,0,P|212:14|245:23,1,67,2|8,2:0|2:1,2:0:0:0:
308,101,137060,1,2,2:0:0:0:
308,101,137133,1,2,2:0:0:0:
308,101,137205,2,0,P|340:93|373:84,1,67,8|2,2:0|2:0,2:0:0:0:
452,34,137497,1,10,2:1:0:0:
452,34,137642,1,8,2:1:0:0:
498,137,137788,2,0,L|505:104,3,33.5,10|10|10|10,2:0|2:0|2:0|2:0,2:0:0:0:
472,168,138079,6,0,P|480:200|488:233,1,67,12|2,2:1|2:0,2:0:0:0:
458,257,138298,1,2,2:0:0:0:
458,257,138370,2,0,P|449:289|441:322,1,67,10|2,2:0|2:0,2:0:0:0:
374,380,138662,1,10,2:1:0:0:
374,380,138807,1,10,2:1:0:0:
308,313,138953,1,10,2:0:0:0:
238,377,139099,6,0,P|230:344|222:311,1,67,2|8,2:0|2:1,2:0:0:0:
131,257,139390,1,2,2:0:0:0:
131,257,139463,1,2,2:0:0:0:
131,257,139536,1,8,2:0:0:0:
184,162,139681,2,0,P|215:217|279:219,1,134,2|10,2:0|2:1,2:0:0:0:
355,171,140118,1,10,2:0:0:0:
355,171,140264,1,2,2:0:0:0:
293,96,140409,6,0,L|300:63,3,33.5,12|0|2|2,2:1|2:0|2:0|2:0,2:0:0:0:
271,38,140701,2,0,L|264:5,3,33.5,10|2|2|2,2:0|2:0|2:0|2:0,2:0:0:0:
234,0,140992,2,0,L|201:7,3,33.5,10|2|10|2,2:1|2:0|2:1|2:0,2:0:0:0:
171,44,141283,2,0,L|138:37,3,33.5,8|8|8|4,2:0|2:0|2:3|2:3,2:0:0:0:
93,57,141574,6,0,P|110:126|123:187,1,134,12|8,2:0|2:1,2:0:0:0:
248,135,142011,2,0,P|230:204|217:265,1,134,12|8,2:0|2:1,2:0:0:0:
217,359,142448,2,0,L|184:352,3,33.5,12|8|4|4,2:0|2:3|2:3|2:3,2:0:0:0:
157,345,142739,5,12,2:1:0:0:
440,16,147254,5,0,2:0:0:0:
440,16,147400,2,0,B|474:60|474:60|439:148,1,150.750005750656,2|2,2:0|2:0,2:0:0:0:
420,184,147909,1,2,2:0:0:0:
420,184,147982,2,0,L|371:172,1,50.2500019168854,2|0,2:0|2:0,2:0:0:0:
310,117,148273,2,0,L|261:129,1,50.2500019168854,2|0,2:0|2:0,2:0:0:0:
167,92,148565,6,0,P|181:139|165:186,1,100.500003833771,2|0,2:0|2:0,2:0:0:0:
160,271,149002,1,2,2:0:0:0:
160,271,149147,2,0,P|137:264|112:259,2,50.2500019168854,0|0|2,2:0|2:0|2:0,2:0:0:0:
232,323,149584,1,0,2:0:0:0:
232,323,149730,6,0,P|255:317|280:312,1,50.2500019168854,2|0,2:0|2:0,2:0:0:0:
366,352,150021,2,0,P|371:326|377:299,1,53.6,2|0,2:0|2:0,2:0:0:0:
456,258,150312,2,0,P|448:225|441:190,1,56.9500010862351,2|0,2:0|2:0,2:0:0:0:
366,150,150603,2,0,P|374:114|382:75,1,60.2999981597901,2|0,2:0|2:0,2:0:0:0:
446,32,150895,5,8,1:0:0:0:
279,174,151477,6,0,L|366:194,2,89.3333333333333,0|0|0,2:0|2:0|2:0,2:0:0:0:
170,78,152060,6,0,B|194:123|194:123|172:184,1,115.575002204418,12|0,2:1|2:0,2:0:0:0:
140,202,152351,2,0,L|148:239,3,38.5250007348061,8|0|0|0,3:1|3:0|3:0|3:0,2:0:0:0:
178,269,152642,2,0,L|169:306,3,38.5250007348061,8|0|0|0,1:0|1:0|1:0|1:0,2:0:0:0:
198,333,152934,2,0,L|235:324,3,38.5250007348061,8|0|0|0,1:0|1:0|1:0|1:0,2:0:0:0:
264,299,153225,6,0,P|328:315|394:328,1,134,12|12,2:1|2:0,2:0:0:0:
494,355,153662,1,0,2:0:0:0:
494,355,153808,2,0,P|486:321|478:289,1,67,10|8,2:1|2:1,2:0:0:0:
416,227,154099,2,0,P|424:193|432:161,1,67,8|0,2:0|2:0,2:0:0:0:
471,68,154390,6,0,P|422:78|374:90,1,100.5,10|0,2:1|2:0,2:0:0:0:
350,67,154682,2,0,P|317:59|285:51,1,67,10|0,2:0|2:0,2:0:0:0:
211,98,154972,1,10,2:1:0:0:
211,98,155118,1,8,2:1:0:0:
282,154,155264,2,0,P|274:187|266:219,1,67,10|0,2:0|2:0,2:0:0:0:
327,284,155555,6,0,P|279:302|230:307,1,100.5,10|0,2:1|2:0,2:0:0:0:
202,279,155846,2,0,P|169:268|137:264,1,67,10|0,2:0|2:0,2:0:0:0:
64,317,156137,1,10,2:1:0:0:
64,317,156283,1,8,2:1:0:0:
0,244,156429,1,8,2:0:0:0:
90,171,156574,6,0,P|26:162|0:104,1,134,12|8,2:1|2:1,2:0:0:0:
64,33,157011,2,0,P|98:41|130:49,1,67,10|2,2:0|2:0,2:0:0:0:
192,111,157303,2,0,P|226:103|258:95,1,67,10|10,2:1|2:1,2:0:0:0:
324,35,157594,1,8,2:0:0:0:
403,104,157739,1,8,2:0:0:0:
403,104,157812,1,8,2:0:0:0:
403,104,157885,6,0,P|393:153|381:201,1,100.5,12|0,2:1|2:0,2:0:0:0:
404,225,158177,2,0,P|412:258|420:290,1,67,10|0,2:0|2:0,2:0:0:0:
352,357,158468,2,0,P|319:349|287:341,1,67,10|8,2:1|2:1,2:0:0:0:
218,292,158759,2,0,P|185:300|153:308,1,67,10|0,2:0|2:0,2:0:0:0:
50,356,159050,6,0,P|66:291|79:225,1,134,12|8,2:1|2:0,2:0:0:0:
30,130,159487,2,0,P|94:146|160:159,1,134,12|10,2:1|2:1,2:0:0:0:
236,106,159924,2,0,P|269:97|302:89,1,67,8|2,2:0|2:0,2:0:0:0:
373,35,160216,6,0,P|391:83|396:132,1,100.5,12|0,2:1|2:0,2:0:0:0:
363,167,160507,2,0,P|352:200|348:232,1,67,10|0,2:0|2:0,2:0:0:0:
413,305,160798,1,10,2:1:0:0:
413,305,160943,1,8,2:1:0:0:
328,343,161089,2,0,P|295:335|263:327,1,67,10|0,2:0|2:0,2:0:0:0:
164,291,161380,6,0,L|157:323,4,33.5,12|8|8|8|8,2:1|3:2|2:0|2:0|2:0,2:0:0:0:
231,238,161818,1,12,2:1:0:0:
116,151,162109,1,12,2:1:0:0:
223,40,162400,6,0,P|261:91|325:85,1,134,12|8,2:1|2:1,2:0:0:0:
413,50,162837,2,0,P|421:82|429:115,1,67,12|0,2:0|2:0,2:0:0:0:
508,156,163128,2,0,P|499:188|491:221,1,67,12|0,2:1|2:0,2:0:0:0:
388,213,163419,2,0,P|397:245|405:278,1,67,12|2,2:0|2:0,2:0:0:0:
477,354,163710,6,0,P|428:364|380:376,1,100.5,12|0,2:1|2:0,2:0:0:0:
355,352,164002,2,0,P|322:344|290:336,1,67,12|0,2:0|2:0,2:0:0:0:
214,286,164293,2,0,P|181:294|149:302,1,67,12|0,2:1|2:0,2:0:0:0:
71,338,164584,1,12,2:0:0:0:
71,338,164730,1,2,2:0:0:0:
21,260,164875,6,0,P|31:211|43:163,1,100.5,12|0,2:1|2:0,2:0:0:0:
16,142,165167,2,0,P|8:109|0:77,1,67,12|0,2:0|2:0,2:0:0:0:
66,17,165458,1,14,2:1:0:0:
66,17,165603,1,0,2:0:0:0:
132,84,165749,1,8,2:0:0:0:
195,15,165895,6,0,B|250:29|250:29|266:52|266:52|314:64,1,134,12|8,2:1|2:1,2:0:0:0:
415,38,166332,2,0,P|407:71|399:103,1,67,10|2,2:0|2:0,2:0:0:0:
329,161,166623,1,8,2:1:0:0:
329,161,166769,2,0,P|337:194|345:226,1,67,10|12,2:1|2:0,2:0:0:0:
404,299,167060,1,8,2:0:0:0:
404,299,167133,1,8,2:0:0:0:
404,299,167205,6,0,P|367:307|328:317,1,77.2509986444298,10|8,2:1|2:1,2:0:0:0:
256,365,167497,2,0,P|219:357|180:347,1,77.2509986444298,14|0,2:0|2:0,2:0:0:0:
87,373,167788,2,0,P|96:337|87:298,1,77.2509986444298,10|8,2:1|2:1,2:0:0:0:
14,254,168079,2,0,P|5:218|14:179,1,77.2509986444298,12|0,2:0|2:0,2:0:0:0:
19,93,168370,6,0,P|77:104|131:119,1,115.675499002737,10|0,2:1|2:0,2:0:0:0:
163,145,168662,2,0,P|200:135|238:127,1,77.2509986444298,12|0,2:0|2:0,2:0:0:0:
301,68,168953,2,0,P|338:77|376:85,1,77.2509986444298,10|8,2:1|2:1,2:0:0:0:
443,141,169244,1,12,2:0:0:0:
373,195,169390,1,8,2:0:0:0:
373,195,169463,1,8,2:0:0:0:
373,195,169536,6,0,P|381:232|390:270,1,77.2509986444298,8|8,2:0|2:3,2:0:0:0:
486,253,169827,2,0,P|478:290|469:328,1,77.2509986444298,4|10,2:3|2:1,2:0:0:0:
392,376,170118,2,0,P|355:365|317:371,1,77.2509986444298,8|8,2:0|2:3,2:0:0:0:
247,318,170409,2,0,P|210:328|172:322,1,77.2509986444298,4|8,2:3|2:1,2:0:0:0:
106,265,170701,5,12,2:0:0:0:
232,13,171720,5,8,2:0:0:0:
232,13,171866,2,0,P|248:77|261:143,1,134,12|8,2:1|2:0,2:0:0:0:
358,96,172303,1,2,2:0:0:0:
358,96,172448,2,0,P|341:160|328:226,1,134,10|8,2:1|2:0,2:0:0:0:
335,325,172885,6,0,P|303:317|270:309,1,67,10|0,2:1|2:0,2:0:0:0:
175,242,173176,2,0,P|207:234|240:226,2,67,10|8|2,2:1|2:0|2:0,2:0:0:0:
111,316,173613,2,0,B|76:239|76:239|99:195,1,134,10|8,2:1|2:0,2:0:0:0:
47,118,174050,1,2,2:0:0:0:
47,118,174196,6,0,P|79:109|112:117,1,67,10|2,2:1|2:0,2:0:0:0:
169,53,174487,2,0,P|201:63|234:55,1,67,8|2,2:0|2:0,2:0:0:0:
328,35,174778,1,10,2:1:0:0:
328,35,174924,2,0,P|321:68|313:101,1,67,10|8,2:1|2:0,2:0:0:0:
241,146,175215,6,0,P|258:211|272:277,1,134,10|8,2:1|2:1,2:0:0:0:
367,266,175652,2,0,P|359:298|351:331,1,67,8|8,2:0|2:1,2:0:0:0:
272,372,175943,2,0,P|240:364|207:356,1,67,8|8,2:0|2:1,2:0:0:0:
145,298,176235,2,0,P|113:306|80:314,1,67,8|8,2:0|2:0,2:0:0:0:
43,291,176453,1,8,2:0:0:0:
43,291,176526,6,0,P|60:227|74:161,1,134,12|8,2:1|2:0,2:0:0:0:
178,195,176963,1,2,2:0:0:0:
178,195,177108,2,0,P|161:131|147:65,1,134,10|8,2:1|2:0,2:0:0:0:
216,12,177545,6,0,P|249:19|282:28,1,67,10|0,2:1|2:0,2:0:0:0:
334,105,177837,2,0,P|301:113|268:121,2,67,10|8|2,2:1|2:0|2:0,2:0:0:0:
405,33,178273,2,0,P|460:66|471:130,1,134,10|8,2:1|2:0,2:0:0:0:
395,185,178710,1,2,2:0:0:0:
395,185,178856,6,0,P|402:217|410:250,1,67,12|2,2:1|2:0,2:0:0:0:
499,264,179147,2,0,P|492:296|484:329,1,67,8|2,2:0|2:0,2:0:0:0:
407,375,179438,2,0,P|375:368|342:360,1,67,10|10,2:1|2:1,2:0:0:0:
276,287,179730,1,8,2:0:0:0:
276,287,179875,6,0,P|241:340|176:336,1,134,12|0,2:1|3:0,2:0:0:0:
150,300,180239,1,0,3:0:0:0:
150,300,180312,2,0,L|109:290,3,33.5,8|0|0|0,3:1|3:0|3:0|3:0,2:0:0:0:
81,262,180603,2,0,L|48:269,3,33.5,8|0|0|0,1:0|1:0|1:0|1:0,2:0:0:0:
12,238,180895,2,0,L|19:205,3,33.5,8|0|0|0,1:0|1:0|1:0|1:0,2:0:0:0:
30,167,181186,6,0,P|79:177|127:189,1,100.5,12|0,2:1|2:0,2:0:0:0:
151,166,181478,2,0,P|184:158|216:150,1,67,12|2,2:0|2:0,2:0:0:0:
283,64,181769,2,0,P|295:125|357:138,1,134,10|8,2:1|2:0,2:0:0:0:
464,91,182205,6,0,P|446:155|432:221,1,134,12|10,2:1|2:1,2:0:0:0:
357,274,182642,1,10,2:0:0:0:
357,274,182788,1,2,2:0:0:0:
428,352,182934,2,0,P|379:362|331:374,1,100.5,10|0,2:1|2:0,2:0:0:0:
307,351,183226,2,0,P|274:343|242:335,1,67,10|2,2:0|2:0,2:0:0:0:
166,291,183516,5,12,2:1:0:0:
166,291,183662,1,2,2:0:0:0:
92,358,183807,2,0,P|82:309|70:261,1,100.5,10|0,2:0|2:0,2:0:0:0:
93,237,184099,2,0,P|101:204|109:172,1,67,10|10,2:1|2:1,2:0:0:0:
101,51,184390,1,8,2:0:0:0:
101,51,184536,6,0,P|142:101|207:98,1,134,12|8,2:1|2:1,2:0:0:0:
239,62,184899,1,8,2:1:0:0:
239,62,184972,2,0,L|280:72,3,33.5,8|8|8|8,2:0|2:0|2:1|2:1,2:0:0:0:
302,104,185264,2,0,L|335:97,3,33.5,8|8|4|8,2:3|2:3|2:3|2:1,2:0:0:0:
380,87,185555,1,12,2:0:0:0:
493,238,185846,6,0,P|458:230|426:222,1,67,12|0,2:1|2:0,2:0:0:0:
372,294,186137,2,0,P|337:301|306:309,1,67,8|10,2:0|2:1,2:0:0:0:
239,254,186429,2,0,P|204:246|173:238,1,67,8|10,2:0|2:1,2:0:0:0:
59,224,186720,1,8,2:0:0:0:
59,224,186866,6,0,P|110:184|106:120,1,134,10|10,2:1|2:1,2:0:0:0:
31,69,187303,1,10,2:0:0:0:
31,69,187448,1,10,2:1:0:0:
96,10,187594,2,0,P|129:17|162:10,1,67,10|8,2:0|2:1,2:0:0:0:
227,64,187885,2,0,P|260:57|293:64,1,67,10|10,2:0|2:1,2:0:0:0:
394,2,188176,6,0,P|375:87|357:165,1,167.5,12|0,2:1|2:0,2:0:0:0:
460,135,188613,2,0,P|441:220|423:298,1,167.5,12|0,2:1|2:0,2:0:0:0:
341,362,189050,6,0,P|303:294|218:288,1,167.5,12|0,0:1|0:0,0:0:0:0:
146,369,189487,2,0,B|103:301|103:301|141:222,1,167.5,12|0,0:1|0:0,0:0:0:0:
191,142,189924,5,12,2:1:0:0:
256,192,189997,12,0,195021,2:0:0:0:
