osu file format v14

[General]
AudioFilename: audio.mp3
AudioLeadIn: 0
PreviewTime: 45968
Countdown: 0
SampleSet: Soft
StackLeniency: 0.7
Mode: 0
LetterboxInBreaks: 0
WidescreenStoryboard: 0

[Editor]
DistanceSpacing: 1
BeatDivisor: 16
GridSize: 32
TimelineZoom: 3.999998

[Metadata]
Title:Wagon
TitleUnicode:ワゴン
Artist:Toyama Nao
ArtistUnicode:東山奈央
Creator:_kotachi_
Version:Departure
Source:
Tags:dahkjdas EnuHQ Shikibe Mayu kazato Asa Shizuku- Lemaire Repl4y -Magic- touyama jpop j-pop pop japanese 冷めない魔法 Samenai Mahou
BeatmapID:3408413
BeatmapSetID:1669004

[Difficulty]
HPDrainRate:5
CircleSize:3.8
OverallDifficulty:9
ApproachRate:9.5
SliderMultiplier:1.76
SliderTickRate:1

[Events]
//Background and Video events
0,0,"BG.jpg",0,0
//Break Periods
2,143904,146875
//Storyboard Layer 0 (Background)
//Storyboard Layer 1 (Fail)
//Storyboard Layer 2 (Pass)
//Storyboard Layer 3 (Foreground)
//Storyboard Layer 4 (Overlay)
//Storyboard Sound Samples

[TimingPoints]
604,291.26213592233,4,2,1,50,1,0
604,-133.333333333333,4,2,1,50,0,0
3953,-71.4285714285714,4,2,1,70,0,0
5264,-76.9230769230769,4,2,1,70,0,0
5482,-76.9230769230769,4,2,1,5,0,0
5555,-90.9090909090909,4,2,1,70,0,0
10142,-90.9090909090909,4,2,1,5,0,0
10215,-90.9090909090909,4,2,1,70,0,0
13273,-90.9090909090909,4,2,2,70,0,0
13565,-90.9090909090909,4,2,1,70,0,0
15603,-90.9090909090909,4,2,1,5,0,0
15749,-100,4,2,1,60,0,0
15968,-100,4,2,1,5,0,0
16040,-100,4,2,1,60,0,0
19463,-100,4,2,1,5,0,0
19536,-100,4,2,1,60,0,0
20409,-90.9090909090909,4,2,1,70,0,0
20846,-90.9090909090909,4,2,2,70,0,0
21065,-90.9090909090909,4,2,2,5,0,0
21137,-90.9090909090909,4,2,1,70,0,0
23832,-90.9090909090909,4,2,1,5,0,0
23904,-90.9090909090909,4,2,2,70,0,0
24050,-90.9090909090909,4,2,1,70,0,0
25070,-100,4,2,1,60,0,0
25288,-100,4,2,1,5,0,0
25361,-100,4,2,1,60,0,0
28492,-100,4,2,1,5,0,0
28565,-100,4,2,1,60,0,0
29730,-90.9090909090909,4,2,1,70,0,0
30167,-90.9090909090909,4,2,2,70,0,0
30385,-90.9090909090909,4,2,2,5,0,0
30458,-90.9090909090909,4,2,1,70,0,0
34390,-200,4,2,1,40,0,0
35118,-200,4,2,1,5,0,0
35264,-200,4,2,1,40,0,0
36647,-200,4,2,1,5,0,0
36720,-200,4,2,1,40,0,0
38686,-200,4,2,1,5,0,0
38759,-133.333333333333,4,2,1,40,0,0
38977,-133.333333333333,4,2,1,5,0,0
39050,-111.111111111111,4,2,1,50,0,0
43710,-200,4,2,1,60,0,0
44511,-200,4,2,1,5,0,0
44584,-200,4,2,1,60,0,0
44803,-200,4,2,1,5,0,0
44875,-100,4,2,1,60,0,0
45094,-100,4,2,1,5,0,0
45167,-133.333333333333,4,2,1,60,0,0
45385,-133.333333333333,4,2,1,5,0,0
45458,-133.333333333333,4,2,1,60,0,0
46040,-83.3333333333333,4,2,1,75,0,1
47424,-83.3333333333333,4,2,1,5,0,1
47497,-83.3333333333333,4,2,1,75,0,1
49390,-83.3333333333333,4,2,2,75,0,1
49681,-83.3333333333333,4,2,1,75,0,1
50919,-83.3333333333333,4,2,1,5,0,1
50992,-83.3333333333333,4,2,1,75,0,1
51866,-83.3333333333333,4,2,2,75,0,1
52157,-83.3333333333333,4,2,1,75,0,1
53249,-83.3333333333333,4,2,1,5,0,1
53322,-83.3333333333333,4,2,1,75,0,1
54123,-83.3333333333333,4,2,1,5,0,1
54196,-83.3333333333333,4,2,2,75,0,1
54269,-83.3333333333333,4,2,1,75,0,1
54633,-83.3333333333333,4,2,2,75,0,1
54705,-83.3333333333333,4,2,2,5,0,1
54924,-83.3333333333333,4,2,2,75,0,1
54997,-83.3333333333333,4,2,2,5,0,1
55215,-83.3333333333333,4,2,1,75,0,1
57036,-83.3333333333333,4,2,1,5,0,1
57108,-83.3333333333333,4,2,1,75,0,1
58710,-83.3333333333333,4,2,2,75,0,1
59002,-83.3333333333333,4,2,1,75,0,1
60531,-83.3333333333333,4,2,1,5,0,1
60603,-83.3333333333333,4,2,1,75,0,1
61186,-83.3333333333333,4,2,2,75,0,1
61332,-83.3333333333333,4,2,1,75,0,1
62060,-100,4,2,1,75,0,1
62642,-83.3333333333333,4,2,2,75,0,1
62861,-83.3333333333333,4,2,2,5,0,1
62934,-83.3333333333333,4,2,2,75,0,1
63152,-83.3333333333333,4,2,2,5,0,1
63225,-83.3333333333333,4,2,2,75,0,1
63443,-83.3333333333333,4,2,2,5,0,1
63516,-500,4,2,1,75,0,1
64171,-500,4,2,1,5,0,1
64244,-100,4,2,1,75,0,1
65628,-100,4,2,1,5,0,1
65701,-100,4,2,1,75,0,1
65846,-76.9230769230769,4,2,1,70,0,0
66137,-90.9090909090909,4,2,1,70,0,0
68176,-90.9090909090909,4,2,2,70,0,0
68322,-90.9090909090909,4,2,1,70,0,0
70725,-90.9090909090909,4,2,1,5,0,0
70798,-90.9090909090909,4,2,1,70,0,0
74438,-333.333333333333,4,2,2,70,0,0
74730,-333.333333333333,4,2,2,50,0,0
75167,-111.111111111111,4,2,1,60,0,0
75385,-111.111111111111,4,2,1,5,0,0
75458,-111.111111111111,4,2,1,60,0,0
77424,-111.111111111111,4,2,1,5,0,0
77497,-111.111111111111,4,2,1,60,0,0
78589,-111.111111111111,4,2,1,5,0,0
78662,-111.111111111111,4,2,1,60,0,0
79827,-90.9090909090909,4,2,1,70,0,0
80264,-90.9090909090909,4,2,2,70,0,0
80482,-90.9090909090909,4,2,2,5,0,0
80555,-90.9090909090909,4,2,1,70,0,0
83322,-90.9090909090909,4,2,2,70,0,0
83468,-90.9090909090909,4,2,1,70,0,0
84487,-100,4,2,1,60,0,0
84997,-100,4,2,1,5,0,0
85070,-100,4,2,1,60,0,0
87909,-100,4,2,1,5,0,0
87982,-100,4,2,1,60,0,0
89147,-90.9090909090909,4,2,1,70,0,0
89584,-90.9090909090909,4,2,2,70,0,0
89803,-90.9090909090909,4,2,1,5,0,0
89875,-90.9090909090909,4,2,1,70,0,0
91477,-90.9090909090909,4,2,2,70,0,0
91769,-90.9090909090909,4,2,1,70,0,0
92570,-90.9090909090909,4,2,1,5,0,0
92642,-90.9090909090909,4,2,1,70,0,0
93807,-333.333333333333,4,2,1,40,0,0
94171,-333.333333333333,4,2,1,5,0,0
94244,-125,4,2,1,70,0,0
94972,-133.333333333333,4,2,1,60,0,0
99341,-133.333333333333,4,2,2,60,0,0
99487,-133.333333333333,4,2,1,60,0,0
99633,-90.9090909090909,4,2,1,70,0,0
104293,-111.111111111111,4,2,1,60,0,0
104875,-133.333333333333,4,2,1,60,0,0
105094,-133.333333333333,4,2,1,5,0,0
105167,-200,4,2,1,60,0,0
105385,-200,4,2,1,5,0,0
105458,-66.6666666666667,4,2,1,70,0,0
105555,-66.6666666666667,4,2,1,5,0,0
105652,-62.5,4,2,1,70,0,0
105749,-62.5,4,2,1,5,0,0
105846,-58.8235294117647,4,2,1,70,0,0
105943,-58.8235294117647,4,2,1,5,0,0
106040,-500,4,2,1,70,0,0
106550,-500,4,2,1,5,0,0
106623,-83.3333333333333,4,2,1,75,0,1
108006,-83.3333333333333,4,2,1,5,0,1
108079,-83.3333333333333,4,2,1,75,0,1
109972,-83.3333333333333,4,2,2,75,0,1
110264,-83.3333333333333,4,2,1,75,0,1
111502,-83.3333333333333,4,2,1,5,0,1
111574,-83.3333333333333,4,2,1,75,0,1
112375,-83.3333333333333,4,2,1,5,0,1
112448,-83.3333333333333,4,2,2,75,0,1
112739,-83.3333333333333,4,2,1,75,0,1
113832,-83.3333333333333,4,2,1,5,0,1
113904,-83.3333333333333,4,2,1,75,0,1
114705,-83.3333333333333,4,2,1,5,0,1
114778,-83.3333333333333,4,2,2,75,0,1
114851,-83.3333333333333,4,2,1,75,0,1
115215,-83.3333333333333,4,2,2,75,0,1
115288,-83.3333333333333,4,2,2,5,0,1
115506,-83.3333333333333,4,2,2,75,0,1
115579,-83.3333333333333,4,2,2,5,0,1
115798,-83.3333333333333,4,2,1,75,0,1
117327,-83.3333333333333,4,2,1,5,0,1
117400,-83.3333333333333,4,2,1,75,0,1
118201,-83.3333333333333,4,2,1,5,0,1
118273,-83.3333333333333,4,2,1,75,0,1
119293,-83.3333333333333,4,2,2,75,0,1
119584,-83.3333333333333,4,2,1,75,0,1
121113,-83.3333333333333,4,2,1,5,0,1
121186,-83.3333333333333,4,2,1,75,0,1
121769,-83.3333333333333,4,2,2,75,0,1
121914,-83.3333333333333,4,2,1,75,0,1
122278,-83.3333333333333,4,2,1,5,0,1
122351,-133.333333333333,4,2,1,75,0,1
122570,-133.333333333333,4,2,1,5,0,1
122642,-100,4,2,1,75,0,1
124099,-500,4,2,1,70,0,0
124827,-500,4,2,2,5,0,0
124972,-200,4,2,2,60,0,0
125701,-200,4,2,2,5,0,0
125846,-100,4,2,2,60,0,0
126429,-500,4,2,1,60,0,0
127157,-500,4,2,2,5,0,0
127303,-200,4,2,2,60,0,0
128031,-200,4,2,2,5,0,0
128176,-100,4,2,2,60,0,0
128759,-100,4,2,1,60,0,0
128904,-100,4,2,2,60,0,0
130506,-100,4,2,2,60,0,0
130603,-100,4,2,2,5,0,0
130701,-100,4,2,2,60,0,0
130798,-100,4,2,2,5,0,0
130895,-100,4,2,2,60,0,0
130992,-100,4,2,2,5,0,0
131089,-200,4,2,1,60,0,0
131380,-200,4,2,2,5,0,0
131526,-500,4,2,2,60,0,0
131817,-500,4,2,2,5,0,0
131963,-133.333333333333,4,2,2,60,0,0
132327,-133.333333333333,4,2,2,5,0,0
132472,-83.3333333333333,4,2,2,40,0,0
132837,-83.3333333333333,4,2,2,70,0,0
132934,-83.3333333333333,4,2,2,5,0,0
133031,-83.3333333333333,4,2,2,70,0,0
133128,-83.3333333333333,4,2,2,5,0,0
133225,-83.3333333333333,4,2,2,70,0,0
133322,-83.3333333333333,4,2,2,5,0,0
133419,-90.9090909090909,4,2,1,70,0,0
133637,-90.9090909090909,4,2,1,5,0,0
133710,-90.9090909090909,4,2,1,70,0,0
147400,-166.666666666667,4,2,1,50,0,0
148492,-166.666666666667,4,2,1,5,0,0
148565,-133.333333333333,4,2,1,50,0,0
148856,-166.666666666667,4,2,1,50,0,0
149730,-200,4,2,1,35,0,0
149875,-200,4,2,1,5,0,0
150021,-133.333333333333,4,2,1,45,0,0
150167,-133.333333333333,4,2,1,5,0,0
150312,-100,4,2,1,55,0,0
150458,-100,4,2,1,5,0,0
150603,-83.3333333333333,4,2,1,55,0,0
150749,-83.3333333333333,4,2,1,5,0,0
150895,-83.3333333333333,4,2,1,70,0,0
150968,-83.3333333333333,4,2,1,5,0,0
151477,-100,4,2,1,70,0,0
152060,-71.4285714285714,4,2,2,70,0,0
152278,-71.4285714285714,4,2,1,5,0,0
152351,-71.4285714285714,4,2,1,70,0,0
152642,-71.4285714285714,4,2,1,40,0,0
152788,-71.4285714285714,4,2,1,50,0,0
152934,-71.4285714285714,4,2,1,60,0,0
153079,-71.4285714285714,4,2,1,70,0,0
153225,-83.3333333333333,4,2,1,75,0,1
154608,-83.3333333333333,4,2,1,5,0,1
154681,-83.3333333333333,4,2,1,75,0,1
156574,-83.3333333333333,4,2,2,75,0,1
156866,-83.3333333333333,4,2,1,75,0,1
158103,-83.3333333333333,4,2,1,5,0,1
158176,-83.3333333333333,4,2,1,75,0,1
158977,-83.3333333333333,4,2,1,5,0,1
159050,-83.3333333333333,4,2,2,75,0,1
159341,-83.3333333333333,4,2,1,75,0,1
160434,-83.3333333333333,4,2,1,5,0,1
160506,-83.3333333333333,4,2,1,75,0,1
161307,-83.3333333333333,4,2,1,5,0,1
161380,-83.3333333333333,4,2,2,75,0,1
161453,-83.3333333333333,4,2,1,75,0,1
161817,-83.3333333333333,4,2,2,75,0,1
161890,-83.3333333333333,4,2,2,5,0,1
162108,-83.3333333333333,4,2,2,75,0,1
162181,-83.3333333333333,4,2,2,5,0,1
162254,-66.6666666666667,4,2,1,75,0,1
162691,-83.3333333333333,4,2,1,75,0,1
163055,-83.3333333333333,4,2,1,5,0,1
163128,-83.3333333333333,4,2,2,75,0,1
163419,-83.3333333333333,4,2,1,75,0,1
163565,-83.3333333333333,4,2,2,75,0,1
164002,-83.3333333333333,4,2,1,75,0,1
164293,-83.3333333333333,4,2,2,75,0,1
164438,-83.3333333333333,4,2,1,75,0,1
165458,-66.6666666666667,4,2,2,75,0,1
165676,-66.6666666666667,4,2,1,5,0,1
165749,-66.6666666666667,4,2,1,75,0,1
165895,-83.3333333333333,4,2,1,75,0,1
167715,-83.3333333333333,4,2,1,5,0,1
167788,-83.3333333333333,4,2,1,75,0,1
171283,-250,4,2,1,50,0,1
171720,-250,4,2,1,60,0,1
171866,-76.9230769230769,4,2,1,70,0,0
172084,-76.9230769230769,4,2,1,5,0,0
172157,-90.9090909090909,4,2,1,70,0,0
176744,-90.9090909090909,4,2,1,5,0,0
176817,-90.9090909090909,4,2,1,70,0,0
179875,-90.9090909090909,4,2,2,70,0,0
180094,-90.9090909090909,4,2,1,5,0,0
180167,-90.9090909090909,4,2,1,70,0,0
181186,-76.9230769230769,4,2,1,70,0,0
181404,-76.9230769230769,4,2,1,5,0,0
181477,-90.9090909090909,4,2,1,70,0,0
182205,-90.9090909090909,4,2,2,70,0,0
182351,-90.9090909090909,4,2,1,70,0,0
184536,-90.9090909090909,4,2,2,70,0,0
184827,-90.9090909090909,4,2,1,70,0,0
185555,-166.666666666667,4,2,1,70,0,0
185773,-166.666666666667,4,2,1,5,0,0
185846,-90.9090909090909,4,2,1,70,0,0
186065,-90.9090909090909,4,2,1,5,0,0
186137,-90.9090909090909,4,2,1,70,0,0
188176,-111.111111111111,4,2,2,70,0,0
188613,-100,4,2,2,70,0,0
189050,-83.3333333333333,4,2,2,70,0,0
189487,-76.9230769230769,4,2,2,70,0,0
189924,-250,4,2,1,90,0,0
192837,-250,4,2,1,50,0,0
193419,-250,4,2,1,40,0,0
194002,-250,4,2,1,30,0,0
194584,-250,4,2,1,20,0,0
195021,-250,4,2,1,5,0,0

[Colours]
Combo1 : 255,223,128
Combo2 : 255,157,255
Combo3 : 255,183,219
Combo4 : 255,172,132

[HitObjects]
226,294,604,6,0,B|307:301|277:264|362:276,1,132.000005035401,2|0,0:0|0:0,0:0:0:0:
452,309,1040,1,0,0:0:0:0:
364,210,1186,2,0,P|357:253|353:289,1,66.0000025177003,2|0,0:0|0:0,0:0:0:0:
444,154,1477,1,0,0:0:0:0:
273,189,1623,6,0,P|264:124|253:60,1,132.000005035401,2|0,0:0|0:0,0:0:0:0:
352,109,2060,1,0,0:0:0:0:
352,109,2205,1,0,0:0:0:0:
185,145,2351,2,0,P|151:139|115:134,1,66.0000025177003,2|0,0:0|0:0,0:0:0:0:
188,301,2642,2,0,P|191:266|195:230,1,66.0000025177003
54,84,2934,6,0,P|37:138|74:204,1,132.000005035401,2|0,0:0|0:0,0:0:0:0:
186,145,3370,1,0,0:0:0:0:
316,268,3516,5,2,0:0:0:0:
194,235,3662,1,0,0:0:0:0:
352,109,3807,5,8,0:1:0:0:
352,109,3880,1,8,0:1:0:0:
352,109,3953,2,0,P|394:51|500:81,1,184.799994360352,12|0,0:0|0:0,0:0:0:0:
505,260,4244,5,8,0:0:0:0:
422,204,4390,1,8,0:0:0:0:
311,219,4536,1,8,0:1:0:0:
218,320,4681,5,8,0:0:0:0:
151,122,4827,1,8,0:0:0:0:
36,259,4972,6,0,L|101:243,1,61.5999981201172,8|8,0:0|0:0,0:0:0:0:
204,45,5118,2,0,L|263:30,1,61.5999981201172,8|8,0:0|0:0,0:0:0:0:
422,204,5264,6,0,P|369:140|286:141,1,171.599992144776,12|0,0:1|0:0,0:0:0:0:
228,202,5555,1,8,0:0:0:0:
370,31,5701,1,2,0:0:0:0:
151,122,5846,5,10,0:1:0:0:
311,219,5992,2,0,P|308:270|305:324,1,96.8000029541017,8|8,0:1|0:0,0:0:0:0:
59,119,6283,6,0,B|173:135|125:190|228:202,1,193.600005908203,10|8,0:1|0:1,0:0:0:0:
95,244,6720,1,8,0:0:0:0:
185,41,6866,1,2,0:0:0:0:
311,219,7011,6,0,P|357:219|400:180,1,96.8000029541017,10|8,0:1|0:1,0:0:0:0:
201,374,7303,2,0,P|192:326|183:278,1,96.8000029541017,8|2,0:0|0:0,0:0:0:0:
342,52,7594,5,8,0:1:0:0:
311,219,7739,1,2,0:0:0:0:
478,250,7885,1,8,0:0:0:0:
509,83,8030,1,2,0:0:0:0:
384,291,8176,5,10,0:1:0:0:
294,134,8322,1,10,0:1:0:0:
183,278,8468,1,8,0:0:0:0:
54,46,8613,6,0,B|114:87|114:87|94:206,1,193.600005908203,8|8,0:1|0:1,0:0:0:0:
72,310,9050,5,8,0:0:0:0:
278,223,9196,1,8,0:1:0:0:
258,342,9341,5,8,0:0:0:0:
187,163,9487,1,8,0:1:0:0:
340,36,9633,5,8,0:0:0:0:
278,223,9779,1,8,0:0:0:0:
278,223,9851,1,8,0:0:0:0:
278,223,9924,6,0,P|357:208|434:200,1,145.200004431152,12|0,0:1|0:0,0:0:0:0:
477,144,10215,2,0,P|436:120|389:123,1,96.8000029541017,8|2,0:0|0:0,0:0:0:0:
198,262,10506,5,10,0:1:0:0:
363,357,10652,1,8,0:1:0:0:
302,128,10798,1,8,0:0:0:0:
183,278,10943,6,0,B|50:259|50:259|80:280|91:309,1,193.600005908203,10|10,0:1|0:1,0:0:0:0:
187,163,11380,1,8,0:0:0:0:
241,358,11526,1,2,0:0:0:0:
100,182,11671,6,0,P|93:135|82:88,1,96.8000029541017,10|8,0:1|0:1,0:0:0:0:
282,32,11963,2,0,P|289:79|300:126,1,96.8000029541017,8|2,0:0|0:0,0:0:0:0:
188,18,12254,5,12,0:1:0:0:
160,249,12400,1,2,0:0:0:0:
301,127,12545,1,8,0:0:0:0:
324,296,12691,1,2,0:0:0:0:
408,105,12837,5,10,0:1:0:0:
275,220,12982,1,8,0:1:0:0:
157,88,13128,1,8,0:0:0:0:
80,282,13273,6,0,P|171:278|217:358,1,193.600005908203,12|8,0:1|0:1,0:0:0:0:
418,212,13710,1,8,0:0:0:0:
324,296,13856,5,8,0:0:0:0:
324,296,13929,1,8,0:0:0:0:
324,296,14002,1,8,0:0:0:0:
277,108,14147,1,8,0:0:0:0:
465,61,14293,1,8,0:0:0:0:
512,249,14438,1,8,0:0:0:0:
330,188,14584,5,8,0:3:0:0:
260,364,14730,1,8,0:3:0:0:
130,92,14875,5,4,0:3:0:0:
159,250,15021,1,4,0:3:0:0:
159,250,15094,1,8,0:1:0:0:
159,250,15167,1,8,0:1:0:0:
387,116,15312,6,0,B|283:98|335:34|227:21,1,193.600005908203,12|0,0:0|0:0,0:0:0:0:
43,273,15749,6,0,P|83:228|153:238,1,132,12|0,0:1|0:0,0:0:0:0:
159,250,16040,2,0,P|154:294|151:346,1,88,8|0,0:0|0:0,0:0:0:0:
351,276,16332,5,10,0:1:0:0:
372,367,16477,1,8,0:1:0:0:
422,203,16623,1,8,0:0:0:0:
259,257,16769,1,2,0:0:0:0:
225,169,16914,6,0,P|274:163|316:184,1,88,10|0,0:1|0:0,0:0:0:0:
475,81,17205,2,0,B|448:44|397:51|397:51|368:88|317:80,1,176,8|8,0:0|0:1,0:0:0:0:
161,27,17642,1,8,0:1:0:0:
222,146,17788,2,0,P|227:103|234:59,1,88,8|0,0:0|0:0,0:0:0:0:
0,145,18079,5,10,0:1:0:0:
135,123,18225,1,2,0:0:0:0:
1,155,18370,1,8,0:0:0:0:
136,133,18516,1,2,0:0:0:0:
95,324,18662,6,0,P|89:280|82:236,1,88,10|8,0:1|0:1,0:0:0:0:
217,361,18953,2,0,P|222:317|229:273,1,88,8|0,0:0|0:1,0:0:0:0:
461,217,19244,6,0,P|397:225|348:183,1,132,8|0,0:1|0:0,0:0:0:0:
349,170,19536,2,0,P|343:126|336:82,1,88,8|0,0:0|0:1,0:0:0:0:
204,21,19827,5,10,0:1:0:0:
265,140,19972,1,10,0:1:0:0:
164,230,20118,1,8,0:0:0:0:
14,43,20264,5,8,0:0:0:0:
14,43,20337,1,8,0:0:0:0:
14,43,20409,2,0,B|124:52|63:116|173:137,1,193.600005908203,12|8,0:1|0:0,0:0:0:0:
458,42,20846,2,0,P|388:38|348:94,1,145.200004431152,12|0,0:1|0:0,0:0:0:0:
349,170,21137,1,8,0:1:0:0:
204,21,21283,1,8,0:0:0:0:
235,308,21429,6,0,P|247:210|261:117,1,193.600005908203,12|8,0:1|0:1,0:0:0:0:
46,241,21866,2,0,P|88:262|136:260,1,96.8000029541017,8|0,0:0|0:0,0:0:0:0:
385,213,22157,5,10,0:1:0:0:
261,116,22303,1,8,0:1:0:0:
365,0,22448,2,0,P|354:52|348:103,1,96.8000029541017,8|0,0:0|0:0,0:0:0:0:
434,308,22739,6,0,P|371:238|277:242,1,193.600005908203,12|8,0:1|0:0,0:0:0:0:
104,100,23176,1,0,0:0:0:0:
261,116,23322,2,0,P|255:68|246:21,1,96.8000029541017,10|8,0:1|0:1,0:0:0:0:
165,278,23613,2,0,P|113:229|42:241,1,145.200004431152,10|0,0:0|0:1,0:0:0:0:
7,306,23904,5,12,0:1:0:0:
178,164,24050,1,10,0:1:0:0:
220,372,24196,1,8,0:0:0:0:
277,241,24341,5,8,0:0:0:0:
277,241,24414,1,8,0:0:0:0:
277,241,24487,1,8,0:0:0:0:
95,342,24633,1,8,0:0:0:0:
174,151,24778,5,8,0:0:0:0:
222,380,24924,1,8,0:0:0:0:
355,188,25070,6,0,P|417:175|476:223,1,132,12|0,0:1|0:0,0:0:0:0:
475,226,25361,2,0,P|467:275|463:322,1,88,8|0,0:0|0:0,0:0:0:0:
364,79,25652,5,10,0:1:0:0:
471,45,25798,1,8,0:1:0:0:
355,188,25943,1,8,0:0:0:0:
279,19,26089,1,2,0:0:0:0:
203,103,26235,6,0,P|158:97|127:69,1,88,10|0,0:1|0:0,0:0:0:0:
26,272,26526,2,0,B|91:259|91:259|116:223|116:223|195:209,1,176,8|8,0:0|0:1,0:0:0:0:
360,307,26963,1,8,0:1:0:0:
237,360,27108,2,0,P|222:316|229:271,1,88,8|0,0:0|0:0,0:0:0:0:
377,89,27400,5,10,0:1:0:0:
355,188,27545,1,2,0:0:0:0:
453,210,27691,1,8,0:0:0:0:
476,112,27837,1,2,0:0:0:0:
344,196,27982,5,10,0:1:0:0:
456,224,28128,1,8,0:1:0:0:
369,80,28273,2,0,B|295:63|315:109|238:96,1,132,8|0,0:0|0:0,0:0:0:0:
165,59,28565,5,8,0:1:0:0:
195,165,28710,1,8,0:1:0:0:
240,12,28856,1,8,0:0:0:0:
137,230,29002,1,8,0:1:0:0:
30,90,29147,5,8,0:0:0:0:
216,249,29293,1,8,0:1:0:0:
369,80,29438,6,0,L|325:75,1,44,8|8,0:0|0:0,0:0:0:0:
165,59,29584,2,0,L|121:54,1,44,8|4,0:3|0:3,0:0:0:0:
300,249,29730,6,0,B|344:184|433:203|433:203|417:245,1,193.600005908203,12|8,0:1|0:0,0:0:0:0:
160,373,30167,2,0,P|149:301|136:229,1,145.200004431152,12|0,0:1|0:0,0:0:0:0:
118,153,30458,1,10,0:1:0:0:
259,324,30603,1,8,0:0:0:0:
23,183,30749,6,0,B|131:167|80:102|181:83,1,193.600005908203,12|8,0:1|0:1,0:0:0:0:
300,249,31186,2,0,P|342:270|390:265,1,96.8000029541017,8|0,0:0|0:0,0:0:0:0:
467,83,31477,5,10,0:1:0:0:
249,167,31623,1,8,0:1:0:0:
338,31,31769,2,0,P|350:82|359:139,1,96.8000029541017,8|0,0:0|0:0,0:0:0:0:
0,97,32060,6,0,B|69:119|69:119|94:165|94:165|160:182,1,193.600005908203,12|8,0:1|0:0,0:0:0:0:
70,310,32497,1,0,0:0:0:0:
266,250,32642,2,0,P|274:297|281:345,1,96.8000029541017,10|8,0:1|0:1,0:0:0:0:
176,86,32934,2,0,P|167:133|160:181,1,96.8000029541017,8|8,0:0|0:1,0:0:0:0:
338,31,33225,5,12,0:0:0:0:
382,230,33370,1,8,0:0:0:0:
425,52,33516,1,8,0:3:0:0:
269,164,33662,1,8,0:3:0:0:
176,86,33807,5,4,0:3:0:0:
266,250,33953,1,4,0:3:0:0:
89,227,34099,5,8,0:1:0:0:
269,164,34244,1,8,0:1:0:0:
200,365,34390,6,0,P|172:269|266:250,1,220,12|0,0:1|0:0,0:0:0:0:
373,315,35264,2,0,L|427:308,1,44,2|0,0:0|0:0,0:0:0:0:
480,111,35555,6,0,P|469:153|461:196,1,88,2|0,0:0|0:0,0:0:0:0:
355,119,35992,2,0,L|350:97,1,22
338,21,36137,1,2,0:0:0:0:
421,48,36283,1,2,0:0:0:0:
275,104,36429,2,0,P|241:105|206:89,1,66
138,46,36720,6,0,B|197:14|197:14|168:177,1,220,4|0,0:0|0:0,0:0:0:0:
89,217,37594,2,0,L|83:167,1,44,2|0,0:0|0:0,0:0:0:0:
59,312,37885,6,0,P|104:303|149:297,1,88,2|0,0:0|0:0,0:0:0:0:
298,189,38322,1,0,0:0:0:0:
251,326,38468,6,0,P|247:291|259:257,1,66,2|0,0:0|0:0,0:0:0:0:
298,188,38759,6,0,P|305:140|275:103,1,99.0000037765504,4|0,0:0|0:0,0:0:0:0:
207,190,39050,6,0,B|302:204|259:244|346:258,1,158.399995166016,12|8,0:1|0:0,0:0:0:0:
145,297,39487,2,0,L|101:305,1,39.5999987915039,8|4,0:3|0:3,0:0:0:0:
245,362,39633,5,10,0:1:0:0:
226,276,39778,1,10,0:1:0:0:
207,190,39924,2,0,L|191:110,1,79.1999975830079,8|0,0:0|0:0,0:0:0:0:
235,25,40215,5,10,0:1:0:0:
235,25,40361,1,8,0:1:0:0:
113,99,40506,2,0,P|151:106|191:112,1,79.1999975830079,8|8,0:0|0:3,0:0:0:0:
264,175,40725,6,0,L|225:184,1,39.5999987915039,4|10,0:3|0:1,0:0:0:0:
345,95,40943,1,8,0:1:0:0:
367,262,41089,2,0,P|359:219|354:182,1,79.1999975830079,8|0,0:0|0:0,0:0:0:0:
145,297,41380,6,0,P|141:336|136:375,2,79.1999975830079,10|8|8,0:1|0:1|0:0,0:0:0:0:
67,235,41817,1,8,0:3:0:0:
67,235,41890,1,4,0:3:0:0:
67,235,41963,1,10,0:1:0:0:
166,205,42108,1,4,0:3:0:0:
265,175,42254,1,2,3:2:0:0:
113,99,42400,1,8,0:0:0:0:
253,272,42545,6,0,P|256:232|261:193,1,79.1999975830079,2|8,0:0|0:1,0:0:0:0:
323,6,42837,1,8,0:0:0:0:
213,68,42982,2,0,L|252:78,1,39.5999987915039,12|4,0:3|0:3,0:0:0:0:
391,149,43128,5,10,0:1:0:0:
265,175,43273,1,8,0:1:0:0:
139,201,43419,1,12,0:0:0:0:
128,209,43710,6,0,B|116:114,1,88,12|0,0:1|0:0,0:0:0:0:
54,287,44147,5,8,0:1:0:0:
54,287,44220,1,8,0:1:0:0:
54,287,44293,2,0,P|86:287|115:302,1,66,12|0,0:0|0:0,0:0:0:0:
177,359,44584,6,0,P|209:358|238:343,1,66,10|0,0:1|0:0,0:0:0:0:
342,218,44875,6,0,B|292:225|292:225|267:245|267:245|217:254,1,132,10|0,0:0|0:0,0:0:0:0:
128,208,45167,6,0,B|159:174|159:174|144:122,1,99.0000037765504,8|0,0:1|0:0,0:0:0:0:
107,28,45458,5,8,0:0:0:0:
158,35,45531,1,8,0:0:0:0:
210,42,45603,1,8,0:0:0:0:
261,50,45676,1,8,0:0:0:0:
313,57,45749,1,8,0:1:0:0:
329,45,46040,6,0,B|252:62|252:62|219:106|219:106|142:123,1,211.199993554688,12|8,0:1|0:0,0:0:0:0:
347,177,46477,1,0,0:0:0:0:
205,351,46623,6,0,P|196:295|223:249,1,105.599996777344,10|8,0:1|0:1,0:0:0:0:
305,317,46914,1,8,0:0:0:0:
71,273,47060,1,0,0:0:0:0:
258,175,47205,6,0,B|353:186|309:230|397:240,1,158.399995166016,10|0,0:1|0:0,0:0:0:0:
439,149,47497,2,0,P|387:144|347:177,1,105.599996777344,10|0,0:0|0:0,0:0:0:0:
372,50,47788,5,10,0:1:0:0:
510,190,47934,1,8,0:1:0:0:
391,345,48079,2,0,P|392:292|398:235,1,105.599996777344,10|0,0:0|0:0,0:0:0:0:
107,28,48370,6,0,L|213:42,1,105.599996777344,10|0,0:1|0:0,0:0:0:0:
397,240,48662,2,0,L|291:254,1,105.599996777344,10|0,0:0|0:0,0:0:0:0:
372,50,48953,5,10,0:1:0:0:
126,147,49099,1,8,0:1:0:0:
290,353,49244,1,8,0:0:0:0:
41,234,49390,6,0,B|163:214|105:154|221:136,1,211.199993554688,12|8,0:1|0:1,0:0:0:0:
447,13,49827,5,10,0:0:0:0:
397,240,49973,1,2,0:0:0:0:
220,136,50119,1,10,0:1:0:0:
290,353,50264,2,0,P|296:290|303:241,1,105.599996777344,10|8,0:1|0:0,0:0:0:0:
85,106,50555,5,8,0:0:0:0:
85,106,50628,1,8,0:0:0:0:
85,106,50701,2,0,P|131:149|223:133,1,158.399995166016,12|0,0:1|0:0,0:0:0:0:
262,41,50992,2,0,B|212:22|212:22|170:53,1,105.599996777344,10|0,0:0|0:0,0:0:0:0:
64,319,51283,5,10,0:1:0:0:
303,248,51429,1,8,0:1:0:0:
139,175,51574,2,0,P|146:227|150:279,1,105.599996777344,10|0,0:0|0:0,0:0:0:0:
372,50,51866,6,0,P|470:55|498:150,1,211.199993554688,12|8,0:1|0:0,0:0:0:0:
290,353,52303,2,0,P|308:248|408:246,1,211.199993554688,12|10,0:1|0:1,0:0:0:0:
139,175,52739,1,8,0:0:0:0:
193,361,52885,1,2,0:0:0:0:
265,126,53031,6,0,B|207:117|207:117|182:89|182:89|120:81,1,158.399995166016,12|0,0:1|0:0,0:0:0:0:
35,192,53322,2,0,P|92:180|139:174,1,105.599996777344,10|0,0:0|0:0,0:0:0:0:
358,35,53613,5,10,0:1:0:0:
301,248,53759,1,8,0:1:0:0:
512,307,53904,2,0,P|498:232|428:201,1,158.399995166016,10|0,0:0|0:0,0:0:0:0:
265,126,54196,5,12,3:1:0:0:
317,118,54268,1,8,3:2:0:0:
369,111,54341,1,8,0:0:0:0:
421,104,54414,1,8,0:0:0:0:
474,97,54487,1,8,0:0:0:0:
155,268,54633,6,0,L|102:262,1,52.7999983886719,12|0,0:1|0:0,0:0:0:0:
446,365,54924,6,0,L|393:359,1,52.7999983886719,12|0,0:1|0:0,0:0:0:0:
201,12,55215,6,0,B|247:69|247:69|223:207,1,211.199993554688,12|8,0:1|0:1,0:0:0:0:
16,99,55652,2,0,P|73:91|120:81,1,105.599996777344,8|0,0:0|0:0,0:0:0:0:
420,51,55943,5,10,0:1:0:0:
223,204,56089,1,8,0:1:0:0:
398,226,56235,1,8,0:0:0:0:
245,29,56380,1,0,0:0:0:0:
155,268,56526,6,0,P|105:294|48:285,1,105.599996777344,10|0,0:1|0:0,0:0:0:0:
301,353,56817,2,0,P|309:260|319:180,1,158.399995166016,10|0,0:0|0:0,0:0:0:0:
352,104,57108,6,0,P|394:134|446:133,1,105.599996777344,10|8,0:1|0:1,0:0:0:0:
223,204,57400,1,10,0:0:0:0:
420,51,57545,1,2,0:0:0:0:
154,0,57691,6,0,P|160:63|163:109,1,105.599996777344,10|0,0:1|0:0,0:0:0:0:
441,250,57982,2,0,P|400:217|348:212,1,105.599996777344,10|0,0:0|0:0,0:0:0:0:
157,287,58273,5,10,0:1:0:0:
360,115,58419,1,8,0:1:0:0:
72,50,58564,1,8,0:0:0:0:
221,361,58710,6,0,B|262:304|262:304|231:154,1,211.199993554688,12|8,0:1|0:1,0:0:0:0:
61,294,59147,5,10,0:0:0:0:
162,105,59293,1,2,0:0:0:0:
348,212,59439,1,10,0:1:0:0:
65,152,59584,2,0,P|57:100|72:50,1,105.599996777344,10|8,0:1|0:0,0:0:0:0:
233,165,59875,1,2,0:0:0:0:
378,11,60021,6,0,P|367:62|359:114,1,105.599996777344,12|0,0:1|0:0,0:0:0:0:
214,341,60312,2,0,B|252:313|305:323|305:323|320:353|351:362,1,158.399995166016,10|0,0:1|0:0,0:0:0:0:
429,217,60603,6,0,P|372:214|335:249,1,105.599996777344,10|0,0:1|0:0,0:0:0:0:
161,104,60895,2,0,P|153:51|142:0,1,105.599996777344,10|0,0:1|0:0,0:0:0:0:
61,294,61186,5,12,0:1:0:0:
261,153,61332,1,8,0:1:0:0:
73,72,61477,1,8,0:0:0:0:
265,273,61623,1,2,0:0:0:0:
318,0,61769,1,4,0:3:0:0:
161,104,61914,1,2,0:0:0:0:
473,75,62060,6,0,B|406:32|406:32|430:225,1,264,12|0,0:1|0:0,0:0:0:0:
176,287,62642,6,0,P|186:211|255:179,1,158.399995166016,12|0,0:1|0:0,0:0:0:0:
260,301,62934,6,0,B|197:317|197:317|173:344|173:344|116:355,1,158.399995166016,12|0,0:1|0:0,0:0:0:0:
22,252,63225,6,0,L|177:288,1,158.399995166016,12|0,0:1|0:0,0:0:0:0:
337,213,63516,6,0,L|328:131,1,79.2,12|0,0:1|0:0,0:0:0:0:
331,27,64244,6,0,B|315:46|315:46|251:35|212:91|212:91|190:142|125:173|52:124|59:42|124:2|197:29|212:91|212:91|236:148|294:165|328:134|328:134|284:118|246:138|228:175|227:219|245:252|277:269,1,836,4|0,1:2|0:0,0:0:0:0:
348,349,65701,5,4,0:3:0:0:
348,349,65773,1,4,0:3:0:0:
348,349,65846,2,0,P|279:300|197:317,1,171.599992144776,12|0,0:1|0:0,0:0:0:0:
137,364,66137,1,8,0:0:0:0:
54,178,66283,1,2,0:0:0:0:
3,291,66429,5,10,0:1:0:0:
148,104,66574,2,0,P|134:59|97:29,1,96.8000029541017,8|8,0:1|0:0,0:0:0:0:
314,195,66866,6,0,B|385:208|385:208|421:247|421:247|489:258,1,193.600005908203,10|10,0:1|0:1,0:0:0:0:
476,154,67303,1,8,0:0:0:0:
332,297,67449,1,2,0:0:0:0:
148,104,67594,6,0,P|190:81|237:84,1,96.8000029541017,10|8,0:1|0:1,0:0:0:0:
234,327,67886,2,0,P|226:279|213:232,1,96.8000029541017,8|2,0:0|0:0,0:0:0:0:
365,20,68176,5,12,0:1:0:0:
314,195,68322,2,0,L|304:234,1,24.2000007385254,2|2,0:0|0:0,0:0:0:0:
125,17,68467,1,8,0:0:0:0:
237,84,68612,1,2,0:0:0:0:
94,223,68758,5,10,0:1:0:0:
338,110,68904,1,10,0:1:0:0:
234,327,69050,1,8,0:0:0:0:
481,216,69195,6,0,B|448:220|415:198|415:198|378:233|378:233|346:215|306:218,1,193.600005908203,8|8,0:1|0:1,0:0:0:0:
237,84,69633,5,8,0:0:0:0:
341,311,69779,1,8,0:1:0:0:
472,42,69924,5,8,0:0:0:0:
213,232,70070,1,8,0:1:0:0:
481,216,70216,5,8,0:0:0:0:
270,17,70362,1,8,0:0:0:0:
270,17,70434,1,8,0:0:0:0:
270,17,70507,6,0,P|262:91|256:164,1,145.200004431152,12|0,0:1|0:0,0:0:0:0:
185,196,70798,2,0,P|138:194|100:224,1,96.8000029541017,8|2,0:0|0:0,0:0:0:0:
338,110,71089,5,10,0:1:0:0:
162,279,71235,1,8,0:1:0:0:
140,37,71380,1,8,0:0:0:0:
0,197,71526,6,0,B|68:187|68:187|112:209|112:209|186:197,1,193.600005908203,10|10,0:1|0:1,0:0:0:0:
76,324,71963,1,8,0:0:0:0:
13,100,72109,1,2,0:0:0:0:
251,259,72254,6,0,P|301:266|346:275,1,96.8000029541017,10|8,0:1|0:1,0:0:0:0:
175,36,72546,2,0,P|222:29|269:16,1,96.8000029541017,8|2,0:0|0:0,0:0:0:0:
468,267,72837,5,12,0:1:0:0:
416,178,72982,6,0,L|423:154,1,24.2000007385254,2|2,0:0|0:0,0:0:0:0:
307,133,73128,5,8,0:0:0:0:
186,196,73274,5,2,0:0:0:0:
162,334,73420,5,10,0:1:0:0:
298,146,73565,1,8,0:1:0:0:
80,62,73711,1,8,0:0:0:0:
175,36,73856,5,8,0:0:0:0:
175,36,73929,1,8,0:0:0:0:
175,36,74002,1,8,0:0:0:0:
79,258,74147,1,8,0:3:0:0:
290,130,74293,5,4,0:3:0:0:
319,306,74438,2,0,L|327:358,1,52.7999983886719,12|2,0:1|0:0,0:0:0:0:
388,64,74875,5,2,0:0:0:0:
388,64,75167,6,0,P|437:103|432:156,1,118.799996374512,12|0,0:1|0:0,0:0:0:0:
441,169,75458,2,0,P|398:173|355:183,1,79.1999975830079,8|0,0:0|0:0,0:0:0:0:
220,287,75749,5,10,0:1:0:0:
319,306,75895,1,10,0:1:0:0:
220,278,76040,1,8,0:0:0:0:
319,297,76186,1,2,0:0:0:0:
192,200,76332,5,10,0:1:0:0:
155,339,76477,1,2,0:0:0:0:
50,240,76623,2,0,P|110:197|95:118,1,158.399995166016,8|8,0:0|0:1,0:0:0:0:
15,90,77060,1,8,0:1:0:0:
192,200,77205,2,0,B|240:192|240:192|263:204|263:204|322:194,1,118.799996374512,8|0,0:0|0:0,0:0:0:0:
368,133,77497,5,10,0:1:0:0:
409,213,77642,1,2,0:0:0:0:
346,276,77788,1,8,0:0:0:0:
306,196,77934,1,2,0:0:0:0:
429,303,78079,6,0,P|454:331|483:365,1,79.1999975830079,10|8,0:1|0:1,0:0:0:0:
476,154,78370,2,0,P|439:129|358:138,1,118.799996374512,10|0,0:0|0:1,0:0:0:0:
306,196,78662,5,8,0:1:0:0:
225,120,78807,1,8,0:1:0:0:
130,221,78953,1,8,0:0:0:0:
15,109,79098,1,8,0:1:0:0:
187,26,79244,5,8,0:0:0:0:
224,214,79390,1,8,0:1:0:0:
51,295,79536,1,8,0:0:0:0:
107,75,79681,5,8,0:0:0:0:
107,75,79754,1,8,0:0:0:0:
107,75,79827,2,0,P|206:67|295:27,1,193.600005908203,12|8,0:1|0:0,0:0:0:0:
377,301,80264,2,0,P|361:225|299:195,1,145.200004431152,12|0,0:1|0:0,0:0:0:0:
224,214,80555,1,10,0:1:0:0:
435,358,80701,1,8,0:0:0:0:
430,115,80846,6,0,P|399:207|377:301,1,193.600005908203,12|8,0:1|0:1,0:0:0:0:
144,322,81283,2,0,P|186:300|234:303,1,96.8000029541017,8|0,0:0|0:0,0:0:0:0:
294,26,81574,5,10,0:1:0:0:
224,214,81720,1,8,0:1:0:0:
102,56,81865,2,0,P|113:104|119:154,1,96.8000029541017,8|0,0:0|0:0,0:0:0:0:
403,109,82157,6,0,P|313:112|293:25,1,193.600005908203,12|8,0:1|0:0,0:0:0:0:
387,208,82594,1,2,0:0:0:0:
433,10,82739,1,10,0:1:0:0:
223,121,82885,1,10,0:1:0:0:
223,121,82958,1,2,0:0:0:0:
223,121,83031,2,0,P|179:101|131:98,1,96.8000029541017,8|0,0:0|0:0,0:0:0:0:
298,324,83322,5,12,0:1:0:0:
363,111,83468,1,8,0:0:0:0:
363,111,83540,1,8,0:0:0:0:
363,111,83613,1,8,0:0:0:0:
512,288,83759,1,8,0:0:0:0:
243,241,83904,5,8,0:0:0:0:
298,216,83977,1,8,0:0:0:0:
350,233,84050,1,8,0:0:0:0:
379,268,84123,1,8,0:0:0:0:
407,288,84196,1,8,0:3:0:0:
442,292,84269,1,8,0:3:0:0:
464,285,84341,1,4,0:3:0:0:
480,274,84414,1,4,0:3:0:0:
485,263,84487,6,0,L|471:158,1,88,12|0,0:1|0:0,0:0:0:0:
399,10,84778,2,0,P|344:41|355:102,1,132,12|0,0:0|0:0,0:0:0:0:
363,111,85070,5,10,0:1:0:0:
265,74,85215,1,10,0:1:0:0:
173,126,85361,1,8,0:0:0:0:
80,77,85506,1,2,0:0:0:0:
159,212,85652,6,0,P|164:165|173:123,1,88,10|0,0:1|0:0,0:0:0:0:
199,355,85943,2,0,P|139:293|54:293,1,176,10|8,0:0|0:1,0:0:0:0:
54,293,86380,1,8,0:1:0:0:
245,258,86526,2,0,P|283:249|343:238,1,88,8|0,0:0|0:0,0:0:0:0:
457,66,86817,5,10,0:1:0:0:
361,46,86963,1,2,0:0:0:0:
295,152,87108,5,8,0:0:0:0:
391,132,87254,1,2,0:0:0:0:
407,311,87400,6,0,P|414:267|425:225,1,88,10|8,0:1|0:1,0:0:0:0:
217,88,87691,2,0,P|232:147|294:151,1,132,10|0,0:0|0:1,0:0:0:0:
339,66,87982,5,8,0:1:0:0:
331,239,88128,1,8,0:1:0:0:
423,311,88273,5,8,0:0:0:0:
294,151,88419,1,8,0:1:0:0:
253,373,88565,5,12,0:0:0:0:
391,132,88710,1,8,0:1:0:0:
180,273,88856,5,8,0:0:0:0:
136,265,88928,1,8,0:0:0:0:
93,258,89001,1,8,0:3:0:0:
49,250,89074,1,4,0:3:0:0:
7,239,89147,6,0,P|19:145|100:105,1,193.600005908203,12|8,0:1|0:0,0:0:0:0:
333,239,89584,2,0,B|390:232|390:232|416:212|416:212|478:206,1,145.200004431152,12|0,0:1|0:0,0:0:0:0:
452,295,89875,1,10,0:1:0:0:
323,70,90020,1,8,0:0:0:0:
231,353,90166,6,0,P|244:249|259:146,1,193.600005908203,12|8,0:1|0:1,0:0:0:0:
56,314,90603,2,0,P|95:289|148:288,1,96.8000029541017,8|0,0:0|0:0,0:0:0:0:
334,340,90895,5,10,0:1:0:0:
157,196,91041,1,8,0:1:0:0:
275,66,91187,2,0,P|265:113|256:160,1,96.8000029541017,8|0,0:0|0:0,0:0:0:0:
14,131,91477,6,0,P|65:207|157:196,1,193.600005908203,12|8,0:1|0:0,0:0:0:0:
284,62,91914,1,0,0:0:0:0:
141,1,92060,2,0,P|151:48|160:95,1,96.8000029541017,10|8,0:1|0:1,0:0:0:0:
185,350,92351,2,0,P|133:302|59:310,1,145.200004431152,10|0,0:0|0:0,0:0:0:0:
56,314,92642,5,10,0:1:0:0:
157,196,92788,1,8,0:1:0:0:
290,354,92934,1,8,0:0:0:0:
397,135,93079,5,8,0:0:0:0:
397,135,93152,1,8,0:0:0:0:
397,135,93225,1,8,0:0:0:0:
234,272,93370,1,8,0:0:0:0:
474,182,93516,5,8,0:0:0:0:
253,44,93662,1,8,0:0:0:0:
379,325,93807,6,0,L|368:256,1,65.9999979858399,2|0,0:0|0:0,0:0:0:0:
313,169,94244,5,8,0:0:0:0:
315,177,94317,1,8,0:0:0:0:
318,185,94390,2,0,P|368:178|396:135,2,105.6,8|8|4,0:0|0:3|0:3,0:0:0:0:
163,26,94972,6,0,P|168:59|175:90,1,66.0000025177003,12|2,0:1|0:0,0:0:0:0:
70,189,95264,1,10,0:1:0:0:
145,166,95409,1,2,0:0:0:0:
218,195,95555,1,10,0:1:0:0:
234,272,95701,2,0,L|278:264,1,33.0000012588501,2|2,0:0|0:0,0:0:0:0:
213,349,95846,2,0,P|245:351|278:356,1,66.0000025177003,10|2,0:1|0:0,0:0:0:0:
421,253,96137,5,10,0:1:0:0:
354,294,96283,1,2,0:0:0:0:
421,335,96429,1,10,0:1:0:0:
354,212,96574,1,2,0:0:0:0:
507,226,96720,6,0,P|509:192|513:157,1,66.0000025177003,10|2,0:1|0:0,0:0:0:0:
452,111,96938,2,0,P|450:94|447:78,1,33.0000012588501,2|10,0:0|0:1,0:0:0:0:
512,0,97157,1,2,0:0:0:0:
360,109,97303,5,8,0:1:0:0:
360,109,97448,2,0,P|328:103|294:97,2,66.0000025177003,2|10|2,0:0|0:1|0:0,0:0:0:0:
133,12,97885,5,8,0:1:0:0:
187,70,98031,1,2,0:0:0:0:
164,148,98176,1,10,0:1:0:0:
111,90,98322,1,2,0:0:0:0:
119,281,98468,5,8,0:1:0:0:
226,203,98613,1,2,0:0:0:0:
164,148,98759,1,10,0:1:0:0:
200,283,98904,1,2,0:0:0:0:
290,190,99050,6,0,P|256:196|219:204,1,66.0000025177003,10|2,0:1|0:0,0:0:0:0:
323,79,99341,2,0,P|357:73|394:65,1,66.0000025177003,12|0,0:1|0:0,0:0:0:0:
484,298,99633,6,0,P|489:249|495:201,1,96.8000029541017,12|0,0:1|0:0,0:0:0:0:
292,279,99924,2,0,P|286:327|280:375,1,96.8000029541017,8|0,0:0|0:0,0:0:0:0:
87,170,100215,5,8,0:0:0:0:
290,190,100361,1,8,0:1:0:0:
240,108,100506,5,8,0:0:0:0:
206,314,100652,1,8,0:1:0:0:
366,148,100798,5,8,0:0:0:0:
380,325,100943,1,0,0:0:0:0:
290,190,101089,5,8,0:0:0:0:
454,271,101235,1,8,0:1:0:0:
488,23,101380,5,8,0:0:0:0:
372,238,101526,1,8,0:1:0:0:
447,186,101671,5,8,0:0:0:0:
240,108,101817,1,8,0:1:0:0:
205,314,101963,6,0,P|158:303|110:296,1,96.8000029541017,12|0,0:0|0:0,0:0:0:0:
366,148,102254,2,0,P|413:158|461:165,1,96.8000029541017,8|8,0:0|0:1,0:0:0:0:
182,15,102545,5,8,0:0:0:0:
215,226,102691,1,8,0:1:0:0:
240,108,102837,5,8,0:0:0:0:
110,296,102982,1,8,0:1:0:0:
372,238,103128,5,12,0:0:0:0:
114,168,103273,1,8,0:1:0:0:
338,19,103419,1,8,0:0:0:0:
287,350,103565,5,8,0:0:0:0:
287,350,103637,1,8,0:0:0:0:
287,350,103710,1,8,0:0:0:0:
210,26,103856,1,8,0:0:0:0:
251,191,104001,5,10,0:1:0:0:
251,191,104293,6,0,P|206:152|109:172,1,158.399995166016,12|0,0:1|0:0,0:0:0:0:
173,340,104730,5,8,0:1:0:0:
173,340,104803,1,8,0:1:0:0:
173,340,104875,2,0,P|223:321|270:330,1,99.0000037765504,12|0,0:0|0:0,0:0:0:0:
345,356,105167,6,0,P|355:323|351:286,1,66,8|0,0:1|0:0,0:0:0:0:
251,191,105458,6,0,P|225:225|182:231,1,88.0000033569337,10|0,1:2|0:0,0:0:0:0:
93,273,105652,6,0,P|64:233|75:187,1,93.8666666666667,10|0,1:2|0:0,0:0:0:0:
0,109,105846,6,0,P|30:68|78:60,1,99.7333352355957,10|0,1:2|0:0,0:0:0:0:
216,0,106040,6,0,L|209:61,1,61.6,4|0,0:3|0:0,0:0:0:0:
147,141,106623,6,0,B|262:157|205:229|321:245,1,211.199993554688,12|8,0:1|0:0,0:0:0:0:
404,180,107060,1,0,0:0:0:0:
153,241,107205,6,0,P|105:248|47:261,1,105.599996777344,10|8,0:1|0:1,0:0:0:0:
237,365,107496,1,8,0:0:0:0:
147,141,107642,1,0,0:0:0:0:
321,245,107788,6,0,P|323:165|332:87,1,158.399995166016,10|0,0:1|0:0,0:0:0:0:
360,13,108079,2,0,P|402:42|413:93,1,105.599996777344,10|0,0:0|0:0,0:0:0:0:
243,225,108370,5,10,0:1:0:0:
208,31,108516,1,8,0:1:0:0:
14,66,108662,1,10,0:0:0:0:
49,260,108807,1,2,0:0:0:0:
201,130,108953,6,0,P|150:124|92:114,1,105.599996777344,10|0,0:1|0:0,0:0:0:0:
359,267,109244,2,0,P|411:258|463:251,1,105.599996777344,10|0,0:0|0:0,0:0:0:0:
344,34,109536,5,10,0:1:0:0:
243,225,109681,1,8,0:1:0:0:
416,356,109827,1,8,0:0:0:0:
512,106,109972,6,0,B|436:120|436:120|404:160|404:160|319:174,1,211.199993554688,12|8,0:1|0:1,0:0:0:0:
97,115,110409,5,10,0:0:0:0:
359,267,110555,1,2,0:0:0:0:
131,337,110701,1,10,0:1:0:0:
226,120,110846,2,0,P|233:173|245:233,1,105.599996777344,10|8,0:1|0:0,0:0:0:0:
439,0,111137,5,8,0:0:0:0:
439,0,111210,1,8,0:0:0:0:
439,0,111283,2,0,P|418:53|314:62,1,158.399995166016,12|0,0:1|0:0,0:0:0:0:
260,24,111574,2,0,P|206:16|151:52,1,105.599996777344,10|0,0:0|0:0,0:0:0:0:
16,211,111866,5,10,0:1:0:0:
226,120,112011,1,8,0:1:0:0:
62,0,112157,2,0,P|81:74|98:155,1,158.399995166016,10|0,0:0|0:0,0:0:0:0:
68,282,112448,6,0,B|116:252|165:268|165:268|203:322|260:310,1,211.199993554688,12|8,0:1|0:0,0:0:0:0:
417,38,112885,2,0,B|359:-2|359:-2|380:141,1,211.199993554688,12|10,0:1|0:1,0:0:0:0:
260,24,113322,1,8,0:0:0:0:
484,116,113468,1,2,0:0:0:0:
245,209,113613,6,0,P|168:188|90:179,1,158.399995166016,12|0,0:1|0:0,0:0:0:0:
8,115,113904,2,0,P|51:98|83:50,1,105.599996777344,10|0,0:0|0:0,0:0:0:0:
29,301,114196,5,10,0:1:0:0:
179,106,114341,1,8,0:1:0:0:
269,336,114487,2,0,P|345:319|434:317,1,158.399995166016,10|0,0:0|0:0,0:0:0:0:
511,197,114778,5,12,0:1:0:0:
500,145,114851,1,8,3:2:0:0:
461,110,114924,1,8,0:0:0:0:
410,105,114997,1,8,0:0:0:0:
364,130,115069,1,8,0:0:0:0:
146,339,115215,6,0,L|140:286,1,52.7999983886719,12|0,0:1|0:0,0:0:0:0:
425,239,115506,6,0,L|430:186,1,52.7999983886719,12|0,0:1|0:0,0:0:0:0:
35,108,115798,6,0,P|135:104|174:12,1,211.199993554688,12|8,0:1|0:1,0:0:0:0:
276,230,116235,2,0,P|271:288|268:339,1,105.599996777344,8|0,0:0|0:0,0:0:0:0:
364,130,116526,5,10,0:1:0:0:
140,286,116671,1,8,0:1:0:0:
406,355,116817,1,8,0:0:0:0:
263,212,116963,1,0,0:0:0:0:
132,373,117108,6,0,B|119:313|119:313|92:285|92:285|79:228,1,158.399995166016,10|0,0:1|0:0,0:0:0:0:
27,162,117400,2,0,P|-4:202|-1:254,1,105.599996777344,10|0,0:0|0:0,0:0:0:0:
107,20,117691,6,0,P|55:11|4:2,1,105.599996777344,10|8,0:1|0:1,0:0:0:0:
180,186,117982,2,0,P|262:168|339:157,1,158.399995166016,10|0,0:0|0:1,0:0:0:0:
418,205,118273,6,0,P|421:154|430:90,1,105.599996777344,10|0,0:1|0:0,0:0:0:0:
130,342,118565,2,0,P|119:286|107:237,1,105.599996777344,10|0,0:0|0:0,0:0:0:0:
352,39,118856,5,10,0:1:0:0:
207,286,119002,1,8,0:1:0:0:
107,20,119147,1,8,0:0:0:0:
418,205,119293,6,0,B|451:148|451:148|301:182,1,211.199993554688,12|8,0:1|0:1,0:0:0:0:
107,20,119730,5,10,0:0:0:0:
208,192,119876,1,2,0:0:0:0:
31,279,120022,1,10,0:1:0:0:
230,99,120167,1,10,0:1:0:0:
247,374,120312,5,12,0:0:0:0:
122,107,120458,1,2,0:0:0:0:
107,320,120603,6,0,P|160:300|208:285,1,105.599996777344,12|0,0:1|0:0,0:0:0:0:
28,103,120895,2,0,B|122:113|80:161|164:174,1,158.399995166016,10|0,0:1|0:0,0:0:0:0:
230,99,121186,6,0,P|209:51|161:34,1,105.599996777344,10|0,0:1|0:0,0:0:0:0:
353,219,121477,2,0,P|405:225|457:233,1,105.599996777344,10|0,0:0|0:0,0:0:0:0:
457,233,121696,1,2,0:0:0:0:
457,233,121769,5,12,0:1:0:0:
247,374,121914,1,8,0:1:0:0:
323,142,122060,2,0,P|317:215|314:302,1,158.399995166016,10|0,0:0|0:0,0:0:0:0:
161,339,122351,6,0,P|184:296|229:279,1,99.0000037765504,4|0,0:3|0:0,0:0:0:0:
328,132,122642,6,0,B|187:113|227:221|85:203,1,264,12|8,0:1|0:1,0:0:0:0:
24,115,123225,5,10,0:0:0:0:
229,279,123370,1,8,0:1:0:0:
221,38,123516,5,10,0:0:0:0:
100,281,123662,1,8,0:1:0:0:
274,373,123807,5,10,0:0:0:0:
134,112,123953,1,8,0:0:0:0:
388,246,124099,6,0,L|480:228,1,88,12|0,0:1|0:0,0:0:0:0:
312,201,124972,6,0,B|364:164|364:164|349:319,1,220,12|0,0:1|0:0,0:0:0:0:
183,169,125846,6,0,P|176:110|168:52,2,117.333333333333,12|12|12,0:1|0:1|0:1,0:1:0:0:
87,352,126429,6,0,P|130:353|171:369,1,88,12|0,0:1|0:0,0:0:0:0:
31,240,127303,6,0,P|106:266|181:157,1,220,12|0,0:1|0:0,0:0:0:0:
349,319,128176,6,0,L|361:202,2,117.333333333333,12|12|12,0:1|0:1|0:1,0:0:0:0:
432,114,128759,6,0,L|429:104,1,11,14|0,0:1|0:0,0:0:0:0:
292,149,128904,2,0,L|293:138,1,11,2|0,0:0|0:0,0:0:0:0:
388,31,129050,1,2,0:0:0:0:
306,14,129196,1,2,0:0:0:0:
295,16,129633,6,0,L|293:5,1,11,12|0,0:1|0:0,0:0:0:0:
396,35,129778,2,0,L|397:24,1,11,2|0,0:0|0:0,0:0:0:0:
284,156,129924,1,2,0:0:0:0:
439,125,130070,1,2,0:0:0:0:
448,130,130506,6,0,P|443:158|439:188,1,58.6666666666667,12|0,0:1|0:0,0:0:0:0:
350,236,130701,2,0,P|323:247|296:257,1,58.6666666666667,12|0,0:1|0:0,0:0:0:0:
437,289,130895,2,0,P|460:307|483:326,1,58.6666666666667,12|0,0:1|0:0,0:0:0:0:
283,156,131089,6,0,P|240:151|197:143,1,88,12|0,0:1|0:0,0:0:0:0:
92,187,131526,6,0,P|74:191|57:195,1,35.2,2|0,0:0|0:0,0:0:0:0:
77,18,131963,6,0,P|148:8|139:79,1,165.000006294251,12|0,0:1|0:0,0:0:0:0:
393,54,132472,6,0,L|379:85,1,26.399999194336,2|2,0:0|0:0,0:0:0:0:
377,46,132545,6,0,L|371:78,1,26.399999194336,2|2,0:0|0:0,0:0:0:0:
360,41,132618,6,0,L|363:73,1,26.399999194336,2|2,0:0|0:0,0:0:0:0:
342,44,132691,6,0,L|353:75,1,26.399999194336,2|2,0:0|0:0,0:3:0:0:
328,54,132764,6,0,L|347:81,1,26.399999194336,2|2,0:0|0:0,0:3:0:0:
321,70,132837,6,0,P|286:62|252:55,1,70.3999978515626,12|0,0:1|0:0,0:0:0:0:
370,202,133031,6,0,P|404:194|438:187,1,70.3999978515626,12|0,0:1|0:0,0:0:0:0:
269,295,133225,6,0,P|264:329|259:364,1,70.3999978515626,12|0,0:1|0:0,0:0:0:0:
53,212,133419,6,0,P|100:162|180:173,1,145.200004431152,12|0,0:1|0:0,0:0:0:0:
187,264,133710,2,0,P|178:214|172:168,1,96.8000029541017,10|0,0:0|0:0,0:0:0:0:
252,55,134002,5,10,0:1:0:0:
370,202,134147,1,10,0:1:0:0:
401,14,134293,1,8,0:0:0:0:
171,167,134438,6,0,B|273:179,1,96.8000029541017,2|8,0:0|0:1,0:0:0:0:
471,223,134730,5,2,0:0:0:0:
471,223,134803,1,2,0:0:0:0:
471,223,134875,1,8,0:0:0:0:
342,106,135021,1,2,0:0:0:0:
205,256,135167,5,10,0:1:0:0:
370,202,135313,1,10,0:1:0:0:
304,10,135458,5,10,0:0:0:0:
267,178,135604,1,2,0:0:0:0:
400,296,135749,5,8,0:1:0:0:
400,296,135895,1,2,0:0:0:0:
171,167,136040,2,0,L|282:180,1,96.8000029541017,10|0,0:0|0:0,0:0:0:0:
370,202,136332,5,10,0:1:0:0:
205,348,136477,2,0,B|191:303|191:303|206:249,1,96.8000029541017,10|8,0:1|0:0,0:0:0:0:
138,65,136769,6,0,L|43:80,1,96.8000029541017,2|8,0:0|0:1,0:0:0:0:
291,39,137060,1,2,0:0:0:0:
171,167,137205,1,8,0:0:0:0:
287,302,137351,5,2,0:0:0:0:
287,302,137424,1,2,0:0:0:0:
287,302,137497,1,10,0:1:0:0:
39,206,137642,1,8,0:1:0:0:
267,178,137788,1,10,0:0:0:0:
315,172,137860,1,10,0:0:0:0:
363,167,137933,1,10,0:0:0:0:
411,162,138006,1,10,0:0:0:0:
459,156,138079,5,12,0:1:0:0:
332,314,138225,2,0,P|309:304|286:301,1,48.4000014770508,2|2,0:0|0:0,0:0:0:0:
420,352,138370,5,10,0:0:0:0:
335,293,138516,5,2,0:0:0:0:
213,346,138662,5,10,0:1:0:0:
61,328,138807,5,10,0:1:0:0:
3,188,138953,5,10,0:0:0:0:
138,65,139099,6,0,L|126:164,1,96.8000029541017,2|8,0:0|0:1,0:0:0:0:
371,77,139390,1,2,0:0:0:0:
337,44,139462,1,2,0:0:0:0:
289,39,139535,1,8,0:0:0:0:
335,293,139681,6,0,L|345:190,1,96.8000029541017,2|8,0:0|0:1,0:0:0:0:
213,346,139972,1,10,0:1:0:0:
433,243,140118,1,10,0:0:0:0:
230,109,140264,1,2,0:0:0:0:
337,44,140409,1,12,0:1:0:0:
196,243,140555,5,2,0:0:0:0:
184,230,140628,1,2,0:0:0:0:
178,246,140701,1,10,0:0:0:0:
166,234,140774,1,2,0:0:0:0:
160,249,140846,1,2,0:0:0:0:
149,237,140919,1,2,0:0:0:0:
142,253,140992,1,10,0:1:0:0:
131,241,141064,1,2,0:0:0:0:
125,256,141137,1,10,0:1:0:0:
113,244,141210,1,2,0:0:0:0:
107,259,141283,6,0,P|86:232|85:204,1,48.4000014770508,8|8,0:0|0:0,0:0:0:0:
3,161,141429,2,0,P|15:141|34:126,1,48.4000014770508,8|4,0:3|0:3,0:0:0:0:
247,11,141574,5,12,0:0:0:0:
256,194,141720,1,8,0:1:0:0:
433,243,141866,1,8,0:1:0:0:
68,11,142011,5,12,0:0:0:0:
311,123,142157,1,8,0:1:0:0:
191,363,142303,1,8,0:1:0:0:
348,207,142448,5,12,0:0:0:0:
346,219,142521,1,8,0:3:0:0:
345,231,142594,1,4,0:3:0:0:
343,243,142667,1,4,0:3:0:0:
342,255,142739,1,12,0:1:0:0:
58,77,147400,6,0,B|148:78|113:130|202:132,1,158.399995166016,2|2,0:0|0:0,0:0:0:0:
265,86,147909,1,2,0:0:0:0:
263,78,147982,2,0,L|255:24,1,52.7999983886719,2|0,0:0|0:0,0:0:0:0:
378,140,148273,2,0,P|370:179|366:225,1,79.1999975830079,2|0,0:0|0:0,0:0:0:0:
407,339,148565,6,0,P|357:300|293:306,1,132.000005035401,2|0,0:0|0:0,0:0:0:0:
208,360,149002,6,0,P|156:364|112:336,1,105.599996777344,2|0,0:0|0:0,0:0:0:0:
167,227,149438,6,0,P|174:259|178:290,1,52.7999983886719,2|0,0:0|0:0,0:0:0:0:
54,226,149730,6,0,P|58:204|63:182,1,44,2|0,0:0|0:0,0:0:0:0:
53,18,150021,6,0,P|84:26|117:31,1,66.0000025177003,2|0,0:0|0:0,0:0:0:0:
281,107,150312,6,0,P|237:109|200:132,1,88,2|0,0:0|0:0,0:0:0:0:
284,358,150603,6,0,P|283:305|309:260,1,105.599996777344,2|0,0:0|0:0,0:0:0:0:
498,173,150895,6,0,L|491:227,1,52.7999983886719,8|0,1:0|0:0,0:0:0:0:
498,173,151477,6,0,B|445:180|445:180|436:186|436:186|384:191,2,117.333333333333
207,35,152060,6,0,B|262:7|262:7|246:133,1,184.799994360352,12|0,0:1|0:0,0:0:0:0:
232,229,152351,5,8,3:1:0:0:
218,215,152423,1,0,3:0:0:0:
200,204,152496,1,0,3:0:0:0:
181,198,152570,1,0,3:0:0:0:
160,198,152642,5,8,1:0:0:0:
177,240,152714,1,0,1:0:0:0:
213,268,152787,1,0,1:0:0:0:
258,273,152860,1,0,1:0:0:0:
300,254,152933,1,8,1:0:0:0:
342,235,153006,1,0,1:0:0:0:
387,240,153079,1,0,1:0:0:0:
423,268,153152,1,0,1:0:0:0:
440,310,153225,6,0,B|457:199,1,105.599996777344,12|0,0:1|0:0,0:0:0:0:
207,35,153516,2,0,B|288:48|288:48|318:82|318:82|403:102,1,211.199993554688,12|10,0:0|0:1,0:0:0:0:
448,21,153953,1,8,0:1:0:0:
302,163,154099,1,8,0:0:0:0:
440,311,154244,1,0,0:0:0:0:
200,204,154390,6,0,B|117:221|117:221|108:261|71:278,1,158.399995166016,10|0,0:1|0:0,0:0:0:0:
13,158,154681,2,0,P|64:162|95:212,1,105.599996777344,10|0,0:0|0:0,0:0:0:0:
303,29,154972,6,0,P|295:81|290:133,1,105.599996777344,10|8,0:1|0:1,0:0:0:0:
184,24,155264,1,10,0:0:0:0:
407,108,155409,1,0,0:0:0:0:
303,316,155555,6,0,P|252:300|185:292,1,105.599996777344,10|0,0:1|0:0,0:0:0:0:
459,39,155846,2,0,P|495:87|490:140,1,105.599996777344,10|0,0:0|0:0,0:0:0:0:
251,213,156137,5,10,0:1:0:0:
40,44,156283,1,8,0:1:0:0:
127,343,156429,1,8,0:0:0:0:
280,105,156574,6,0,B|224:70|224:70|251:214,1,211.199993554688,12|8,0:1|0:1,0:0:0:0:
369,63,157011,5,10,0:0:0:0:
162,16,157157,1,2,0:0:0:0:
117,221,157303,1,10,0:1:0:0:
322,269,157448,2,0,P|373:257|425:249,1,105.599996777344,10|8,0:1|0:0,0:0:0:0:
141,377,157739,5,8,0:0:0:0:
141,377,157812,1,8,0:0:0:0:
141,377,157885,2,0,P|131:298|116:220,1,158.399995166016,12|0,0:1|0:0,0:0:0:0:
69,141,158176,2,0,P|31:176|24:227,1,105.599996777344,10|0,0:0|0:0,0:0:0:0:
12,22,158468,5,10,0:1:0:0:
162,141,158614,1,8,0:1:0:0:
313,25,158759,2,0,B|254:19|254:19|224:42|224:42|151:33,1,158.399995166016,10|0,0:0|0:0,0:0:0:0:
162,141,159050,6,0,B|282:110|282:110|322:142|299:188,1,211.199993554688,12|8,0:1|0:0,0:0:0:0:
475,308,159487,2,0,B|362:275|395:370|277:346,1,211.199993554688,12|10,0:1|0:1,0:0:0:0:
162,141,159924,1,8,0:0:0:0:
313,25,160070,1,2,0:0:0:0:
158,237,160215,6,0,P|85:213|68:139,1,158.399995166016,12|0,0:1|0:0,0:0:0:0:
147,40,160506,2,0,B|167:77|167:77|162:140,1,105.599996777344,10|0,0:0|0:0,0:0:0:0:
446,178,160798,5,10,0:1:0:0:
277,345,160944,1,8,0:1:0:0:
161,140,161089,2,0,B|213:99|282:117|282:117|255:159,1,158.399995166016,10|0,0:0|0:0,0:0:0:0:
158,237,161380,5,12,0:1:0:0:
106,235,161452,1,8,3:2:0:0:
62,263,161525,1,8,0:0:0:0:
41,311,161598,1,8,0:0:0:0:
51,362,161671,1,8,0:0:0:0:
375,241,161817,6,0,L|368:294,1,52.7999983886719,12|0,0:1|0:0,0:0:0:0:
75,90,162108,6,0,L|67:142,1,52.7999983886719,12|0,0:1|0:0,0:0:0:0:
478,78,162400,6,0,B|406:60|347:116|347:116|280:90|294:20,1,264.000010070801,12|8,0:1|0:1,0:0:0:0:
166,321,162837,2,0,P|200:253|275:255,1,158.399995166016,12|0,0:0|0:0,0:0:0:0:
368,294,163128,6,0,P|424:296|484:305,1,105.599996777344,12|0,0:1|0:0,0:0:0:0:
180,98,163419,2,0,P|124:96|64:87,1,105.599996777344,12|2,0:0|0:0,0:0:0:0:
41,311,163710,5,12,0:1:0:0:
256,160,163856,1,0,0:0:0:0:
277,345,164002,1,12,0:0:0:0:
180,98,164147,1,0,0:0:0:0:
295,40,164293,5,12,0:1:0:0:
274,254,164438,1,0,0:0:0:0:
490,276,164584,1,12,0:0:0:0:
510,59,164729,1,2,0:0:0:0:
341,138,164875,6,0,L|446:154,1,105.599996777344,12|0,0:1|0:0,0:0:0:0:
172,369,165167,2,0,L|184:256,1,105.599996777344,12|0,0:0|0:0,0:0:0:0:
8,26,165458,6,0,P|9:119|96:124,1,198.000007553101,14|0,0:1|0:0,0:0:0:0:
115,46,165749,1,8,0:0:0:0:
274,254,165895,6,0,B|391:243|343:333|464:320,1,211.199993554688,12|8,0:1|0:1,0:0:0:0:
172,369,166332,5,10,0:0:0:0:
258,161,166477,1,2,0:0:0:0:
115,46,166623,1,8,0:1:0:0:
274,254,166769,2,0,P|324:238|376:230,1,105.599996777344,10|12,0:1|0:0,0:0:0:0:
510,59,167060,5,8,0:0:0:0:
510,59,167133,1,8,0:0:0:0:
510,59,167205,1,10,0:1:0:0:
301,22,167351,1,8,0:1:0:0:
376,230,167497,2,0,P|379:158|387:65,1,158.399995166016,14|0,0:0|0:0,0:0:0:0:
389,58,167788,5,10,0:1:0:0:
190,227,167934,1,8,0:1:0:0:
115,46,168079,1,12,0:0:0:0:
258,161,168225,1,0,0:0:0:0:
172,369,168370,5,10,0:1:0:0:
172,369,168516,1,8,0:1:0:0:
169,134,168662,2,0,P|121:143|64:149,1,105.599996777344,12|0,0:0|0:0,0:0:0:0:
274,254,168953,5,10,0:1:0:0:
285,12,169099,1,8,0:1:0:0:
484,148,169244,1,12,0:0:0:0:
432,28,169390,5,8,0:0:0:0:
432,28,169463,1,8,0:0:0:0:
432,28,169535,1,8,0:0:0:0:
270,166,169681,1,8,0:3:0:0:
412,325,169827,1,4,0:3:0:0:
129,290,169972,5,10,0:1:0:0:
274,254,170118,1,8,0:0:0:0:
420,223,170264,1,8,0:3:0:0:
207,54,170409,5,4,0:3:0:0:
412,325,170555,1,8,0:1:0:0:
66,123,170701,5,12,0:0:0:0:
66,123,171283,6,0,P|72:157|76:192,1,70.4,2|0,0:0|0:0,0:0:0:0:
46,37,171720,1,8,0:0:0:0:
258,160,171866,6,0,B|296:131|336:137|336:137|361:177|407:183,1,171.599992144776,12|0,0:1|0:0,0:0:0:0:
419,93,172157,1,8,0:0:0:0:
274,254,172303,1,2,0:0:0:0:
197,98,172448,5,10,0:1:0:0:
356,247,172594,1,8,0:1:0:0:
158,336,172739,1,8,0:0:0:0:
258,160,172885,6,0,P|250:256|246:353,1,193.600005908203,10|10,0:1|0:1,0:0:0:0:
166,184,173322,1,8,0:0:0:0:
2,275,173468,1,2,0:0:0:0:
95,62,173613,6,0,P|140:74|189:83,1,96.8000029541017,10|8,0:1|0:1,0:0:0:0:
356,247,173904,2,0,P|306:237|257:259,1,96.8000029541017,8|2,0:0|0:0,0:0:0:0:
158,336,174196,5,10,0:1:0:0:
258,160,174341,2,0,L|248:129,1,24.2000007385254,2|2,0:0|0:0,0:0:0:0:
457,206,174487,1,8,0:0:0:0:
394,30,174633,5,2,0:0:0:0:
356,247,174778,1,10,0:1:0:0:
258,160,174924,1,10,0:1:0:0:
296,377,175069,1,8,0:0:0:0:
166,184,175215,6,0,B|93:197|93:197|63:239|63:239|-4:257,1,193.600005908203,10|8,0:1|0:1,0:0:0:0:
9,156,175652,5,8,0:0:0:0:
153,316,175798,1,8,0:1:0:0:
242,22,175943,5,8,0:0:0:0:
166,184,176089,1,8,0:1:0:0:
24,24,176235,5,8,0:0:0:0:
258,160,176381,1,8,0:0:0:0:
258,160,176453,1,8,0:0:0:0:
258,160,176526,6,0,P|329:144|407:132,1,145.200004431152,12|0,0:1|0:0,0:0:0:0:
467,91,176817,2,0,P|430:60|382:56,1,96.8000029541017,8|2,0:0|0:0,0:0:0:0:
241,263,177108,5,10,0:1:0:0:
400,132,177254,1,8,0:1:0:0:
489,316,177399,1,8,0:0:0:0:
283,351,177545,6,0,P|272:255|258:160,1,193.600005908203,10|10,0:1|0:1,0:0:0:0:
153,316,177982,1,8,0:0:0:0:
380,253,178128,1,2,0:0:0:0:
182,110,178273,6,0,P|165:149|174:207,1,96.8000029541017,10|8,0:1|0:1,0:0:0:0:
247,17,178565,2,0,P|201:13|151:2,1,96.8000029541017,8|2,0:0|0:0,0:0:0:0:
19,230,178856,5,12,0:1:0:0:
171,201,179001,2,0,L|212:192,1,24.2000007385254,2|2,0:0|0:0,0:0:0:0:
95,122,179147,5,8,0:0:0:0:
153,316,179293,1,2,0:0:0:0:
378,101,179439,5,10,0:1:0:0:
328,352,179584,1,10,0:1:0:0:
171,201,179730,5,8,0:0:0:0:
449,153,179875,2,0,P|392:194|322:174,1,145.200004431152,12|0,0:1|0:0,0:0:0:0:
289,94,180167,5,0,3:0:0:0:
302,86,180239,1,0,3:0:0:0:
318,82,180312,1,8,3:1:0:0:
334,81,180385,1,0,3:0:0:0:
350,84,180458,1,0,3:0:0:0:
364,90,180531,1,0,3:0:0:0:
378,100,180604,5,8,1:0:0:0:
362,146,180675,1,0,1:0:0:0:
325,176,180748,1,0,1:0:0:0:
277,182,180821,1,0,1:0:0:0:
234,162,180895,1,8,1:0:0:0:
207,122,180967,1,0,1:0:0:0:
206,75,181039,1,0,1:0:0:0:
229,33,181112,1,0,1:0:0:0:
271,10,181186,6,0,B|336:17|336:17|366:46|366:46|431:53,1,171.599992144776,12|0,0:1|0:0,0:0:0:0:
512,0,181477,5,12,0:0:0:0:
362,146,181623,1,2,0:0:0:0:
476,275,181769,5,10,0:1:0:0:
431,53,181914,1,10,0:1:0:0:
480,287,182060,1,8,0:0:0:0:
234,162,182205,6,0,L|139:181,1,96.8000029541017,12|0,0:1|0:0,0:0:0:0:
32,94,182497,5,10,0:1:0:0:
32,94,182570,1,2,0:0:0:0:
32,94,182642,1,10,0:0:0:0:
161,260,182788,1,2,0:0:0:0:
183,33,182934,5,10,0:1:0:0:
139,181,183079,1,10,0:1:0:0:
266,268,183225,1,10,0:0:0:0:
389,175,183370,1,2,0:0:0:0:
337,29,183515,5,12,0:1:0:0:
161,260,183662,1,2,0:0:0:0:
161,260,183807,2,0,L|64:252,1,96.8000029541017,10|0,0:0|0:0,0:0:0:0:
412,297,184099,5,10,0:1:0:0:
270,360,184244,2,0,P|255:314|266:268,1,96.8000029541017,10|8,0:1|0:0,0:0:0:0:
432,29,184536,6,0,B|487:-7|487:-7|471:119,1,193.600005908203,12|8,0:1|0:1,0:0:0:0:
462,200,184900,1,8,0:1:0:0:
465,217,184972,5,8,0:0:0:0:
410,192,185045,1,8,0:0:0:0:
358,209,185118,1,8,0:1:0:0:
329,244,185191,1,8,0:1:0:0:
301,264,185264,1,8,0:3:0:0:
266,268,185337,1,8,0:3:0:0:
244,261,185409,1,4,0:3:0:0:
228,250,185482,1,8,0:1:0:0:
223,239,185555,6,0,L|233:153,1,79.1999975830079,12|0,0:0|0:0,0:0:0:0:
140,47,185846,6,0,B|103:84|103:84|129:189,1,145.200004431152,12|0,0:1|0:0,0:0:0:0:
64,252,186137,5,8,0:0:0:0:
232,161,186283,1,10,0:1:0:0:
183,366,186429,5,8,0:0:0:0:
125,174,186575,1,10,0:1:0:0:
334,82,186720,5,8,0:0:0:0:
301,264,186866,1,10,0:1:0:0:
462,200,187011,5,8,0:0:0:0:
232,161,187157,1,10,0:1:0:0:
309,0,187303,5,10,0:0:0:0:
383,234,187448,1,10,0:1:0:0:
183,366,187594,5,10,0:0:0:0:
232,161,187739,1,8,0:1:0:0:
31,166,187885,5,10,0:0:0:0:
301,264,188031,1,10,0:1:0:0:
194,66,188176,6,0,P|126:98|124:173,1,158.399995166016,12|0,0:1|0:0,0:0:0:0:
373,211,188613,6,0,P|323:152|225:165,1,176,12|0,0:1|0:0,0:0:0:0:
22,307,189050,6,0,P|120:285|182:365,1,211.199993554688,12|0,0:1|0:0,0:0:0:0:
493,30,189487,6,0,P|476:133|363:189,1,228.799989526368,12|0,0:1|0:0,0:0:0:0:
47,127,189924,6,0,B|-37:81|15:-16|104:-2|140:74|127:160|127:160|115:214|174:283|273:268|310:170|266:86|169:76|66:141|25:205|33:285|83:350|141:378|201:364|243:335|272:306|272:306|307:269|355:246|412:263|441:317|432:359|378:382|342:353,1,1232,12|0,0:1|0:0,0:0:0:0:
