osu file format v14

[General]
AudioFilename: audio.mp3
AudioLeadIn: 0
PreviewTime: 45968
Countdown: 0
SampleSet: Soft
StackLeniency: 0.7
Mode: 0
LetterboxInBreaks: 0
WidescreenStoryboard: 1

[Editor]
Bookmarks: 15749,75167,194584,195167
DistanceSpacing: 1.2
BeatDivisor: 4
GridSize: 32
TimelineZoom: 2.999999

[Metadata]
Title:Wagon
TitleUnicode:ワゴン
Artist:Toyama Nao
ArtistUnicode:東山奈央
Creator:_kotachi_
Version:-Magic-'s Normal
Source:
Tags:dahkjdas EnuHQ Shikibe Mayu kazato Asa Shizuku- Lemaire Repl4y -Magic- touyama jpop j-pop pop japanese 冷めない魔法 Samenai Mahou
BeatmapID:3599288
BeatmapSetID:1669004

[Difficulty]
HPDrainRate:3.6
CircleSize:3.2
OverallDifficulty:3.8
ApproachRate:5.5
SliderMultiplier:1.02
SliderTickRate:1

[Events]
//Background and Video events
0,0,"BG.jpg",0,0
//Break Periods
2,34590,37634
2,142939,149770
//Storyboard Layer 0 (Background)
//Storyboard Layer 1 (Fail)
//Storyboard Layer 2 (Pass)
//Storyboard Layer 3 (Foreground)
//Storyboard Layer 4 (Overlay)
//Storyboard Sound Samples

[TimingPoints]
604,291.26213592233,4,2,1,50,1,0
3953,-98.0392156862745,4,2,1,70,0,0
13273,-98.0392156862745,4,2,2,70,0,0
13710,-98.0392156862745,4,2,1,70,0,0
15749,-98.0392156862745,4,2,1,60,0,0
20409,-98.0392156862745,4,2,1,70,0,0
20846,-98.0392156862745,4,2,2,70,0,0
21283,-98.0392156862745,4,2,1,70,0,0
23904,-98.0392156862745,4,2,2,70,0,0
24196,-98.0392156862745,4,2,1,70,0,0
25070,-98.0392156862745,4,2,1,60,0,0
29730,-98.0392156862745,4,2,1,70,0,0
30167,-98.0392156862745,4,2,2,70,0,0
30603,-98.0392156862745,4,2,1,70,0,0
34390,-98.0392156862745,4,2,1,40,0,0
39050,-98.0392156862745,4,2,1,50,0,0
43710,-98.0392156862745,4,2,1,60,0,0
46040,-98.0392156862745,4,2,1,75,0,1
49390,-98.0392156862745,4,2,2,75,0,1
49827,-98.0392156862745,4,2,1,75,0,1
51866,-98.0392156862745,4,2,2,75,0,1
52157,-98.0392156862745,4,2,1,75,0,1
52303,-98.0392156862745,4,2,1,75,0,1
54196,-98.0392156862745,4,2,2,75,0,1
54341,-98.0392156862745,4,2,1,75,0,1
54633,-98.0392156862745,4,2,2,75,0,1
55215,-98.0392156862745,4,2,1,75,0,1
58710,-98.0392156862745,4,2,2,75,0,1
59147,-98.0392156862745,4,2,1,75,0,1
61186,-98.0392156862745,4,2,2,75,0,1
61332,-98.0392156862745,4,2,1,75,0,1
62642,-98.0392156862745,4,2,2,75,0,1
63516,-98.0392156862745,4,2,1,75,0,1
64244,-98.0392156862745,4,2,1,75,0,0
65846,-98.0392156862745,4,2,1,70,0,0
68176,-98.0392156862745,4,2,2,70,0,0
68468,-98.0392156862745,4,2,1,70,0,0
75167,-98.0392156862745,4,2,1,60,0,0
79827,-98.0392156862745,4,2,1,70,0,0
80264,-98.0392156862745,4,2,2,70,0,0
80701,-98.0392156862745,4,2,1,70,0,0
83322,-98.0392156862745,4,2,2,70,0,0
83468,-98.0392156862745,4,2,1,70,0,0
83540,-98.0392156862745,4,2,1,70,0,0
84487,-98.0392156862745,4,2,1,60,0,0
89147,-98.0392156862745,4,2,1,70,0,0
89584,-98.0392156862745,4,2,2,70,0,0
90021,-98.0392156862745,4,2,1,70,0,0
91477,-98.0392156862745,4,2,2,70,0,0
91768,-98.0392156862745,4,2,1,70,0,0
93807,-98.0392156862745,4,2,1,40,0,0
94317,-98.0392156862745,4,2,1,70,0,0
94972,-108.695652173913,4,2,1,60,0,0
99633,-98.0392156862745,4,2,1,70,0,0
104293,-108.695652173913,4,2,1,60,0,0
105458,-98.0392156862745,4,2,1,70,0,0
106623,-98.0392156862745,4,2,1,75,0,1
109972,-98.0392156862745,4,2,2,75,0,1
110409,-98.0392156862745,4,2,1,75,0,1
112448,-98.0392156862745,4,2,2,75,0,1
112739,-98.0392156862745,4,2,1,75,0,1
112885,-98.0392156862745,4,2,1,75,0,1
114778,-98.0392156862745,4,2,2,75,0,1
114924,-98.0392156862745,4,2,1,75,0,1
115215,-98.0392156862745,4,2,2,75,0,1
115798,-98.0392156862745,4,2,1,75,0,1
119293,-98.0392156862745,4,2,2,75,0,1
119730,-98.0392156862745,4,2,1,75,0,1
121769,-98.0392156862745,4,2,2,75,0,1
121914,-98.0392156862745,4,2,1,75,0,1
124099,-98.0392156862745,4,2,1,70,0,0
124972,-98.0392156862745,4,2,2,70,0,0
126429,-98.0392156862745,4,2,1,70,0,0
127303,-98.0392156862745,4,2,2,70,0,0
128759,-98.0392156862745,4,2,1,70,0,0
129633,-98.0392156862745,4,2,2,70,0,0
131089,-98.0392156862745,4,2,1,70,0,0
131963,-98.0392156862745,4,2,2,70,0,0
133419,-98.0392156862745,4,2,1,70,0,0
150895,-98.0392156862745,4,2,1,70,0,0
152060,-98.0392156862745,4,2,2,70,0,0
152642,-98.0392156862745,4,2,2,40,0,0
152934,-98.0392156862745,4,2,2,60,0,0
153225,-98.0392156862745,4,2,1,75,0,1
156574,-98.0392156862745,4,2,2,75,0,1
157011,-98.0392156862745,4,2,1,75,0,1
159050,-98.0392156862745,4,2,2,75,0,1
159341,-98.0392156862745,4,2,1,75,0,1
159487,-98.0392156862745,4,2,1,75,0,1
161381,-98.0392156862745,4,2,2,75,0,1
161526,-98.0392156862745,4,2,1,75,0,1
161817,-98.0392156862745,4,2,2,75,0,1
162400,-98.0392156862745,4,2,1,75,0,1
163128,-98.0392156862745,4,2,2,75,0,1
163419,-98.0392156862745,4,2,1,75,0,1
163710,-98.0392156862745,4,2,2,75,0,1
164002,-98.0392156862745,4,2,1,75,0,1
164293,-98.0392156862745,4,2,2,75,0,1
164584,-98.0392156862745,4,2,1,75,0,1
165458,-98.0392156862745,4,2,2,75,0,1
165749,-98.0392156862745,4,2,1,75,0,1
171720,-98.0392156862745,4,2,1,60,0,1
171866,-98.0392156862745,4,2,1,70,0,0
179875,-98.0392156862745,4,2,2,70,0,0
181186,-98.0392156862745,4,2,1,70,0,0
182205,-98.0392156862745,4,2,2,70,0,0
182351,-98.0392156862745,4,2,1,70,0,0
184536,-98.0392156862745,4,2,2,70,0,0
184972,-98.0392156862745,4,2,1,70,0,0
188176,-98.0392156862745,4,2,2,70,0,0
189924,-161.290322580645,4,2,1,90,0,0
192837,-161.290322580645,4,2,1,50,0,0
193419,-161.290322580645,4,2,1,40,0,0
194002,-161.290322580645,4,2,1,30,0,0
194584,-161.290322580645,4,2,1,20,0,0

[Colours]
Combo1 : 255,223,128
Combo2 : 255,157,255
Combo3 : 255,183,219
Combo4 : 255,172,132

[HitObjects]
378,47,3953,5,12,2:0:0:0:
451,120,4244,2,0,L|514:105,2,52.0200003175049,8|8|8,2:0|2:0|2:1,0:0:0:0:
414,156,4681,2,0,P|410:185|421:212,1,52.0200003175049,8|8,2:0|2:0,2:0:0:0:
454,242,4972,1,8,2:0:0:0:
380,315,5264,6,0,L|255:298,1,104.04000063501,12|8,2:1|2:0,2:0:0:0:
245,263,5701,1,2,2:0:0:0:
245,263,5846,2,0,P|224:208|270:156,1,104.04000063501,10|8,2:1|2:0,2:0:0:0:
280,134,6283,1,10,2:1:0:0:
227,51,6574,1,8,2:1:0:0:
227,51,6720,2,0,P|173:21|109:58,1,104.04000063501,8|10,2:0|2:1,0:0:0:0:
61,104,7303,1,8,2:0:0:0:
6,192,7594,6,0,L|26:311,1,104.04000063501,8|8,2:1|2:0,2:0:0:0:
102,361,8176,2,0,P|165:371|210:335,1,104.04000063501,10|8,2:1|2:0,0:0:0:0:
234,314,8613,2,0,P|283:290|338:315,1,104.04000063501,8|8,2:1|2:1,2:0:0:0:
364,341,9050,1,8,2:0:0:0:
459,382,9341,1,8,2:0:0:0:
510,291,9633,1,8,2:0:0:0:
447,207,9924,6,0,L|434:82,1,104.04000063501,12|8,2:1|2:0,2:0:0:0:
435,55,10361,1,2,2:0:0:0:
435,55,10506,2,0,P|378:28|332:47,1,104.04000063501,10|8,2:1|2:0,2:0:0:0:
303,75,10943,1,10,2:1:0:0:
255,169,11235,1,10,2:1:0:0:
255,169,11380,2,0,L|277:289,1,104.04000063501,8|10,2:0|2:1,0:0:0:0:
232,367,11963,1,8,2:0:0:0:
143,311,12254,6,0,P|86:323|45:296,1,104.04000063501,12|8,2:1|2:0,2:0:0:0:
0,208,12837,2,0,P|-4:144|39:97,1,104.04000063501,10|8,2:1|2:0,2:0:0:0:
53,75,13273,2,0,L|166:92,1,104.04000063501,12|8,2:1|2:1,2:0:0:0:
208,90,13710,5,8,2:0:0:0:
281,16,14002,1,8,2:0:0:0:
366,75,14293,1,8,2:0:0:0:
328,172,14584,2,0,L|307:286,1,104.04000063501,8|4,2:3|2:3,2:0:0:0:
235,348,15167,1,8,2:1:0:0:
235,348,15312,2,0,P|166:359|126:325,1,104.04000063501,12|0,2:0|2:0,2:0:0:0:
102,305,15749,5,12,2:1:0:0:
28,231,16040,2,0,L|43:120,1,104.04000063501,8|10,2:0|2:1,0:0:0:0:
79,90,16477,1,8,2:1:0:0:
79,90,16623,2,0,P|134:70|178:103,1,104.04000063501,8|10,2:0|2:1,2:0:0:0:
243,164,17205,2,0,P|305:152|349:146,1,104.04000063501,8|8,2:0|2:1,0:0:0:0:
419,72,17788,1,8,2:0:0:0:
473,160,18079,6,0,L|466:224,1,52.0200003175049,10|2,2:1|2:0,2:0:0:0:
504,247,18370,2,0,P|513:274|499:300,1,52.0200003175049,8|0,2:0|0:0,0:0:0:0:
467,331,18662,2,0,L|356:309,1,104.04000063501,10|8,2:1|2:0,2:0:0:0:
275,257,19244,2,0,P|260:194|285:157,1,104.04000063501,8|8,2:1|2:0,2:0:0:0:
352,89,19827,2,0,L|408:105,2,52.0200003175049,10|10|8,2:1|2:1|2:0,2:0:0:0:
266,29,20409,6,0,P|206:17|159:46,1,104.04000063501,12|8,2:1|2:0,2:0:0:0:
126,82,20846,2,0,L|143:198,1,104.04000063501,12|8,2:1|2:1,2:0:0:0:
67,258,21429,2,0,P|49:311|82:358,1,104.04000063501,12|8,2:1|2:1,2:0:0:0:
112,382,21866,1,8,2:0:0:0:
215,375,22157,2,0,P|268:358|332:358,1,104.04000063501,10|8,2:1|2:0,2:0:0:0:
407,307,22739,6,0,L|394:199,1,104.04000063501,12|8,2:1|2:0,2:0:0:0:
478,142,23322,2,0,P|496:78|471:44,1,104.04000063501,10|10,2:1|2:0,2:0:0:0:
384,5,23904,1,12,2:1:0:0:
310,78,24196,1,8,2:0:0:0:
223,20,24487,2,0,P|191:18|165:44,1,52.0200003175049,8|8,2:0|2:0,2:0:0:0:
142,68,24778,2,0,P|140:100|166:126,1,52.0200003175049,8|8,2:0|2:0,2:0:0:0:
179,159,25070,6,0,P|241:145|289:134,1,104.04000063501,12|8,2:1|2:0,2:0:0:0:
352,207,25652,2,0,P|375:264|352:312,1,104.04000063501,10|8,2:1|2:0,2:0:0:0:
324,339,26089,1,2,2:0:0:0:
324,339,26235,2,0,L|208:312,1,104.04000063501,10|8,2:1|2:0,2:0:0:0:
127,357,26817,2,0,P|72:371|24:323,1,104.04000063501,8|8,2:1|2:0,0:0:0:0:
7,246,27400,6,0,P|0:222|15:184,1,52.0200003175049,10|2,2:1|2:0,2:0:0:0:
42,159,27691,2,0,L|30:93,1,52.0200003175049,8|2,2:0|2:0,0:0:0:0:
49,58,27982,2,0,P|104:42|143:67,1,104.04000063501,10|8,2:1|2:0,2:0:0:0:
186,158,28565,2,0,P|242:144|294:134,1,104.04000063501,8|8,2:1|2:0,2:0:0:0:
360,208,29147,1,8,2:0:0:0:
434,136,29438,1,8,2:0:0:0:
494,221,29730,6,0,P|506:295|482:324,1,104.04000063501,12|8,2:1|2:0,2:0:0:0:
455,352,30167,2,0,L|344:335,1,104.04000063501,12|10,2:1|2:1,2:0:0:0:
266,277,30749,2,0,B|270:222|270:222|316:194|316:194|321:135,1,156.060000952515,12|8,2:1|2:0,2:0:0:0:
245,75,31477,1,10,2:1:0:0:
158,16,31769,1,8,2:0:0:0:
76,82,32060,6,0,L|108:210,1,104.04000063501,12|8,2:1|2:0,2:0:0:0:
73,283,32642,2,0,P|129:295|173:259,1,104.04000063501,10|8,2:1|2:0,2:0:0:0:
245,203,33225,6,0,L|228:139,1,52.0200003175049,12|8,2:0|2:0,0:0:0:0:
219,101,33516,1,8,2:3:0:0:
299,36,33807,1,4,2:3:0:0:
380,100,34099,1,8,2:1:0:0:
342,197,34390,1,12,2:1:0:0:
512,384,38759,5,4,2:0:0:0:
438,310,39050,2,0,P|384:296|330:332,1,104.04000063501,12|8,2:1|2:0,2:0:0:0:
268,242,39633,2,0,L|280:180,2,52.0200003175049,10|10|8,2:1|2:1|2:0,2:0:0:0:
194,315,40215,2,0,P|121:324|92:299,1,104.04000063501,10|8,2:1|2:0,2:0:0:0:
52,215,40798,2,0,L|-18:232,2,52.0200003175049,10|8|8,2:1|2:1|2:0,2:0:0:0:
86,116,41380,2,0,P|136:88|189:108,1,104.04000063501,10|8,2:1|2:0,2:0:0:0:
272,54,41963,2,0,L|261:-8,2,52.0200003175049,10|4|2,2:1|2:3|3:2,2:0:0:0:
357,113,42545,2,0,L|341:235,1,104.04000063501,2|8,2:0|2:0,0:0:0:0:
429,274,43128,2,0,P|435:306|420:330,1,52.0200003175049,10|8,2:1|2:1,2:0:0:0:
390,359,43419,1,12,2:0:0:0:
286,365,43710,6,0,P|185:343|121:333,1,156.060000952515,12|8,2:1|2:1,2:0:0:0:
86,358,44293,1,12,2:0:0:0:
12,284,44584,1,10,2:1:0:0:
85,210,44875,2,0,B|130:231|166:196|139:175|179:134|233:160,1,156.060000952515,10|0,2:0|0:0,0:0:0:0:
251,191,45458,1,8,2:0:0:0:
324,264,45749,1,8,2:1:0:0:
397,190,46040,6,0,P|421:134|392:79,1,104.04000063501,12|8,2:1|2:0,2:0:0:0:
371,58,46477,1,0,2:0:0:0:
371,58,46623,2,0,L|259:71,1,104.04000063501,10|8,2:1|2:0,2:0:0:0:
194,143,47205,1,10,2:1:0:0:
267,216,47497,1,10,2:0:0:0:
193,289,47788,2,0,P|166:297|134:285,1,52.0200003175049,10|8,2:1|2:1,0:0:0:0:
106,254,48079,1,10,2:0:0:0:
32,180,48370,6,0,P|16:114|45:74,1,104.04000063501,10|10,2:1|2:0,2:0:0:0:
105,11,48953,2,0,P|145:2|173:17,1,52.0200003175049,10|8,2:1|2:1,0:0:0:0:
191,41,49244,1,8,2:0:0:0:
191,41,49390,2,0,L|168:162,1,104.04000063501,12|8,2:1|2:1,2:0:0:0:
159,193,49827,1,10,2:0:0:0:
216,286,50118,1,10,2:1:0:0:
216,286,50264,2,0,P|276:297|315:266,1,104.04000063501,10|2,2:1|2:0,0:0:0:0:
326,225,50701,6,0,L|303:116,1,104.04000063501,12|10,2:1|2:0,2:0:0:0:
378,49,51283,2,0,P|408:37|434:42,1,52.0200003175049,10|8,2:1|2:1,2:0:0:0:
463,76,51574,1,10,2:0:0:0:
503,172,51866,2,0,L|485:284,1,104.04000063501,12|8,2:1|2:0,2:0:0:0:
412,348,52448,2,0,P|383:352|357:338,1,52.0200003175049,0|10,0:0|2:1,0:0:0:0:
325,306,52739,2,0,P|299:295|272:303,1,52.0200003175049,8|2,2:0|2:0,2:0:0:0:
239,337,53031,6,0,P|190:353|132:324,1,104.04000063501,12|10,2:1|2:0,2:0:0:0:
69,261,53613,1,10,2:1:0:0:
142,187,53904,1,10,2:0:0:0:
68,113,54196,2,0,L|5:126,2,52.0200003175049,12|8|8,3:1|2:0|2:0,2:0:0:0:
104,76,54633,1,12,2:1:0:0:
186,13,54924,1,12,2:1:0:0:
253,91,55215,6,0,P|235:174|223:256,1,156.060000952515,12|8,2:1|2:0,2:0:0:0:
277,334,55943,2,0,P|360:338|378:316,1,104.04000063501,10|8,2:1|2:0,0:0:0:0:
446,257,56526,1,10,2:1:0:0:
370,185,56817,1,10,2:0:0:0:
450,118,57108,2,0,P|471:62|442:21,1,104.04000063501,10|10,2:1|2:0,0:0:0:0:
408,7,57545,1,2,2:0:0:0:
408,7,57691,2,0,L|290:19,1,104.04000063501,10|10,2:1|2:0,2:0:0:0:
220,78,58273,2,0,P|212:110|225:138,1,52.0200003175049,10|8,2:1|2:1,0:0:0:0:
258,168,58565,1,8,2:0:0:0:
258,168,58710,6,0,L|243:280,1,104.04000063501,12|8,2:1|2:1,2:0:0:0:
238,322,59147,1,10,2:0:0:0:
149,372,59438,1,10,2:1:0:0:
149,372,59584,2,0,P|90:378|55:348,1,104.04000063501,10|2,2:1|2:0,2:0:0:0:
29,307,60021,6,0,L|48:201,1,104.04000063501,12|10,2:1|2:1,2:0:0:0:
120,131,60603,2,0,P|196:131|223:95,1,104.04000063501,10|10,2:1|2:1,2:0:0:0:
240,14,61186,2,0,P|164:14|137:50,1,104.04000063501,12|8,2:1|2:0,2:0:0:0:
48,65,61769,1,4,2:3:0:0:
0,167,62060,6,0,L|170:140,1,156.060000952515,12|0,2:1|2:0,2:0:0:0:
205,135,62642,1,12,2:1:0:0:
278,61,62934,1,12,2:1:0:0:
364,118,63225,1,12,2:1:0:0:
329,215,63516,6,0,B|261:191|200:260|245:295|190:354|103:313,1,260.100001587524,12|12,2:1|0:0,0:0:0:0:
407,34,65846,6,0,L|423:149,1,104.04000063501,12|8,2:1|2:0,2:0:0:0:
472,162,66283,1,2,2:0:0:0:
472,162,66429,2,0,P|493:217|469:274,1,104.04000063501,10|8,2:1|2:0,2:0:0:0:
444,295,66866,1,10,2:1:0:0:
370,368,67157,1,10,2:1:0:0:
370,368,67303,2,0,L|250:345,1,104.04000063501,8|10,2:0|2:1,0:0:0:0:
215,258,67885,2,0,P|215:216|236:190,1,52.0200003175049,8|2,2:0|2:0,0:0:0:0:
255,171,68176,6,0,P|279:119|263:77,1,104.04000063501,12|8,2:1|2:0,2:0:0:0:
183,10,68759,2,0,L|55:21,1,104.04000063501,10|8,2:1|2:0,2:0:0:0:
42,55,69196,2,0,P|22:118|49:165,1,104.04000063501,8|8,2:1|2:1,2:0:0:0:
72,187,69633,1,8,2:0:0:0:
0,260,69924,1,8,2:0:0:0:
73,333,70215,2,0,P|109:321|130:326,1,52.0200003175049,8|8,2:0|2:0,0:0:0:0:
158,359,70506,6,0,P|214:377|259:344,1,104.04000063501,12|8,2:1|2:0,2:0:0:0:
286,319,70943,1,2,2:0:0:0:
286,319,71089,2,0,P|335:298|386:324,1,104.04000063501,10|8,2:1|2:0,2:0:0:0:
416,353,71526,1,10,2:1:0:0:
489,279,71817,1,10,2:1:0:0:
489,279,71963,2,0,L|472:167,1,104.04000063501,8|10,2:0|2:1,0:0:0:0:
385,120,72545,2,0,L|395:59,1,52.0200003175049,8|2,2:0|2:0,0:0:0:0:
356,31,72837,6,0,P|294:7|255:24,1,104.04000063501,12|8,2:1|2:0,2:0:0:0:
207,107,73419,2,0,L|229:228,1,104.04000063501,10|8,2:1|2:0,2:0:0:0:
236,260,73856,1,8,2:0:0:0:
162,333,74147,2,0,P|137:334|110:315,2,52.0200003175049,8|4|12,2:3|2:3|2:1,0:0:0:0:
414,268,75167,5,12,2:1:0:0:
487,194,75458,2,0,P|504:122|476:82,1,104.04000063501,8|10,2:0|2:1,0:0:0:0:
455,61,75895,1,10,2:1:0:0:
455,61,76040,2,0,L|319:77,1,104.04000063501,8|10,2:0|2:1,2:0:0:0:
277,146,76623,2,0,P|259:207|283:249,1,104.04000063501,8|8,2:0|2:1,0:0:0:0:
348,314,77205,1,8,2:0:0:0:
259,369,77497,6,0,P|218:366|203:354,1,52.0200003175049,10|2,2:1|2:0,2:0:0:0:
172,323,77788,2,0,P|143:311|120:319,1,52.0200003175049,8|2,2:0|2:0,2:0:0:0:
93,358,78079,2,0,P|32:363|2:327,1,104.04000063501,10|10,2:1|2:0,2:0:0:0:
9,230,78662,2,0,L|29:114,1,104.04000063501,8|8,2:1|2:0,2:0:0:0:
109,64,79244,2,0,L|96:-4,2,52.0200003175049,8|8|8,2:0|2:1|2:0,2:0:0:0:
207,99,79827,6,0,P|262:62|309:74,1,104.04000063501,12|8,2:1|2:0,2:0:0:0:
338,97,80264,2,0,L|324:206,1,104.04000063501,12|10,2:1|2:1,2:0:0:0:
413,253,80846,2,0,P|432:311|408:350,1,104.04000063501,12|8,2:1|2:1,2:0:0:0:
370,376,81283,1,8,2:0:0:0:
266,369,81574,2,0,L|130:340,1,104.04000063501,10|8,2:1|2:0,2:0:0:0:
85,277,82157,6,0,P|69:223|103:174,1,104.04000063501,12|8,2:1|2:0,2:0:0:0:
172,119,82739,1,10,2:1:0:0:
92,51,83031,1,8,2:0:0:0:
187,9,83322,6,0,P|221:-7|257:11,1,52.0200003175049,12|8,2:1|2:0,2:0:0:0:
270,31,83613,2,0,L|259:84,1,52.0200003175049,8|8,2:0|2:0,2:0:0:0:
296,118,83904,2,0,P|310:177|276:223,1,104.04000063501,8|8,2:0|2:3,2:0:0:0:
200,265,84487,2,0,P|176:320|198:362,1,104.04000063501,12|12,2:1|2:0,2:0:0:0:
296,369,85070,2,0,L|421:354,1,104.04000063501,10|8,2:1|2:0,2:0:0:0:
436,319,85506,1,2,2:0:0:0:
436,319,85652,2,0,P|454:266|424:223,1,104.04000063501,10|10,2:1|2:0,2:0:0:0:
357,153,86235,2,0,L|253:170,1,104.04000063501,8|8,2:1|2:0,0:0:0:0:
180,243,86817,6,0,L|111:230,1,52.0200003175049,10|2,2:1|2:0,2:0:0:0:
92,270,87108,2,0,P|58:271|44:256,1,52.0200003175049,8|2,2:0|2:0,2:0:0:0:
34,208,87400,2,0,L|55:86,1,104.04000063501,10|10,2:1|2:0,2:0:0:0:
126,33,87982,2,0,P|199:34|222:74,1,104.04000063501,8|8,2:1|2:0,2:0:0:0:
314,84,88565,2,0,P|323:51|330:28,2,52.0200003175049,12|10|8,0:0|0:1|0:0,0:0:0:0:
412,117,89147,6,0,P|425:200|431:242,1,104.04000063501,12|8,2:1|2:0,2:0:0:0:
411,269,89584,2,0,P|355:281|307:236,1,104.04000063501,12|10,2:1|2:1,2:0:0:0:
215,238,90167,2,0,B|195:199|233:167|239:177|271:141|245:97,1,156.060000952515,12|8,2:1|2:0,2:0:0:0:
182,13,90895,1,10,2:1:0:0:
102,80,91186,1,8,2:0:0:0:
11,28,91477,6,0,P|23:84|33:159,1,104.04000063501,12|8,2:1|2:0,2:0:0:0:
90,215,92060,2,0,P|159:221|189:190,1,104.04000063501,10|10,2:1|2:0,0:0:0:0:
257,131,92642,1,10,2:1:0:0:
330,204,92934,1,8,2:0:0:0:
403,130,93225,2,0,P|413:99|397:72,1,52.0200003175049,8|8,2:0|2:0,2:0:0:0:
369,45,93516,2,0,P|338:35|311:51,1,52.0200003175049,8|8,2:0|2:0,0:0:0:0:
284,78,93807,1,2,2:0:0:0:
172,253,94390,6,0,P|139:275|95:275,2,78.0300004762573,8|8|4,2:0|2:3|2:3,2:0:0:0:
205,219,94972,6,0,P|259:211|297:241,1,93.8399968498536,12|8,2:1|0:1,0:0:0:0:
356,164,95555,2,0,L|341:65,2,93.8399968498536,10|10|10,0:1|0:1|0:1,0:0:0:0:
429,222,96429,1,8,0:1:0:0:
420,315,96720,2,0,P|470:318|504:279,2,93.8399968498536,10|10|10,0:1|0:1|0:1,0:0:0:0:
346,374,97594,1,8,0:1:0:0:
277,309,97885,2,0,P|230:302|178:337,2,93.8399968498536,10|10|10,0:1|0:1|0:1,0:0:0:0:
359,263,98759,1,8,0:1:0:0:
431,203,99050,2,0,P|436:151|406:108,1,93.8399968498536,10|10,0:1|0:1,0:0:0:0:
333,52,99633,6,0,L|224:66,1,104.04000063501,12|8,2:1|2:0,2:0:0:0:
134,108,100215,2,0,P|126:142|140:169,1,52.0200003175049,8|8,2:0|2:1,0:0:0:0:
157,202,100506,1,8,2:0:0:0:
241,263,100798,2,0,L|348:241,1,104.04000063501,8|8,2:0|2:0,2:0:0:0:
440,263,101380,2,0,P|458:292|455:317,1,52.0200003175049,8|8,2:0|2:1,0:0:0:0:
433,355,101671,1,8,2:0:0:0:
330,371,101963,6,0,L|217:351,1,104.04000063501,12|8,2:0|2:0,2:0:0:0:
131,313,102545,2,0,P|123:283|133:259,1,52.0200003175049,8|8,2:0|2:1,0:0:0:0:
163,223,102837,1,8,2:0:0:0:
236,149,103128,2,0,P|251:96|222:46,1,104.04000063501,12|8,2:0|2:0,2:0:0:0:
126,52,103710,2,0,L|137:-8,2,52.0200003175049,8|8|10,2:0|2:0|2:1,2:0:0:0:
34,74,104293,6,0,L|65:226,1,140.75999527478,12|8,2:1|2:1,2:0:0:0:
95,245,104875,2,0,P|144:255|178:217,1,93.8399968498536,12|8,2:0|2:1,0:0:0:0:
247,154,105458,6,0,L|263:70,2,69.3600004233398,10|10|10,1:2|1:2|1:2,2:0:0:0:
273,198,106040,1,4,2:3:0:0:
467,272,106623,6,0,P|414:263|367:301,1,104.04000063501,12|8,2:1|2:0,2:0:0:0:
336,326,107060,1,0,2:0:0:0:
336,326,107205,2,0,P|286:349|234:329,1,104.04000063501,10|8,2:1|2:0,2:0:0:0:
167,261,107788,1,10,2:1:0:0:
240,187,108079,1,10,2:0:0:0:
166,113,108370,2,0,P|134:112|110:133,1,52.0200003175049,10|8,2:1|2:1,0:0:0:0:
80,159,108662,1,10,2:0:0:0:
21,245,108953,6,0,L|145:267,1,104.04000063501,10|10,2:1|2:0,2:0:0:0:
197,336,109536,2,0,P|242:335|252:326,1,52.0200003175049,10|8,2:1|2:1,0:0:0:0:
282,295,109827,1,8,2:0:0:0:
282,295,109972,2,0,L|261:175,1,104.04000063501,12|8,2:1|2:1,2:0:0:0:
255,141,110409,1,10,2:0:0:0:
328,67,110701,1,10,2:1:0:0:
328,67,110846,2,0,P|391:67|418:106,1,104.04000063501,10|2,2:1|2:0,0:0:0:0:
436,142,111283,6,0,L|415:249,1,104.04000063501,12|10,2:1|2:0,2:0:0:0:
342,317,111866,2,0,L|285:298,1,52.0200003175049,10|8,2:1|2:1,0:0:0:0:
247,326,112157,1,10,2:0:0:0:
148,360,112448,2,0,P|97:366|55:328,1,104.04000063501,12|8,2:1|2:0,2:0:0:0:
8,242,113031,2,0,P|1:211|14:184,1,52.0200003175049,2|10,0:0|2:1,0:0:0:0:
44,155,113322,2,0,L|30:91,1,52.0200003175049,8|2,2:0|2:0,2:0:0:0:
50,55,113613,6,0,P|94:39|146:67,1,104.04000063501,12|10,2:1|2:0,2:0:0:0:
216,136,114196,1,10,2:1:0:0:
289,62,114487,1,10,2:0:0:0:
362,135,114778,2,0,L|431:121,2,52.0200003175049,12|8|8,2:1|2:0|2:0,2:0:0:0:
325,171,115215,5,12,2:1:0:0:
398,244,115506,1,12,2:1:0:0:
324,317,115798,6,0,B|276:293|238:324|256:349|217:377|176:348,1,156.060000952515,12|8,2:1|2:0,2:0:0:0:
104,290,116526,2,0,P|89:242|131:187,1,104.04000063501,10|8,2:1|2:0,0:0:0:0:
186,123,117108,1,10,2:1:0:0:
259,196,117400,1,10,2:0:0:0:
332,122,117691,2,0,P|352:66|321:28,1,104.04000063501,10|10,2:1|2:0,0:0:0:0:
227,13,118273,6,0,L|117:32,1,104.04000063501,10|10,2:1|2:0,2:0:0:0:
50,104,118856,2,0,P|37:137|51:162,1,52.0200003175049,10|8,2:1|2:1,0:0:0:0:
82,192,119147,1,8,2:0:0:0:
82,192,119293,2,0,L|200:177,1,104.04000063501,12|8,2:1|2:1,2:0:0:0:
237,177,119730,1,10,2:0:0:0:
310,258,120021,1,10,2:1:0:0:
310,258,120167,2,0,P|366:267|406:236,1,104.04000063501,10|2,2:1|2:0,2:0:0:0:
439,204,120603,6,0,L|415:95,1,104.04000063501,12|10,2:1|2:1,2:0:0:0:
342,28,121186,2,0,P|308:19|255:61,1,104.04000063501,10|10,2:1|2:0,2:0:0:0:
241,160,121769,2,0,P|275:169|328:127,1,104.04000063501,12|10,2:1|2:0,2:0:0:0:
416,78,122351,1,4,2:3:0:0:
500,138,122642,6,0,P|467:227|446:304,1,156.060000952515,12|8,2:1|2:1,2:0:0:0:
431,334,123225,1,10,2:0:0:0:
357,260,123516,1,10,2:0:0:0:
283,333,123807,2,0,P|250:340|227:331,1,52.0200003175049,10|8,2:0|2:0,0:0:0:0:
196,297,124099,6,0,B|132:212|239:150|265:187|343:117|283:47,1,312.120001905029,12|12,2:1|0:1,0:0:0:0:
438,319,125846,2,0,P|476:344|507:344,2,69.3600004233398,12|12|12,0:1|0:1|0:1,0:0:0:0:
394,247,126429,6,0,B|326:224|284:278|314:306|291:359|221:378|169:346|173:296|224:265|251:302,1,312.120001905029,12|12,0:1|0:1,0:0:0:0:
34,110,128176,2,0,P|15:71|32:39,2,69.3600004233398,12|12|12,0:1|0:1|0:1,0:0:0:0:
93,168,128759,6,0,B|143:191|189:132|150:110|206:50|271:85,1,208.08000127002,12|0,0:1|0:0,0:0:0:0:
328,17,129633,2,0,P|303:140|286:232,1,208.08000127002,12|0,0:1|0:0,0:0:0:0:
376,275,130506,2,0,B|423:268|423:268|459:293,2,69.3600004233398,12|12|12,0:1|0:1|0:1,0:0:0:0:
296,301,131089,6,0,B|238:314|238:314|214:357|214:357|148:370,2,156.060000952515,12|2|12,0:1|0:0|0:1,0:0:0:0:
44,128,132837,2,0,L|26:42,2,69.3600004233398,12|12|12,0:1|0:1|0:1,0:0:0:0:
111,178,133419,6,0,P|168:186|210:143,1,104.04000063501,12|10,2:1|2:0,2:0:0:0:
270,80,134002,2,0,P|308:71|329:82,1,52.0200003175049,10|10,2:1|2:1,0:0:0:0:
362,103,134293,2,0,L|335:224,1,104.04000063501,8|8,2:0|2:1,0:0:0:0:
412,278,134875,2,0,P|422:319|407:347,1,52.0200003175049,8|2,2:0|2:0,2:0:0:0:
382,364,135167,1,10,2:1:0:0:
278,371,135458,2,0,L|153:355,1,104.04000063501,10|8,2:0|2:1,2:0:0:0:
101,284,136040,5,10,2:0:0:0:
27,210,136332,2,0,P|17:171|24:154,1,52.0200003175049,10|10,2:1|2:1,0:0:0:0:
56,124,136623,1,8,2:0:0:0:
56,124,136769,2,0,L|168:131,1,104.04000063501,2|2,2:0|2:0,2:0:0:0:
235,59,137351,2,0,P|291:47|332:80,1,104.04000063501,2|8,2:0|2:1,0:0:0:0:
368,103,137788,2,0,L|356:162,1,52.0200003175049,10|10,2:0|2:0,2:0:0:0:
401,181,138079,6,0,P|421:217|398:277,1,104.04000063501,12|10,2:1|2:0,2:0:0:0:
330,349,138662,2,0,P|299:353|275:338,1,52.0200003175049,10|10,2:1|2:1,0:0:0:0:
250,310,138953,1,10,2:0:0:0:
250,310,139099,2,0,P|199:300|148:333,1,104.04000063501,2|2,2:0|2:0,2:0:0:0:
118,360,139536,1,8,2:0:0:0:
118,360,139681,2,0,P|54:375|10:295,1,156.060000952515,2|8,0:0|0:0,0:0:0:0:
81,235,140409,6,0,P|88:206|72:175,1,52.0200003175049,12|2,2:1|2:0,2:0:0:0:
44,147,140701,2,0,P|35:117|52:86,1,52.0200003175049,10|2,2:0|2:0,2:0:0:0:
78,61,140992,1,10,2:1:0:0:
165,4,141283,1,8,2:0:0:0:
232,83,141574,6,0,L|214:191,1,104.04000063501,12|8,2:0|2:1,2:0:0:0:
239,231,142011,2,0,P|285:249|341:214,1,104.04000063501,12|8,2:0|2:1,2:0:0:0:
373,195,142448,1,12,2:0:0:0:
450,264,142739,1,12,2:1:0:0:
161,289,150895,5,8,1:0:0:0:
327,165,151477,2,0,P|365:190|400:184,2,69.3600004233398,0|0|0,2:0|0:0|0:0,2:0:0:0:
280,96,152060,6,0,P|207:91|179:128,1,104.04000063501,12|8,2:1|3:1,2:0:0:0:
114,182,152642,2,0,L|127:239,1,52.0200003175049,8|0,1:0|1:0,2:0:0:0:
88,269,152934,2,0,P|84:303|105:331,1,52.0200003175049,8|0,1:0|1:0,2:0:0:0:
128,355,153225,6,0,L|240:335,1,104.04000063501,12|12,2:1|2:0,2:0:0:0:
268,298,153662,1,0,2:0:0:0:
268,298,153807,2,0,P|286:244|248:195,1,104.04000063501,10|8,2:1|2:0,2:0:0:0:
190,131,154390,1,10,2:1:0:0:
116,204,154681,1,10,2:0:0:0:
42,130,154972,2,0,P|32:100|44:70,1,52.0200003175049,10|8,2:1|2:1,0:0:0:0:
73,43,155264,1,10,2:0:0:0:
171,8,155555,6,0,L|285:19,1,104.04000063501,10|10,2:1|2:0,2:0:0:0:
348,91,156137,2,0,P|339:122|350:149,1,52.0200003175049,10|8,2:1|2:1,0:0:0:0:
385,181,156429,1,8,2:0:0:0:
385,181,156574,2,0,P|408:242|384:289,1,104.04000063501,12|8,2:1|2:1,2:0:0:0:
358,312,157011,1,10,2:0:0:0:
268,365,157303,1,10,2:1:0:0:
268,365,157448,2,0,L|153:353,1,104.04000063501,10|2,2:1|2:0,0:0:0:0:
127,317,157885,6,0,P|114:264|143:220,1,104.04000063501,12|10,2:1|2:0,2:0:0:0:
211,150,158468,2,0,P|222:98|215:88,1,52.0200003175049,10|8,2:1|2:1,2:0:0:0:
196,58,158759,1,10,2:0:0:0:
101,15,159050,2,0,P|39:25|19:71,1,104.04000063501,12|8,2:1|2:0,2:0:0:0:
74,146,159633,2,0,P|76:175|60:203,1,52.0200003175049,0|10,0:0|2:1,0:0:0:0:
28,234,159924,2,0,P|14:258|21:288,1,52.0200003175049,8|2,2:0|2:0,2:0:0:0:
53,318,160215,6,0,P|108:335|159:311,1,104.04000063501,12|10,2:1|2:0,2:0:0:0:
223,245,160798,1,10,2:1:0:0:
149,171,161089,1,10,2:0:0:0:
222,97,161380,2,0,P|218:65|206:39,2,52.0200003175049,12|8|8,2:1|2:0|2:0,2:0:0:0:
258,133,161817,1,12,2:1:0:0:
331,59,162108,1,12,2:1:0:0:
410,126,162400,6,0,P|379:224|368:297,1,156.060000952515,12|12,2:1|2:0,2:0:0:0:
296,350,163128,2,0,P|252:361|205:319,1,104.04000063501,12|12,2:1|2:0,2:0:0:0:
134,254,163710,1,12,2:1:0:0:
207,180,164002,1,12,2:0:0:0:
133,106,164293,2,0,P|106:98|45:140,1,104.04000063501,12|12,2:1|2:0,2:0:0:0:
25,184,164730,1,2,2:0:0:0:
25,184,164875,6,0,P|42:238|54:293,1,104.04000063501,12|12,2:1|2:0,2:0:0:0:
126,357,165458,2,0,P|170:358|185:345,1,52.0200003175049,14|0,2:1|2:0,0:0:0:0:
211,317,165749,1,8,2:0:0:0:
211,317,165895,2,0,P|270:304|303:329,1,104.04000063501,12|8,2:1|2:1,2:0:0:0:
334,369,166332,1,10,2:0:0:0:
407,295,166623,1,8,2:1:0:0:
407,295,166769,2,0,L|392:180,1,104.04000063501,10|8,2:1|2:0,2:0:0:0:
430,155,167205,6,0,P|447:106|405:50,1,104.04000063501,10|14,2:1|2:0,2:0:0:0:
336,5,167788,1,10,2:1:0:0:
262,78,168079,1,12,2:0:0:0:
173,24,168370,2,0,P|121:13|72:58,1,104.04000063501,10|12,2:1|2:0,2:0:0:0:
14,120,168953,2,0,P|4:148|16:178,1,52.0200003175049,10|8,2:1|2:1,2:0:0:0:
46,205,169244,1,12,2:0:0:0:
119,278,169536,6,0,P|120:308|110:333,2,52.0200003175049,8|8|4,2:0|2:3|2:3,2:0:0:0:
192,204,170118,1,8,2:0:0:0:
265,277,170409,2,0,P|299:284|325:270,1,52.0200003175049,4|8,2:3|2:1,2:0:0:0:
351,241,170701,1,12,2:0:0:0:
49,37,171720,1,8,2:0:0:0:
49,37,171866,6,0,P|96:3|150:21,1,104.04000063501,12|8,2:1|2:0,2:0:0:0:
178,52,172303,1,2,2:0:0:0:
178,52,172448,2,0,L|163:163,1,104.04000063501,10|8,2:1|2:0,2:0:0:0:
155,206,172885,1,10,2:1:0:0:
215,297,173176,1,10,2:1:0:0:
215,297,173322,2,0,P|269:327|333:290,1,104.04000063501,8|10,2:0|2:1,0:0:0:0:
395,261,173905,1,8,2:0:0:0:
460,180,174196,6,0,L|440:61,1,104.04000063501,10|8,2:1|2:0,2:0:0:0:
347,35,174778,2,0,P|290:21|245:62,1,104.04000063501,10|8,2:1|2:0,0:0:0:0:
229,89,175215,2,0,L|254:208,1,104.04000063501,10|8,2:1|2:1,2:0:0:0:
283,230,175652,1,8,2:0:0:0:
374,180,175943,1,8,2:0:0:0:
446,254,176235,1,8,2:0:0:0:
403,348,176526,6,0,P|347:323|301:338,1,104.04000063501,12|8,2:1|2:0,2:0:0:0:
268,365,176963,1,2,2:0:0:0:
268,365,177108,2,0,P|205:373|167:340,1,104.04000063501,10|8,2:1|2:0,2:0:0:0:
137,313,177545,1,10,2:1:0:0:
67,243,177837,1,10,2:1:0:0:
67,243,177982,2,0,L|81:127,1,104.04000063501,8|10,2:0|2:1,0:0:0:0:
153,65,178565,1,8,2:0:0:0:
240,9,178856,6,0,P|297:-3|338:24,1,104.04000063501,12|8,2:1|2:0,2:0:0:0:
407,93,179439,2,0,P|431:156|399:200,1,104.04000063501,10|8,2:1|2:0,2:0:0:0:
380,222,179875,2,0,L|267:205,1,104.04000063501,12|0,2:1|3:0,2:0:0:0:
226,196,180312,1,8,3:1:0:0:
162,278,180604,1,8,1:0:0:0:
68,231,180895,1,8,1:0:0:0:
71,127,181186,6,0,P|62:68|101:25,1,104.04000063501,12|12,2:1|2:0,2:0:0:0:
128,0,181623,1,2,2:0:0:0:
128,0,181769,2,0,L|257:9,1,104.04000063501,10|8,2:1|2:0,2:0:0:0:
283,10,182205,1,12,2:1:0:0:
372,73,182496,1,10,2:1:0:0:
372,73,182642,2,0,P|398:126|376:171,1,104.04000063501,10|10,2:0|2:1,0:0:0:0:
308,238,183225,1,10,2:0:0:0:
215,190,183516,6,0,P|165:181|93:178,1,104.04000063501,12|10,2:1|2:0,0:0:0:0:
36,251,184099,2,0,P|12:316|29:355,1,104.04000063501,10|8,2:1|2:0,2:0:0:0:
65,375,184536,2,0,P|125:368|176:360,1,104.04000063501,12|8,2:1|2:1,2:0:0:0:
218,373,184972,1,8,2:0:0:0:
292,300,185263,1,8,2:3:0:0:
375,362,185555,1,12,2:0:0:0:
454,294,185846,6,0,P|474:243|455:200,1,104.04000063501,12|8,2:1|2:0,2:0:0:0:
366,145,186429,1,8,2:0:0:0:
290,216,186720,1,8,2:0:0:0:
191,183,187011,2,0,P|136:190|97:148,1,104.04000063501,8|10,0:0|2:0,0:0:0:0:
22,92,187594,1,10,2:0:0:0:
95,18,187885,1,10,2:0:0:0:
171,88,188176,5,12,2:1:0:0:
304,7,188613,1,12,2:1:0:0:
456,40,189050,1,12,2:1:0:0:
499,189,189487,1,12,2:1:0:0:
346,133,189924,6,0,B|395:191|476:132|484:14|400:-56|260:-35|150:9|194:221|309:190|84:236|329:187|388:218|410:299|423:386|327:493|147:448|138:348|229:234|178:295|90:139|-4:291,1,1011.83995985742,12|0,2:1|0:0,0:0:0:0:
