osu file format v14

[General]
AudioFilename: audio.mp3
AudioLeadIn: 0
PreviewTime: 78883
Countdown: 0
SampleSet: Soft
StackLeniency: 0.4
Mode: 0
LetterboxInBreaks: 0
WidescreenStoryboard: 1

[Editor]
DistanceSpacing: 2.5
BeatDivisor: 6
GridSize: 4
TimelineZoom: 2.5

[Metadata]
Title:Sayonara Moratorium
TitleUnicode:さよならモラトリアム
Artist:Toyama Nao
ArtistUnicode:東山奈央
Creator:_kotachi_
Version:My Identity!?
Source:
Tags:touyama jpop j-pop pop japanese 群青インフィニティ gunjou infinity -Brethia
BeatmapID:3398165
BeatmapSetID:1664606

[Difficulty]
HPDrainRate:5
CircleSize:3.8
OverallDifficulty:8.8
ApproachRate:9.3
SliderMultiplier:1.72
SliderTickRate:1

[Events]
//Background and Video events
0,0,"BG MORATOOOO.jpg",0,0
//Break Periods
//Storyboard Layer 0 (Background)
//Storyboard Layer 1 (Fail)
//Storyboard Layer 2 (Pass)
//Storyboard Layer 3 (Foreground)
//Storyboard Layer 4 (Overlay)
//Storyboard Sound Samples

[TimingPoints]
-345,394.736842105263,3,2,5,50,1,0
839,-133.333333333333,3,2,5,50,0,0
1135,-133.333333333333,3,2,5,5,0,0
1233,-133.333333333333,3,2,5,50,0,0
2319,-133.333333333333,3,2,5,5,0,0
2418,-133.333333333333,3,2,5,50,0,0
3503,-133.333333333333,3,2,5,5,0,0
3602,-133.333333333333,3,2,5,50,0,0
4687,-133.333333333333,3,2,5,5,0,0
4786,-117.647058823529,3,2,5,50,0,0
5082,-117.647058823529,3,2,5,5,0,0
5181,-105.263157894737,3,2,5,50,0,0
5477,-105.263157894737,3,2,5,5,0,0
5576,-133.333333333333,3,2,5,50,0,0
7056,-133.333333333333,3,2,5,5,0,0
7154,-133.333333333333,3,2,5,50,0,0
29260,344.827586206897,4,2,1,70,1,0
29260,-133.333333333333,4,2,1,70,0,0
30984,-100,4,2,1,70,0,0
31156,-100,4,2,1,70,0,0
31328,-100,4,2,1,70,0,0
33397,-76.9230769230769,4,2,1,70,0,0
33656,-76.9230769230769,4,2,1,5,0,0
33742,-76.9230769230769,4,2,1,70,0,0
34087,-71.4285714285714,4,2,1,70,0,0
34346,-71.4285714285714,4,2,1,5,0,0
34432,-66.6666666666667,4,2,1,70,0,0
34691,-66.6666666666667,4,2,1,5,0,0
34777,-90.9090909090909,4,2,1,70,0,0
37104,-90.9090909090909,4,2,1,5,0,0
37191,-90.9090909090909,4,2,1,70,0,0
40294,-90.9090909090909,4,2,2,70,0,0
40553,-90.9090909090909,4,2,1,5,0,0
40639,-90.9090909090909,4,2,1,70,0,0
45811,-90.9090909090909,4,2,1,70,0,0
47191,-83.3333333333333,4,2,1,70,0,0
47277,-83.3333333333333,4,2,1,5,0,0
48570,-83.3333333333333,4,2,1,70,0,0
48656,-83.3333333333333,4,2,1,5,0,0
49949,-83.3333333333333,4,2,1,70,0,0
50035,-83.3333333333333,4,2,1,5,0,0
50122,-83.3333333333333,4,2,1,70,0,0
50208,-83.3333333333333,4,2,1,5,0,0
50294,-83.3333333333333,4,2,1,70,0,0
50553,-83.3333333333333,4,2,1,5,0,0
50639,-83.3333333333333,4,2,1,70,0,0
50897,-83.3333333333333,4,2,1,5,0,0
50984,-66.6666666666667,4,2,1,70,0,0
51242,-66.6666666666667,4,2,1,5,0,0
51328,-100,4,2,1,60,0,0
54087,-76.9230769230769,4,2,1,60,0,0
54777,-100,4,2,1,60,0,0
56846,-90.9090909090909,4,2,1,70,0,0
57622,-90.9090909090909,4,2,1,5,0,0
57708,-90.9090909090909,4,2,1,70,0,0
58053,-76.9230769230769,4,2,2,70,0,0
58311,-76.9230769230769,4,2,1,5,0,0
58397,-76.9230769230769,4,2,1,70,0,0
58828,-76.9230769230769,4,2,1,5,0,0
58915,-76.9230769230769,4,2,1,70,0,0
59260,-200,4,2,1,70,0,0
59518,-200,4,2,1,5,0,0
59604,-95.2380952380952,4,2,1,70,0,0
65035,-95.2380952380952,4,2,1,5,0,0
65122,-95.2380952380952,4,2,1,70,0,0
67191,-95.2380952380952,4,2,1,70,0,0
67277,-95.2380952380952,4,2,1,5,0,0
67363,-95.2380952380952,4,2,1,70,0,0
67449,-95.2380952380952,4,2,1,5,0,0
67535,-95.2380952380952,4,2,1,70,0,0
73397,-200,4,2,1,50,0,0
73656,-200,4,2,1,5,0,0
73742,-66.6666666666667,4,2,1,70,0,0
74001,-66.6666666666667,4,2,1,5,0,0
74087,-200,4,2,1,50,0,0
74346,-200,4,2,1,5,0,0
74432,-66.6666666666667,4,2,1,70,0,0
74691,-66.6666666666667,4,2,1,5,0,0
74777,-200,4,2,1,50,0,0
75035,-200,4,2,1,5,0,0
75122,-66.6666666666667,4,2,1,70,0,0
75380,-66.6666666666667,4,2,1,5,0,0
75466,-200,4,2,1,50,0,0
75725,-200,4,2,1,5,0,0
75811,-66.6666666666667,4,2,1,70,0,0
76070,-66.6666666666667,4,2,1,5,0,0
76156,-66.6666666666667,4,2,1,70,0,0
77363,-66.6666666666667,4,2,2,70,0,0
77622,-66.6666666666667,4,2,1,5,0,0
77708,-66.6666666666667,4,2,1,70,0,0
78225,-200,4,2,1,70,0,0
78311,-200,4,2,1,40,0,0
78570,-133.333333333333,4,2,1,40,0,0
78915,-66.6666666666667,4,2,1,80,0,1
79173,-66.6666666666667,4,2,1,5,0,1
79260,-83.3333333333333,4,2,1,80,0,1
84863,-83.3333333333333,4,2,1,5,0,1
84949,-83.3333333333333,4,2,1,80,0,1
85294,-83.3333333333333,4,2,1,80,0,1
85380,-83.3333333333333,4,2,1,5,0,1
85466,-83.3333333333333,4,2,1,80,0,1
86242,-83.3333333333333,4,2,1,5,0,1
86328,-83.3333333333333,4,2,1,80,0,1
86760,-83.3333333333333,4,2,1,5,0,1
86846,-83.3333333333333,4,2,1,80,0,1
89949,-66.6666666666667,4,2,1,80,0,1
90208,-66.6666666666667,4,2,1,5,0,1
90294,-83.3333333333333,4,2,1,80,0,1
95725,-83.3333333333333,4,2,1,5,0,1
95811,-83.3333333333333,4,2,1,80,0,1
96415,-83.3333333333333,4,2,1,5,0,1
96501,-83.3333333333333,4,2,1,80,0,1
97104,-83.3333333333333,4,2,1,5,0,1
97191,-83.3333333333333,4,2,1,80,0,1
97794,-83.3333333333333,4,2,1,5,0,1
97880,-83.3333333333333,4,2,1,80,0,1
98484,-83.3333333333333,4,2,1,5,0,1
98570,-83.3333333333333,4,2,1,80,0,1
100984,-90.9090909090909,4,2,1,70,0,0
103311,-90.9090909090909,4,2,1,5,0,0
103397,-90.9090909090909,4,2,1,70,0,0
106501,-90.9090909090909,4,2,2,70,0,0
106760,-90.9090909090909,4,2,1,5,0,0
106846,-90.9090909090909,4,2,1,70,0,0
108828,-90.9090909090909,4,2,1,5,0,0
108915,-90.9090909090909,4,2,1,70,0,0
112191,-133.333333333333,4,2,1,50,0,0
113397,-83.3333333333333,4,2,1,70,0,0
113484,-133.333333333333,4,2,1,5,0,0
113570,-133.333333333333,4,2,1,50,0,0
114777,-83.3333333333333,4,2,1,70,0,0
114863,-83.3333333333333,4,2,1,5,0,0
114949,-133.333333333333,4,2,1,50,0,0
116156,-83.3333333333333,4,2,1,70,0,0
116501,-83.3333333333333,4,2,1,70,0,0
116587,-83.3333333333333,4,2,1,5,0,0
116673,-83.3333333333333,4,2,1,70,0,0
116760,-83.3333333333333,4,2,1,5,0,0
116846,-83.3333333333333,4,2,1,70,0,0
117104,-83.3333333333333,4,2,1,5,0,0
117191,-66.6666666666667,4,2,2,70,0,0
117449,-66.6666666666667,4,2,2,5,0,0
117535,-100,4,2,1,60,0,0
120294,-76.9230769230769,4,2,1,60,0,0
120984,-76.9230769230769,4,2,1,60,0,0
121070,-76.9230769230769,4,2,1,5,0,0
121156,-76.9230769230769,4,2,1,60,0,0
121242,-76.9230769230769,4,2,1,5,0,0
121328,-76.9230769230769,4,2,1,60,0,0
121415,-76.9230769230769,4,2,1,5,0,0
121501,-76.9230769230769,4,2,1,60,0,0
121587,-76.9230769230769,4,2,1,5,0,0
121673,-100,4,2,1,60,0,0
123053,-90.9090909090909,4,2,1,70,0,0
123828,-90.9090909090909,4,2,1,5,0,0
123915,-90.9090909090909,4,2,1,70,0,0
124260,-76.9230769230769,4,2,2,70,0,0
124518,-76.9230769230769,4,2,1,5,0,0
124604,-76.9230769230769,4,2,1,70,0,0
125122,-76.9230769230769,4,2,2,70,0,0
125208,-76.9230769230769,4,2,1,70,0,0
125811,-95.2380952380952,4,2,1,70,0,0
131242,-95.2380952380952,4,2,1,5,0,0
131328,-95.2380952380952,4,2,1,70,0,0
133397,-95.2380952380952,4,2,1,70,0,0
133484,-95.2380952380952,4,2,1,5,0,0
133570,-95.2380952380952,4,2,1,70,0,0
133656,-95.2380952380952,4,2,1,70,0,0
133742,-95.2380952380952,4,2,1,70,0,0
139604,-200,4,2,1,70,0,0
139863,-200,4,2,1,5,0,0
139949,-66.6666666666667,4,2,1,70,0,0
140294,-200,4,2,1,70,0,0
140639,-66.6666666666667,4,2,1,70,0,0
140984,-200,4,2,1,70,0,0
141328,-66.6666666666667,4,2,1,70,0,0
141673,-200,4,2,1,70,0,0
142018,-66.6666666666667,4,2,1,70,0,0
142363,-333.333333333333,4,2,1,70,0,0
142708,-50,4,2,1,70,0,0
143053,-66.6666666666667,4,2,1,70,0,0
143570,-66.6666666666667,4,2,2,70,0,0
143828,-66.6666666666667,4,2,2,5,0,0
143915,-66.6666666666667,4,2,1,70,0,0
145122,-66.6666666666667,4,2,1,80,0,1
145380,-66.6666666666667,4,2,1,5,0,1
145466,-83.3333333333333,4,2,1,80,0,1
151587,-83.3333333333333,4,2,1,5,0,1
151673,-83.3333333333333,4,2,1,80,0,1
152966,-83.3333333333333,4,2,1,5,0,1
153053,-83.3333333333333,4,2,1,80,0,1
156156,-66.6666666666667,4,2,1,80,0,1
156415,-66.6666666666667,4,2,1,5,0,1
156501,-83.3333333333333,4,2,1,80,0,1
159863,-83.3333333333333,4,2,1,5,0,1
159949,-83.3333333333333,4,2,1,80,0,1
160466,-83.3333333333333,4,2,1,5,0,1
160553,-83.3333333333333,4,2,1,80,0,1
160897,-83.3333333333333,4,2,1,5,0,1
160984,-83.3333333333333,4,2,1,80,0,1
162622,-83.3333333333333,4,2,1,5,0,1
162708,-83.3333333333333,4,2,1,80,0,1
164001,-83.3333333333333,4,2,1,5,0,1
164087,-83.3333333333333,4,2,1,80,0,1
164691,-83.3333333333333,4,2,1,5,0,1
164777,-83.3333333333333,4,2,1,80,0,1
167191,-90.9090909090909,4,2,1,70,0,0
169518,-90.9090909090909,4,2,1,5,0,0
169604,-90.9090909090909,4,2,1,70,0,0
172363,-76.9230769230769,4,2,1,70,0,0
172708,-76.9230769230769,4,2,2,70,0,0
172966,-76.9230769230769,4,2,1,5,0,0
173053,-90.9090909090909,4,2,1,70,0,0
173656,-90.9090909090909,4,2,1,5,0,0
173742,-90.9090909090909,4,2,1,70,0,0
175035,-90.9090909090909,4,2,1,5,0,0
175122,-90.9090909090909,4,2,1,70,0,0
178225,-100,4,2,1,60,0,0
178484,-100,4,2,1,5,0,0
178570,-100,4,2,1,60,0,0
179173,-100,4,2,1,5,0,0
179260,-100,4,2,1,60,0,0
180294,-83.3333333333333,4,2,1,60,0,0
180639,-76.9230769230769,4,2,1,60,0,0
180984,-100,4,2,1,60,0,0
181673,-83.3333333333333,4,2,1,60,0,0
181932,-83.3333333333333,4,2,1,5,0,0
182018,-83.3333333333333,4,2,1,60,0,0
182449,-83.3333333333333,4,2,1,5,0,0
182535,-83.3333333333333,4,2,1,60,0,0
182622,-83.3333333333333,4,2,1,5,0,0
182708,-83.3333333333333,4,2,1,60,0,0
183742,-100,4,2,1,60,0,0
184001,-100,4,2,1,5,0,0
184087,-100,4,2,1,60,0,0
184432,-76.9230769230769,4,2,1,60,0,0
184691,-76.9230769230769,4,2,1,5,0,0
184777,-100,4,2,1,60,0,0
185725,-100,4,2,1,5,0,0
185811,-100,4,2,1,60,0,0
186501,-100,4,2,2,60,0,0
186846,-100,4,2,1,60,0,0
187191,-76.9230769230769,4,2,1,60,0,0
187449,-76.9230769230769,4,2,1,5,0,0
187535,-76.9230769230769,4,2,1,60,0,0
187622,-76.9230769230769,4,2,1,5,0,0
187708,-76.9230769230769,4,2,1,60,0,0
187966,-76.9230769230769,4,2,1,5,0,0
188053,-76.9230769230769,4,2,1,60,0,0
189604,-100,4,2,1,60,0,0
192966,-100,4,2,1,5,0,0
193053,-100,4,2,1,60,0,0
193225,-76.9230769230769,4,2,1,60,0,0
193484,-76.9230769230769,4,2,1,5,0,0
193570,-76.9230769230769,4,2,1,60,0,0
193656,-76.9230769230769,4,2,1,5,0,0
193742,-76.9230769230769,4,2,1,60,0,0
194001,-76.9230769230769,4,2,1,5,0,0
194087,-76.9230769230769,4,2,1,60,0,0
195122,-100,4,2,1,60,0,0
197794,-100,4,2,1,5,0,0
197880,-100,4,2,1,60,0,0
198225,-76.9230769230769,4,2,1,60,0,0
198484,-76.9230769230769,4,2,1,5,0,0
198570,-76.9230769230769,4,2,1,60,0,0
198656,-76.9230769230769,4,2,1,5,0,0
198742,-76.9230769230769,4,2,1,60,0,0
199001,-76.9230769230769,4,2,1,5,0,0
199087,-76.9230769230769,4,2,1,60,0,0
199518,-76.9230769230769,4,2,1,5,0,0
199604,-76.9230769230769,4,2,1,60,0,0
200294,-95.2380952380952,4,2,2,70,0,0
200466,-95.2380952380952,4,2,1,70,0,0
204432,-80,4,2,1,70,0,0
204691,-80,4,2,1,5,0,0
204777,-80,4,2,1,70,0,0
205035,-80,4,2,1,5,0,0
205122,-80,4,2,1,70,0,0
205811,-95.2380952380952,4,2,1,70,0,0
209777,-80,4,2,1,70,0,0
210035,-80,4,2,1,5,0,0
210122,-80,4,2,1,70,0,0
210208,-80,4,2,1,5,0,0
210294,-80,4,2,1,70,0,0
210380,-80,4,2,1,5,0,0
210466,-80,4,2,1,70,0,0
210553,-80,4,2,1,5,0,0
210639,-80,4,2,1,70,0,0
211328,-333.333333333333,4,2,1,70,0,0
211760,-333.333333333333,4,2,1,5,0,0
211846,-133.333333333333,4,2,1,70,0,0
212104,-133.333333333333,4,2,1,5,0,0
212191,-100,4,2,1,70,0,0
212449,-100,4,2,1,5,0,0
212535,-76.9230769230769,4,2,2,70,0,0
212794,-76.9230769230769,4,2,2,5,0,0
212880,-76.9230769230769,4,2,1,70,0,0
214087,-95.2380952380952,4,2,1,70,0,0
221673,-95.2380952380952,4,2,1,70,0,0
221760,-95.2380952380952,4,2,1,5,0,0
221846,-95.2380952380952,4,2,1,70,0,0
221932,-95.2380952380952,4,2,1,5,0,0
222018,-80,4,2,1,70,0,0
222363,-95.2380952380952,4,2,1,70,0,0
222622,-95.2380952380952,4,2,1,5,0,0
222708,-95.2380952380952,4,2,1,70,0,0
227880,-86.9565217391304,4,2,2,70,0,0
228225,-66.6666666666667,4,2,1,70,0,0
228570,-80,4,2,1,70,0,0
228915,-66.6666666666667,4,2,1,70,0,0
229260,-133.333333333333,4,2,1,70,0,0
229604,-66.6666666666667,4,2,1,70,0,0
229949,-100,4,2,1,70,0,0
230294,-66.6666666666667,4,2,1,70,0,0
232880,-66.6666666666667,4,2,1,70,0,0
233053,-76.9230769230769,4,2,1,70,0,0
233225,-83.3333333333333,4,2,1,70,0,0
233397,-90.9090909090909,4,2,2,70,0,1
233484,-90.9090909090909,4,2,1,70,0,0
233742,-66.6666666666667,4,2,1,70,0,0
233828,-66.6666666666667,4,2,1,5,0,0
233915,-66.6666666666667,4,2,2,70,0,0
234001,-66.6666666666667,4,2,1,5,0,0
234260,-66.6666666666667,4,2,2,70,0,0
234518,-66.6666666666667,4,2,2,5,0,0
234604,-66.6666666666667,4,2,1,70,0,0
234777,-66.6666666666667,4,2,2,70,0,0
234949,-66.6666666666667,4,2,1,70,0,0
235294,-83.3333333333333,4,2,1,70,0,0
236156,-66.6666666666667,4,2,1,80,0,1
236415,-66.6666666666667,4,2,1,5,0,1
236501,-83.3333333333333,4,2,1,80,0,1
239777,-83.3333333333333,4,2,1,80,0,1
239863,-83.3333333333333,4,2,1,5,0,1
239949,-83.3333333333333,4,2,1,80,0,1
241242,-83.3333333333333,4,2,1,5,0,1
241328,-83.3333333333333,4,2,1,80,0,1
244432,-66.6666666666667,4,2,1,80,0,1
244691,-66.6666666666667,4,2,1,5,0,1
244777,-83.3333333333333,4,2,1,80,0,1
248053,-83.3333333333333,4,2,1,5,0,1
248139,-66.6666666666667,4,2,1,80,0,1
248311,-66.6666666666667,4,2,1,5,0,1
248397,-66.6666666666667,4,2,1,80,0,1
248484,-66.6666666666667,4,2,1,5,0,1
248570,-66.6666666666667,4,2,1,80,0,1
249604,-83.3333333333333,4,2,1,80,0,1
254777,-66.6666666666667,4,2,1,80,0,1
255122,-58.8235294117647,4,2,1,80,0,1
255466,-83.3333333333333,4,2,1,50,0,0
255553,-83.3333333333333,4,2,1,5,0,0
255811,-66.6666666666667,4,2,1,80,0,1
256156,-83.3333333333333,4,2,1,80,0,1
258225,-66.6666666666667,4,2,1,80,0,1
258570,-83.3333333333333,4,2,1,80,0,1
261932,-83.3333333333333,4,2,1,5,0,1
262018,-83.3333333333333,4,2,1,80,0,1
263311,-83.3333333333333,4,2,1,5,0,1
263397,-83.3333333333333,4,2,1,80,0,1
265122,-66.6666666666667,4,2,1,80,0,1
265466,-62.5,4,2,1,80,0,1
265811,-58.8235294117647,4,2,1,80,0,1
266156,-50,4,2,1,80,0,1
266415,-50,4,2,1,5,0,1
266501,-66.6666666666667,4,2,1,80,0,1
266760,-66.6666666666667,4,2,1,5,0,1
266846,-83.3333333333333,4,2,1,80,0,1
270639,-66.6666666666667,4,2,1,80,0,1
270811,-66.6666666666667,4,2,1,5,0,1
270897,-66.6666666666667,4,2,1,80,0,1
271070,-66.6666666666667,4,2,1,5,0,1
271156,-66.6666666666667,4,2,1,80,0,1
271242,-66.6666666666667,4,2,1,5,0,1
271328,-66.6666666666667,4,2,1,80,0,1
271673,-83.3333333333333,4,2,1,80,0,1
274087,-66.6666666666667,4,2,1,80,0,1
274346,-66.6666666666667,4,2,1,5,0,1
274432,-66.6666666666667,4,2,1,80,0,1
274777,-83.3333333333333,4,2,1,80,0,1
275035,-83.3333333333333,4,2,1,5,0,1
275122,-83.3333333333333,4,2,1,80,0,1
277535,-90.9090909090909,4,2,1,70,0,0
279863,-90.9090909090909,4,2,1,5,0,0
279949,-90.9090909090909,4,2,1,70,0,0
283053,-90.9090909090909,4,2,2,70,0,0
283311,-90.9090909090909,4,2,1,5,0,0
283397,-90.9090909090909,4,2,1,70,0,0
285380,-90.9090909090909,4,2,1,5,0,0
285466,-90.9090909090909,4,2,1,70,0,0
288570,344.827586206897,3,2,5,50,1,0
296673,-100,3,2,5,5,0,0
296845,-100,3,2,5,50,0,0
301328,-83.3333333333333,3,2,5,50,0,0

[Colours]
Combo1 : 255,185,220
Combo2 : 255,204,153
Combo3 : 222,190,190
Combo4 : 255,255,157

[HitObjects]
161,56,641,6,0,L|156:27,2,28.6666666666667,2|2|2,0:0|0:0|0:0,0:0:0:0:
178,157,839,6,0,P|138:132|90:132,1,96.7500036907198,4|0,3:2|0:0,0:0:0:0:
80,138,1233,2,0,P|68:109|69:74,1,64.5000024604798,2|0,0:0|0:0,0:0:0:0:
55,236,1628,2,0,P|25:224|0:198,1,64.5000024604798,2|0,0:0|0:0,0:0:0:0:
153,343,2023,6,0,P|154:294|162:246,1,96.7500036907198
166,240,2418,2,0,P|198:240|227:228,1,64.5000024604798,2|0,0:0|0:0,0:0:0:0:
302,322,2812,2,0,P|293:319|282:316,5,21.5000008201599,2|2|2|2|2|2,0:0|0:0|0:0|0:0|0:0|0:0,0:0:0:0:
315,326,3207,6,0,P|360:307|408:309,1,96.7500036907198,0|0,0:3|0:0,0:0:0:0:
416,314,3602,2,0,P|424:279|417:245,1,64.5000024604798,2|0,0:0|0:0,0:0:0:0:
512,209,3997,2,0,P|492:178|463:159,1,64.5000024604798,2|0,0:0|0:3,0:3:0:0:
368,30,4391,6,0,P|371:78|379:126,1,96.7500036907198,2|0,3:2|0:0,0:0:0:0:
340,191,4786,6,0,P|285:187|260:140,1,109.650002091408,2|0,3:2|0:0,0:0:0:0:
199,81,5181,6,0,P|141:74|95:117,1,122.549996727562,2|0,3:2|0:0,0:0:0:0:
64,222,5576,5,2,3:2:0:0:
64,222,5970,2,0,L|127:213,1,64.5000024604798,2|0,0:0|0:0,0:0:0:0:
36,325,6365,2,0,L|99:316,1,64.5000024604798,2|0,0:0|0:0,0:0:0:0:
218,379,6760,6,0,P|202:333|212:287,1,96.7500036907198,0|0,0:3|0:0,0:0:0:0:
218,281,7154,2,0,L|209:217,1,64.5000024604798,2|0,0:0|0:0,0:0:0:0:
359,274,7549,1,2,0:0:0:0:
345,349,7747,1,2,0:0:0:0:
340,191,7944,5,2,0:0:0:0:
442,252,8141,1,0,0:0:0:0:
329,190,8339,5,2,0:0:0:0:
428,141,8536,1,0,0:0:0:0:
317,191,8733,5,2,0:0:0:0:
335,103,8931,1,0,0:0:0:0:
133,163,9128,6,0,L|106:171,6,21.5000008201599,2|2|2|2|2|2|2,0:0|0:0|0:0|0:0|0:0|0:0|0:0,0:0:0:0:
341,101,9918,1,2,3:2:0:0:
93,25,10312,5,4,3:2:0:0:
93,25,10707,2,0,P|124:30|156:38,1,64.5000024604798,2|0,0:0|0:0,0:0:0:0:
133,163,11102,2,0,P|159:144|186:127,1,64.5000024604798,2|0,0:0|0:0,0:0:0:0:
53,229,11497,6,0,P|66:258|77:289,1,64.5000024604798,2|0,0:0|0:0,0:0:0:0:
180,259,11891,2,0,P|177:291|171:323,1,64.5000024604798,2|0,0:3|0:0,0:0:0:0:
278,334,12286,2,0,P|258:359|237:384,1,64.5000024604798,2|0,0:0|0:0,0:0:0:0:
340,191,12681,6,0,L|488:218,2,129.00000492096,2|2|2,0:0|0:3|0:0,0:0:0:0:
156,37,13865,6,0,P|186:26|218:23,1,64.5000024604798,2|0,3:2|0:0,0:0:0:0:
168,181,14260,2,0,P|143:160|124:134,1,64.5000024604798,2|0,0:0|0:0,0:0:0:0:
287,99,14654,2,0,P|281:130|268:159,1,64.5000024604798,2|0,0:0|0:0,0:0:0:0:
170,321,15049,6,0,P|201:274|271:249,1,129.00000492096,2|2,3:2|0:3,0:0:0:0:
377,354,15641,1,0,0:0:0:0:
374,207,15839,2,0,P|361:236|355:268,1,64.5000024604798,2|0,0:0|0:0,0:0:0:0:
351,27,16233,6,0,P|369:53|381:84,1,64.5000024604798,2|0,0:0|0:0,0:0:0:0:
286,99,16628,2,0,P|280:130|267:159,1,64.5000024604798,2|0,0:3|0:0,0:0:0:0:
189,102,17023,2,0,P|163:120|133:132,1,64.5000024604798,2|0,0:0|0:0,0:0:0:0:
0,217,17418,6,0,P|62:214|104:259,1,129.00000492096,2|2,0:2|0:3,0:0:0:0:
116,349,18010,1,0,0:0:0:0:
267,250,18207,6,0,L|263:282,6,21.5000008201599,2|2|2|2|2|2|2,0:0|0:0|0:0|0:0|0:0|0:0|0:0,0:0:0:0:
267,250,18997,6,0,L|204:263,1,64.5000024604798,2|0,3:2|0:0,0:0:0:0:
431,146,19391,2,0,L|494:133,1,64.5000024604798,2|0,3:2|0:0,0:0:0:0:
376,352,19786,6,0,P|355:293|366:230,1,129.00000492096,4|2,0:2|0:0,0:0:0:0:
431,146,20378,1,0,0:0:0:0:
324,153,20576,2,0,P|288:146|262:129,1,64.5000024604798,2|0,0:0|0:0,0:0:0:0:
184,6,20970,6,0,P|194:36|195:68,1,64.5000024604798,2|0,0:0|0:0,0:0:0:0:
176,158,21365,2,0,P|161:186|140:210,1,64.5000024604798,2|0,0:3|0:3,0:3:0:0:
62,261,21760,2,0,P|31:271|0:272,1,64.5000024604798,2|0,0:0|0:3,0:3:0:0:
151,338,22154,6,0,L|137:192,2,129.00000492096,0|2|2,0:0|0:3|0:0,0:0:0:0:
418,286,23339,6,0,P|428:255|427:223,1,64.5000024604798
290,202,23733,2,0,P|311:226|339:241,1,64.5000024604798,2|0,0:3|0:0,0:0:0:0:
426,133,24128,2,0,P|394:139|366:155,1,64.5000024604798,2|0,0:0|0:0,0:0:0:0:
181,39,24523,6,0,B|255:45|224:85|295:90,1,129.00000492096,2|2,3:2|0:3,0:0:0:0:
301,6,25115,1,0,0:0:0:0:
176,123,25312,2,0,P|145:128|113:135,1,64.5000024604798,2|0,0:0|0:0,0:0:0:0:
18,245,25707,6,0,P|44:265|65:290,1,64.5000024604798,2|0,0:0|0:0,0:0:0:0:
165,211,26102,2,0,P|170:242|167:275,1,64.5000024604798,2|0,0:3|0:0,0:0:0:0:
285,307,26497,2,0,P|265:332|240:353,1,64.5000024604798,2|0,0:0|0:0,0:0:0:0:
390,109,26891,6,0,L|394:133,18,21.5000008201599,2|2|2|2|2|2|2|2|2|2|2|2|2|2|2|2|2|2|2,0:0|0:0|0:0|0:0|0:0|0:0|0:0|0:0|0:0|0:0|0:0|0:0|0:0|0:0|0:0|0:0|0:0|0:0|0:0,0:0:0:0:
270,210,28470,5,2,3:2:0:0:
444,272,28865,5,2,3:2:0:0:
256,49,29260,5,12,0:1:0:0:
256,49,29432,1,8,0:1:0:0:
182,234,29604,5,2,0:3:0:0:
126,154,29777,1,0,3:0:0:0:
126,154,29863,2,0,P|161:146|204:134,1,64.5000024604798,2|2,0:3|0:3,0:0:0:0:
265,172,30122,2,0,L|261:210,1,32.2500012302399,0|0,3:0|0:0,0:0:0:0:
256,291,30294,1,2,0:3:0:0:
374,165,30466,5,10,0:1:0:0:
182,234,30639,1,10,0:1:0:0:
259,44,30811,5,0,0:0:0:0:
259,44,30984,2,0,L|263:86,1,43,2|0,0:3|0:0,0:0:0:0:
338,4,31156,2,0,L|342:46,1,43,2|2,3:2|0:3,0:0:0:0:
188,138,31328,1,0,3:2:0:0:
185,116,31414,1,2,0:3:0:0:
183,95,31500,1,0,3:0:0:0:
261,204,31673,1,2,0:3:0:0:
91,164,31846,1,10,0:1:0:0:
193,366,32018,5,8,0:1:0:0:
193,366,32191,2,0,L|186:268,1,86,2|0,0:0|0:0,0:0:0:0:
342,36,32535,5,2,0:0:0:0:
335,131,32708,2,0,L|341:45,1,86,10|0,0:1|0:0,0:0:0:0:
406,248,33053,5,2,0:0:0:0:
188,138,33225,1,2,0:0:0:0:
290,350,33397,6,0,B|330:293|300:226|300:226|270:248,1,167.699992323304,10|0,0:1|0:0,0:0:0:0:
186,280,33742,5,10,0:1:0:0:
406,230,33915,1,2,0:0:0:0:
188,138,34087,6,0,B|121:153|121:153|97:190|97:190|28:210,1,180.599994488526,10|0,0:1|0:0,0:0:0:0:
121,44,34432,6,0,P|209:54|203:141,1,193.50000738144,12|0,0:0|0:0,0:0:0:0:
290,350,34777,6,0,P|293:302|298:255,1,94.600002886963,12|2,0:1|0:0,0:0:0:0:
342,71,35122,1,8,0:0:0:0:
188,138,35294,1,2,0:0:0:0:
406,230,35466,2,0,P|452:219|498:209,1,94.600002886963,8|2,0:1|0:0,0:0:0:0:
328,54,35811,1,8,0:0:0:0:
298,255,35984,1,2,0:0:0:0:
188,138,36156,5,8,0:1:0:0:
406,230,36328,1,2,0:0:0:0:
195,299,36501,2,0,P|151:291|98:283,1,94.600002886963,8|0,0:0|0:0,0:0:0:0:
301,377,36846,2,0,P|304:306|313:235,1,141.900004330444,10|0,0:1|0:0,0:0:0:0:
325,151,37191,5,10,0:0:0:0:
325,151,37277,1,2,0:0:0:0:
325,151,37363,1,2,0:0:0:0:
325,151,37449,1,2,0:0:0:0:
325,151,37535,2,0,P|278:157|231:164,1,94.600002886963,10|0,0:1|0:0,0:0:0:0:
76,78,37880,1,8,0:0:0:0:
76,78,37966,1,2,0:0:0:0:
76,78,38053,2,0,B|71:126,1,47.3000014434815,2|2,0:0|0:0,0:0:0:0:
6,308,38225,5,10,0:1:0:0:
32,285,38311,1,2,0:0:0:0:
66,276,38397,1,2,0:0:0:0:
101,283,38483,1,2,0:0:0:0:
129,304,38569,1,10,0:0:0:0:
158,324,38656,1,2,0:0:0:0:
192,332,38742,1,2,0:0:0:0:
226,322,38828,1,2,0:0:0:0:
253,301,38915,6,0,P|255:275|258:252,1,47.3000014434815,10|0,0:1|0:0,0:0:0:0:
162,182,39087,2,0,P|160:158|157:134,1,47.3000014434815,2|2,0:0|0:0,0:0:0:0:
249,47,39260,6,0,P|273:53|295:55,1,47.3000014434815,10|2,0:0|0:0,0:0:0:0:
156,193,39432,2,0,P|132:196|109:201,1,47.3000014434815,2|2,0:0|0:0,0:0:0:0:
345,333,39604,5,10,0:1:0:0:
345,333,39691,1,2,0:0:0:0:
345,333,39777,2,0,B|335:257,1,47.3000014434815,2|2,0:0|0:0,0:0:0:0:
405,156,39949,1,10,0:0:0:0:
365,130,40035,1,2,0:0:0:0:
317,126,40121,1,2,0:0:0:0:
275,144,40207,1,2,0:0:0:0:
246,181,40294,6,0,L|227:38,1,141.900004330444,6|0,0:0|0:0,0:0:0:0:
225,27,40639,1,8,0:0:0:0:
109,201,40811,1,2,0:0:0:0:
32,70,40984,2,0,B|80:65|80:65|126:93,1,94.600002886963,8|2,0:1|0:0,0:0:0:0:
43,277,41328,1,8,0:0:0:0:
246,181,41501,1,2,0:0:0:0:
202,360,41673,6,0,L|190:258,1,94.600002886963,8|2,0:1|0:0,0:0:0:0:
372,131,42018,2,0,L|360:224,1,94.600002886963,8|0,0:0|0:0,0:0:0:0:
452,47,42363,2,0,P|392:10|324:22,1,141.900004330444,10|0,0:1|0:0,0:0:0:0:
256,90,42708,5,10,0:0:0:0:
256,90,42794,1,2,0:0:0:0:
256,90,42880,1,2,0:0:0:0:
256,90,42966,1,2,0:0:0:0:
256,90,43052,2,0,L|145:74,1,94.600002886963,10|0,0:1|0:0,0:0:0:0:
86,105,43311,1,2,0:0:0:0:
86,104,43398,2,0,P|70:148|81:194,1,94.600002886963,8|0,0:0|0:0,0:0:0:0:
149,254,43656,5,2,0:0:0:0:
149,254,43742,2,0,L|141:321,1,47.3000014434815,10|2,0:1|0:0,0:0:0:0:
250,360,43915,2,0,L|244:313,1,47.3000014434815,2|2,0:0|0:0,0:0:0:0:
313,168,44087,6,0,L|377:179,1,47.3000014434815,10|2,0:0|0:0,0:0:0:0:
399,277,44260,2,0,L|446:286,1,47.3000014434815,2|2,0:0|0:0,0:0:0:0:
503,110,44432,5,10,1:0:0:0:
503,110,44518,1,8,0:0:0:0:
312,259,44691,5,8,0:0:0:0:
312,259,44778,1,10,1:0:0:0:
212,67,44949,5,10,0:0:0:0:
212,67,45035,1,10,0:0:0:0:
34,208,45208,5,10,0:0:0:0:
34,208,45294,1,10,0:0:0:0:
290,149,45466,5,10,1:0:0:0:
93,33,45639,1,10,0:1:0:0:
149,254,45811,1,12,0:0:0:0:
381,45,47191,6,0,L|374:96,1,51.599998425293,10|0,0:1|0:0,0:0:0:0:
149,254,48570,6,0,L|155:305,1,51.599998425293,10|0,0:1|0:0,0:0:0:0:
381,45,49949,6,0,L|374:96,1,51.599998425293,10|0,0:1|0:0,0:0:0:0:
300,167,50122,2,0,L|306:218,1,51.599998425293,2|0,0:0|0:0,0:0:0:0:
204,61,50294,6,0,P|134:66|142:135,1,154.799995275879,10|0,0:1|0:0,0:0:0:0:
44,218,50639,6,0,B|105:225|105:225|131:254|131:254|184:262,1,154.799995275879,10|0,0:1|0:0,0:0:0:0:
344,302,50984,6,0,B|291:343|291:343|306:217,1,193.50000738144,14|0,0:0|0:0,0:0:0:0:
461,152,51328,6,0,B|473:237,1,86,12|2,0:1|0:0,0:0:0:0:
398,51,51673,2,0,P|443:47|485:36,1,86,8|2,0:1|0:0,0:0:0:0:
299,136,52018,5,8,0:1:0:0:
275,7,52191,1,2,0:0:0:0:
292,142,52363,1,8,0:0:0:0:
266,4,52536,1,2,0:0:0:0:
76,161,52708,5,8,0:1:0:0:
214,85,52880,1,2,0:0:0:0:
130,36,53053,1,8,0:1:0:0:
237,216,53225,1,2,0:0:0:0:
266,4,53397,5,8,0:1:0:0:
162,161,53570,1,2,0:0:0:0:
337,227,53742,1,8,0:0:0:0:
214,85,53915,1,2,0:0:0:0:
208,325,54087,6,0,L|97:311,1,111.799994882202,10|2,0:1|0:0,0:0:0:0:
225,216,54346,1,2,0:0:0:0:
162,160,54432,6,0,P|143:211|157:265,1,111.799994882202,10|2,0:1|0:0,0:0:0:0:
292,294,54691,1,2,0:0:0:0:
337,227,54777,6,0,L|433:220,1,86,10|2,0:1|0:0,0:0:0:0:
300,88,55122,1,10,0:0:0:0:
487,139,55294,1,2,0:0:0:0:
421,6,55466,5,8,0:1:0:0:
337,227,55639,1,2,0:0:0:0:
209,30,55811,1,10,0:1:0:0:
391,122,55984,1,2,0:0:0:0:
237,216,56156,5,8,0:1:0:0:
307,3,56328,1,0,3:0:0:0:
307,3,56501,2,0,P|302:47|300:88,1,86,8|0,0:0|0:0,0:0:0:0:
63,53,56846,5,10,1:0:0:0:
63,53,57363,2,0,B|94:97|94:97|71:203,1,141.900004330444,10|0,0:1|0:0,0:0:0:0:
32,288,57708,2,0,B|74:263|74:263|121:276,1,94.600002886963,10|0,0:1|0:0,0:0:0:0:
397,345,58053,6,0,B|353:304|353:304|376:187,1,167.699992323304,6|0,0:0|0:0,0:0:0:0:
391,122,58397,1,8,0:1:0:0:
249,315,58570,2,0,B|191:320|191:320|162:349|162:349|93:355,1,167.699992323304,10|0,1:0|0:0,0:0:0:0:
1,267,58915,5,8,0:3:0:0:
13,227,59001,1,8,0:3:0:0:
45,200,59087,1,4,0:3:0:0:
86,194,59173,1,4,0:3:0:0:
124,210,59260,2,0,L|117:274,1,64.5,10|0,0:1|0:0,0:0:0:0:
187,112,59604,6,0,B|314:88|314:88|291:133,1,180.599994488526,12|8,0:1|0:0,0:0:0:0:
245,229,60122,1,2,0:0:0:0:
391,122,60294,2,0,L|480:134,1,90.2999972442628,10|0,0:1|0:0,0:0:0:0:
371,21,60639,1,8,0:0:0:0:
408,227,60811,1,2,0:0:0:0:
291,133,60984,5,8,0:1:0:0:
274,323,61156,1,2,0:0:0:0:
295,125,61328,1,8,0:0:0:0:
144,246,61501,2,0,L|138:201,1,45.1499986221314,2|0,0:0|3:0,0:0:0:0:
124,87,61673,5,8,0:1:0:0:
245,229,61846,1,2,0:0:0:0:
83,336,62018,5,8,0:0:0:0:
138,201,62191,1,2,0:0:0:0:
274,323,62363,6,0,B|337:311|337:311|381:331|381:331|453:318,1,180.599994488526,10|8,0:1|0:0,0:0:0:0:
423,138,62880,2,0,P|413:181|407:226,1,90.2999972442628,2|8,0:0|0:1,0:0:0:0:
238,68,63225,1,2,0:0:0:0:
326,212,63397,1,8,0:0:0:0:
169,275,63570,1,2,0:0:0:0:
80,131,63742,6,0,P|124:143|167:158,1,90.2999972442628,8|0,0:1|0:0,0:0:0:0:
391,31,64087,2,0,P|347:18|304:3,1,90.2999972442628,10|0,0:0|0:0,0:0:0:0:
407,226,64432,2,0,P|413:181|423:137,1,90.2999972442628,10|0,0:1|0:1,0:0:0:0:
199,287,64777,2,0,P|238:235|303:241,1,135.449995866394,10|0,0:0|0:0,0:0:0:0:
366,322,65122,5,12,0:1:0:0:
283,141,65294,1,2,0:0:0:0:
183,289,65466,1,8,0:0:0:0:
238,68,65639,1,2,0:0:0:0:
303,241,65811,5,8,0:1:0:0:
142,133,65984,1,0,0:0:0:0:
358,33,66156,1,10,0:0:0:0:
283,141,66328,1,0,0:0:0:0:
402,224,66501,5,10,0:1:0:0:
238,68,66673,1,2,0:0:0:0:
183,289,66846,2,0,P|139:279|89:272,1,90.2999972442628,8|2,0:0|0:0,0:0:0:0:
283,141,67191,6,0,L|289:186,1,45.1499986221314,10|0,0:1|0:0,0:0:0:0:
272,286,67363,2,0,L|278:331,1,45.1499986221314,2|0,0:1|0:0,0:0:0:0:
153,151,67535,5,10,0:0:0:0:
138,109,67621,1,2,0:0:0:0:
155,69,67707,1,2,0:0:0:0:
196,52,67793,1,2,0:0:0:0:
238,68,67880,6,0,P|145:82|42:99,1,180.599994488526,12|8,0:1|0:0,0:0:0:0:
183,288,68397,2,0,P|185:242|192:198,1,90.2999972442628,2|8,0:0|0:1,0:0:0:0:
84,225,68742,1,2,0:0:0:0:
292,251,68915,2,0,L|385:263,1,90.2999972442628,8|2,0:0|0:0,0:0:0:0:
486,107,69260,6,0,P|442:103|401:121,1,90.2999972442628,8|2,0:1|0:0,0:0:0:0:
285,258,69604,2,0,P|281:214|275:168,1,90.2999972442628,8|2,0:0|0:0,0:0:0:0:
154,42,69949,5,10,0:1:0:0:
116,29,70035,1,2,0:0:0:0:
78,35,70121,1,2,0:0:0:0:
46,57,70207,1,2,0:0:0:0:
27,92,70293,1,10,0:0:0:0:
26,131,70380,1,2,0:0:0:0:
42,166,70466,1,2,0:0:0:0:
73,191,70552,1,2,0:0:0:0:
111,199,70639,6,0,L|202:177,1,90.2999972442628,10|0,0:1|0:0,0:0:0:0:
401,121,70984,1,8,0:0:0:0:
260,41,71156,2,0,P|264:85|270:130,1,90.2999972442628,2|8,0:0|0:1,0:0:0:0:
419,210,71501,1,2,0:0:0:0:
444,40,71673,1,8,0:0:0:0:
418,220,71846,1,2,0:0:0:0:
270,130,72018,5,10,0:1:0:0:
351,321,72191,1,2,0:0:0:0:
401,121,72363,1,10,0:0:0:0:
248,282,72535,2,0,L|257:224,1,45.1499986221314,2|0,0:0|3:0,0:0:0:0:
283,32,72708,5,8,0:1:0:0:
330,206,72880,1,8,0:0:0:0:
155,253,73053,1,8,0:3:0:0:
109,79,73225,1,4,0:3:0:0:
24,175,73397,6,0,P|55:170|84:183,1,64.5,2|0,0:0|0:0,0:0:0:0:
68,289,73742,2,0,P|-11:256|21:176,1,193.50000738144,8|0,0:0|0:0,0:0:0:0:
248,282,74087,6,0,P|266:308|267:339,1,64.5,2|0,0:0|0:0,0:0:0:0:
168,375,74432,2,0,P|161:288|248:282,1,193.50000738144,8|0,0:0|0:0,0:0:0:0:
438,230,74777,6,0,P|456:203|457:172,1,64.5,2|0,0:0|0:0,0:0:0:0:
357,138,75122,2,0,P|350:224|437:230,1,193.50000738144,8|0,0:0|0:0,0:0:0:0:
157,156,75466,6,0,P|138:129|137:98,1,64.5,2|0,0:0|0:0,0:0:0:0:
238,64,75811,2,0,P|244:150|157:156,1,193.50000738144,8|0,0:0|0:0,0:0:0:0:
7,39,76156,6,0,B|67:3|67:3|48:125,1,193.50000738144,8|0,0:0|3:0,0:0:0:0:
171,283,76501,2,0,L|155:147,1,129.00000492096,8|0,0:0|3:0,0:0:0:0:
238,64,76760,5,0,3:0:0:0:
238,64,76846,2,0,L|302:69,1,64.5000024604798,8|8,0:0|0:3,0:0:0:0:
361,150,77018,2,0,L|425:157,1,64.5000024604798,4|8,0:3|0:1,0:0:0:0:
506,60,77191,1,10,0:1:0:0:
344,338,77363,6,0,B|319:228|388:268|360:146,1,193.50000738144,6|0,0:0|0:0,0:0:0:0:
302,69,77708,5,8,1:0:0:0:
172,284,77880,1,8,0:1:0:0:
110,27,78053,1,8,0:1:0:0:
361,150,78225,6,0,L|364:128,3,21.5,14|2|2|2,0:0|0:0|0:0|0:0,0:0:0:0:
217,116,78570,6,0,L|212:80,3,32.2500012302399,2|2|2|2,0:0|0:0|0:0|0:0,0:0:0:0:
361,150,78915,6,0,B|291:158|291:158|261:196|261:196|182:205,1,193.50000738144,12|0,0:1|0:0,0:0:0:0:
91,168,79260,5,8,0:0:0:0:
119,369,79432,2,0,L|105:265,1,103.199996850586,2|8,0:0|0:1,0:0:0:0:
214,20,79777,2,0,B|197:70|197:70|221:125,1,103.199996850586,2|8,0:0|0:0,0:0:0:0:
299,269,80122,1,2,0:0:0:0:
394,35,80294,5,10,0:1:0:0:
188,204,80466,1,2,0:0:0:0:
394,323,80639,1,10,0:0:0:0:
287,67,80811,1,2,0:0:0:0:
459,203,80984,5,10,0:1:0:0:
418,197,81070,1,2,0:0:0:0:
377,191,81156,1,2,0:0:0:0:
336,185,81242,1,2,0:0:0:0:
295,179,81328,1,8,0:0:0:0:
394,35,81501,1,2,0:0:0:0:
188,202,81673,6,0,P|161:141|218:72,1,154.799995275879,10|2,0:1|0:0,0:0:0:0:
287,67,82018,1,8,0:0:0:0:
83,163,82191,1,2,0:0:0:0:
23,42,82363,5,10,0:1:0:0:
188,202,82535,1,2,0:0:0:0:
188,202,82622,2,0,L|183:262,1,51.599998425293,2|8,0:0|0:0,0:0:0:0:
218,0,82880,1,2,0:0:0:0:
377,191,83053,6,0,P|431:179|478:175,1,103.199996850586,10|0,0:1|0:0,0:0:0:0:
512,81,83311,1,2,0:0:0:0:
512,81,83397,2,0,P|460:75|405:59,1,103.199996850586,8|2,0:0|0:0,0:0:0:0:
287,324,83742,5,10,0:1:0:0:
263,290,83828,1,2,0:0:0:0:
256,249,83914,1,2,0:0:0:0:
268,210,84000,1,2,0:0:0:0:
295,179,84086,1,8,0:0:0:0:
444,258,84260,1,2,0:0:0:0:
512,81,84432,5,10,0:1:0:0:
295,179,84604,1,2,0:0:0:0:
295,179,84691,1,2,0:0:0:0:
295,179,84777,2,0,L|227:171,1,51.599998425293,8|0,0:0|0:0,0:0:0:0:
410,60,84949,1,2,0:0:0:0:
196,0,85122,5,8,0:1:0:0:
301,230,85294,2,0,L|294:178,1,51.599998425293,2|0,0:0|0:0,0:0:0:0:
196,0,85466,2,0,L|208:113,1,103.199996850586,8|0,0:0|0:0,0:0:0:0:
23,220,85811,5,10,0:1:0:0:
23,220,85897,2,0,P|74:218|122:238,1,103.199996850586,2|2,0:0|0:0,0:0:0:0:
49,362,86156,2,0,L|58:298,1,51.599998425293,8|0,0:0|0:0,0:0:0:0:
84,105,86328,1,2,0:0:0:0:
224,255,86501,5,8,0:1:0:0:
2,89,86673,2,0,L|53:98,1,51.599998425293,2|0,0:0|0:0,0:0:0:0:
224,255,86845,2,0,L|111:237,1,103.199996850586,8|2,0:0|0:0,0:0:0:0:
338,178,87191,5,8,0:1:0:0:
278,371,87363,1,2,0:0:0:0:
257,131,87535,5,8,0:0:0:0:
435,253,87708,1,2,0:0:0:0:
229,222,87880,5,8,0:1:0:0:
423,70,88053,1,2,0:0:0:0:
305,270,88225,5,8,0:0:0:0:
249,10,88397,1,2,0:0:0:0:
55,182,88570,5,8,0:1:0:0:
325,88,88742,1,8,0:0:0:0:
160,361,88915,2,0,P|157:311|150:248,1,103.199996850586,12|0,0:0|0:0,0:0:0:0:
325,88,89260,5,10,0:1:0:0:
286,102,89346,1,2,0:0:0:0:
257,131,89432,1,2,3:2:0:0:
243,169,89518,1,2,3:2:0:0:
248,210,89604,5,8,0:0:0:0:
274,253,89690,1,8,0:0:0:0:
319,278,89776,1,8,0:0:0:0:
370,276,89862,1,8,0:0:0:0:
413,249,89949,6,0,L|428:48,1,193.50000738144,12|0,0:1|0:0,0:0:0:0:
329,2,90294,6,0,B|300:44|300:44|325:89,1,103.199996850586,10|0,0:0|0:0,0:0:0:0:
102,218,90639,1,10,0:1:0:0:
222,51,90811,1,2,0:0:0:0:
274,253,90984,1,8,0:0:0:0:
118,7,91156,6,0,P|128:57|134:108,1,103.199996850586,2|8,0:0|0:1,0:0:0:0:
66,339,91501,2,0,P|105:305|156:299,1,103.199996850586,2|8,0:0|0:0,0:0:0:0:
313,336,91846,1,2,0:0:0:0:
327,123,92018,5,10,0:1:0:0:
292,141,92104,1,2,0:0:0:0:
268,173,92190,1,2,0:0:0:0:
259,213,92276,1,2,0:0:0:0:
274,253,92362,1,8,0:0:0:0:
453,152,92535,1,2,0:0:0:0:
217,56,92708,5,10,0:1:0:0:
352,212,92880,1,2,0:0:0:0:
352,212,92966,2,0,L|360:274,1,51.599998425293,2|8,0:0|0:0,0:0:0:0:
421,31,93225,1,2,0:0:0:0:
259,213,93397,6,0,B|146:227,1,103.199996850586,10|0,0:1|0:0,0:0:0:0:
69,233,93656,2,0,P|94:237|117:247,1,51.599998425293,2|8,0:0|0:0,0:0:0:0:
202,348,93915,1,2,0:0:0:0:
124,127,94087,6,0,P|118:75|110:23,1,103.199996850586,10|0,0:1|0:0,0:0:0:0:
110,25,94346,1,2,0:1:0:0:
110,25,94432,1,8,0:0:0:0:
26,219,94604,1,2,0:0:0:0:
263,71,94777,5,10,0:1:0:0:
287,102,94863,1,2,0:0:0:0:
295,141,94949,1,2,0:0:0:0:
285,182,95035,1,2,0:0:0:0:
259,213,95121,1,10,0:0:0:0:
111,135,95294,1,2,0:0:0:0:
205,336,95466,5,10,0:1:0:0:
205,336,95553,1,2,0:0:0:0:
205,336,95639,2,0,P|231:330|255:326,1,51.599998425293,2|0,0:0|0:0,0:0:0:0:
26,219,95811,1,8,0:0:0:0:
213,142,95984,1,2,0:0:0:0:
75,346,96156,5,8,0:1:0:0:
111,135,96328,2,0,L|120:82,1,51.599998425293,2|0,0:0|0:0,0:0:0:0:
257,240,96501,2,0,L|149:229,1,103.199996850586,8|0,0:0|0:0,0:0:0:0:
351,0,96846,5,10,0:1:0:0:
351,0,96932,1,2,0:0:0:0:
351,0,97018,2,0,L|358:66,1,51.599998425293
213,142,97191,1,8,0:0:0:0:
411,211,97363,1,2,0:0:0:0:
299,103,97535,5,8,0:1:0:0:
330,322,97708,2,0,L|338:376,1,51.599998425293,2|0,0:0|0:0,0:0:0:0:
154,229,97880,2,0,L|257:240,1,103.199996850586,8|0,0:0|0:0,0:0:0:0:
434,69,98225,6,0,P|374:114|299:103,1,154.799995275879,10|0,0:1|0:0,0:0:0:0:
244,35,98570,1,8,0:0:0:0:
334,214,98742,1,2,0:0:0:0:
183,108,98915,1,10,0:1:0:0:
347,8,99087,1,2,0:0:0:0:
257,240,99260,1,8,0:0:0:0:
54,100,99432,1,2,0:0:0:0:
215,312,99604,5,10,0:1:0:0:
263,326,99690,1,2,0:0:0:0:
311,308,99776,1,10,0:0:0:0:
338,265,99862,1,2,0:0:0:0:
334,214,99949,2,0,L|327:157,1,51.599998425293,10|2,0:0|0:0,0:0:0:0:
444,296,100122,2,0,L|450:347,1,51.599998425293,2|2,0:0|0:0,0:0:0:0:
512,164,100294,6,0,L|461:172,1,51.599998425293,10|2,0:0|0:0,0:0:0:0:
248,204,100466,1,2,0:0:0:0:
237,163,100552,1,10,0:0:0:0:
246,122,100638,1,8,0:3:0:0:
274,89,100724,1,8,0:3:0:0:
313,73,100810,1,8,0:3:0:0:
355,78,100897,1,8,0:3:0:0:
391,101,100984,6,0,L|399:6,1,94.600002886963,12|2,0:1|0:0,0:0:0:0:
248,204,101328,1,8,0:0:0:0:
188,31,101501,1,2,0:0:0:0:
340,182,101673,2,0,L|330:288,1,94.600002886963,8|2,0:1|0:0,0:0:0:0:
142,128,102018,1,8,0:0:0:0:
145,342,102191,6,0,P|188:323|233:309,1,94.600002886963,2|8,0:0|0:1,0:0:0:0:
419,284,102535,1,2,0:0:0:0:
271,117,102708,2,0,P|248:159|250:210,1,94.600002886963,8|0,0:0|0:0,0:0:0:0:
379,70,103053,2,0,P|338:13|270:0,1,141.900004330444,10|0,0:1|0:0,0:0:0:0:
188,31,103397,5,10,0:0:0:0:
188,31,103484,1,2,0:0:0:0:
188,31,103570,1,2,0:0:0:0:
188,31,103656,1,2,0:0:0:0:
188,31,103742,2,0,P|140:24|86:19,1,94.600002886963,10|0,0:1|0:0,0:0:0:0:
247,204,104087,1,10,0:0:0:0:
247,204,104173,1,2,0:0:0:0:
247,204,104260,2,0,P|271:199|294:194,1,47.3000014434815,2|2,0:0|0:0,0:0:0:0:
141,128,104432,5,10,0:1:0:0:
112,147,104518,1,2,0:0:0:0:
91,175,104604,1,2,0:0:0:0:
81,209,104690,1,2,0:0:0:0:
83,244,104776,1,10,0:0:0:0:
96,277,104863,1,2,0:0:0:0:
120,303,104949,1,2,0:0:0:0:
152,319,105035,1,2,0:0:0:0:
187,323,105122,6,0,P|210:318|233:315,1,47.3000014434815,10|0,0:1|0:0,0:0:0:0:
294,194,105294,2,0,P|317:199|340:202,1,47.3000014434815,2|2,0:0|0:0,0:0:0:0:
467,328,105466,1,10,0:0:0:0:
461,280,105552,1,2,0:0:0:0:
456,233,105638,1,2,0:0:0:0:
451,186,105724,1,2,0:0:0:0:
445,139,105811,6,0,L|438:86,1,47.3000014434815,10|2,0:1|0:0,0:0:0:0:
343,306,105984,2,0,L|349:358,1,47.3000014434815,2|2,0:0|0:0,0:0:0:0:
222,136,106156,2,0,L|215:83,1,47.3000014434815,10|2,0:0|0:0,0:0:0:0:
120,303,106329,2,0,L|126:355,1,47.3000014434815,2|2,0:0|0:0,0:0:0:0:
6,154,106501,6,0,B|62:163|62:163|84:187|84:187|141:197,1,141.900004330444,6|0,0:0|0:0,0:0:0:0:
146,198,106846,1,8,0:0:0:0:
305,104,107018,1,2,0:0:0:0:
127,12,107191,2,0,B|114:59|114:59|125:102,1,94.600002886963,10|0,0:1|0:0,0:0:0:0:
284,14,107535,1,8,0:0:0:0:
356,196,107708,6,0,P|400:177|446:172,1,94.600002886963,2|8,0:0|0:1,0:0:0:0:
215,89,108053,1,2,0:0:0:0:
233,314,108225,2,0,P|238:262|245:209,1,94.600002886963,8|0,0:0|0:0,0:0:0:0:
5,242,108570,2,0,P|52:291|118:272,1,141.900004330444,10|0,0:1|0:1,0:0:0:0:
146,198,108915,5,10,0:0:0:0:
146,198,109001,1,2,0:0:0:0:
146,198,109087,1,2,0:0:0:0:
146,198,109173,1,2,0:0:0:0:
146,198,109260,2,0,P|140:151|133:104,1,94.600002886963,10|0,0:1|0:0,0:0:0:0:
138,26,109518,1,2,0:0:0:0:
138,26,109604,2,0,P|190:18|234:41,1,94.600002886963,8|0,0:0|0:0,0:0:0:0:
270,115,109863,1,2,0:0:0:0:
275,129,109949,5,10,0:1:0:0:
312,147,110035,1,2,0:0:0:0:
354,138,110121,1,2,0:0:0:0:
380,104,110207,1,2,0:0:0:0:
406,70,110294,1,10,0:0:0:0:
446,61,110380,1,2,0:0:0:0:
485,80,110466,2,0,L|478:148,1,47.3000014434815,2|2,0:0|0:0,0:0:0:0:
491,242,110639,5,10,1:0:0:0:
491,242,110725,1,8,0:0:0:0:
317,43,110898,5,8,0:0:0:0:
317,43,110985,1,10,1:0:0:0:
301,318,111156,5,10,0:0:0:0:
301,318,111242,1,10,0:0:0:0:
480,127,111415,5,10,0:0:0:0:
480,127,111501,1,10,0:0:0:0:
270,115,111673,5,10,1:0:0:0:
406,290,111846,1,10,0:1:0:0:
406,70,112018,1,12,1:1:0:0:
287,217,112191,6,0,L|223:207,1,64.5000024604798,2|2,0:0|0:3,0:0:0:0:
103,130,112535,1,2,0:0:0:0:
103,130,112622,1,2,0:3:0:0:
103,130,112708,2,0,L|167:120,1,64.5000024604798,2|0,0:0|3:3,0:0:0:0:
49,210,113053,1,2,0:3:0:0:
8,131,113225,1,2,0:0:0:0:
92,292,113397,6,0,L|86:343,1,51.599998425293,8|0,0:1|0:0,0:0:0:0:
215,271,113570,6,0,L|224:199,1,64.5000024604798,2|2,0:0|0:3,0:0:0:0:
325,350,113915,1,2,0:0:0:0:
325,350,114002,1,2,0:3:0:0:
325,350,114088,2,0,L|254:358,1,64.5000024604798,2|0,0:0|3:3,0:0:0:0:
378,200,114433,1,2,0:3:0:0:
455,312,114605,1,2,0:0:0:0:
455,312,114691,1,2,0:3:0:0:
455,312,114777,6,0,L|512:303,1,51.599998425293,8|0,0:1|0:0,0:0:0:0:
459,150,114949,5,2,0:0:0:0:
459,150,115122,1,2,0:3:0:0:
376,105,115294,1,2,0:0:0:0:
376,105,115380,1,2,0:3:0:0:
376,105,115466,1,0,0:0:0:0:
283,159,115639,5,2,0:0:0:0:
268,63,115811,1,2,0:3:0:0:
286,175,115984,2,0,L|291:208,1,32.2500012302399,2|2,0:0|0:3,0:0:0:0:
103,130,116156,5,8,0:1:0:0:
272,52,116328,1,2,0:0:0:0:
193,197,116501,6,0,L|187:249,1,51.599998425293,8|0,0:1|0:0,0:0:0:0:
91,127,116673,2,0,L|97:179,1,51.599998425293,2|0,0:1|0:0,0:0:0:0:
72,372,116846,6,0,B|32:317|82:259|82:259|122:292,1,154.799995275879,10|0,0:1|0:0,0:0:0:0:
331,320,117191,6,0,B|299:317|266:287|266:287|233:351|168:336,1,193.50000738144,6|0,0:0|0:0,0:0:0:0:
286,175,117535,6,0,P|329:167|378:158,1,86,12|2,0:1|0:0,0:0:0:0:
272,52,117880,2,0,P|228:44|180:35,1,86,8|2,0:1|0:0,0:0:0:0:
96,178,118225,5,8,0:1:0:0:
71,36,118398,1,2,0:0:0:0:
0,156,118570,1,8,0:0:0:0:
75,26,118743,1,2,0:0:0:0:
23,254,118915,5,8,0:1:0:0:
4,146,119087,1,2,0:0:0:0:
115,278,119260,1,8,0:1:0:0:
179,132,119432,1,2,0:0:0:0:
205,304,119604,5,8,0:1:0:0:
96,178,119777,1,2,0:0:0:0:
253,87,119949,1,8,0:0:0:0:
193,218,120122,1,2,0:0:0:0:
328,47,120294,6,0,P|290:7|236:0,1,111.799994882202,10|2,0:1|0:0,0:0:0:0:
328,133,120553,1,2,0:0:0:0:
403,87,120639,6,0,B|449:81|449:81|469:90|469:90|525:83,1,111.799994882202,10|2,0:1|0:0,0:0:0:0:
379,207,120897,1,2,0:0:0:0:
462,189,120984,6,0,P|463:217|456:244,1,55.8999974411012,10|0,0:1|0:0,0:0:0:0:
389,351,121156,2,0,P|381:324|382:297,1,55.8999974411012,2|0,0:1|0:0,0:0:0:0:
295,212,121328,2,0,B|295:239|289:250|289:250|296:267,1,55.8999974411012,10|0,0:0|0:0,0:0:0:0:
226,354,121500,2,0,B|230:337|230:337|221:330|221:330|217:304,1,55.8999974411012,2|0,0:1|0:0,0:0:0:0:
95,176,121673,6,0,B|88:219|88:219|99:267,1,86,10|2,0:1|0:0,0:0:0:0:
7,226,122018,1,10,0:1:0:0:
171,100,122191,6,0,B|211:96,8,21.5,2|0|0|0|8|0|0|0|2,0:0|0:0|0:0|0:0|0:1|0:0|0:0|0:0|0:0,0:0:0:0:
98,261,122708,5,8,0:0:0:0:
0,66,122880,1,0,3:0:0:0:
193,218,123053,5,10,1:0:0:0:
193,218,123570,2,0,B|279:198|259:250|328:237,1,141.900004330444,10|0,0:1|0:0,0:0:0:0:
394,124,123915,2,0,P|345:125|312:167,1,94.600002886963,10|0,0:1|0:0,0:0:0:0:
157,351,124260,6,0,B|170:304|141:260|134:294|99:244|119:192,1,167.699992323304,6|0,0:0|0:0,0:0:0:0:
193,218,124604,1,8,0:1:0:0:
78,327,124777,1,8,0:0:0:0:
20,181,124949,2,0,P|23:155|42:128,1,55.8999974411012,4|4,0:3|0:3,0:0:0:0:
173,79,125122,5,6,0:0:0:0:
203,89,125208,1,8,0:0:0:0:
224,113,125294,1,8,0:3:0:0:
233,144,125380,1,8,0:3:0:0:
225,175,125466,1,4,0:3:0:0:
205,199,125553,1,4,0:3:0:0:
175,211,125639,1,8,0:1:0:0:
143,208,125725,1,8,0:1:0:0:
118,196,125811,6,0,B|214:174|197:249|289:225,1,180.599994488526,12|8,0:1|0:0,0:0:0:0:
394,124,126328,1,2,0:0:0:0:
396,331,126501,2,0,P|386:288|375:243,1,90.2999972442628,10|0,0:1|0:0,0:0:0:0:
255,134,126846,1,8,0:0:0:0:
459,198,127018,1,2,0:0:0:0:
355,30,127191,5,8,0:1:0:0:
289,224,127363,1,2,3:2:0:0:
118,101,127535,1,8,0:0:0:0:
177,284,127708,2,0,L|201:227,1,45.1499986221314,2|0,0:0|3:0,0:0:0:0:
255,134,127880,5,8,0:1:0:0:
255,134,127966,1,2,3:2:0:0:
255,134,128053,1,2,3:2:0:0:
236,355,128225,1,8,0:0:0:0:
76,202,128397,1,2,0:0:0:0:
310,251,128570,6,0,B|367:208|446:225|446:225|419:265,1,180.599994488526,10|8,0:1|0:0,0:0:0:0:
236,355,129087,2,0,P|225:301|216:262,1,90.2999972442628,2|8,0:0|0:1,0:0:0:0:
137,95,129432,1,2,0:0:0:0:
95,289,129604,1,8,0:0:0:0:
253,132,129777,1,2,0:0:0:0:
52,190,129949,6,0,P|43:143|28:97,1,90.2999972442628,8|0,0:1|0:0,0:0:0:0:
266,43,130294,2,0,P|256:87|253:132,1,90.2999972442628,10|0,0:0|3:0,0:0:0:0:
253,132,130553,1,0,3:0:0:0:
253,132,130639,1,10,0:1:0:0:
129,11,130811,1,0,0:0:0:0:
346,102,130984,2,0,B|391:87|391:87|430:117|472:107,1,135.449995866394,10|0,0:0|0:0,0:0:0:0:
450,30,131329,5,12,0:1:0:0:
408,209,131501,1,2,0:0:0:0:
266,43,131673,1,8,0:0:0:0:
319,268,131846,1,2,0:0:0:0:
346,102,132018,5,8,0:1:0:0:
226,328,132191,1,0,0:0:0:0:
145,149,132363,1,10,0:0:0:0:
319,268,132535,1,0,0:0:0:0:
102,231,132708,5,10,0:1:0:0:
346,102,132880,1,2,0:0:0:0:
226,327,133053,2,0,P|229:282|234:238,1,90.2999972442628,8|2,0:0|0:0,0:0:0:0:
39,101,133397,6,0,P|44:123|46:145,1,45.1499986221314,10|0,0:1|0:0,0:0:0:0:
101,231,133570,2,0,P|96:252|94:275,1,45.1499986221314,2|0,0:0|0:0,0:0:0:0:
252,132,133742,5,10,0:0:0:0:
292,110,133828,1,2,0:0:0:0:
336,116,133914,1,2,0:0:0:0:
367,147,134000,1,2,0:0:0:0:
375,191,134087,6,0,B|386:162|406:137|406:137|381:81|391:20,1,180.599994488526,12|8,0:1|0:0,0:0:0:0:
479,218,134604,2,0,P|471:272|465:321,1,90.2999972442628,2|8,0:0|0:1,0:0:0:0:
277,255,134949,1,2,0:0:0:0:
356,357,135122,1,8,0:0:0:0:
296,153,135294,1,2,0:0:0:0:
160,319,135466,6,0,P|92:312|89:214,1,180.599994488526,10|8,0:1|0:0,0:0:0:0:
290,260,135984,1,0,0:0:0:0:
181,44,136156,5,10,0:1:0:0:
178,82,136242,1,2,0:0:0:0:
175,120,136328,1,2,0:0:0:0:
172,158,136414,1,2,0:0:0:0:
169,197,136500,1,10,0:0:0:0:
166,236,136587,1,2,0:0:0:0:
163,274,136673,2,0,L|159:322,1,45.1499986221314,2|2,0:0|0:0,0:0:0:0:
296,153,136846,5,10,0:1:0:0:
78,195,137018,1,2,0:0:0:0:
290,260,137191,1,8,0:0:0:0:
67,194,137363,2,0,L|59:100,1,90.2999972442628,2|8,0:0|0:1,0:0:0:0:
284,35,137708,1,2,0:0:0:0:
166,236,137880,1,8,0:0:0:0:
102,10,138053,1,2,0:0:0:0:
295,244,138225,5,10,0:1:0:0:
370,56,138398,1,2,0:0:0:0:
182,126,138570,1,10,0:0:0:0:
404,225,138742,2,0,L|483:207,1,45.1499986221314,2|0,0:0|3:0,0:0:0:0:
251,348,138915,5,8,0:1:0:0:
296,153,139087,1,8,0:0:0:0:
451,305,139260,1,8,0:3:0:0:
370,56,139432,1,4,0:3:0:0:
166,236,139604,6,0,P|135:226|100:225,1,64.5,12|0,0:1|0:0,0:0:0:0:
85,96,139949,2,0,L|106:246,1,129.00000492096,8|8,1:0|0:0,0:0:0:0:
251,348,140208,5,8,0:0:0:0:
251,348,140294,2,0,L|258:273,1,64.5,8|8,1:0|0:0,0:0:0:0:
360,235,140639,2,0,P|320:282|257:283,1,129.00000492096,8|8,1:0|0:0,0:0:0:0:
229,41,140897,5,8,0:0:0:0:
228,41,140984,2,0,P|215:70|213:102,1,64.5,8|8,1:0|0:0,0:0:0:0:
328,91,141328,6,0,P|359:99|392:99,1,64.5000024604798,8|8,1:0|0:3,0:0:0:0:
217,207,141501,6,0,P|185:207|154:215,1,64.5000024604798,4|4,0:3|0:3,0:0:0:0:
390,237,141673,6,0,P|409:257|440:276,1,64.5,8|8,1:0|0:0,0:0:0:0:
328,91,142018,6,0,P|314:120|309:152,1,64.5000024604798,8|8,1:0|0:3,0:0:0:0:
289,296,142191,6,0,P|257:301|227:314,1,64.5000024604798,4|4,0:3|0:3,0:0:0:0:
68,302,142363,6,0,P|57:290|74:295,1,38.6999988189698,8|8,1:1|0:0,0:0:0:0:
53,80,142708,2,0,B|107:11|202:80|163:183|77:121|79:206,1,258,8|8,1:0|0:0,0:0:0:0:
228,314,143053,6,0,P|222:278|219:245,1,64.5000024604798,8|8,1:0|0:3,0:0:0:0:
308,152,143225,2,0,P|311:120|317:89,1,64.5000024604798,4|8,0:3|0:1,0:0:0:0:
443,29,143397,1,10,0:1:0:0:
512,279,143570,6,0,B|433:291|433:291|414:316|414:316|328:329,1,193.50000738144,6|0,0:0|0:0,0:0:0:0:
219,250,143915,5,8,1:0:0:0:
409,106,144087,1,8,0:1:0:0:
432,344,144260,1,8,0:1:0:0:
303,63,144432,5,10,1:0:0:0:
160,186,144604,1,8,0:0:0:0:
207,166,144690,1,8,0:0:0:0:
257,172,144776,1,8,0:3:0:0:
299,203,144863,1,8,0:3:0:0:
341,233,144949,1,4,0:3:0:0:
391,239,145035,1,4,0:3:0:0:
440,220,145122,6,0,P|451:123|361:102,1,193.50000738144,12|0,0:1|0:0,0:0:0:0:
297,163,145466,5,8,0:0:0:0:
159,52,145639,2,0,L|53:69,1,103.199996850586,2|8,0:0|0:1,0:0:0:0:
144,319,145984,2,0,B|165:283|165:283|153:207,1,103.199996850586,2|8,0:0|0:0,0:0:0:0:
280,334,146328,1,2,0:0:0:0:
268,78,146500,5,10,0:1:0:0:
58,265,146672,1,2,0:0:0:0:
297,163,146845,1,10,0:0:0:0:
57,68,147017,1,2,0:0:0:0:
144,319,147191,5,10,0:1:0:0:
159,282,147277,1,2,0:0:0:0:
159,242,147363,1,2,0:0:0:0:
141,205,147449,1,2,0:0:0:0:
108,179,147535,1,8,0:0:0:0:
349,245,147708,1,2,0:0:0:0:
326,23,147880,6,0,P|286:87|296:162,1,154.799995275879,10|2,0:1|0:0,0:0:0:0:
348,223,148225,1,8,0:0:0:0:
168,93,148397,1,2,0:0:0:0:
262,311,148569,5,10,0:1:0:0:
371,133,148742,2,0,P|400:144|420:162,1,51.599998425293,2|2,0:0|0:0,0:0:0:0:
476,246,148915,1,8,0:0:0:0:
275,85,149086,1,2,0:0:0:0:
182,263,149259,6,0,P|136:249|79:236,1,103.199996850586,10|0,0:1|0:0,0:0:0:0:
82,236,149518,1,2,0:0:0:0:
82,236,149604,1,8,0:0:0:0:
296,162,149777,1,2,0:0:0:0:
175,13,149949,5,10,0:1:0:0:
179,54,150035,1,2,0:0:0:0:
184,95,150121,1,2,0:0:0:0:
189,136,150207,1,2,0:0:0:0:
193,177,150293,1,10,0:0:0:0:
349,53,150466,1,2,0:0:0:0:
372,266,150639,6,0,L|472:242,1,103.199996850586,10|0,0:1|0:0,0:0:0:0:
472,241,150897,1,2,0:0:0:0:
472,241,150984,1,10,0:0:0:0:
296,162,151156,1,2,0:0:0:0:
315,365,151328,5,8,0:1:0:0:
395,120,151501,2,0,L|392:172,1,51.599998425293,2|0,0:0|0:0,0:0:0:0:
204,279,151673,2,0,L|192:176,1,103.199996850586,8|0,0:0|0:0,0:0:0:0:
274,2,152018,5,10,0:1:0:0:
274,2,152104,1,2,0:0:0:0:
73,130,152277,1,2,0:0:0:0:
73,130,152363,1,8,0:0:0:0:
296,162,152535,1,2,0:0:0:0:
175,13,152708,5,8,0:1:0:0:
198,227,152880,2,0,L|192:175,1,51.599998425293,2|0,0:0|0:0,0:0:0:0:
401,17,153052,2,0,L|395:121,1,103.199996850586,8|2,0:0|0:0,0:0:0:0:
382,288,153397,5,10,0:1:0:0:
241,93,153570,1,2,0:0:0:0:
164,332,153742,5,8,0:0:0:0:
315,144,153915,1,2,0:0:0:0:
116,257,154087,6,0,P|70:241|4:230,1,103.199996850586,10|0,0:1|0:0,0:0:0:0:
43,141,154346,1,0,0:0:0:0:
47,145,154432,2,0,P|133:142|155:86,1,154.799995275879,10|0,0:0|0:0,0:0:0:0:
128,13,154777,5,10,0:1:0:0:
326,240,154949,1,8,0:0:0:0:
116,257,155122,5,12,0:0:0:0:
404,125,155294,1,2,0:0:0:0:
267,299,155466,5,10,0:1:0:0:
248,267,155552,1,2,0:0:0:0:
245,234,155638,1,2,3:2:0:0:
258,201,155724,1,2,3:2:0:0:
284,177,155812,5,8,0:0:0:0:
315,144,155898,1,8,0:0:0:0:
327,100,155984,1,8,0:0:0:0:
316,56,156070,1,8,0:0:0:0:
283,22,156156,6,0,L|82:48,1,193.50000738144,12|0,0:1|0:0,0:0:0:0:
10,56,156501,5,8,0:0:0:0:
116,257,156673,2,0,B|132:206|132:206|117:158,1,103.199996850586,2|8,0:0|0:1,0:0:0:0:
350,281,157018,2,0,B|244:266,1,103.199996850586,2|8,0:0|0:0,0:0:0:0:
362,81,157363,6,0,L|468:64,1,103.199996850586,2|8,0:0|0:1,0:0:0:0:
193,34,157708,2,0,P|181:83|200:130,1,103.199996850586,2|8,0:0|0:0,0:3:0:0:
346,194,158053,1,2,0:0:0:0:
234,348,158225,5,10,0:1:0:0:
240,307,158311,1,2,0:0:0:0:
247,266,158397,1,2,0:0:0:0:
255,225,158483,1,2,0:0:0:0:
262,184,158569,1,10,0:0:0:0:
366,367,158742,1,2,0:0:0:0:
116,257,158915,5,10,0:1:0:0:
200,130,159087,1,2,0:0:0:0:
200,130,159173,2,0,L|207:60,1,51.599998425293,2|8,0:0|0:0,0:0:0:0:
358,280,159432,1,2,0:0:0:0:
409,124,159604,6,0,B|353:134|353:134|327:160|327:160|266:169,1,154.799995275879,10|0,0:1|0:0,0:0:0:0:
140,232,159949,2,0,L|251:250,1,103.199996850586,10|0,0:0|0:0,0:0:0:0:
358,280,160208,5,2,0:0:0:0:
358,280,160294,2,0,P|367:331|332:381,1,103.199996850586,10|0,0:1|0:0,0:0:0:0:
258,346,160553,2,0,L|197:355,1,51.599998425293,2|8,0:0|0:0,0:0:0:0:
20,151,160811,2,0,L|71:158,1,51.599998425293,2|0,0:0|0:0,0:0:0:0:
162,68,160984,5,10,0:1:0:0:
156,109,161070,1,2,0:0:0:0:
151,150,161156,1,2,0:0:0:0:
145,191,161242,1,2,0:0:0:0:
140,232,161328,1,8,0:0:0:0:
56,46,161501,1,2,0:0:0:0:
266,169,161673,5,10,0:1:0:0:
266,169,161760,2,0,B|373:158,1,103.199996850586,2|2,0:0|0:0,0:0:0:0:
436,121,162018,1,8,0:0:0:0:
349,322,162191,1,2,0:0:0:0:
256,72,162363,5,8,0:1:0:0:
443,204,162535,2,0,L|513:192,1,51.599998425293,2|0,0:0|0:0,0:0:0:0:
247,310,162708,2,0,L|349:322,1,103.199996850586,8|0,0:0|0:0,0:0:0:0:
86,346,163053,5,10,0:1:0:0:
86,346,163140,2,0,B|69:231,1,103.199996850586,2|2,0:0|0:0,0:0:0:0:
59,168,163398,1,8,0:0:0:0:
247,310,163571,1,2,0:0:0:0:
256,72,163742,6,0,B|169:97|216:140|136:166,1,154.799995275879,8|0,0:1|0:0,0:0:0:0:
58,167,164087,2,0,B|44:119|44:119|61:67,1,103.199996850586,8|0,0:0|0:0,0:0:0:0:
282,195,164432,6,0,P|362:212|419:173,1,154.799995275879,10|0,0:1|0:0,0:0:0:0:
418,93,164777,1,8,0:0:0:0:
330,307,164949,1,2,0:0:0:0:
501,203,165122,1,10,0:1:0:0:
256,72,165294,1,2,0:0:0:0:
427,264,165467,1,8,0:0:0:0:
491,17,165639,1,2,0:0:0:0:
282,195,165811,5,10,0:1:0:0:
233,209,165897,1,2,0:0:0:0:
185,191,165984,1,10,0:0:0:0:
158,148,166069,1,2,0:0:0:0:
131,105,166156,1,10,0:0:0:0:
83,87,166242,1,2,0:0:0:0:
35,102,166328,2,0,L|42:160,1,51.599998425293,2|2,0:0|0:0,0:0:0:0:
192,289,166501,6,0,L|185:340,1,51.599998425293,10|2,0:0|0:0,0:0:0:0:
236,116,166673,1,2,0:0:0:0:
275,104,166760,1,10,0:0:0:0:
315,111,166845,1,8,0:3:0:0:
348,134,166931,1,8,0:3:0:0:
368,170,167017,1,8,0:3:0:0:
369,211,167104,1,8,0:3:0:0:
352,248,167191,6,0,L|451:237,1,94.600002886963,12|2,0:1|0:0,0:0:0:0:
370,17,167535,1,8,0:0:0:0:
282,195,167708,1,2,0:0:0:0:
512,105,167880,2,0,L|413:93,1,94.600002886963,8|2,0:1|0:0,0:0:0:0:
188,56,168225,1,8,0:0:0:0:
282,195,168397,6,0,B|295:148|295:148|278:93,1,94.600002886963,2|8,0:0|0:1,0:0:0:0:
311,328,168742,1,2,0:0:0:0:
196,158,168915,2,0,B|183:205|183:205|200:260,1,94.600002886963,8|0,0:0|0:1,0:0:0:0:
480,262,169260,6,0,P|418:229|352:248,1,141.900004330444,10|0,0:1|0:0,0:0:0:0:
311,328,169604,1,10,0:0:0:0:
311,328,169691,1,2,0:0:0:0:
311,328,169777,1,2,0:0:0:0:
311,328,169863,1,2,0:0:0:0:
311,328,169949,6,0,L|217:340,1,94.600002886963,10|0,0:1|0:0,0:0:0:0:
141,351,170208,1,2,0:0:0:0:
141,351,170294,2,0,L|131:300,1,47.3000014434815,8|0,0:0|0:0,0:0:0:0:
41,308,170466,2,0,L|31:257,1,47.3000014434815,2|2,0:0|0:0,0:0:0:0:
143,214,170639,6,0,L|153:163,1,47.3000014434815,10|2,0:1|0:0,0:0:0:0:
243,171,170811,2,0,L|253:120,1,47.3000014434815,2|2,0:0|0:0,0:0:0:0:
124,26,170984,5,10,0:0:0:0:
79,14,171070,1,2,0:0:0:0:
38,35,171156,1,2,0:0:0:0:
21,78,171242,1,2,0:0:0:0:
38,122,171328,6,0,L|84:114,1,47.3000014434815,10|0,0:1|0:0,0:0:0:0:
243,171,171501,1,2,0:0:0:0:
243,171,171587,1,2,0:0:0:0:
243,171,171673,2,0,L|290:163,1,47.3000014434815,10|0,0:0|0:0,0:0:0:0:
396,34,171846,2,0,P|391:57|388:80,1,47.3000014434815,2|2,0:0|0:0,0:0:0:0:
283,299,172018,6,0,P|280:275|275:252,1,47.3000014434815,10|2,0:1|0:0,0:0:0:0:
162,121,172191,2,0,P|155:147|151:171,1,47.3000014434815,2|2,0:0|0:0,0:0:0:0:
363,219,172363,6,0,P|390:222|426:228,1,55.8999974411012,10|2,0:0|0:0,0:0:0:0:
162,299,172535,2,0,P|135:302|99:308,1,55.8999974411012,2|2,0:0|0:0,0:0:0:0:
239,54,172708,6,0,P|311:93|285:166,1,167.699992323304,6|0,0:0|0:0,0:0:0:0:
281,167,173053,1,8,0:0:0:0:
468,103,173225,1,2,0:0:0:0:
409,330,173397,2,0,L|390:173,1,141.900004330444,10|0,0:1|0:0,0:0:0:0:
391,179,173742,1,10,0:0:0:0:
190,280,173915,6,0,P|236:288|282:298,1,94.600002886963,2|8,0:0|0:1,0:0:0:0:
162,121,174260,1,2,0:0:0:0:
99,342,174432,2,0,P|93:295|84:248,1,94.600002886963,10|0,0:0|0:0,0:0:0:0:
239,90,174777,6,0,P|188:42|120:49,1,141.900004330444,10|0,0:1|0:0,0:0:0:0:
70,116,175122,1,10,0:0:0:0:
70,116,175208,1,2,0:0:0:0:
70,116,175294,1,2,0:0:0:0:
70,116,175380,1,2,0:0:0:0:
70,116,175466,6,0,L|11:124,1,47.3000014434815,10|0,0:1|0:0,0:0:0:0:
85,249,175639,1,2,0:0:0:0:
108,251,175725,1,2,0:0:0:0:
132,253,175811,1,8,0:0:0:0:
155,255,175897,1,2,0:0:0:0:
179,257,175983,1,2,0:0:0:0:
202,259,176070,1,2,0:0:0:0:
225,260,176156,5,10,0:1:0:0:
272,258,176242,1,2,0:0:0:0:
302,224,176328,1,2,0:0:0:0:
300,178,176414,1,2,0:0:0:0:
266,146,176501,1,10,0:0:0:0:
232,114,176587,1,2,0:0:0:0:
230,68,176673,2,0,P|236:47|255:22,1,47.3000014434815,2|2,0:0|0:0,0:0:0:0:
376,72,176846,5,10,1:0:0:0:
376,72,176932,1,8,0:0:0:0:
132,174,177105,5,8,0:0:0:0:
132,174,177192,1,10,1:0:0:0:
394,205,177363,5,10,0:0:0:0:
394,205,177449,1,10,0:0:0:0:
117,45,177622,5,10,0:0:0:0:
117,45,177708,1,10,0:0:0:0:
272,258,177880,5,10,1:0:0:0:
249,5,178053,1,10,0:1:0:0:
18,200,178225,6,0,P|82:185|145:177,1,129,12|0,0:1|0:0,0:0:0:0:
272,258,178570,6,0,L|276:216,1,43,2|2,0:0|0:0,0:0:0:0:
207,328,178742,2,0,L|210:370,1,43,10|2,0:1|0:0,0:0:0:0:
394,205,178915,6,0,P|374:145|317:117,1,129,8|0,0:0|0:0,0:0:0:0:
278,251,179260,6,0,L|282:209,1,43,2|2,0:0|0:0,0:0:0:0:
217,62,179432,2,0,L|221:105,1,43,10|2,0:1|0:0,0:0:0:0:
144,177,179604,5,2,0:0:0:0:
302,38,179777,1,8,0:1:0:0:
107,8,179949,1,10,0:1:0:0:
107,8,180035,1,2,0:0:0:0:
107,8,180122,1,2,0:0:0:0:
107,8,180208,1,2,0:0:0:0:
107,8,180294,6,0,B|98:36|98:36|106:70,1,51.599998425293,10|0,0:0|0:0,0:0:0:0:
144,177,180466,5,8,0:1:0:0:
144,177,180553,1,8,0:1:0:0:
144,177,180639,2,0,L|81:173,1,55.8999974411012,12|0,0:0|0:0,0:0:0:0:
278,251,180811,2,0,L|333:247,1,55.8999974411012,10|10,0:0|0:0,0:0:0:0:
166,383,180984,6,0,B|131:319|177:255|177:255|205:296,1,172,12|2,0:1|0:0,0:0:0:0:
197,284,181501,1,8,0:1:0:0:
237,108,181673,6,0,P|164:102|139:170,1,154.799995275879,8|0,0:0|0:0,0:0:0:0:
144,177,182018,1,2,0:0:0:0:
336,266,182191,6,0,B|401:273|401:273|426:298|426:298|479:303,1,154.799995275879,10|0,0:1|0:0,0:0:0:0:
511,211,182535,2,0,L|454:221,1,51.599998425293,10|0,0:1|0:0,0:0:0:0:
360,126,182708,6,0,B|364:83|364:83|370:73|370:73|377:19,1,103.199996850586,10|8,0:0|0:1,0:0:0:0:
469,108,183053,5,8,0:0:0:0:
257,10,183225,1,8,0:1:0:0:
471,89,183397,5,8,0:0:0:0:
243,127,183570,1,8,0:0:0:0:
243,127,183656,1,8,0:0:0:0:
243,127,183742,6,0,P|259:193|254:255,1,129,12|0,0:1|0:0,0:0:0:0:
202,330,184087,2,0,P|182:338|161:342,1,43,2|2,0:0|0:0,0:0:0:0:
125,231,184260,2,0,P|146:234|165:243,1,43,10|2,0:1|0:0,0:0:0:0:
297,336,184432,6,0,B|327:338|360:325|360:325|396:347|396:347|433:332|469:336,1,167.699992323304,10|0,0:0|0:0,0:0:0:0:
455,335,184777,1,2,0:0:0:0:
360,126,184949,6,0,B|344:152|344:152|354:206,1,86,10|0,0:1|0:0,0:0:0:0:
377,3,185294,1,10,0:1:0:0:
240,123,185466,2,0,B|104:101,1,129,8|0,0:1|0:0,0:0:0:0:
44,40,185811,5,8,0:0:0:0:
140,215,185984,1,10,0:1:0:0:
144,16,186156,1,8,0:0:0:0:
345,122,186328,5,8,0:0:0:0:
345,122,186415,1,8,0:0:0:0:
345,122,186501,2,0,P|391:61|487:72,1,172,6|2,0:0|0:0,0:0:0:0:
479,66,187018,1,8,0:1:0:0:
407,271,187191,6,0,B|318:293|343:219|246:243,1,167.699992323304,8|0,0:0|0:0,0:0:0:0:
220,346,187535,2,0,P|246:338|272:319,1,55.8999974411012,2|0,0:0|0:0,0:0:0:0:
97,202,187708,6,0,B|69:194|47:170|47:170|59:277,1,167.699992323304,8|0,0:1|0:0,0:0:0:0:
70,354,188053,1,8,0:1:0:0:
202,168,188225,2,0,P|177:119|125:102,1,111.799994882202,10|0,0:1|0:0,0:0:0:0:
344,6,188570,5,8,0:0:0:0:
249,242,188742,1,8,0:1:0:0:
165,0,188915,5,8,0:0:0:0:
343,148,189087,1,8,0:0:0:0:
343,148,189173,1,8,0:0:0:0:
343,148,189260,1,12,0:1:0:0:
343,148,189604,6,0,L|346:200,1,43,2|2,0:0|0:0,0:0:0:0:
352,271,189777,2,0,L|355:323,1,43,10|2,0:1|0:0,0:0:0:0:
272,239,189949,5,10,0:0:0:0:
425,143,190122,1,2,0:0:0:0:
261,71,190294,1,2,0:0:0:0:
339,24,190466,6,0,B|354:63|354:63|338:120,1,86,10|0,0:1|0:0,0:0:0:0:
506,177,190811,1,10,0:1:0:0:
428,224,190983,2,0,B|413:185|413:185|429:128,1,86,10|0,0:1|0:0,0:0:0:0:
272,239,191328,5,8,0:0:0:0:
134,120,191501,1,8,0:1:0:0:
102,298,191673,1,8,0:0:0:0:
0,170,191846,5,8,0:0:0:0:
0,170,191932,1,8,0:0:0:0:
0,170,192018,2,0,B|62:176|62:176|95:205|95:205|168:209,1,172,12|2,0:1|0:0,0:0:0:0:
294,106,192535,1,8,0:1:0:0:
160,7,192708,2,0,B|123:45|123:45|137:140,1,129,8|0,0:0|0:0,0:0:0:0:
134,120,193053,1,2,0:0:0:0:
420,134,193225,6,0,P|347:164|293:100,1,167.699992323304,10|0,0:1|0:0,0:0:0:0:
354,11,193570,2,0,P|367:52|365:82,1,55.8999974411012,10|0,0:1|0:0,0:0:0:0:
317,274,193742,6,0,B|365:228|437:250|437:250|417:282,1,167.699992323304,10|0,0:1|0:0,0:0:0:0:
304,362,194087,5,8,0:0:0:0:
322,181,194260,1,8,0:1:0:0:
144,164,194432,1,8,0:0:0:0:
124,341,194604,1,8,0:0:0:0:
124,341,194691,1,8,0:0:0:0:
124,341,194777,5,12,0:1:0:0:
223,263,194949,1,2,0:0:0:0:
137,159,195122,2,0,L|133:108,1,43,2|2,0:0|0:0,0:0:0:0:
224,72,195294,2,0,L|220:21,1,43,10|2,0:1|0:0,0:0:0:0:
138,0,195466,5,10,0:0:0:0:
229,161,195639,1,2,0:0:0:0:
362,35,195811,1,2,0:0:0:0:
420,134,195984,6,0,L|330:146,1,86,10|0,0:1|0:0,0:0:0:0:
222,161,196328,1,10,0:1:0:0:
387,241,196501,2,0,L|477:253,1,86,10|0,0:1|0:0,0:0:0:0:
308,348,196846,5,8,0:0:0:0:
334,145,197018,1,8,0:1:0:0:
307,360,197191,1,8,0:0:0:0:
146,232,197363,5,8,0:0:0:0:
146,232,197449,1,8,0:0:0:0:
146,232,197535,2,0,P|96:268|102:329,1,129,12|0,0:1|0:0,0:0:0:0:
100,342,197880,2,0,P|149:348|189:362,1,86,2|8,0:0|0:1,0:0:0:0:
334,145,198225,6,0,B|286:120|286:120|306:247,1,167.699992323304,8|0,0:0|0:0,0:0:0:0:
419,157,198570,2,0,P|418:119|404:96,1,55.8999974411012,2|0,0:0|0:0,0:0:0:0:
191,227,198742,6,0,B|101:240|138:167|37:184,1,167.699992323304,10|0,0:1|0:0,0:0:0:0:
174,52,199087,5,10,0:1:0:0:
174,52,199260,2,0,B|222:27|222:27|202:154,1,167.699992323304,10|0,0:1|0:0,0:0:0:0:
191,227,199604,5,8,0:0:0:0:
419,157,199777,1,8,0:1:0:0:
185,241,199949,1,8,0:0:0:0:
337,351,200122,5,8,0:0:0:0:
337,351,200208,1,8,0:0:0:0:
337,351,200294,2,0,P|330:304|324:252,1,90.2999972442628,6|2,0:0|0:0,0:0:0:0:
172,151,200639,2,0,P|179:198|185:250,1,90.2999972442628,8|2,0:1|0:0,0:0:0:0:
273,63,200984,2,0,P|241:33|198:23,1,90.2999972442628,8|2,0:1|0:0,0:0:0:0:
108,48,201328,1,8,0:1:0:0:
330,172,201501,6,0,P|377:163|433:154,1,90.2999972442628,10|8,0:0|0:1,0:0:0:0:
220,332,201846,2,0,P|175:323|131:316,1,90.2999972442628,2|8,0:0|0:1,0:0:0:0:
317,161,202191,1,2,0:0:0:0:
108,48,202363,5,10,0:1:0:0:
155,223,202535,1,8,0:0:0:0:
94,35,202708,6,0,L|86:106,1,45.1499986221314,8|8,0:1|0:1,0:0:0:0:
169,233,202880,2,0,L|176:168,1,45.1499986221314,8|0,0:0|0:0,0:0:0:0:
298,58,203053,6,0,P|342:63|387:67,1,90.2999972442628,10|0,0:1|0:0,0:0:0:0:
274,240,203397,1,8,0:1:0:0:
418,156,203570,1,2,0:0:0:0:
377,327,203742,1,8,0:1:0:0:
406,154,203915,1,2,0:0:0:0:
510,293,204087,1,8,0:0:0:0:
394,152,204260,1,2,0:0:0:0:
275,339,204432,6,0,B|239:311|195:329|195:329|172:369|134:370,1,161.25,10|0,0:1|0:0,0:0:0:0:
43,223,204777,6,0,P|95:206|108:300,1,161.25,10|0,0:0|0:0,0:0:0:0:
55,346,205122,5,10,0:1:0:0:
200,194,205294,1,8,0:0:0:0:
76,118,205466,1,4,0:3:0:0:
145,30,205639,1,8,0:1:0:0:
145,30,205725,1,8,0:1:0:0:
145,30,205811,6,0,P|189:37|234:42,1,90.2999972442628,12|0,0:1|0:0,0:0:0:0:
301,217,206156,2,0,P|256:209|211:204,1,90.2999972442628,8|0,0:0|0:0,0:0:0:0:
321,99,206501,1,10,0:1:0:0:
399,229,206673,1,2,0:0:0:0:
285,330,206846,1,8,0:0:0:0:
485,280,207018,6,0,P|489:232|497:183,1,90.2999972442628,2|8,0:0|0:1,0:0:0:0:
331,9,207363,1,2,0:0:0:0:
331,9,207535,2,0,P|327:57|319:106,1,90.2999972442628,8|2,0:0|0:0,0:0:0:0:
100,145,207880,5,8,0:1:0:0:
227,34,208053,1,8,0:0:0:0:
211,204,208225,2,0,P|204:159|200:114,1,90.2999972442628,8|2,0:1|0:0,0:0:0:0:
455,206,208570,5,8,0:1:0:0:
311,187,208742,1,2,0:0:0:0:
293,331,208914,1,8,0:0:0:0:
436,348,209087,1,2,0:0:0:0:
456,193,209260,6,0,P|461:148|469:102,1,90.2999972442628,8|2,0:1|0:0,0:0:0:0:
369,286,209604,1,8,0:0:0:0:
200,115,209777,6,0,B|114:95|148:166|55:163,1,161.25,12|0,0:1|0:0,0:0:0:0:
0,66,210122,6,0,P|35:68|66:81,1,53.75,8|0,0:0|0:0,0:0:0:0:
182,206,210294,2,0,P|217:204|248:191,1,53.75,8|0,0:0|0:0,0:0:0:0:
206,47,210466,6,0,L|200:112,1,53.75,4|0,0:3|0:0,0:0:0:0:
437,155,210639,5,8,0:0:0:0:
425,104,210725,1,8,0:3:0:0:
386,75,210811,1,4,0:3:0:0:
337,79,210897,1,8,0:1:0:0:
303,117,210984,1,12,0:0:0:0:
488,29,211156,1,8,0:1:0:0:
353,268,211328,6,0,L|348:203,1,64.4999980316163,8|0,0:0|0:0,0:0:0:0:
425,355,211846,6,0,B|396:343|396:343|371:366|335:363,1,96.7500036907198,8|0,0:0|0:0,0:0:0:0:
174,317,212191,6,0,P|235:320|270:269,1,129,8|0,0:0|0:0,0:0:0:0:
367,57,212535,6,0,B|321:111|321:111|355:223,1,167.699992323304,6|0,0:0|0:0,0:0:0:0:
427,135,212880,1,8,1:1:0:0:
276,29,213053,1,8,0:0:0:0:
204,198,213225,2,0,P|174:207|143:203,1,55.8999974411012,8|8,0:3|0:3,0:0:0:0:
23,52,213397,5,12,0:0:0:0:
57,39,213483,1,8,0:0:0:0:
94,44,213569,1,8,0:3:0:0:
123,66,213655,1,4,0:3:0:0:
138,99,213742,2,0,L|202:109,1,55.8999974411012,10|10,0:1|0:1,0:0:0:0:
60,253,213915,2,0,L|4:261,1,55.8999974411012,2|2,0:0|0:0,0:0:0:0:
177,366,214087,6,0,P|167:276|155:186,1,180.599994488526,12|8,0:1|0:0,0:0:0:0:
344,288,214604,1,2,0:0:0:0:
300,114,214777,2,0,P|289:157|283:202,1,90.2999972442628,8|2,0:1|0:0,0:0:0:0:
182,83,215122,1,8,0:0:0:0:
357,20,215294,1,2,0:0:0:0:
393,173,215467,5,8,0:1:0:0:
269,20,215639,1,2,3:2:0:0:
156,268,215811,1,8,0:0:0:0:
289,158,215984,2,0,L|282:222,1,45.1499986221314,2|0,0:0|3:0,0:0:0:0:
278,352,216156,5,8,0:1:0:0:
278,352,216242,1,2,3:2:0:0:
278,352,216329,1,2,3:2:0:0:
136,165,216501,1,8,0:0:0:0:
355,265,216673,1,2,0:0:0:0:
105,340,216846,6,0,P|141:277|246:273,1,180.599994488526,10|8,0:1|0:0,0:0:0:0:
366,366,217363,2,0,P|367:322|372:269,1,90.2999972442628,2|8,0:0|0:1,0:0:0:0:
424,147,217708,1,2,0:0:0:0:
241,270,217880,1,8,0:0:0:0:
455,330,218053,1,2,0:0:0:0:
306,100,218225,6,0,P|312:144|317:189,1,90.2999972442628,8|0,0:1|0:0,0:0:0:0:
147,297,218570,2,0,P|143:252|160:210,1,90.2999972442628,10|0,0:0|3:0,0:0:0:0:
160,211,218829,1,0,3:0:0:0:
160,211,218915,1,10,0:1:0:0:
371,275,219087,1,0,0:0:0:0:
249,359,219260,2,0,L|241:270,1,90.2999972442628,10|0,0:0|0:0,0:0:0:0:
130,107,219605,5,12,0:1:0:0:
317,189,219777,1,2,0:0:0:0:
267,22,219949,1,8,0:0:0:0:
241,270,220122,1,2,0:0:0:0:
406,61,220294,5,8,0:1:0:0:
458,236,220467,1,0,0:0:0:0:
237,105,220639,1,10,0:0:0:0:
467,146,220811,1,0,0:0:0:0:
369,298,220984,5,10,0:1:0:0:
329,103,221156,1,2,0:0:0:0:
133,143,221328,1,10,0:0:0:0:
173,339,221501,1,2,0:0:0:0:
237,105,221673,6,0,L|228:42,1,45.1499986221314,10|0,0:1|0:0,0:0:0:0:
229,269,221846,2,0,L|223:225,1,45.1499986221314,2|0,0:0|0:0,0:0:0:0:
133,143,222018,6,0,P|108:134|82:131,1,53.75,10|2,0:0|0:0,0:0:0:0:
370,202,222191,2,0,P|344:206|319:215,1,53.75,2|2,0:0|0:0,0:0:0:0:
173,339,222363,6,0,P|163:279|213:225,1,135.449995866394,12|0,0:1|0:0,0:0:0:0:
223,225,222708,1,8,0:0:0:0:
412,324,222880,2,0,B|367:336|367:336|327:316,1,90.2999972442628,2|8,0:0|0:1,0:0:0:0:
279,135,223225,1,2,0:0:0:0:
446,243,223397,1,8,0:0:0:0:
479,73,223570,1,2,0:0:0:0:
383,36,223742,6,0,P|373:80|386:123,1,90.2999972442628,8|2,0:1|0:0,0:0:0:0:
226,311,224087,2,0,P|235:267|222:224,1,90.2999972442628,8|2,0:0|0:0,0:0:0:0:
56,57,224432,5,10,0:1:0:0:
81,76,224518,1,2,0:0:0:0:
114,83,224604,1,2,0:0:0:0:
145,73,224690,1,2,0:0:0:0:
170,49,224776,1,10,0:0:0:0:
194,26,224863,1,2,0:0:0:0:
226,17,224949,1,2,0:0:0:0:
259,23,225035,1,2,0:0:0:0:
285,44,225122,6,0,L|278:147,1,90.2999972442628,8|2,0:1|0:0,0:0:0:0:
147,267,225466,1,8,0:0:0:0:
344,244,225639,2,0,L|248:221,1,90.2999972442628,2|8,0:0|0:1,0:0:0:0:
65,182,225984,5,2,0:0:0:0:
214,349,226156,1,8,0:0:0:0:
278,134,226328,1,2,0:0:0:0:
344,244,226501,5,10,0:1:0:0:
156,107,226674,1,2,0:0:0:0:
287,27,226846,1,10,0:0:0:0:
164,224,227018,2,0,L|145:265,1,45.1499986221314,2|0,0:0|3:0,0:0:0:0:
59,49,227191,5,8,0:1:0:0:
278,133,227363,1,8,0:0:0:0:
234,332,227536,5,8,0:3:0:0:
365,104,227708,1,4,0:3:0:0:
477,284,227880,6,0,B|447:301|447:301|415:282|415:282|373:300|338:283,1,148.350002829552,6|0,0:0|0:0,0:0:0:0:
210,175,228225,6,0,B|232:166|232:166|269:183|297:163|297:163|342:207|392:191,1,193.50000738144,8|8,1:0|0:0,0:0:0:0:
456,13,228570,6,0,B|439:45|439:45|452:115,1,107.5,8|8,0:1|0:0,0:0:0:0:
313,41,228828,5,8,0:0:0:0:
313,41,228915,2,0,B|275:71|275:71|254:27|254:27|139:3,1,193.50000738144,8|8,1:0|0:0,0:0:0:0:
27,187,229260,6,0,P|49:164|80:155,1,64.5000024604798,8|8,1:0|0:0,0:0:0:0:
201,335,229518,5,8,0:0:0:0:
191,331,229604,2,0,P|170:306|164:274,1,64.5000024604798,8|0,1:0|0:0,0:0:0:0:
167,170,229777,6,0,P|176:139|196:114,1,64.5000024604798,8|8,1:3|1:3,0:0:0:0:
403,271,229949,6,0,P|360:269|323:247,1,86,8|8,1:0|0:0,0:0:0:0:
312,13,230208,5,8,0:0:0:0:
317,23,230294,2,0,P|314:54|295:82,1,64.5000024604798,4|4,1:3|0:3,0:0:0:0:
227,151,230467,6,0,P|198:165|166:169,1,64.5000024604798,8|8,0:1|0:1,0:0:0:0:
18,33,230639,6,0,P|89:16|175:95,1,193.50000738144,8|0,1:0|3:0,0:0:0:0:
479,191,230984,6,0,P|408:174|322:253,1,193.50000738144,8|0,1:0|3:0,0:0:0:0:
206,366,231328,6,0,P|205:325|218:290,1,64.5000024604798,8|8,1:0|0:3,0:0:0:0:
262,189,231501,2,0,P|269:157|267:125,1,64.5000024604798,4|8,0:3|0:1,0:0:0:0:
222,2,231673,1,10,0:1:0:0:
8,236,231846,6,0,B|44:241|78:214|78:214|115:248|115:248|157:233|157:233|182:282|230:288,1,258.000009841919,12|8,0:1|0:0,0:0:0:0:
356,78,232363,1,8,0:1:0:0:
141,148,232535,1,8,0:1:0:0:
303,345,232708,5,8,0:0:0:0:
262,104,232880,2,0,L|250:24,1,64.5000024604798,8|8,0:0|0:0,0:0:0:0:
422,189,233053,6,0,P|423:163|428:133,1,55.8999974411012,8|8,0:3|0:3,0:0:0:0:
222,286,233225,6,0,P|210:262|196:241,1,51.599998425293,4|4,0:3|0:3,0:0:0:0:
468,346,233397,5,6,0:0:0:0:
468,346,233742,6,0,P|432:337|392:330,1,64.5000024604798,2|0,0:0|0:0,0:0:0:0:
270,192,233915,2,0,P|301:185|332:177,1,64.5000024604798,6|0,0:0|0:0,0:0:0:0:
332,177,234260,6,0,L|135:147,1,193.50000738144,6|0,0:0|0:0,0:0:0:0:
92,87,234604,1,2,0:0:0:0:
203,39,234777,5,6,0:0:0:0:
35,244,234949,1,2,0:0:0:0:
74,69,235122,5,8,0:1:0:0:
209,320,235294,2,0,L|273:301,1,51.599998425293,8|8,0:0|0:0,0:0:0:0:
421,124,235466,5,8,0:1:0:0:
381,90,235552,1,8,0:0:0:0:
331,79,235638,1,8,0:0:0:0:
281,94,235724,1,8,0:0:0:0:
244,129,235810,5,8,0:3:0:0:
228,188,235897,1,8,0:3:0:0:
248,247,235984,1,4,0:3:0:0:
297,285,236070,1,4,0:3:0:0:
358,289,236156,6,0,P|379:192|404:91,1,193.50000738144,12|0,0:1|0:0,0:0:0:0:
427,12,236501,5,8,0:0:0:0:
153,126,236673,1,2,0:0:0:0:
175,11,236845,5,10,0:1:0:0:
248,247,237018,2,0,L|184:224,1,51.599998425293,2|2,0:0|0:0,0:0:0:0:
47,175,237191,1,8,0:0:0:0:
273,97,237362,1,2,0:0:0:0:
123,347,237535,6,0,P|119:298|111:228,1,103.199996850586,10|0,0:1|0:0,0:0:0:0:
113,244,237794,1,2,0:0:0:0:
113,244,237880,1,8,0:0:0:0:
275,360,238053,1,2,0:0:0:0:
362,125,238225,5,10,0:1:0:0:
321,131,238311,1,2,0:0:0:0:
280,138,238397,1,2,0:0:0:0:
239,145,238483,1,2,0:0:0:0:
198,150,238570,2,0,P|190:125|191:99,1,51.599998425293,8|0,0:0|0:0,0:0:0:0:
108,48,238742,2,0,P|120:25|138:7,1,51.599998425293,2|0,0:0|0:3,0:3:0:0:
292,8,238915,5,10,0:1:0:0:
292,8,239001,1,2,0:0:0:0:
248,247,239173,1,2,0:0:0:0:
248,247,239260,1,10,0:0:0:0:
44,120,239432,1,2,0:0:0:0:
198,150,239605,5,8,0:1:0:0:
79,327,239777,2,0,L|27:319,1,51.599998425293,2|0,0:0|0:0,0:0:0:0:
261,232,239949,2,0,L|380:248,1,103.199996850586,8|2,0:0|0:0,0:0:0:0:
511,80,240294,5,10,0:1:0:0:
511,80,240380,2,0,P|460:82|412:62,1,103.199996850586,2|2,0:0|0:0,0:0:0:0:
326,10,240639,2,0,L|335:74,1,51.599998425293,8|0,0:0|0:0,0:0:0:0:
363,245,240811,1,2,0:0:0:0:
211,122,240984,5,8,0:1:0:0:
421,165,241156,2,0,L|472:174,1,51.599998425293,2|0,0:0|0:0,0:0:0:0:
272,334,241328,2,0,P|268:285|259:225,1,103.199996850586,8|2,0:0|0:0,0:0:0:0:
128,136,241673,5,8,0:1:0:0:
350,219,241845,1,2,0:0:0:0:
207,40,242017,5,8,0:0:0:0:
348,238,242190,1,2,0:0:0:0:
325,21,242362,5,8,0:1:0:0:
291,311,242535,1,2,0:0:0:0:
440,116,242707,5,8,0:0:0:0:
176,265,242879,1,2,0:0:0:0:
120,52,243052,5,8,0:1:0:0:
348,238,243224,1,8,0:0:0:0:
63,272,243397,5,12,0:0:0:0:
271,87,243570,2,0,L|263:145,1,51.599998425293,0|0,3:0|3:0,0:0:0:0:
219,370,243742,5,10,0:1:0:0:
177,340,243828,1,2,0:0:0:0:
160,292,243914,1,2,0:0:0:0:
172,243,244000,1,2,0:0:0:0:
210,209,244087,2,0,L|266:219,1,51.599998425293,8|8,0:0|0:0,0:0:0:0:
383,326,244260,2,0,L|439:336,1,51.599998425293,8|8,0:0|0:0,0:0:0:0:
508,73,244432,6,0,B|447:41|447:41|462:177,1,193.50000738144,12|0,0:1|0:0,0:0:0:0:
383,326,244777,2,0,B|360:280|360:280|381:222,1,103.199996850586,8|0,0:0|0:0,0:0:0:0:
204,64,245122,5,10,0:1:0:0:
243,292,245294,1,2,0:0:0:0:
24,218,245466,1,8,0:0:0:0:
305,172,245639,6,0,P|258:165|203:151,1,103.199996850586,2|8,0:0|0:1,0:0:0:0:
59,342,245984,2,0,P|113:325|176:311,1,103.199996850586,2|8,0:0|0:0,0:0:0:0:
0,128,246329,1,2,0:0:0:0:
192,231,246501,5,8,0:1:0:0:
206,192,246587,1,2,0:0:0:0:
203,151,246673,1,2,0:0:0:0:
182,115,246759,1,2,0:0:0:0:
147,92,246845,1,10,0:0:0:0:
24,218,247019,1,2,0:0:0:0:
122,5,247191,5,10,0:1:0:0:
290,144,247363,1,2,0:0:0:0:
290,144,247449,2,0,L|366:129,1,51.599998425293,2|8,0:0|0:0,0:0:0:0:
158,314,247708,1,2,0:0:0:0:
340,329,247880,6,0,P|326:280|285:250,1,103.199996850586,10|0,0:1|0:0,0:0:0:0:
131,154,248139,6,0,B|154:215|214:210|214:210|205:191,1,129.00000492096,2|0,0:0|0:0,0:0:0:0:
260,23,248397,6,0,P|238:52|227:77,1,64.5000024604798,2|0,0:0|0:0,0:0:0:0:
500,154,248570,6,0,B|451:147|451:147|421:164|421:164|376:159,1,129.00000492096,10|0,0:1|0:0,0:0:0:0:
290,144,248828,1,2,0:0:0:0:
290,144,248915,2,0,P|289:179|305:215,1,64.5000024604798,8|0,0:0|0:0,0:0:0:0:
361,14,249087,1,2,0:0:0:0:
205,191,249260,5,10,0:1:0:0:
165,197,249346,1,2,0:0:0:0:
126,187,249432,1,2,0:0:0:0:
95,160,249518,1,2,0:0:0:0:
77,122,249604,2,0,L|84:60,1,51.599998425293,8|0,0:0|0:0,0:0:0:0:
154,292,249777,2,0,L|148:343,1,51.599998425293,2|0,0:0|0:0,0:0:0:0:
394,263,249949,5,10,0:1:0:0:
394,263,250035,2,0,P|353:232|303:234,1,103.199996850586,2|2,0:0|0:0,0:0:0:0:
247,289,250294,1,8,0:0:0:0:
403,82,250466,1,2,0:0:0:0:
438,338,250639,5,8,0:1:0:0:
290,144,250811,2,0,L|281:85,1,51.599998425293,2|0,0:0|0:0,0:0:0:0:
476,261,250984,2,0,L|487:151,1,103.199996850586,8|0,0:0|0:0,0:0:0:0:
247,289,251329,5,10,0:1:0:0:
247,289,251416,2,0,P|193:299|141:268,1,103.199996850586,2|2,0:0|0:0,0:0:0:0:
101,219,251674,1,8,0:0:0:0:
321,339,251847,1,2,0:0:0:0:
282,92,252018,5,8,0:1:0:0:
201,213,252191,1,2,0:0:0:0:
201,213,252277,1,2,0:0:0:0:
201,213,252363,2,0,L|188:92,1,103.199996850586,8|2,0:0|0:0,0:0:0:0:
176,17,252708,5,8,0:1:0:0:
101,219,252880,1,2,0:0:0:0:
101,219,252966,1,2,0:0:0:0:
101,219,253053,1,8,0:0:0:0:
12,105,253225,1,2,0:0:0:0:
216,215,253397,6,0,B|256:205|256:205|284:215|284:215|315:208,1,103.199996850586,8|2,0:1|0:0,0:0:0:0:
402,242,253656,1,2,0:0:0:0:
415,245,253742,2,0,B|483:253,1,51.599998425293,8|0,0:0|0:0,0:0:0:0:
484,138,253915,2,0,B|432:144,1,51.599998425293,2|2,0:0|0:0,0:0:0:0:
241,57,254087,5,10,0:1:0:0:
282,328,254260,1,10,0:0:0:0:
348,93,254432,5,10,0:0:0:0:
163,288,254604,1,8,0:1:0:0:
415,228,254777,6,0,P|381:248|336:253,1,64.5000024604798,10|2,0:0|0:0,0:0:0:0:
125,127,254949,6,0,P|156:134|183:152,1,64.5000024604798,2|10,0:0|0:0,0:0:0:0:
339,348,255122,6,0,P|300:338|262:302,1,73.1000013942719,10|10,0:0|0:0,0:0:0:0:
242,32,255294,6,0,P|258:59|267:106,1,73.1000013942719,10|8,0:0|0:0,0:0:0:0:
67,275,255466,6,0,L|16:267,1,51.599998425293,2|0,0:0|0:0,0:0:0:0:
16,267,255811,6,0,L|163:249,1,129.00000492096,12|2,1:0|0:0,0:0:0:0:
399,218,256156,5,8,0:1:0:0:
182,151,256328,1,2,0:0:0:0:
262,318,256501,2,0,B|282:284|282:284|271:204,1,103.199996850586,8|2,0:0|0:0,0:0:0:0:
85,47,256846,6,0,L|29:58,1,51.599998425293,12|0,0:1|0:0,0:0:0:0:
182,151,257018,2,0,L|238:140,1,51.599998425293,0|0,3:0|3:0,0:0:0:0:
77,38,257191,6,0,L|21:49,1,51.599998425293,8|0,0:1|0:0,0:0:0:0:
189,157,257363,2,0,L|245:146,1,51.599998425293,8|8,0:0|0:0,0:0:0:0:
489,43,257535,5,10,0:1:0:0:
448,36,257621,1,2,0:0:0:0:
407,31,257707,1,10,0:0:0:0:
366,26,257793,1,10,0:0:0:0:
325,20,257879,1,10,0:1:0:0:
399,218,258052,1,10,0:0:0:0:
164,318,258225,6,0,B|148:250|148:250|114:219|114:219|94:143,1,193.50000738144,12|2,0:1|0:0,0:0:0:0:
204,64,258570,2,0,B|218:110|218:110|185:163,1,103.199996850586,8|2,0:0|0:0,0:0:0:0:
387,355,258915,5,8,0:1:0:0:
307,151,259087,1,2,0:0:0:0:
307,151,259173,1,2,0:0:0:0:
307,151,259260,1,8,0:0:0:0:
511,189,259432,1,2,0:0:0:0:
263,288,259604,6,0,L|164:317,1,103.199996850586,10|0,0:1|0:0,0:0:0:0:
163,317,259863,1,2,0:0:0:0:
163,317,259949,1,8,0:0:0:0:
390,250,260122,1,2,0:0:0:0:
224,203,260294,5,10,0:1:0:0:
209,166,260380,1,2,0:0:0:0:
209,126,260466,1,2,0:0:0:0:
227,89,260552,1,2,0:0:0:0:
260,63,260639,2,0,L|328:54,1,51.599998425293,8|0,0:0|0:0,0:0:0:0:
462,138,260811,2,0,L|411:145,1,51.599998425293,2|0,0:0|0:0,0:0:0:0:
250,33,260984,5,10,0:1:0:0:
250,33,261070,2,0,B|137:50,1,103.199996850586,2|2,0:0|0:0,0:0:0:0:
70,63,261328,1,8,0:0:0:0:
294,147,261501,1,2,0:0:0:0:
224,203,261673,5,8,0:1:0:0:
356,10,261846,2,0,L|353:62,1,51.599998425293,2|0,0:0|0:0,0:0:0:0:
411,254,262018,2,0,L|417:149,1,103.199996850586,8|0,0:0|0:0,0:0:0:0:
485,327,262363,5,10,0:1:0:0:
485,327,262449,1,2,0:0:0:0:
323,231,262622,1,2,0:0:0:0:
323,231,262708,1,8,0:0:0:0:
224,370,262880,1,2,0:0:0:0:
151,147,263053,5,8,0:1:0:0:
230,283,263225,2,0,L|235:223,1,51.599998425293,2|0,0:0|0:0,0:0:0:0:
55,101,263397,2,0,L|66:204,1,103.199996850586,8|2,0:0|0:0,0:0:0:0:
370,25,263742,5,10,0:1:0:0:
323,231,263915,1,2,0:0:0:0:
263,39,264087,5,8,0:0:0:0:
399,284,264260,1,2,0:0:0:0:
157,112,264432,5,8,0:1:0:0:
419,187,264605,1,2,0:0:0:0:
137,289,264777,5,8,0:0:0:0:
365,119,264949,1,2,0:0:0:0:
156,26,265122,6,0,P|143:55|142:87,1,64.5000024604798,8|0,0:1|0:0,0:0:0:0:
218,301,265294,2,0,P|216:268|204:239,1,64.5000024604798,8|0,0:0|0:0,0:0:0:0:
43,103,265466,6,0,P|58:144|80:168,1,68.8,8|0,0:0|0:0,0:0:0:0:
303,211,265638,2,0,P|279:189|241:175,1,68.8,8|8,0:1|0:1,0:0:0:0:
48,300,265811,6,0,P|86:300|122:285,1,73.1000013942719,8|0,0:0|0:0,0:0:0:0:
293,38,265984,5,8,0:0:0:0:
293,38,266070,1,8,0:0:0:0:
293,38,266156,2,0,P|207:26|256:139,1,258,12|0,0:0|0:0,0:0:0:0:
474,270,266501,6,0,B|432:233|385:246|385:246|364:299|307:299,1,193.50000738144,12|0,0:1|0:0,0:0:0:0:
223,258,266846,5,8,0:0:0:0:
418,142,267018,2,0,B|430:37,1,103.199996850586,2|8,0:0|0:1,0:0:0:0:
210,250,267363,2,0,B|221:352,1,103.199996850586,2|8,0:0|0:0,0:0:0:0:
30,97,267708,6,0,P|80:107|148:117,1,103.199996850586,2|8,0:0|0:1,0:0:0:0:
323,334,268053,2,0,P|272:341|221:351,1,103.199996850586,2|8,0:0|0:0,0:0:0:0:
418,142,268397,1,2,0:0:0:0:
253,22,268570,5,10,0:1:0:0:
256,62,268656,1,2,0:0:0:0:
262,103,268742,1,2,0:0:0:0:
268,144,268828,1,2,0:0:0:0:
272,185,268914,1,10,0:0:0:0:
429,39,269087,1,2,0:0:0:0:
164,138,269260,6,0,B|85:123|85:123|66:158|24:160,1,154.799995275879,10|2,0:1|0:0,0:0:0:0:
15,80,269604,1,8,0:0:0:0:
187,230,269777,1,2,0:0:0:0:
56,355,269949,6,0,P|48:305|75:256,1,103.199996850586,10|0,0:1|0:0,0:0:0:0:
71,259,270208,1,0,0:0:0:0:
71,259,270294,1,10,0:0:0:0:
291,335,270466,1,0,0:0:0:0:
186,91,270639,6,0,B|203:146|203:146|176:238,1,129.00000492096,10|0,0:1|0:0,0:0:0:0:
386,297,270897,6,0,B|354:258|354:258|378:226|376:177,1,129.00000492096,2|0,0:0|0:0,0:0:0:0:
269,12,271156,6,0,B|269:59|269:59|289:93,1,64.5000024604798,2|0,0:0|0:0,0:0:0:0:
510,175,271328,5,10,0:1:0:0:
489,140,271414,1,2,0:0:0:0:
457,116,271500,1,2,0:0:0:0:
417,108,271586,1,2,0:0:0:0:
376,119,271673,2,0,P|354:139|341:168,1,51.599998425293,8|0,0:0|0:0,0:0:0:0:
264,214,271846,2,0,P|262:243|273:273,1,51.599998425293,2|0,0:0|0:3,0:3:0:0:
134,162,272018,5,10,0:1:0:0:
134,162,272104,1,2,0:0:0:0:
361,250,272276,1,2,0:0:0:0:
361,250,272363,1,10,0:0:0:0:
192,343,272535,1,2,0:0:0:0:
278,75,272708,5,8,0:1:0:0:
268,264,272880,1,2,0:0:0:0:
416,32,273053,5,8,0:0:0:0:
480,285,273225,1,2,0:0:0:0:
179,91,273397,5,8,0:1:0:0:
387,151,273570,1,2,0:0:0:0:
327,360,273743,1,8,0:0:0:0:
119,300,273915,1,2,0:0:0:0:
250,3,274087,6,0,P|299:82|270:171,1,193.50000738144,10|0,0:1|0:0,0:0:0:0:
70,102,274432,6,0,B|120:91|120:91|150:103|150:103|197:93,1,129.00000492096,8|0,0:0|0:0,0:0:0:0:
338,361,274777,6,0,P|277:315|202:327,1,154.799995275879,10|0,0:1|0:0,0:0:0:0:
136,365,275122,1,8,0:0:0:0:
345,233,275294,1,2,0:0:0:0:
70,102,275467,1,10,0:1:0:0:
203,326,275639,1,2,0:0:0:0:
300,38,275812,1,8,0:0:0:0:
60,215,275984,1,2,0:0:0:0:
345,233,276156,6,0,L|396:239,1,51.599998425293,10|0,0:1|0:0,0:0:0:0:
194,93,276328,5,10,0:0:0:0:
194,93,276415,1,2,0:0:0:0:
194,93,276501,2,0,L|201:144,1,51.599998425293,10|0,0:0|0:0,0:0:0:0:
110,205,276673,6,0,P|84:211|59:214,1,51.599998425293,2|0,0:0|0:0,0:0:0:0:
211,338,276846,6,0,P|236:341|261:347,1,51.599998425293,10|0,0:0|0:0,0:0:0:0:
511,176,277018,5,2,0:0:0:0:
463,156,277104,1,10,0:0:0:0:
412,161,277190,1,4,0:3:0:0:
369,189,277276,1,4,0:3:0:0:
345,233,277362,1,8,0:1:0:0:
343,284,277449,1,8,0:1:0:0:
366,330,277535,6,0,L|459:315,1,94.600002886963,12|2,0:1|0:0,0:0:0:0:
229,188,277880,1,8,0:0:0:0:
261,347,278053,1,2,0:0:0:0:
147,132,278225,2,0,B|131:174|131:174|144:222,1,94.600002886963,8|2,0:1|0:0,0:0:0:0:
243,84,278570,1,8,0:0:0:0:
172,309,278742,6,0,B|65:297,1,94.600002886963,2|8,0:0|0:1,0:0:0:0:
229,188,279087,1,2,0:0:0:0:
269,364,279260,2,0,B|367:353,1,94.600002886963,8|0,0:0|0:1,0:0:0:0:
511,176,279605,6,0,P|452:132|386:151,1,141.900004330444,10|0,0:1|0:0,0:0:0:0:
350,217,279949,1,10,0:0:0:0:
350,217,280036,1,2,0:0:0:0:
350,217,280122,1,2,0:0:0:0:
350,217,280208,1,2,0:0:0:0:
350,217,280294,2,0,P|303:223|256:230,1,94.600002886963,10|0,0:1|0:0,0:0:0:0:
238,44,280639,1,8,0:0:0:0:
238,44,280725,1,2,0:0:0:0:
238,44,280812,2,0,B|247:98,1,47.3000014434815,2|2,0:0|0:0,0:0:0:0:
173,258,280984,5,10,0:1:0:0:
139,265,281070,1,2,0:0:0:0:
105,256,281156,1,2,0:0:0:0:
77,233,281242,1,2,0:0:0:0:
60,203,281328,1,10,0:0:0:0:
54,166,281415,1,2,0:0:0:0:
69,133,281501,1,2,0:0:0:0:
94,108,281587,1,2,0:0:0:0:
126,94,281673,6,0,L|173:106,1,47.3000014434815,10|0,0:1|0:0,0:0:0:0:
256,229,281846,2,0,P|258:252|260:276,1,47.3000014434815,2|2,0:0|0:0,0:0:0:0:
380,55,282019,6,0,P|356:61|334:63,1,47.3000014434815,10|2,0:0|0:0,0:0:0:0:
249,285,282191,2,0,L|242:225,1,47.3000014434815,2|2,0:0|0:0,0:0:0:0:
494,169,282363,5,10,0:1:0:0:
494,169,282450,1,2,0:0:0:0:
494,169,282536,2,0,B|484:245,1,47.3000014434815,2|2,0:0|0:0,0:0:0:0:
343,374,282708,1,10,0:0:0:0:
324,330,282794,1,2,0:0:0:0:
328,282,282880,1,2,0:0:0:0:
353,243,282966,1,2,0:0:0:0:
397,224,283053,6,0,L|235:238,1,141.900004330444,6|0,0:0|0:0,0:0:0:0:
243,238,283397,1,8,0:0:0:0:
61,138,283570,1,2,0:0:0:0:
158,288,283742,2,0,P|145:242|154:197,1,94.600002886963,10|0,0:1|0:0,0:0:0:0:
219,70,284086,1,8,0:0:0:0:
153,298,284259,6,0,L|30:288,1,94.600002886963,2|8,0:0|0:1,0:0:0:0:
235,150,284604,1,2,0:0:0:0:
278,365,284776,2,0,P|273:317|267:270,1,94.600002886963,8|0,0:0|0:0,0:0:0:0:
435,164,285121,2,0,P|369:181|323:132,1,141.900004330444,10|0,0:1|0:1,0:0:0:0:
325,52,285466,5,10,0:0:0:0:
325,52,285552,1,2,0:0:0:0:
325,52,285638,1,2,0:0:0:0:
325,52,285724,1,2,0:0:0:0:
325,52,285811,2,0,L|228:71,1,94.600002886963,10|0,0:1|0:0,0:0:0:0:
158,101,286070,1,2,0:0:0:0:
146,99,286156,2,0,L|99:90,1,47.3000014434815,10|0,0:0|0:0,0:0:0:0:
34,199,286328,2,0,L|80:190,1,47.3000014434815,2|2,0:0|0:0,0:0:0:0:
154,294,286501,6,0,L|148:344,1,47.3000014434815,10|2,0:1|0:0,0:0:0:0:
236,315,286673,2,0,L|230:365,1,47.3000014434815,2|2,0:0|0:0,0:0:0:0:
328,178,286846,6,0,L|322:128,1,47.3000014434815,10|2,0:0|0:0,0:0:0:0:
435,164,287018,2,0,L|429:114,1,47.3000014434815,2|2,0:0|0:0,0:0:0:0:
491,275,287191,5,10,0:0:0:0:
167,196,287449,5,10,0:0:0:0:
463,35,287708,5,10,0:0:0:0:
322,232,287880,5,8,0:0:0:0:
329,225,287966,2,0,L|327:173,1,47.3000014434815,2|0,0:0|0:0,0:0:0:0:
243,34,288139,5,10,0:0:0:0:
250,41,288225,2,0,L|248:93,1,47.3000014434815,2|0,0:0|0:0,0:0:0:0:
151,207,288397,6,0,L|94:200,1,47.3000014434815,10|0,0:0|0:0,0:0:0:0:
24,118,288570,5,4,0:2:0:0:
175,323,288914,1,2,0:0:0:0:
175,323,289259,1,2,0:0:0:0:
148,78,289604,5,0,0:0:0:0:
175,323,289949,1,2,0:0:0:0:
148,78,290294,5,2,0:0:0:0:
200,158,290466,5,0,0:0:0:0:
303,114,290638,5,2,0:0:0:0:
344,187,290811,5,0,0:0:0:0:
425,168,290983,5,2,0:0:0:0:
445,245,291156,5,0,0:0:0:0:
456,69,291328,5,2,0:0:0:0:
334,204,291501,5,2,0:0:0:0:
228,64,291673,6,0,B|162:45|172:118|111:36|39:47,2,172,2|2|2,0:0|0:3|0:0,0:0:0:0:
29,336,292707,6,0,B|74:277|74:324|228:324|146:174,1,258,4|0,3:2|0:0,0:0:0:0:
41,141,293397,2,0,B|21:216|70:182|65:251,1,86,2|0,0:0|0:0,0:0:0:0:
237,332,293742,6,0,B|335:335|269:276|310:242|433:245|388:324|505:295,1,258
493,180,294432,2,0,B|486:153|447:151|455:255,1,86,2|0,0:0|0:0,0:0:0:0:
460,56,294776,6,0,B|425:33|309:58|371:136|302:192|267:123|315:71,1,258
138,49,295466,2,0,B|172:66|188:99|207:63|207:46,1,86,2|0,0:0|0:0,0:0:0:0:
61,218,295811,5,0,0:0:0:0:
61,218,296156,1,2,0:0:0:0:
61,218,296501,2,2,B|69:184|10:172|27:110,1,86,2|0,0:0|0:0,0:0:0:0:
100,359,296845,6,0,B|171:230|193:341|240:256|170:157,1,258,2|0,3:2|0:0,0:0:0:0:
311,50,297535,2,0,B|294:70|270:103|309:164,1,86,2|0,0:0|0:0,0:0:0:0:
395,360,297880,6,0,B|355:238|272:308|326:380|416:323|410:205,1,258
482,107,298570,2,0,B|414:144|424:132|388:85,1,86,2|0,0:0|0:0,0:0:0:0:
250,52,298914,6,0,L|245:24,9,28.6666666666667,0|0|0|0|0|0|2|0|0|0,0:0|0:0|0:0|0:0|0:0|0:0|0:0|0:0|0:0|0:0,0:0:0:0:
176,84,299604,6,0,B|148:87|144:72|141:17,1,86
154,178,299949,6,0,B|95:155|112:208|38:207,1,86,2|0,0:0|0:0,0:0:0:0:
181,266,300294,6,0,P|164:313|138:335,1,86,2|0,3:2|0:0,0:0:0:0:
301,297,300638,6,0,B|326:343|310:362|340:390,1,86,2|0,3:2|0:0,0:0:0:0:
417,182,300983,5,2,3:2:0:0:
429,173,301673,6,0,B|379:82|379:82|301:149,1,206.399993701172,2|0,0:0|0:0,0:0:0:0:
