osu file format v14

[General]
AudioFilename: audio.mp3
AudioLeadIn: 0
PreviewTime: 52980
Countdown: 0
SampleSet: Normal
StackLeniency: 0.7
Mode: 3
LetterboxInBreaks: 0
SpecialStyle: 0
WidescreenStoryboard: 0

[Editor]
DistanceSpacing: 0.8
BeatDivisor: 4
GridSize: 32
TimelineZoom: 1

[Metadata]
Title:Ima Koko
TitleUnicode:イマココ
Artist:Toyama Nao
ArtistUnicode:東山奈央
Creator:Tofu1222
Version:Sya's Easy
Source:月がきれい
Tags:opening tsuki ga kirei as the moon so beautiful Syadow- VTZL-128 WEST GROUND
BeatmapID:1344190
BeatmapSetID:631143

[Difficulty]
HPDrainRate:6.5
CircleSize:4
OverallDifficulty:7
ApproachRate:3
SliderMultiplier:1.4
SliderTickRate:1

[Events]
//Background and Video events
0,0,"bg.png",0,0
//Break Periods
//Storyboard Layer 0 (Background)
//Storyboard Layer 1 (Fail)
//Storyboard Layer 2 (Pass)
//Storyboard Layer 3 (Foreground)
//Storyboard Sound Samples
Sample,266,0,"A3S_s.wav",80
Sample,587,0,"E4S_s.wav",80
Sample,908,0,"B4S_s.wav",80
Sample,1980,0,"B5S_s.wav",80
Sample,1980,0,"B4S_s.wav",80
Sample,2837,0,"D#6S_Eb6S_s.wav",80
Sample,3694,0,"C#4S_Db4S_s.wav",80
Sample,3694,0,"E6S_s.wav",80
Sample,4016,0,"E4S_s.wav",80
Sample,4337,0,"B4S_s.wav",80
Sample,5194,0,"D#7S_Eb7S_s.wav",80
Sample,5301,0,"E7S_s.wav",80
Sample,5408,0,"B3S_s.wav",80
Sample,5408,0,"D#7S_Eb7S_s.wav",80
Sample,5730,0,"B6S_s.wav",80
Sample,6051,0,"F#6S_Gb6S_s.wav",80
Sample,7123,0,"E4S_s.wav",80
Sample,7123,0,"B4S_s.wav",80
Sample,7444,0,"E4S_s.wav",80
Sample,7766,0,"B4S_s.wav",80
Sample,8837,0,"F#6S_Gb6S_s.wav",80
Sample,8837,0,"B3S_s.wav",80
Sample,11837,0,"normal-hitwhistle.wav",50
Sample,12266,0,"normal-hitfinish.wav",50
Sample,13551,0,"normal-hitwhistle.wav",50
Sample,15266,0,"normal-hitclap.wav",50
Sample,16980,0,"normal-hitwhistle.wav",50
Sample,18694,0,"normal-hitwhistle.wav",50
Sample,19123,0,"normal-hitfinish.wav",50
Sample,20408,0,"normal-hitwhistle.wav",50
Sample,22123,0,"normal-hitwhistle.wav",50
Sample,22551,0,"normal-hitfinish.wav",50
Sample,23623,0,"B7S_s.wav",80
Sample,23730,0,"F#7S_Gb7S_s.wav",80
Sample,23837,0,"normal-hitclap.wav",50
Sample,23837,0,"E7S_s.wav",80
Sample,23944,0,"B6S_s.wav",80
Sample,24051,0,"F#6S_Gb6S_s.wav",80
Sample,24158,0,"E6S_s.wav",80
Sample,24266,0,"B6S_s.wav",80
Sample,24266,0,"normal-hitfinish.wav",50
Sample,24373,0,"F#6S_Gb6S_s.wav",80
Sample,24480,0,"E6S_s.wav",80
Sample,24587,0,"B5S_s.wav",80
Sample,24694,0,"F#5S_Gb5S_s.wav",80
Sample,24801,0,"E5S_s.wav",80
Sample,24908,0,"B5S_s.wav",80
Sample,25016,0,"F#5S_Gb5S_s.wav",80
Sample,25123,0,"E5S_s.wav",80
Sample,25230,0,"B4S_s.wav",80
Sample,25337,0,"E5S_s.wav",80
Sample,25444,0,"F#5S_Gb5S_s.wav",80
Sample,25551,0,"B5S_s.wav",80
Sample,25658,0,"B4S_s.wav",80
Sample,25766,0,"E6S_s.wav",80
Sample,25873,0,"F#6S_Gb6S_s.wav",80
Sample,25980,0,"B5S_s.wav",80
Sample,30694,0,"E6S_s.wav",80
Sample,30908,0,"F#6S_Gb6S_s.wav",80
Sample,31123,0,"E6S_s.wav",80
Sample,31444,0,"D#6S_Eb6S_s.wav",80
Sample,31766,0,"B5S_s.wav",70
Sample,32837,0,"E6S_s.wav",80
Sample,32837,0,"F#6S_Gb6S_s.wav",80
Sample,32837,0,"B6S_s.wav",70
Sample,34551,0,"B4S_s.wav",80
Sample,34551,0,"G#6S_Ab6S_s.wav",80
Sample,35408,0,"A6S_s.wav",80
Sample,36266,0,"C#4S_Db4S_s.wav",80
Sample,36266,0,"G#6S_Ab6S_s.wav",80
Sample,37766,0,"D#8S_Eb8S_s.wav",80
Sample,37873,0,"E8S_s.wav",80
Sample,37980,0,"D#8S_Eb8S_s.wav",80
Sample,38087,0,"B7S_s.wav",80
Sample,38194,0,"E7S_s.wav",80
Sample,38301,0,"D#7S_Eb7S_s.wav",80
Sample,38408,0,"B6S_s.wav",80
Sample,38516,0,"E7S_s.wav",80
Sample,38623,0,"D#7S_Eb7S_s.wav",80
Sample,38730,0,"B6S_s.wav",80
Sample,38837,0,"E6S_s.wav",80
Sample,38944,0,"D#6S_Eb6S_s.wav",80
Sample,39051,0,"B5S_s.wav",80
Sample,39158,0,"E6S_s.wav",80
Sample,39266,0,"E6S_s.wav",80
Sample,39373,0,"D#6S_Eb6S_s.wav",70
Sample,39480,0,"B5S_s.wav",80
Sample,39587,0,"D#6S_Eb6S_s.wav",70
Sample,39694,0,"E5S_s.wav",80
Sample,39694,0,"E6S_s.wav",80
Sample,41408,0,"G#6S_Ab6S_s.wav",80
Sample,41408,0,"B5S_s.wav",80
Sample,42266,0,"F#6S_Gb6S_s.wav",80
Sample,44837,0,"E6S_s.wav",80
Sample,45158,0,"D#6S_Eb6S_s.wav",80
Sample,45480,0,"B5S_s.wav",80
Sample,45694,0,"G#5S_Ab5S_s.wav",80
Sample,46016,0,"E6S_s.wav",80
Sample,46337,0,"B5S_s.wav",80
Sample,48266,0,"B6S_s.wav",80
Sample,48266,0,"E7S_s.wav",80
Sample,48587,0,"D#7S_Eb7S_s.wav",80
Sample,48908,0,"G#6S_Ab6S_s.wav",80
Sample,48908,0,"B6S_s.wav",80
Sample,49337,0,"G#6S_Ab6S_s.wav",80
Sample,49337,0,"E6S_s.wav",80
Sample,49766,0,"E6S_s.wav",80
Sample,49980,0,"F#6S_Gb6S_s.wav",80
Sample,49980,0,"B5S_s.wav",80
Sample,51694,0,"D#6S_Eb6S_s.wav",80
Sample,51694,0,"D#5S_Eb5S_s.wav",80
Sample,54694,0,"normal-hitwhistle.wav",50
Sample,56408,0,"normal-hitclap.wav",50
Sample,58123,0,"normal-hitwhistle.wav",50
Sample,59837,0,"normal-hitclap.wav",50
Sample,60266,0,"normal-hitfinish.wav",50
Sample,61551,0,"normal-hitwhistle.wav",50
Sample,63266,0,"normal-hitclap.wav",50
Sample,63694,0,"normal-hitfinish.wav",50
Sample,64551,0,"normal-hitclap.wav",50
Sample,65408,0,"normal-hitclap.wav",50
Sample,66266,0,"normal-hitclap.wav",50
Sample,67123,0,"normal-hitfinish.wav",50
Sample,68408,0,"normal-hitwhistle.wav",50
Sample,70123,0,"normal-hitwhistle.wav",50
Sample,71837,0,"normal-hitwhistle.wav",50
Sample,73551,0,"normal-hitclap.wav",50
Sample,73980,0,"normal-hitfinish.wav",50
Sample,75266,0,"normal-hitclap.wav",50
Sample,76980,0,"normal-hitwhistle.wav",50
Sample,77408,0,"normal-hitfinish.wav",50
Sample,78694,0,"normal-hitclap.wav",50
Sample,79123,0,"normal-hitclap.wav",50
Sample,80837,0,"F6S_s.wav",80
Sample,81158,0,"E6S_s.wav",80
Sample,81480,0,"F6S_s.wav",80
Sample,81801,0,"E6S_s.wav",80
Sample,82123,0,"F6S_s.wav",80
Sample,82337,0,"G6S_s.wav",80
Sample,82551,0,"F6S_s.wav",80
Sample,82873,0,"E6S_s.wav",80
Sample,83194,0,"F6S_s.wav",80
Sample,83516,0,"E6S_s.wav",80
Sample,83837,0,"F6S_s.wav",80
Sample,84051,0,"G6S_s.wav",80
Sample,84266,0,"C6S_s.wav",80

[TimingPoints]
266,428.571428571429,4,1,1,50,1,0
53408,-100,4,1,1,50,0,1
80837,-100,4,1,1,50,0,0

[HitObjects]
448,192,266,5,0,0:0:0:0:
320,192,587,1,0,0:0:0:0:
192,192,908,1,0,0:0:0:0:
320,192,1980,1,0,0:0:0:0:
448,192,1980,1,0,0:0:0:0:
64,192,2837,1,0,0:0:0:0:
192,192,3694,1,0,0:0:0:0:
320,192,4016,1,0,0:0:0:0:
448,192,4337,1,0,0:0:0:0:
64,192,5194,128,0,5408:0:0:0:0:
320,192,5408,1,0,0:0:0:0:
192,192,5730,1,0,0:0:0:0:
64,192,6051,1,0,0:0:0:0:
320,192,7123,1,0,0:0:0:0:
448,192,7123,1,0,0:0:0:0:
192,192,7444,1,0,0:0:0:0:
320,192,7766,1,0,0:0:0:0:
448,192,8837,1,0,0:0:0:0:
64,192,8837,128,0,10551:0:0:0:0:
448,192,11194,128,0,11837:0:0:0:0:
64,192,11837,1,8,0:0:0:0:
320,192,12266,1,8,0:0:0:0:
448,192,12266,1,2,0:0:0:0:
192,192,12587,1,8,0:0:0:0:
448,192,12908,1,8,0:0:0:0:
64,192,13230,1,8,0:0:0:0:
320,192,13551,1,8,0:0:0:0:
192,192,13766,1,8,0:0:0:0:
64,192,13980,1,8,0:0:0:0:
448,192,13980,1,2,0:0:0:0:
192,192,14301,1,8,0:0:0:0:
448,192,14623,1,8,0:0:0:0:
64,192,14944,1,8,0:0:0:0:
320,192,15266,1,2,0:0:0:0:
192,192,15480,1,8,0:0:0:0:
320,192,15694,1,2,0:0:0:0:
448,192,15694,1,8,0:0:0:0:
64,192,16016,1,8,0:0:0:0:
448,192,16337,1,8,0:0:0:0:
320,192,16658,1,8,0:0:0:0:
192,192,16980,1,8,0:0:0:0:
448,192,17194,1,8,0:0:0:0:
64,192,17408,1,8,0:0:0:0:
192,192,17408,1,2,0:0:0:0:
320,192,17730,1,8,0:0:0:0:
64,192,18051,1,8,0:0:0:0:
448,192,18373,1,8,0:0:0:0:
320,192,18694,128,8,19123:0:0:0:0:
448,192,19123,1,8,0:0:0:0:
192,192,19123,1,2,0:0:0:0:
64,192,19444,1,8,0:0:0:0:
448,192,19766,1,8,0:0:0:0:
320,192,20087,1,8,0:0:0:0:
64,192,20408,1,8,0:0:0:0:
192,192,20623,1,8,0:0:0:0:
320,192,20837,1,8,0:0:0:0:
448,192,20837,1,2,0:0:0:0:
64,192,21158,1,8,0:0:0:0:
320,192,21480,1,8,0:0:0:0:
192,192,21801,1,8,0:0:0:0:
448,192,22123,1,8,0:0:0:0:
320,192,22337,1,8,0:0:0:0:
192,192,22551,1,8,0:0:0:0:
64,192,22551,128,2,23194:0:0:0:0:
448,192,23194,1,8,0:0:0:0:
192,192,23408,128,2,23837:0:0:0:0:
320,192,23837,128,2,24266:0:0:0:0:
448,192,24266,1,2,0:0:0:0:
64,192,24266,128,8,24694:0:0:0:0:
192,192,24694,1,2,0:0:0:0:
448,192,24908,128,8,25980:0:0:0:0:
320,192,25551,128,2,25980:0:0:0:0:
64,192,25980,1,8,0:0:0:0:
192,192,25980,1,0,0:0:0:0:
320,192,26623,1,0,0:0:0:70:hat.wav
192,192,27266,1,0,0:0:0:70:hat.wav
64,192,27694,1,0,0:0:0:70:hat.wav
448,192,27694,1,0,0:0:0:0:
320,192,28337,1,0,0:0:0:70:hat.wav
192,192,28980,1,0,0:0:0:70:hat.wav
320,192,29408,1,0,0:0:0:70:hat.wav
448,192,29408,1,0,0:0:0:0:
64,192,30051,1,0,0:0:0:70:hat.wav
320,192,30694,128,0,30908:0:0:0:70:hat.wav
448,192,30908,128,0,31123:0:0:0:0:
192,192,31123,1,0,0:0:0:70:hat.wav
64,192,31123,128,0,31444:0:0:0:0:
448,192,31444,128,0,31766:0:0:0:0:
192,192,31766,128,0,32408:0:0:0:70:hat.wav
320,192,32408,1,0,0:0:0:70:hat.wav
448,192,32837,1,0,0:0:0:70:hat.wav
64,192,32837,1,0,0:0:0:0:
192,192,33480,1,0,0:0:0:70:hat.wav
320,192,34123,1,0,0:0:0:70:hat.wav
192,192,34551,1,0,0:0:0:70:hat.wav
64,192,34551,1,0,0:0:0:0:
448,192,35194,1,0,0:0:0:70:hat.wav
192,192,35408,1,0,0:0:0:0:
320,192,35837,1,0,0:0:0:70:hat.wav
64,192,36266,1,0,0:0:0:70:hat.wav
192,192,36266,1,0,0:0:0:0:
448,192,36908,1,0,0:0:0:70:hat.wav
320,192,37551,1,0,0:0:0:70:hat.wav
64,192,37766,128,0,37980:0:0:0:0:
320,192,37980,1,0,0:0:0:70:hat.wav
448,192,37980,128,0,39266:0:0:0:0:
192,192,38623,1,0,0:0:0:70:hat.wav
64,192,39266,128,0,39694:0:0:0:70:hat.wav
448,192,39694,1,4,0:0:0:0:
320,192,39694,1,2,0:0:0:0:
192,192,40123,1,2,0:0:0:0:
320,192,40551,1,2,0:0:0:0:
64,192,40980,1,2,0:0:0:0:
320,192,41408,1,2,0:0:0:0:
448,192,41408,1,0,0:0:0:0:
64,192,41837,1,2,0:0:0:0:
320,192,42266,1,2,0:0:0:0:
448,192,42694,1,2,0:0:0:0:
320,192,43123,1,2,0:0:0:0:
192,192,43123,1,0,0:0:0:0:
64,192,43551,1,2,0:0:0:0:
192,192,43980,1,2,0:0:0:0:
320,192,44408,1,2,0:0:0:0:
192,192,44837,1,2,0:0:0:0:
64,192,44837,1,0,0:0:0:0:
448,192,45266,1,2,0:0:0:0:
320,192,45694,1,2,0:0:0:0:
192,192,46123,1,2,0:0:0:0:
320,192,46551,1,4,0:0:0:0:
448,192,46551,1,2,0:0:0:0:
64,192,46980,1,2,0:0:0:0:
192,192,47408,1,2,0:0:0:0:
448,192,47837,1,2,0:0:0:0:
64,192,48266,1,2,0:0:0:0:
320,192,48266,128,0,48587:0:0:0:0:
192,192,48587,128,0,48908:0:0:0:0:
448,192,48908,128,0,49337:0:0:0:0:
64,192,49337,128,0,49980:0:0:0:0:
448,192,49766,128,0,49980:0:0:0:0:
320,192,49980,1,2,0:0:0:0:
192,192,49980,1,0,0:0:0:0:
448,192,50408,1,2,0:0:0:0:
64,192,50837,1,2,0:0:0:0:
448,192,51266,128,2,51694:0:0:0:0:
64,192,51694,128,0,52980:0:0:0:0:
192,192,51694,1,0,0:0:0:0:
448,192,52551,128,0,52980:0:0:0:0:
64,192,53408,1,8,0:0:0:0:
192,192,53408,1,2,0:0:0:0:
320,192,53730,1,8,0:0:0:0:
192,192,54051,1,8,0:0:0:0:
448,192,54373,128,8,54694:0:0:0:0:
64,192,54694,1,8,0:0:0:0:
192,192,54908,1,8,0:0:0:0:
320,192,55123,1,2,0:0:0:0:
448,192,55123,1,8,0:0:0:0:
64,192,55444,1,8,0:0:0:0:
320,192,55766,1,8,0:0:0:0:
192,192,56087,128,8,56408:0:0:0:0:
448,192,56408,1,2,0:0:0:0:
320,192,56623,1,8,0:0:0:0:
192,192,56837,1,8,0:0:0:0:
64,192,56837,1,2,0:0:0:0:
320,192,57158,1,8,0:0:0:0:
192,192,57480,1,8,0:0:0:0:
64,192,57801,128,8,58123:0:0:0:0:
448,192,58123,1,8,0:0:0:0:
192,192,58337,1,8,0:0:0:0:
320,192,58551,1,2,0:0:0:0:
448,192,58551,1,8,0:0:0:0:
64,192,58873,1,8,0:0:0:0:
192,192,59194,1,8,0:0:0:0:
320,192,59516,128,8,59837:0:0:0:0:
64,192,59837,1,2,0:0:0:0:
192,192,60051,1,8,0:0:0:0:
448,192,60266,1,8,0:0:0:0:
320,192,60266,1,2,0:0:0:0:
64,192,60587,1,8,0:0:0:0:
320,192,60908,1,8,0:0:0:0:
192,192,61230,128,8,61551:0:0:0:0:
448,192,61551,1,8,0:0:0:0:
320,192,61766,1,8,0:0:0:0:
192,192,61980,1,2,0:0:0:0:
64,192,61980,1,8,0:0:0:0:
448,192,62301,1,8,0:0:0:0:
192,192,62623,1,8,0:0:0:0:
320,192,62944,128,8,63266:0:0:0:0:
64,192,63266,1,2,0:0:0:0:
192,192,63480,1,8,0:0:0:0:
448,192,63694,1,8,0:0:0:0:
320,192,63694,1,2,0:0:0:0:
64,192,64016,1,8,0:0:0:0:
320,192,64337,1,8,0:0:0:0:
192,192,64551,1,4,0:0:0:0:
64,192,64551,128,2,64980:0:0:0:0:
320,192,64980,1,8,0:0:0:0:
192,192,65194,1,8,0:0:0:0:
448,192,65408,1,2,0:0:0:0:
64,192,65408,1,4,0:0:0:0:
192,192,65730,1,8,0:0:0:0:
320,192,66051,1,8,0:0:0:0:
64,192,66266,1,2,0:0:0:0:
192,192,66266,1,4,0:0:0:0:
448,192,66480,1,8,0:0:0:0:
320,192,66694,1,2,0:0:0:0:
192,192,66908,1,2,0:0:0:0:
448,192,67123,1,2,0:0:0:0:
64,192,67123,1,8,0:0:0:0:
320,192,67444,1,8,0:0:0:0:
192,192,67766,1,8,0:0:0:0:
64,192,68087,128,8,68408:0:0:0:0:
448,192,68408,1,8,0:0:0:0:
192,192,68623,1,8,0:0:0:0:
448,192,68837,1,8,0:0:0:0:
320,192,68837,1,2,0:0:0:0:
64,192,69158,1,8,0:0:0:0:
192,192,69480,1,8,0:0:0:0:
320,192,69801,128,8,70123:0:0:0:0:
64,192,70123,1,8,0:0:0:0:
448,192,70337,1,8,0:0:0:0:
320,192,70551,1,8,0:0:0:0:
192,192,70551,1,2,0:0:0:0:
64,192,70873,1,8,0:0:0:0:
320,192,71194,1,8,0:0:0:0:
448,192,71516,128,0,71837:0:0:0:0:
64,192,71837,1,8,0:0:0:0:
320,192,72051,1,8,0:0:0:0:
192,192,72266,1,2,0:0:0:0:
64,192,72266,1,8,0:0:0:0:
448,192,72587,1,8,0:0:0:0:
320,192,72908,1,8,0:0:0:0:
192,192,73230,128,8,73551:0:0:0:0:
448,192,73551,1,2,0:0:0:0:
320,192,73766,1,8,0:0:0:0:
64,192,73980,1,8,0:0:0:0:
192,192,73980,1,2,0:0:0:0:
448,192,74301,1,8,0:0:0:0:
192,192,74623,1,8,0:0:0:0:
320,192,74944,128,8,75266:0:0:0:0:
64,192,75266,1,2,0:0:0:0:
192,192,75480,1,8,0:0:0:0:
320,192,75694,1,8,0:0:0:0:
448,192,75694,1,2,0:0:0:0:
64,192,76016,1,8,0:0:0:0:
320,192,76337,1,8,0:0:0:0:
192,192,76658,128,8,76980:0:0:0:0:
448,192,76980,1,8,0:0:0:0:
64,192,77194,1,8,0:0:0:0:
320,192,77408,1,8,0:0:0:0:
192,192,77408,1,2,0:0:0:0:
448,192,77730,1,8,0:0:0:0:
192,192,78051,1,8,0:0:0:0:
320,192,78373,128,8,78694:0:0:0:0:
64,192,78694,1,2,0:0:0:0:
448,192,78908,1,8,0:0:0:0:
320,192,79123,1,4,0:0:0:0:
192,192,79123,1,2,0:0:0:0:
64,192,79337,1,8,0:0:0:0:
320,192,79551,1,2,0:0:0:0:
192,192,79766,1,8,0:0:0:0:
448,192,79980,1,2,0:0:0:0:
64,192,80194,1,2,0:0:0:0:
320,192,80408,1,8,0:0:0:0:
192,192,80623,1,8,0:0:0:0:
64,192,80837,1,8,0:0:0:0:
448,192,80837,1,4,0:0:0:0:
192,192,81158,1,0,0:0:0:0:
448,192,81480,1,0,0:0:0:0:
320,192,81801,1,0,0:0:0:0:
64,192,82123,1,0,0:0:0:0:
192,192,82337,1,0,0:0:0:0:
448,192,82551,1,0,0:0:0:0:
320,192,82551,1,0,0:0:0:0:
64,192,82873,1,0,0:0:0:0:
192,192,83194,1,0,0:0:0:0:
320,192,83408,1,0,0:0:0:0:
448,192,83408,1,0,0:0:0:0:
448,192,83837,1,0,0:0:0:0:
320,192,84051,1,0,0:0:0:0:
64,192,84266,128,2,87694:0:0:0:0:
192,192,84266,1,4,0:0:0:0:
