osu file format v14

[General]
AudioFilename: audio.mp3
AudioLeadIn: 0
PreviewTime: 53567
Countdown: 1
SampleSet: Soft
StackLeniency: 0.7
Mode: 2
LetterboxInBreaks: 0
WidescreenStoryboard: 0

[Editor]
DistanceSpacing: 0.6
BeatDivisor: 3
GridSize: 4
TimelineZoom: 1.9

[Metadata]
Title:Ima Koko
TitleUnicode:イマココ
Artist:Toyama Nao
ArtistUnicode:東山奈央
Creator:Kibbleru
Version:Sinnoh's Rain
Source:月がきれい
Tags:Here Right Now touyama tsuki ga kirei the moon is still beautiful Naotoshi Kocari Sinnoh Uta Nao Tomori
BeatmapID:1468861
BeatmapSetID:687493

[Difficulty]
HPDrainRate:6
CircleSize:4
OverallDifficulty:9
ApproachRate:9
SliderMultiplier:2
SliderTickRate:1

[Events]
//Background and Video events
0,0,"tkgkir.jpg",0,0
//Break Periods
2,181157,190642
//Storyboard Layer 0 (Background)
//Storyboard Layer 1 (Fail)
//Storyboard Layer 2 (Pass)
//Storyboard Layer 3 (Foreground)
//Storyboard Sound Samples

[TimingPoints]
957,428.571428571429,4,2,1,40,1,0
957,-90.9090909090909,4,2,1,40,0,0
12528,-90.9090909090909,4,2,1,60,0,0
12957,-90.9090909090909,4,1,1,65,0,0
26671,-90.9090909090909,4,2,1,50,0,0
39957,-90.9090909090909,4,2,1,55,0,0
54099,-90.9090909090909,4,1,1,70,0,1
64385,-90.9090909090909,4,1,1,70,0,0
67814,-90.9090909090909,4,1,1,70,0,1
81528,-90.9090909090909,4,2,1,70,0,0
81849,-90.9090909090909,4,2,1,50,0,0
83028,-90.9090909090909,4,2,1,65,0,0
84957,-90.9090909090909,4,2,1,50,0,0
97599,-90.9090909090909,4,2,1,55,0,0
105528,-90.9090909090909,4,2,1,60,0,0
112385,-90.9090909090909,4,1,1,70,0,1
122671,-90.9090909090909,4,1,1,70,0,0
126099,-90.9090909090909,4,1,1,70,0,1
139814,-90.9090909090909,4,2,1,70,0,0
140457,-90.9090909090909,4,2,1,60,0,0
148599,-90.9090909090909,4,2,1,65,0,0
148742,-90.9090909090909,4,2,1,60,0,0
148885,-90.9090909090909,4,2,1,56,0,0
149028,-90.9090909090909,4,2,1,52,0,0
149171,-90.9090909090909,4,2,1,49,0,0
149242,-90.9090909090909,4,2,1,60,0,0
153528,-90.9090909090909,4,2,1,55,0,0
167242,-90.9090909090909,4,2,1,60,0,0
194671,-83.3333333333333,4,1,1,70,0,1
208385,-90.9090909090909,4,2,1,70,0,0
208707,-90.9090909090909,4,2,1,50,0,0
212671,-90.9090909090909,4,2,1,45,0,0
213099,-90.9090909090909,4,2,1,43,0,0
213528,-90.9090909090909,4,2,1,40,0,0
213957,-90.9090909090909,4,2,1,38,0,0
214385,-90.9090909090909,4,2,1,35,0,0
214814,-90.9090909090909,4,2,1,33,0,0
215242,-90.9090909090909,4,2,1,30,0,0
215671,-90.9090909090909,4,2,1,28,0,0
216099,-90.9090909090909,4,2,1,25,0,0
216528,-90.9090909090909,4,2,1,23,0,0
216957,-90.9090909090909,4,2,1,20,0,0
217385,-90.9090909090909,4,2,1,15,0,0
217814,-90.9090909090909,4,2,1,10,0,0
218242,-90.9090909090909,4,2,4,5,0,0

[Colours]
Combo1 : 170,176,193
Combo2 : 255,176,214
Combo3 : 136,130,255
Combo4 : 163,41,243

[HitObjects]
220,196,742,5,0,0:0:0:0:
360,280,957,2,0,P|420:232|440:142,2,165.000005035401,2|2|2,0:0|0:0|0:0,0:0:0:0:
104,260,2242,2,0,L|99:143,1,110.000003356934,0|0,0:0|0:0,0:0:0:0:
312,280,2671,6,0,L|326:49,1,220.000006713867,2|0,0:0|0:0,0:0:0:0:
100,56,3528,2,0,L|86:285,1,220.000006713867,2|0,0:0|0:0,0:0:0:0:
356,256,4385,6,0,L|196:197,2,165.000005035401,2|2|2,0:0|0:0|0:0,0:0:0:0:
144,288,5457,2,0,L|150:165,1,110.000003356934,0|0,0:0|0:0,0:0:0:0:
312,136,5885,2,0,L|379:116,1,55.0000016784668,2|2,0:0|0:0,0:0:0:0:
304,132,6099,6,0,P|221:120|120:133,2,165.000005035401,2|2|2,0:0|0:0|0:0,0:0:0:0:
68,279,7599,2,0,L|62:193,1,55.0000016784668
144,216,7814,6,0,L|305:164,2,165.000005035401,2|2|2,0:0|0:0|0:0,0:0:0:0:
380,184,9099,1,0,0:0:0:0:
112,316,9528,2,0,L|104:81,1,220.000006713867,2|0,0:0|0:0,0:0:0:0:
235,207,10171,2,0,L|226:-14,1,220.000006713867
133,28,11028,1,0,0:0:0:0:
484,112,12528,5,4,0:3:0:0:
193,201,12957,6,0,L|188:72,1,110.000003356934,12|0,0:0|0:0,0:0:0:0:
260,97,13278,2,0,L|334:97,1,55.0000016784668,2|8,0:0|0:0,0:0:0:0:
153,63,13599,2,0,L|27:63,1,110.000003356934,2|8,0:0|0:0,0:0:0:0:
117,114,13921,2,0,L|197:114,2,55.0000016784668,2|0|0,0:0|0:0|0:0,0:0:0:0:
46,213,14242,2,0,L|42:78,1,110.000003356934,10|2,0:2|0:0,0:0:0:0:
112,71,14564,1,0,0:0:0:0:
277,127,14671,6,0,L|387:122,1,110.000003356934,10|0,0:0|0:0,0:0:0:0:
318,69,14992,2,0,L|242:71,1,55.0000016784668,2|8,0:0|0:0,0:0:0:0:
450,236,15314,2,0,L|451:107,1,110.000003356934,2|8,0:0|0:0,0:0:0:0:
377,126,15635,2,0,L|285:134,2,55.0000016784668,2|0|0,0:0|0:0|0:0,0:0:0:0:
455,92,15957,2,0,L|333:96,1,110.000003356934,10|2,0:2|0:0,0:0:0:0:
279,100,16278,1,0,0:0:0:0:
103,238,16385,6,0,L|109:109,1,110.000003356934,10|0,0:0|0:0,0:0:0:0:
181,105,16707,2,0,L|256:104,1,55.0000016784668,2|8,0:0|0:0,0:0:0:0:
69,159,17028,2,0,L|195:158,1,110.000003356934,2|8,0:0|0:0,0:0:0:0:
116,101,17349,2,0,L|43:92,2,55.0000016784668,2|0|0,0:0|0:0|0:0,0:0:0:0:
209,161,17671,2,0,L|208:16,1,110.000003356934,10|2,0:2|0:0,0:0:0:0:
284,20,17992,1,0,0:0:0:0:
493,196,18099,6,0,L|487:72,1,110.000003356934,10|0,0:0|0:0,0:0:0:0:
407,96,18421,2,0,L|316:98,1,55.0000016784668,2|8,0:0|0:0,0:0:0:0:
197,88,18742,2,0,L|342:86,1,110.000003356934,2|8,0:0|0:0,0:0:0:0:
239,43,19064,2,0,L|161:45,2,55.0000016784668,2|0|0,0:0|0:0|0:0,0:0:0:0:
403,48,19385,2,0,L|329:51,1,55.0000016784668,8|8,0:0|0:0,0:0:0:0:
256,55,19599,2,0,L|171:61,1,55.0000016784668,10|10,0:0|0:0,0:0:0:0:
379,288,19814,6,0,P|400:227|360:170,1,110.000003356934,12|0,0:0|0:0,0:0:0:0:
300,189,20135,2,0,L|213:187,1,55.0000016784668,2|8,0:0|0:0,0:0:0:0:
380,205,20457,2,0,L|492:205,1,110.000003356934,2|8,0:0|0:0,0:0:0:0:
433,153,20778,2,0,L|343:149,2,55.0000016784668,2|0|0,0:0|0:0|0:0,0:0:0:0:
354,288,21099,2,0,P|335:240|368:180,1,110.000003356934,10|2,0:2|0:0,0:0:0:0:
432,163,21421,1,0,0:0:0:0:
262,144,21528,6,0,L|141:142,1,110.000003356934,10|0,0:0|0:0,0:0:0:0:
213,101,21849,2,0,L|303:102,1,55.0000016784668,2|8,0:0|0:0,0:0:0:0:
123,287,22171,2,0,L|128:170,1,110.000003356934,2|8,0:0|0:0,0:0:0:0:
205,169,22492,2,0,L|283:168,2,55.0000016784668,2|0|0,0:0|0:0|0:0,0:0:0:0:
136,152,22814,2,0,L|1:154,1,110.000003356934,10|2,0:2|0:0,0:0:0:0:
92,119,23135,1,2,0:0:0:0:
301,243,23242,6,0,L|470:240,1,165.000005035401,14|2,0:0|0:0,0:0:0:0:
415,243,23671,1,8,0:0:0:0:
271,107,23885,2,0,L|472:106,1,165.000005035401,8|0,0:2|0:0,0:0:0:0:
253,268,24314,2,0,L|181:269,1,55.0000016784668,2|0,0:0|0:0,0:0:0:0:
270,213,24528,1,10,0:2:0:0:
321,195,24635,1,0,0:0:0:0:
354,152,24742,1,2,0:0:0:0:
357,98,24849,1,0,0:0:0:0:
181,240,24957,5,10,0:0:0:0:
137,208,25064,1,2,0:0:0:0:
131,155,25171,1,2,0:0:0:0:
166,114,25278,1,0,0:0:0:0:
234,89,25385,2,0,L|293:82,1,55.0000016784668,8|0,0:0|0:0,0:0:0:0:
84,300,25599,5,2,0:0:0:0:
39,269,25706,1,2,0:0:0:0:
14,220,25813,1,10,0:0:0:0:
15,166,25920,1,0,0:0:0:0:
43,119,26027,1,0,0:0:0:0:
102,89,26134,1,0,0:0:0:0:
165,77,26242,2,0,L|227:79,1,55.0000016784668,10|10,0:0|0:0,0:0:0:0:
147,30,26457,2,0,L|67:31,1,55.0000016784668,10|10,0:0|0:0,0:0:0:0:
274,231,26671,6,0,P|352:224|375:103,1,220.000006713867,4|0,0:0|0:0,0:0:0:0:
237,103,27314,2,0,L|122:40,2,110.000003356934,2|0|0,0:0|0:0|0:0,0:0:0:0:
379,241,27957,2,0,L|380:104,1,110.000003356934,2|0,0:0|0:0,0:0:0:0:
211,85,28385,6,0,L|412:81,1,165.000005035401,2|0,0:0|0:0,0:0:0:0:
212,290,29028,2,0,P|148:220|236:139,1,220.000006713867,2|0,0:0|0:0,0:0:0:0:
346,96,29671,2,0,L|456:39,1,110.000003356934,2|0,0:0|0:0,0:0:0:0:
224,300,30099,6,0,L|193:126,1,165.000005035401,2|0,0:0|0:0,0:0:0:0:
376,297,30742,2,0,L|382:65,1,220.000006713867,2|0,0:0|0:0,0:0:0:0:
244,55,31385,2,0,L|363:39,1,110.000003356934,2|2,0:0|0:0,0:0:0:0:
167,191,31814,6,0,L|4:125,1,165.000005035401,2|2,0:0|0:0,0:0:0:0:
178,262,32457,2,0,P|236:226|145:129,1,220.000006713867,2|0,0:0|0:0,0:0:0:0:
46,183,33099,2,0,L|38:57,1,110.000003356934,2|0,0:0|0:0,0:0:0:0:
241,124,33528,6,0,L|15:129,1,220.000006713867,2|0,0:0|0:0,0:0:0:0:
154,202,34171,2,0,L|276:197,2,110.000003356934,2|0|0,0:0|0:0|0:0,0:0:0:0:
285,295,34814,2,0,L|291:155,1,110.000003356934,2|0,0:0|0:0,0:0:0:0:
116,181,35242,6,0,P|63:158|97:64,1,165.000005035401,2|0,0:0|0:0,0:0:0:0:
228,80,35885,1,0,0:0:0:0:
332,279,36099,2,0,L|338:121,1,110.000003356934,2|0,0:0|0:0,0:0:0:0:
203,187,36528,2,0,L|208:64,1,110.000003356934,0|0,0:0|0:0,0:0:0:0:
428,103,36957,6,0,L|226:102,1,165.000005035401,2|0,0:0|0:0,0:0:0:0:
425,302,37599,2,0,P|493:263|395:186,1,220.000006713867,2|2,0:0|0:0,0:0:0:0:
288,169,38242,2,0,L|281:49,1,110.000003356934,2|2,0:0|0:0,0:0:0:0:
331,19,38564,1,2,0:0:0:0:
232,267,38671,1,2,0:0:0:0:
179,256,38778,1,2,0:0:0:0:
143,215,38885,1,2,0:0:0:0:
141,161,38992,1,0,0:0:0:0:
180,116,39099,1,0,0:0:0:0:
267,96,39207,6,0,L|356:89,2,55.0000016784668,2|2|2,0:0|0:0|0:0,0:0:0:0:
198,52,39528,1,0,0:0:0:0:
279,335,39635,1,2,0:0:0:0:
317,300,39742,1,2,0:0:0:0:
295,233,39849,1,2,0:0:0:0:
222,191,39956,1,0,0:0:0:0:
178,226,40063,1,0,0:0:0:0:
187,288,40170,1,0,0:0:0:0:
249,304,40277,1,0,0:0:0:0:
415,301,40385,6,0,P|473:283|396:192,1,220.000006713867,12|8,0:1|0:1,0:0:0:0:
277,183,41028,1,0,0:0:0:0:
392,174,41242,2,0,L|405:98,1,55.0000016784668,10|0,0:1|0:0,0:0:0:0:
255,153,41564,2,0,L|242:77,1,55.0000016784668,0|8,0:0|0:1,0:0:0:0:
379,97,41885,1,0,0:0:0:0:
93,246,42099,6,0,P|63:181|99:92,1,165.000005035401,10|0,0:1|0:0,0:0:0:0:
155,76,42528,1,8,0:1:0:0:
274,105,42742,1,2,0:0:0:0:
133,61,42957,1,8,0:1:0:0:
93,98,43064,1,2,0:0:0:0:
79,151,43171,1,2,0:0:0:0:
95,203,43278,1,2,0:0:0:0:
136,239,43385,1,8,0:1:0:0:
281,237,43599,2,0,L|349:285,1,55.0000016784668
125,303,43814,6,0,P|56:267|61:168,1,165.000005035401,10|2,0:1|0:0,0:0:0:0:
111,166,44242,1,8,0:1:0:0:
246,165,44457,1,0,0:0:0:0:
442,170,44671,2,0,L|264:95,1,165.000005035401,10|2,0:1|0:0,0:0:0:0:
356,138,45099,1,8,0:1:0:0:
477,170,45314,1,0,0:0:0:0:
261,286,45528,6,0,P|201:243|229:165,1,165.000005035401,10|2,0:1|0:0,0:0:0:0:
302,161,45957,1,8,0:1:0:0:
161,132,46171,1,0,0:0:0:0:
347,237,46385,2,0,P|401:184|365:100,1,165.000005035401,10|2,0:1|0:0,0:0:0:0:
303,106,46814,1,8,0:1:0:0:
457,73,47028,1,2,0:0:0:0:
157,246,47242,6,0,P|86:212|172:136,1,220.000006713867,12|8,0:1|0:1,0:0:0:0:
311,167,47885,2,0,L|317:36,1,110.000003356934,2|8,0:0|0:1,0:0:0:0:
260,69,48206,1,2,0:0:0:0:
228,119,48313,1,2,0:0:0:0:
250,167,48420,1,2,0:0:0:0:
302,178,48527,1,8,0:1:0:0:
180,203,48742,2,0,L|110:253,1,55.0000016784668,0|0,0:0|0:0,0:0:0:0:
323,248,48957,6,0,L|434:278,1,110.000003356934,10|0,0:1|0:0,0:0:0:0:
349,306,49278,2,0,L|238:336,1,110.000003356934,2|0,0:0|0:0,0:0:0:0:
323,367,49599,2,0,L|439:366,2,110.000003356934,2|8|0,0:0|0:1|0:0,0:0:0:0:
196,311,50242,2,0,L|330:277,1,110.000003356934,10|0,0:1|0:0,0:0:0:0:
350,269,50564,1,0,0:0:0:0:
138,276,50671,6,0,P|69:242|150:161,1,220.000006713867,12|8,0:1|0:1,0:0:0:0:
274,167,51314,2,0,L|278:76,1,55.0000016784668,0|2,0:0|0:0,0:0:0:0:
215,95,51528,2,0,L|92:90,1,110.000003356934,8|0,0:1|0:0,0:0:0:0:
274,311,51957,1,8,0:1:0:0:
319,285,52064,1,2,0:0:0:0:
317,233,52171,1,0,0:0:0:0:
270,211,52278,1,2,0:0:0:0:
72,219,52385,1,12,0:1:0:0:
256,192,52599,12,0,53671,0:0:0:0:
350,134,54099,6,0,L|153:133,1,165.000005035401,12|0,0:0|0:0,0:0:0:0:
266,88,54528,2,0,L|340:86,2,55.0000016784668,10|0|0,0:0|0:0|0:0,0:0:0:0:
116,216,54957,1,10,0:0:0:0:
46,199,55064,2,0,L|45:68,1,110.000003356934,0|0,0:0|0:0,0:0:0:0:
115,71,55385,1,8,0:2:0:0:
217,80,55599,2,0,L|152:51,1,55.0000016784668,2|2,0:0|0:0,0:0:0:0:
380,249,55814,6,0,P|440:177|399:111,1,165.000005035401,10|2,0:0|0:0,0:0:0:0:
334,47,56242,1,8,0:0:0:0:
202,84,56457,2,0,L|325:85,1,110.000003356934,2|8,0:0|0:0,0:0:0:0:
249,165,56778,2,0,L|169:169,2,55.0000016784668,0|2|0,0:0|0:0|0:0,0:0:0:0:
321,159,57099,1,10,0:2:0:0:
416,164,57314,2,0,L|407:96,1,55.0000016784668,2|0,0:0|0:0,0:0:0:0:
217,279,57528,6,0,L|105:283,1,110.000003356934,10|0,0:0|0:0,0:0:0:0:
174,210,57849,2,0,L|255:209,1,55.0000016784668,2|8,0:0|0:0,0:0:0:0:
87,125,58171,6,0,L|199:129,1,110.000003356934,2|8,0:0|0:0,0:0:0:0:
130,56,58492,2,0,L|49:55,1,55.0000016784668,2|0,0:0|0:0,0:0:0:0:
239,240,58814,1,10,0:2:0:0:
106,282,59028,2,0,L|85:192,1,55.0000016784668,2|2,0:0|0:0,0:0:0:0:
272,176,59242,6,0,L|443:178,1,165.000005035401,10|0,0:0|0:0,0:0:0:0:
371,171,59671,1,10,0:0:0:0:
492,91,59885,2,0,L|362:90,1,110.000003356934,2|8,0:0|0:0,0:0:0:0:
323,44,60207,2,0,L|397:44,1,55.0000016784668,2|0,0:0|0:0,0:0:0:0:
250,183,60528,1,10,0:2:0:0:
217,138,60635,1,0,0:0:0:0:
239,88,60742,1,0,0:0:0:0:
305,69,60849,1,0,0:0:0:0:
115,265,60957,6,0,P|50:226|112:148,1,165.000005035401,12|0,0:0|0:0,0:0:0:0:
145,135,61385,2,0,L|239:126,2,55.0000016784668,10|0|0,0:0|0:0|0:0,0:0:0:0:
280,214,61814,2,0,L|244:139,1,55.0000016784668,10|0,0:0|0:0,0:0:0:0:
125,204,62135,2,0,L|149:132,1,55.0000016784668,0|8,0:0|0:2,0:0:0:0:
305,190,62457,2,0,L|309:116,1,55.0000016784668,2|2,0:0|0:0,0:0:0:0:
131,161,62671,6,0,P|77:124|146:65,1,165.000005035401,10|2,0:0|0:0,0:0:0:0:
185,52,63099,1,8,0:0:0:0:
346,201,63314,2,0,L|348:72,1,110.000003356934,2|8,0:0|0:0,0:0:0:0:
269,84,63635,2,0,L|214:82,2,55.0000016784668,0|2|0,0:0|0:0|0:0,0:0:0:0:
365,89,63957,1,10,0:2:0:0:
422,104,64064,1,0,0:0:0:0:
427,154,64171,1,2,0:0:0:0:
371,197,64278,1,0,0:0:0:0:
155,213,64385,6,0,P|106:174|178:113,1,165.000005035401,12|2,0:0|0:0,0:0:0:0:
224,60,64814,2,0,L|106:50,1,110.000003356934,8|2,0:0|0:0,0:0:0:0:
391,256,65242,2,0,P|440:217|368:156,1,165.000005035401,12|2,0:0|0:0,0:0:0:0:
320,102,65671,2,0,L|438:92,1,110.000003356934,8|2,0:2|0:0,0:0:0:0:
156,239,66099,6,0,B|110:187|110:187|182:96,1,165.000005035401,12|0,0:0|0:0,0:0:0:0:
224,145,66528,2,0,L|101:150,1,110.000003356934,10|2,0:0|0:0,0:0:0:0:
166,119,66849,1,0,0:0:0:0:
347,202,66957,5,10,0:0:0:0:
393,178,67064,1,2,0:0:0:0:
392,126,67171,1,2,0:0:0:0:
345,104,67278,1,2,0:0:0:0:
272,152,67385,2,0,L|262:74,1,55.0000016784668,8|8,0:0|0:0,0:0:0:0:
340,89,67599,2,0,L|330:11,1,55.0000016784668,8|8,0:0|0:0,0:0:0:0:
142,212,67814,6,0,P|82:181|122:99,1,165.000005035401,12|0,0:0|0:0,0:0:0:0:
183,85,68242,2,0,L|265:77,2,55.0000016784668,10|0|0,0:0|0:0|0:0,0:0:0:0:
342,281,68671,2,0,L|347:201,1,55.0000016784668,10|0,0:0|0:0,0:0:0:0:
198,207,68992,2,0,L|188:128,1,55.0000016784668,0|8,0:0|0:2,0:0:0:0:
323,82,69314,2,0,L|251:47,1,55.0000016784668,2|2,0:0|0:0,0:0:0:0:
453,214,69528,6,0,P|475:136|381:101,1,165.000005035401,10|2,0:0|0:0,0:0:0:0:
339,94,69957,1,8,0:0:0:0:
195,177,70171,2,0,L|189:65,1,110.000003356934,2|8,0:0|0:0,0:0:0:0:
265,50,70492,2,0,L|319:48,2,55.0000016784668,0|2|0,0:0|0:0|0:0,0:0:0:0:
337,89,70814,1,10,0:2:0:0:
442,171,71028,2,0,L|431:104,1,55.0000016784668,2|0,0:0|0:0,0:0:0:0:
248,297,71242,6,0,L|236:162,1,110.000003356934,10|0,0:0|0:0,0:0:0:0:
306,182,71564,2,0,L|401:186,1,55.0000016784668,2|8,0:0|0:0,0:0:0:0:
475,157,71885,2,0,L|472:71,1,55.0000016784668,2|0,0:0|0:0,0:0:0:0:
302,189,72099,2,0,P|292:136|290:54,1,110.000003356934,8|0,0:0|0:0,0:0:0:0:
349,61,72421,2,0,L|444:65,1,55.0000016784668,0|10,0:0|0:2,0:0:0:0:
243,74,72742,2,0,L|231:9,1,55.0000016784668,2|0,0:0|0:0,0:0:0:0:
425,295,72957,6,0,P|487:261|417:180,1,165.000005035401,10|0,0:0|0:0,0:0:0:0:
397,168,73385,1,8,0:0:0:0:
265,128,73599,2,0,L|424:107,1,110.000003356934,2|8,0:0|0:0,0:0:0:0:
311,60,73921,2,0,L|233:68,1,55.0000016784668,2|0,0:0|0:0,0:0:0:0:
403,286,74242,1,8,0:2:0:0:
445,256,74349,1,0,0:0:0:0:
434,206,74456,1,0,0:0:0:0:
383,197,74563,1,0,0:0:0:0:
184,230,74671,6,0,P|134:181|194:75,1,165.000005035401,12|0,0:0|0:0,0:0:0:0:
259,81,75099,2,0,L|344:72,2,55.0000016784668,10|0|0,0:0|0:0|0:0,0:0:0:0:
134,117,75528,2,0,L|127:32,1,55.0000016784668,10|0,0:0|0:0,0:0:0:0:
268,147,75849,2,0,L|307:86,2,55.0000016784668,0|8|0,0:0|0:2|0:0,0:0:0:0:
194,191,76171,2,0,L|132:212,1,55.0000016784668,2|0,0:0|0:0,0:0:0:0:
375,312,76385,6,0,P|437:270|367:183,1,165.000005035401,10|2,0:0|0:0,0:0:0:0:
344,184,76814,1,8,0:0:0:0:
205,175,77028,2,0,L|78:159,1,110.000003356934,2|8,0:0|0:0,0:0:0:0:
174,94,77349,2,0,L|245:79,2,55.0000016784668,0|2|0,0:0|0:0|0:0,0:0:0:0:
99,95,77671,1,10,0:2:0:0:
264,216,77885,2,0,L|277:136,1,55.0000016784668,2|2,0:0|0:0,0:0:0:0:
53,229,78099,6,0,P|27:172|119:98,1,165.000005035401,12|0,0:0|0:0,0:0:0:0:
167,99,78528,1,8,0:0:0:0:
294,153,78742,2,0,L|173:138,1,110.000003356934,2|8,0:0|0:0,0:0:0:0:
300,281,79171,2,0,L|312:203,1,55.0000016784668,0|0,0:0|0:0,0:0:0:0:
233,210,79385,1,8,0:2:0:0:
161,196,79492,1,0,0:0:0:0:
146,131,79599,1,8,0:0:0:0:
194,79,79706,1,8,0:0:0:0:
362,198,79814,6,0,L|362:77,1,110.000003356934,12|8,0:0|0:0,0:0:0:0:
284,82,80135,2,0,L|185:80,1,55.0000016784668,8|0,0:0|0:0,0:0:0:0:
429,285,80456,5,8,0:0:0:0:
476,259,80563,1,8,0:0:0:0:
493,208,80670,1,8,0:0:0:0:
470,160,80777,1,8,0:0:0:0:
420,141,80884,1,8,0:0:0:0:
271,188,81099,2,0,L|260:113,1,55.0000016784668,8|10,0:0|0:0,0:0:0:0:
338,112,81314,2,0,L|327:37,1,55.0000016784668,10|0,0:0|0:0,0:0:0:0:
146,63,81528,1,12,0:1:0:0:
378,272,83028,6,0,L|380:167,1,55.0000016784668,8|4,0:3|0:3,0:0:0:0:
271,158,83242,1,12,0:1:0:0:
446,126,83564,1,12,0:1:0:0:
173,193,83885,6,0,P|122:119|214:56,1,220.000006713867,12|8,0:1|0:1,0:0:0:0:
271,58,84421,1,8,0:1:0:0:
90,287,84528,1,8,0:1:0:0:
29,245,84635,1,8,0:3:0:0:
35,186,84742,1,8,0:1:0:0:
94,159,84849,1,8,0:3:0:0:
281,297,84957,6,0,P|356:265|370:127,1,220.000006713867,12|10,0:1|0:1,0:0:0:0:
271,92,85599,1,2,0:0:0:0:
142,208,85814,2,0,L|137:66,1,110.000003356934,10|0,0:1|0:0,0:0:0:0:
271,163,86242,2,0,L|363:94,1,110.000003356934,10|0,0:1|0:0,0:0:0:0:
380,50,86564,1,0,0:0:0:0:
183,198,86671,6,0,P|140:160|218:84,1,165.000005035401,10|0,0:1|0:0,0:0:0:0:
234,73,87099,1,8,0:1:0:0:
360,115,87314,1,0,0:0:0:0:
219,244,87528,1,10,0:1:0:0:
217,189,87635,1,2,0:0:0:0:
215,134,87742,1,0,0:0:0:0:
366,299,87957,2,0,L|371:182,1,110.000003356934,10|0,0:1|0:0,0:0:0:0:
363,126,88278,1,0,0:0:0:0:
192,269,88385,6,0,P|136:241|202:134,1,220.000006713867,10|10,0:1|0:1,0:0:0:0:
339,121,89028,2,0,L|446:99,1,110.000003356934,2|8,0:0|0:1,0:0:0:0:
455,51,89349,1,0,0:0:0:0:
457,6,89457,1,2,0:0:0:0:
309,35,89671,1,10,0:1:0:0:
435,236,89885,2,0,L|437:164,1,55.0000016784668,2|0,0:0|0:0,0:0:0:0:
261,175,90099,6,0,L|129:185,2,110.000003356934,8|2|10,0:1|0:0|0:1,0:0:0:0:
148,257,90742,1,0,0:0:0:0:
102,227,90849,1,0,0:0:0:0:
85,176,90956,1,10,0:1:0:0:
103,125,91063,1,0,0:0:0:0:
149,97,91170,1,2,0:0:0:0:
292,88,91385,1,10,0:1:0:0:
18,174,91599,2,0,L|11:91,1,55.0000016784668,4|0,0:0|0:0,0:0:0:0:
182,273,91814,6,0,P|237:242|146:148,1,220.000006713867,10|10,0:1|0:1,0:0:0:0:
45,147,92457,1,0,0:0:0:0:
187,84,92671,1,8,0:1:0:0:
241,81,92778,1,0,0:0:0:0:
296,78,92885,1,2,0:0:0:0:
167,265,93099,2,0,L|26:250,1,110.000003356934,8|2,0:1|0:0,0:0:0:0:
116,256,93421,1,0,0:0:0:0:
314,260,93528,6,0,P|353:208|321:109,1,165.000005035401,10|0,0:1|0:0,0:0:0:0:
265,98,93957,1,10,0:1:0:0:
405,292,94171,2,0,L|413:159,1,110.000003356934,0|10,0:0|0:1,0:0:0:0:
339,161,94492,1,2,0:0:0:0:
263,177,94599,2,0,L|269:39,1,110.000003356934,0|10,0:0|0:1,0:0:0:0:
145,118,95028,2,0,L|150:47,1,55.0000016784668,0|0,0:0|0:0,0:0:0:0:
332,267,95242,6,0,P|388:239|322:132,1,220.000006713867,10|10,0:1|0:1,0:0:0:0:
465,258,95885,2,0,P|482:200|455:157,1,110.000003356934,2|10,0:0|0:1,0:0:0:0:
331,132,96314,2,0,L|220:121,2,110.000003356934,0|10|2,0:0|0:1|0:0,0:0:0:0:
399,137,96849,1,2,0:0:0:0:
215,184,96957,5,8,0:1:0:0:
359,305,97171,2,0,L|356:192,1,110.000003356934,2|10,0:0|0:1,0:0:0:0:
23,220,97599,2,0,L|17:100,1,110.000003356934,12|8,0:0|0:1,0:0:0:0:
127,216,97921,2,0,L|120:100,1,110.000003356934,8|0,0:3|0:0,0:0:0:0:
200,150,98242,1,8,0:3:0:0:
233,162,98349,1,8,0:3:0:0:
200,150,98456,1,4,0:3:0:0:
146,101,98563,1,4,0:3:0:0:
353,274,98671,6,0,P|413:218|367:164,1,165.000005035401,12|0,0:1|0:0,0:0:0:0:
314,151,99100,1,10,0:1:0:0:
180,117,99314,1,0,0:0:0:0:
336,232,99528,1,10,0:1:0:0:
376,195,99635,1,0,0:0:0:0:
389,143,99742,1,0,0:0:0:0:
368,93,99849,1,0,0:0:0:0:
324,63,99956,1,8,0:0:0:0:
441,314,100171,2,0,L|437:259,1,55.0000016784668,2|2,0:0|0:0,0:0:0:0:
238,283,100385,6,0,B|163:255|163:255|206:158,1,165.000005035401,10|0,0:1|0:0,0:0:0:0:
246,121,100814,1,8,0:1:0:0:
366,104,101028,1,2,0:0:0:0:
247,281,101242,2,0,L|235:204,1,55.0000016784668,8|0,0:1|0:0,0:0:0:0:
382,190,101564,2,0,L|391:245,1,55.0000016784668,0|10,0:0|0:1,0:0:0:0:
244,118,101885,2,0,L|299:85,1,55.0000016784668,8|8,0:0|0:0,0:0:0:0:
111,243,102099,6,0,B|35:241|35:241|41:108,1,165.000005035401,10|2,0:1|0:0,0:0:0:0:
114,142,102528,2,0,L|237:139,1,110.000003356934,8|2,0:1|0:0,0:0:0:0:
382,118,102957,1,10,0:1:0:0:
320,117,103064,2,0,L|164:117,1,110.000003356934,0|2,0:0|0:0,0:0:0:0:
273,90,103385,1,8,0:0:0:0:
413,69,103599,1,2,0:0:0:0:
409,29,103707,1,0,0:0:0:0:
209,371,103814,6,0,P|156:308|234:247,1,165.000005035401,10|0,0:1|0:0,0:0:0:0:
282,233,104242,1,8,0:1:0:0:
411,208,104456,1,2,0:0:0:0:
238,140,104671,2,0,L|177:91,2,55.0000016784668,8|0|2,0:1|0:0|0:0,0:0:0:0:
69,314,104992,1,8,0:0:0:0:
29,276,105099,1,8,0:1:0:0:
15,224,105206,1,8,0:1:0:0:
32,172,105313,1,8,0:3:0:0:
74,138,105420,1,0,0:0:0:0:
271,255,105528,6,0,P|326:223|232:122,1,220.000006713867,12|8,0:1|0:1,0:0:0:0:
133,335,106171,2,0,L|129:207,1,110.000003356934,2|8,0:0|0:1,0:0:0:0:
195,186,106492,1,2,0:0:0:0:
229,132,106600,1,2,0:0:0:0:
206,72,106707,1,2,0:0:0:0:
145,51,106814,1,8,0:0:0:0:
29,182,107028,2,0,L|21:93,1,55.0000016784668,0|0,0:0|0:0,0:0:0:0:
190,193,107242,6,0,L|369:174,1,165.000005035401,10|0,0:1|0:0,0:0:0:0:
273,121,107671,2,0,L|117:116,1,110.000003356934,8|2,0:1|0:0,0:0:0:0:
316,271,108099,2,0,L|340:175,2,55.0000016784668,8|2|2,0:1|0:0|0:0,0:0:0:0:
36,271,108528,2,0,P|29:220|30:129,1,110.000003356934,12|2,0:0|0:0,0:0:0:0:
367,129,108957,6,0,P|418:122|509:123,1,110.000003356934,12|0,0:1|0:0,0:0:0:0:
339,240,109385,2,0,P|288:247|197:246,1,110.000003356934,8|0,0:1|0:0,0:0:0:0:
305,162,109707,2,0,L|314:74,1,55.0000016784668,8|8,0:0|0:0,0:0:0:0:
227,99,109921,2,0,L|236:27,1,55.0000016784668,8|0,0:0|0:0,0:0:0:0:
388,63,110242,1,8,0:1:0:0:
443,97,110349,1,8,0:0:0:0:
435,89,110456,1,8,0:0:0:0:
379,57,110563,1,0,0:0:0:0:
208,243,110671,6,0,L|185:145,1,55.0000016784668,8|8,0:0|0:0,0:0:0:0:
346,185,110992,2,0,L|330:111,1,55.0000016784668,8|8,0:0|0:1,0:0:0:0:
192,126,111314,2,0,L|135:60,2,55.0000016784668,8|8|8,0:0|0:0|0:1,0:0:0:0:
285,117,111635,2,8,L|383:116,1,55.0000016784668
67,232,111957,1,8,0:3:0:0:
20,185,112064,1,8,0:3:0:0:
34,135,112171,1,4,0:3:0:0:
121,125,112278,1,4,0:3:0:0:
341,139,112385,6,0,L|508:144,1,165.000005035401,12|0,0:0|0:0,0:0:0:0:
421,82,112814,2,0,L|349:78,2,55.0000016784668,10|0|0,0:0|0:0|0:0,0:0:0:0:
256,288,113242,2,0,L|246:211,1,55.0000016784668,10|0,0:0|0:0,0:0:0:0:
405,214,113564,2,0,L|420:137,1,55.0000016784668,0|8,0:0|0:2,0:0:0:0:
315,100,113885,2,0,L|384:85,1,55.0000016784668,2|2,0:0|0:0,0:0:0:0:
176,235,114099,6,0,B|92:208|92:208|122:103,1,165.000005035401,10|2,0:0|0:0,0:0:0:0:
190,96,114528,1,8,0:0:0:0:
347,300,114742,2,0,L|236:298,1,110.000003356934,2|8,0:0|0:0,0:0:0:0:
300,225,115064,2,0,L|379:226,1,55.0000016784668,0|2,0:0|0:0,0:0:0:0:
223,168,115385,2,0,L|112:171,1,110.000003356934,10|2,0:2|0:0,0:0:0:0:
63,172,115707,1,0,0:0:0:0:
254,216,115814,6,0,L|256:88,1,110.000003356934,10|0,0:0|0:0,0:0:0:0:
183,95,116135,2,0,L|92:93,1,55.0000016784668,2|8,0:0|0:0,0:0:0:0:
320,188,116456,2,0,L|322:60,1,110.000003356934,2|8,0:0|0:0,0:0:0:0:
251,64,116778,2,0,L|160:62,1,55.0000016784668,2|0,0:0|0:0,0:0:0:0:
400,200,117099,2,0,L|402:84,1,110.000003356934,10|2,0:2|0:0,0:0:0:0:
327,85,117421,1,2,0:0:0:0:
152,227,117528,6,0,B|69:205|69:205|97:118,1,165.000005035401,10|0,0:0|0:0,0:0:0:0:
165,93,117957,1,10,0:0:0:0:
329,96,118171,2,0,L|438:92,1,110.000003356934,2|8,0:0|0:0,0:0:0:0:
377,49,118492,2,0,L|298:49,1,55.0000016784668,2|0,0:0|0:0,0:0:0:0:
485,293,118814,2,0,P|501:241|463:182,1,110.000003356934,10|0,0:2|0:0,0:0:0:0:
396,178,119135,1,0,0:0:0:0:
201,181,119242,6,0,B|173:160|173:160|251:159|251:159|289:147|303:114,1,165.000005035401,12|0,0:0|0:0,0:0:0:0:
353,62,119671,2,0,L|196:51,1,110.000003356934,10|0,0:0|0:0,0:0:0:0:
87,54,120099,1,10,0:0:0:0:
145,54,120207,2,0,L|263:55,1,110.000003356934,0|0,0:0|0:0,0:0:0:0:
189,118,120528,1,8,0:2:0:0:
330,171,120742,2,0,L|327:117,1,55.0000016784668,2|2,0:0|0:0,0:0:0:0:
131,194,120957,6,0,L|126:75,1,110.000003356934,10|0,0:0|0:0,0:0:0:0:
219,66,121278,2,0,L|281:60,2,55.0000016784668,2|8|0,0:0|0:0|0:0,0:0:0:0:
132,82,121599,2,0,L|-18:85,1,110.000003356934,2|8,0:0|0:0,0:0:0:0:
74,91,121921,1,0,0:0:0:0:
100,137,122028,1,2,0:0:0:0:
78,186,122135,1,0,0:0:0:0:
27,197,122242,1,10,0:2:0:0:
165,234,122457,2,0,L|111:169,1,55.0000016784668,2|0,0:0|0:0,0:0:0:0:
349,229,122671,6,0,P|413:212|450:116,1,165.000005035401,12|2,0:0|0:0,0:0:0:0:
381,109,123099,1,8,0:0:0:0:
234,269,123314,2,0,L|226:187,1,55.0000016784668,2|2,0:0|0:0,0:0:0:0:
429,168,123528,2,0,L|230:164,1,165.000005035401,12|2,0:0|0:0,0:0:0:0:
333,121,123957,1,8,0:2:0:0:
453,133,124171,2,0,L|456:56,1,55.0000016784668,2|0,0:0|0:0,0:0:0:0:
291,251,124385,6,0,B|216:217|216:217|286:143,1,165.000005035401,12|0,0:0|0:0,0:0:0:0:
345,142,124814,2,0,L|462:107,1,110.000003356934,10|2,0:0|0:0,0:0:0:0:
415,51,125135,1,0,0:0:0:0:
218,240,125242,5,10,0:0:0:0:
165,203,125349,1,2,0:0:0:0:
171,148,125456,1,2,0:0:0:0:
216,109,125563,1,2,0:0:0:0:
302,109,125670,1,8,0:0:0:0:
354,143,125777,1,8,0:0:0:0:
355,200,125884,1,8,0:0:0:0:
310,239,125991,1,8,0:0:0:0:
97,246,126099,6,0,P|38:211|120:137,1,165.000005035401,12|0,0:0|0:0,0:0:0:0:
152,132,126528,2,0,L|248:132,2,55.0000016784668,10|0|0,0:0|0:0|0:0,0:0:0:0:
288,220,126957,2,0,L|296:148,1,55.0000016784668,10|0,0:0|0:0,0:0:0:0:
168,156,127278,2,0,L|176:88,1,55.0000016784668,0|8,0:0|0:2,0:0:0:0:
72,40,127599,2,0,L|172:14,1,55.0000016784668,2|2,0:0|0:0,0:0:0:0:
321,166,127814,6,0,B|412:164|412:164|394:88,1,165.000005035401,10|2,0:0|0:0,0:0:0:0:
312,89,128242,1,8,0:0:0:0:
186,199,128457,2,0,L|333:200,1,110.000003356934,2|8,0:0|0:0,0:0:0:0:
229,154,128778,2,0,L|130:160,1,55.0000016784668,0|2,0:0|0:0,0:0:0:0:
314,126,129099,1,10,0:2:0:0:
168,122,129314,2,0,L|165:52,1,55.0000016784668,2|0,0:0|0:0,0:0:0:0:
383,223,129528,6,0,L|384:97,1,110.000003356934,10|0,0:0|0:0,0:0:0:0:
304,107,129849,2,0,L|203:102,1,55.0000016784668,2|8,0:0|0:0,0:0:0:0:
385,36,130171,1,2,0:0:0:0:
214,224,130385,1,8,0:0:0:0:
143,206,130492,2,0,P|113:144|135:113,1,110.000003356934,2|0,0:0|0:0,0:0:0:0:
218,164,130814,1,10,0:2:0:0:
289,147,130921,1,0,0:0:0:0:
267,85,131028,1,2,0:0:0:0:
200,59,131135,1,0,0:0:0:0:
385,269,131242,6,0,P|450:249|465:135,1,165.000005035401,10|0,0:0|0:0,0:0:0:0:
412,136,131671,1,8,0:0:0:0:
140,361,131885,2,0,L|123:239,1,110.000003356934,2|8,0:0|0:0,0:0:0:0:
194,256,132206,1,2,0:0:0:0:
244,210,132313,1,0,0:0:0:0:
223,156,132420,1,0,0:0:0:0:
159,145,132527,1,8,0:2:0:0:
238,119,132635,1,0,0:0:0:0:
264,64,132742,1,0,0:0:0:0:
239,6,132849,1,0,0:0:0:0:
25,243,132957,6,0,P|34:155|114:104,1,165.000005035401,12|0,0:0|0:0,0:0:0:0:
164,104,133385,2,0,L|256:108,2,55.0000016784668,10|0|0,0:0|0:0|0:0,0:0:0:0:
336,183,133814,1,10,0:0:0:0:
395,169,133921,2,0,L|520:173,1,110.000003356934,0|0,0:0|0:0,0:0:0:0:
431,340,134242,2,0,L|414:266,1,55.0000016784668,8|0,0:2|0:0,0:0:0:0:
498,257,134457,2,0,L|474:160,1,55.0000016784668,2|0,0:0|0:0,0:0:0:0:
295,221,134671,6,0,P|239:158|325:126,1,165.000005035401,10|2,0:0|0:0,0:0:0:0:
358,80,135099,1,8,0:0:0:0:
215,89,135314,2,0,L|96:86,1,110.000003356934,2|8,0:0|0:0,0:0:0:0:
180,89,135635,2,0,L|252:92,2,55.0000016784668,0|2|0,0:0|0:0|0:0,0:0:0:0:
96,304,135957,2,0,P|83:242|88:171,1,110.000003356934,10|2,0:2|0:0,0:0:0:0:
158,163,136278,1,2,0:0:0:0:
356,247,136385,6,0,B|434:210|434:210|350:128,1,165.000005035401,12|0,0:1|0:0,0:0:0:0:
289,157,136814,1,8,0:0:0:0:
141,240,137028,2,0,L|133:112,1,110.000003356934,2|8,0:0|0:0,0:0:0:0:
209,87,137349,2,0,L|279:88,2,55.0000016784668,0|0|0,0:0|0:0|0:0,0:0:0:0:
121,101,137671,1,8,0:2:0:0:
63,133,137778,1,0,0:0:0:0:
77,195,137885,1,0,0:0:0:0:
150,220,137992,1,0,0:0:0:0:
345,233,138099,6,0,L|481:235,1,110.000003356934,12|0,0:0|0:0,0:0:0:0:
398,179,138421,1,0,0:0:0:0:
394,115,138528,1,8,0:0:0:0:
454,100,138635,1,0,0:0:0:0:
276,306,138742,5,0,0:0:0:0:
224,289,138849,1,0,0:0:0:0:
192,245,138956,1,8,0:0:0:0:
192,191,139063,1,8,0:0:0:0:
224,148,139170,1,8,0:0:0:0:
276,132,139277,1,8,0:0:0:0:
110,120,139385,2,0,L|98:39,1,55.0000016784668,10|10,0:0|0:0,0:0:0:0:
277,113,139599,2,0,L|289:46,1,55.0000016784668,10|10,0:0|0:0,0:0:0:0:
23,94,139814,5,12,0:1:0:0:
304,341,140457,2,0,P|226:180|54:134,1,330.000010070801,12|2,0:1|0:0,0:0:0:0:
289,218,141528,6,0,L|300:70,1,110.000003356934,2|0,0:0|0:0,0:0:0:0:
168,137,141957,2,0,L|175:17,1,110.000003356934,0|2,0:0|0:0,0:0:0:0:
332,63,142385,1,0,0:0:0:0:
221,115,142600,1,8,0:3:0:0:
213,239,142814,1,8,0:3:0:0:
338,268,143028,1,4,0:3:0:0:
31,301,143242,6,0,L|37:94,1,165.000005035401,12|12,0:1|0:1,0:0:0:0:
425,331,143885,2,0,P|477:278|317:20,1,440.000013427735,12|0,0:1|0:0,0:0:0:0:
254,35,144849,1,0,0:0:0:0:
176,75,144957,5,2,0:0:0:0:
474,185,145171,2,0,P|486:95|410:56,1,165.000005035401,12|8,0:0|0:3,0:0:0:0:
226,214,145814,2,0,P|204:151|279:87,1,165.000005035401,4|4,0:3|0:3,0:0:0:0:
325,81,146242,1,8,0:1:0:0:
460,116,146457,2,0,L|447:49,1,55.0000016784668,2|2,0:0|0:0,0:0:0:0:
274,91,146671,6,0,L|429:5,1,165.000005035401,12|2,0:1|0:0,0:0:0:0:
37,323,147314,2,0,P|8:236|269:34,1,440.000013427735,12|0,0:1|0:0,0:0:0:0:
278,28,148278,1,0,0:0:0:0:
149,217,148385,5,0,0:0:0:0:
88,215,148528,1,0,0:0:0:0:
75,162,148599,1,0,0:0:0:0:
87,113,148670,1,0,0:0:0:0:
124,75,148742,1,0,0:0:0:0:
174,59,148813,1,0,0:0:0:0:
225,70,148885,1,0,0:0:0:0:
267,103,148956,1,0,0:0:0:0:
286,151,149028,1,0,0:0:0:0:
280,202,149099,1,0,0:0:0:0:
250,245,149170,1,0,0:0:0:0:
117,226,149242,6,8,L|16:231,1,73.3333355712891,8|8,0:3|0:3,0:3:0:0:
266,293,149528,2,8,L|366:299,1,73.3333355712891,8|8,0:3|0:3,0:3:0:0:
109,124,149814,2,4,L|36:129,1,73.3333355712891,4|4,0:3|0:3,0:3:0:0:
435,213,150099,6,0,B|484:214|484:214|458:60,1,165.000005035401,12|2,0:1|0:0,0:0:0:0:
62,169,150742,2,0,L|322:86,1,220.000006713867,12|0,0:1|0:0,0:0:0:0:
143,288,151385,2,0,L|133:154,1,110.000003356934,2|0,0:0|0:0,0:0:0:0:
196,161,151707,1,8,0:1:0:0:
373,150,151814,6,0,L|505:126,1,110.000003356934,12|8,0:1|0:1,0:0:0:0:
301,85,152242,2,0,L|185:69,1,110.000003356934,8|8,0:1|0:1,0:0:0:0:
486,300,152671,2,0,P|486:236|466:160,1,110.000003356934,8|8,0:0|0:0,0:0:0:0:
387,191,152992,1,8,0:0:0:0:
336,150,153099,1,8,0:0:0:0:
326,91,153206,1,8,0:0:0:0:
357,41,153313,1,8,0:0:0:0:
419,15,153420,1,8,0:0:0:0:
223,225,153528,6,0,P|151:183|130:95,1,165.000005035401,12|2,0:1|0:0,0:0:0:0:
176,62,153957,1,8,0:1:0:0:
322,184,154171,2,0,L|325:64,1,110.000003356934,2|8,0:0|0:1,0:0:0:0:
175,67,154599,2,0,L|54:47,2,110.000003356934,2|10|0,0:0|0:1|0:0,0:0:0:0:
344,168,155242,6,0,L|148:134,1,165.000005035401,10|2,0:1|0:0,0:0:0:0:
255,117,155671,1,8,0:1:0:0:
389,118,155885,2,0,L|517:99,1,110.000003356934,2|8,0:0|0:1,0:0:0:0:
372,243,156314,2,0,L|449:237,1,55.0000016784668,2|0,0:0|0:0,0:0:0:0:
228,175,156528,1,6,0:3:0:0:
184,144,156635,1,0,0:0:0:0:
188,92,156742,1,0,0:0:0:0:
234,68,156849,1,0,0:0:0:0:
420,192,156957,6,0,P|421:84|359:63,1,165.000005035401,10|2,0:1|0:0,0:0:0:0:
290,56,157385,1,8,0:1:0:0:
126,159,157599,2,0,L|261:153,1,110.000003356934,2|8,0:0|0:1,0:0:0:0:
345,156,158028,1,2,0:0:0:0:
205,100,158242,2,0,L|86:104,1,110.000003356934,10|0,0:1|0:0,0:0:0:0:
307,320,158671,6,0,P|369:260|317:179,1,165.000005035401,10|2,0:1|0:0,0:0:0:0:
275,180,159099,1,8,0:1:0:0:
152,134,159314,2,0,L|270:130,1,110.000003356934,2|8,0:0|0:1,0:0:0:0:
124,229,159742,2,0,L|54:229,1,55.0000016784668,8|8,0:1|0:1,0:0:0:0:
244,175,159957,1,8,0:3:0:0:
274,130,160064,1,8,0:3:0:0:
241,86,160171,1,8,0:3:0:0:
176,63,160278,1,8,0:3:0:0:
382,262,160385,6,0,P|434:232|399:117,1,165.000005035401,12|2,0:1|0:0,0:0:0:0:
363,125,160814,1,8,0:1:0:0:
215,123,161028,2,0,L|95:119,1,110.000003356934,2|8,0:0|0:1,0:0:0:0:
257,65,161457,2,0,L|373:71,2,110.000003356934,2|10|0,0:0|0:1|0:0,0:0:0:0:
443,256,162099,6,0,P|480:197|431:103,1,165.000005035401,10|2,0:1|0:0,0:0:0:0:
373,80,162528,1,8,0:1:0:0:
226,198,162742,2,0,L|212:84,1,110.000003356934,2|8,0:0|0:1,0:0:0:0:
323,100,163171,1,2,0:0:0:0:
140,143,163385,2,0,L|22:128,1,110.000003356934,6|0,0:3|0:0,0:0:0:0:
84,99,163707,1,0,0:0:0:0:
268,229,163814,6,0,L|440:229,1,165.000005035401,12|2,0:1|0:0,0:0:0:0:
365,258,164242,1,8,0:1:0:0:
507,185,164457,2,0,P|497:88|464:58,1,110.000003356934,2|8,0:0|0:1,0:0:0:0:
338,104,164885,2,0,L|203:87,1,110.000003356934,0|10,0:0|0:1,0:0:0:0:
362,226,165314,2,0,L|369:138,1,55.0000016784668,0|0,0:0|0:0,0:0:0:0:
146,186,165528,5,10,0:1:0:0:
282,318,165742,1,2,0:0:0:0:
328,290,165849,1,0,0:0:0:0:
354,242,165956,1,8,0:1:0:0:
353,188,166063,1,8,0:1:0:0:
324,142,166170,1,8,0:1:0:0:
276,116,166277,1,8,0:1:0:0:
441,250,166385,5,8,0:3:0:0:
474,208,166492,1,8,0:3:0:0:
472,154,166599,1,8,0:3:0:0:
434,116,166706,1,8,0:3:0:0:
268,145,166814,2,0,L|258:60,1,55.0000016784668,4|4,0:3|0:3,0:0:0:0:
427,77,167028,2,0,L|436:6,1,55.0000016784668,4|4,0:3|0:3,0:0:0:0:
224,242,167242,5,12,0:1:0:0:
184,205,167349,1,0,0:0:0:0:
183,151,167456,1,0,0:0:0:0:
242,121,167564,2,0,L|304:102,2,55.0000016784668,10|8|0,0:3|0:1|0:0,0:0:0:0:
78,274,167885,5,10,0:3:0:0:
43,231,167992,1,0,0:0:0:0:
32,182,168099,1,0,0:0:0:0:
48,134,168207,1,8,0:3:0:0:
86,94,168314,1,10,0:1:0:0:
137,69,168420,1,0,0:0:0:0:
202,207,168528,2,0,L|215:117,1,55.0000016784668,10|0,0:1|0:0,0:0:0:0:
135,133,168742,2,0,L|126:78,1,55.0000016784668,0|0,0:0|0:0,0:0:0:0:
357,266,168957,5,10,0:1:0:0:
408,248,169064,1,0,0:0:0:0:
440,194,169171,1,0,0:0:0:0:
436,130,169278,1,10,0:3:0:0:
404,80,169385,1,8,0:1:0:0:
357,57,169492,1,0,0:0:0:0:
169,268,169599,5,10,0:3:0:0:
119,249,169706,1,0,0:0:0:0:
89,204,169813,1,0,0:0:0:0:
90,150,169920,1,8,0:3:0:0:
122,106,170027,1,10,0:1:0:0:
174,90,170134,1,0,0:0:0:0:
237,81,170242,2,0,L|140:71,1,55.0000016784668,10|0,0:1|0:0,0:0:0:0:
115,41,170457,2,0,L|174:40,1,55.0000016784668,10|0,0:3|0:0,0:0:0:0:
391,321,170671,5,10,0:1:0:0:
442,291,170778,1,0,0:0:0:0:
457,239,170885,1,0,0:0:0:0:
394,209,170992,2,0,L|332:149,2,55.0000016784668,10|8|0,0:3|0:1|0:0,0:0:0:0:
224,268,171314,6,0,L|202:190,1,55.0000016784668,10|0,0:3|0:0,0:0:0:0:
282,210,171528,1,0,0:0:0:0:
327,181,171635,1,8,0:3:0:0:
344,130,171742,1,10,0:1:0:0:
324,80,171849,1,0,0:0:0:0:
259,129,171957,2,0,L|249:63,1,55.0000016784668,10|0,0:1|0:0,0:0:0:0:
336,113,172171,2,0,L|326:47,1,55.0000016784668,10|8,0:1|0:3,0:0:0:0:
154,346,172385,5,10,0:1:0:0:
117,302,172492,1,0,0:0:0:0:
142,237,172599,1,0,0:0:0:0:
211,207,172707,1,10,0:3:0:0:
264,150,172814,1,8,0:1:0:0:
254,86,172921,1,0,0:0:0:0:
74,295,173028,5,10,0:3:0:0:
42,250,173135,1,0,0:0:0:0:
38,196,173242,1,0,0:0:0:0:
62,147,173349,1,8,0:3:0:0:
108,118,173456,1,8,0:1:0:0:
162,116,173563,1,0,0:0:0:0:
217,158,173671,2,0,L|128:142,1,55.0000016784668,8|8,0:0|0:3,0:0:0:0:
97,160,173885,2,0,L|34:148,1,55.0000016784668,10|8,0:1|0:3,0:0:0:0:
312,315,174099,5,12,0:1:0:0:
383,311,174206,1,0,0:0:0:0:
416,276,174313,1,0,0:0:0:0:
420,224,174420,1,8,0:3:0:0:
399,174,174528,2,0,L|328:131,1,55.0000016784668,10|0,0:1|0:0,0:0:0:0:
292,268,174742,2,0,L|231:241,1,55.0000016784668,10|0,0:3|0:0,0:0:0:0:
210,202,174956,5,8,0:1:0:0:
205,148,175063,1,8,0:3:0:0:
229,100,175170,1,0,0:0:0:0:
275,71,175277,1,0,0:0:0:0:
341,149,175385,2,0,L|336:89,1,55.0000016784668,10|0,0:1|0:0,0:0:0:0:
250,106,175599,2,0,L|245:46,1,55.0000016784668,8|8,0:3|0:3,0:0:0:0:
446,259,175814,5,10,0:1:0:0:
498,213,175921,1,0,0:0:0:0:
486,149,176028,1,0,0:0:0:0:
426,139,176135,1,0,0:0:0:0:
369,144,176242,2,0,L|363:82,1,55.0000016784668,8|0,0:3|0:0,0:0:0:0:
425,62,176457,2,0,L|431:0,1,55.0000016784668,10|0,0:1|0:3,0:0:0:0:
358,25,176671,5,0,0:0:0:0:
311,63,176778,1,8,0:3:0:0:
315,116,176885,1,8,0:1:0:0:
369,144,176992,1,0,0:0:0:0:
202,357,177099,2,0,L|185:290,1,55.0000016784668,2|0,0:0|0:0,0:0:0:0:
354,302,177314,2,0,L|371:235,1,55.0000016784668,10|10,0:1|0:0,0:0:0:0:
28,277,177528,6,0,L|20:159,1,110.000003356934,10|8,0:1|0:1,0:0:0:0:
175,264,177957,2,0,L|170:150,1,110.000003356934,10|10,0:1|0:1,0:0:0:0:
337,262,178385,2,0,L|332:152,1,110.000003356934,10|8,0:1|0:1,0:0:0:0:
509,267,178814,2,0,L|504:157,1,110.000003356934,10|10,0:1|0:1,0:0:0:0:
178,139,179242,6,0,L|281:79,1,110.000003356934,10|8,0:1|0:1,0:0:0:0:
432,135,179671,2,0,L|329:75,1,110.000003356934,8|10,0:1|0:1,0:0:0:0:
154,253,180099,2,0,L|133:174,1,55.0000016784668,8|8,0:0|0:0,0:0:0:0:
306,252,180314,2,0,L|327:173,1,55.0000016784668,8|0,0:0|0:0,0:0:0:0:
136,308,180528,2,0,L|109:207,1,55.0000016784668,8|8,0:0|0:0,0:0:0:0:
322,309,180743,2,0,L|348:208,1,55.0000016784668,8|0,0:0|0:0,0:0:0:0:
229,214,180957,1,2,0:0:0:0:
385,278,191242,6,0,L|381:65,1,165.000005035401,2|2,0:0|0:0,0:0:0:0:
195,101,191885,2,0,L|279:80,1,55.0000016784668,2|2,0:0|0:0,0:0:0:0:
180,274,192099,2,0,P|119:249|198:161,1,220.000006713867,2|0,0:0|0:0,0:0:0:0:
327,190,192742,2,0,L|332:115,1,55.0000016784668,2|2,0:0|0:0,0:0:0:0:
247,119,192957,1,2,0:0:0:0:
492,241,194242,6,0,L|360:240,1,110.000003356934,4|0,0:3|0:0,0:0:0:0:
53,203,194671,6,0,L|262:201,1,179.999994506836,12|0,0:0|0:0,0:0:0:0:
143,127,195099,2,0,L|48:128,2,59.9999981689454,10|0|0,0:0|0:0|0:0,0:0:0:0:
317,129,195528,2,0,L|401:133,1,59.9999981689454,10|0,0:0|0:0,0:0:0:0:
208,71,195849,2,0,L|130:69,1,59.9999981689454,0|8,0:0|0:2,0:0:0:0:
307,51,196171,2,0,L|220:27,1,59.9999981689454,2|2,0:0|0:0,0:0:0:0:
457,215,196385,6,0,P|464:151|455:84,1,119.999996337891,10|0,0:0|0:0,0:0:0:0:
391,92,196707,2,0,L|312:88,1,59.9999981689454,2|8,0:0|0:0,0:0:0:0:
177,88,197028,2,0,L|336:89,1,119.999996337891,2|8,0:0|0:0,0:0:0:0:
224,38,197349,2,0,L|152:37,2,59.9999981689454,0|2|0,0:0|0:0|0:0,0:0:0:0:
307,39,197671,1,10,0:2:0:0:
459,211,197885,2,0,L|457:152,1,59.9999981689454,2|0,0:0|0:0,0:0:0:0:
242,291,198099,6,0,P|169:254|222:158,1,179.999994506836,10|2,0:0|0:0,0:0:0:0:
254,159,198528,1,8,0:0:0:0:
116,150,198742,2,0,L|111:64,1,59.9999981689454,2|0,0:0|0:0,0:0:0:0:
298,220,198957,6,0,P|371:183|318:87,1,179.999994506836,8|0,0:0|0:0,0:0:0:0:
286,88,199386,1,10,0:2:0:0:
430,95,199599,2,0,L|342:47,1,59.9999981689454,2|0,0:0|0:0,0:0:0:0:
189,235,199814,6,0,L|373:174,1,179.999994506836,10|0,0:0|0:0,0:0:0:0:
294,142,200242,1,8,0:0:0:0:
167,161,200457,1,2,0:0:0:0:
324,231,200671,5,8,0:0:0:0:
367,195,200778,1,2,0:0:0:0:
352,140,200885,1,0,0:0:0:0:
295,133,200992,1,0,0:0:0:0:
117,128,201099,1,8,0:2:0:0:
74,92,201206,1,0,0:0:0:0:
89,37,201313,1,0,0:0:0:0:
145,30,201420,1,0,0:0:0:0:
405,274,201528,6,0,P|455:206|411:121,1,179.999994506836,12|0,0:0|0:0,0:0:0:0:
334,124,201957,2,0,L|245:121,2,59.9999981689454,10|0|0,0:0|0:0|0:0,0:0:0:0:
482,57,202385,2,0,L|393:60,1,59.9999981689454,10|0,0:0|0:0,0:0:0:0:
268,74,202707,2,0,L|199:76,1,59.9999981689454,0|8,0:0|0:2,0:0:0:0:
386,249,203028,2,0,L|390:173,1,59.9999981689454,2|0,0:0|0:0,0:0:0:0:
193,193,203242,6,0,P|120:151|167:48,1,179.999994506836,10|2,0:0|0:0,0:0:0:0:
207,46,203671,1,8,0:0:0:0:
63,192,203885,2,0,P|32:137|82:84,1,119.999996337891,2|8,0:0|0:0,0:0:0:0:
133,56,204207,2,0,L|209:50,2,59.9999981689454,0|2|0,0:0|0:0|0:0,0:0:0:0:
56,67,204528,1,10,0:2:0:0:
193,199,204742,2,0,L|123:194,1,59.9999981689454,2|2,0:0|0:0,0:0:0:0:
376,260,204957,6,0,P|444:222|430:98,1,179.999994506836,12|0,0:1|0:0,0:0:0:0:
391,101,205385,1,8,0:0:0:0:
271,63,205599,2,0,L|407:63,1,119.999996337891,2|8,0:0|0:0,0:0:0:0:
318,49,205921,2,0,L|245:48,1,59.9999981689454,0|0,0:0|0:0,0:0:0:0:
435,277,206242,1,8,0:2:0:0:
487,253,206349,1,0,0:0:0:0:
484,196,206456,1,0,0:0:0:0:
430,179,206563,1,0,0:0:0:0:
256,222,206671,6,0,P|185:179|165:74,1,179.999994506836,12|0,0:1|0:0,0:0:0:0:
240,74,207099,2,0,L|312:66,2,59.9999981689454,8|0|0,0:0|0:0|0:0,0:0:0:0:
108,235,207528,1,8,0:0:0:0:
62,198,207635,1,0,0:0:0:0:
59,140,207742,1,8,0:0:0:0:
100,100,207849,1,0,0:0:0:0:
286,152,207957,2,0,L|303:83,1,59.9999981689454,10|10,0:0|0:0,0:0:0:0:
111,93,208171,2,0,L|94:24,1,59.9999981689454,10|10,0:0|0:0,0:0:0:0:
335,25,208385,5,12,0:1:0:0:
115,139,210099,1,2,0:0:0:0:
415,146,210957,1,0,0:0:0:0:
256,192,211814,1,12,0:1:0:0:
256,192,212028,12,0,218242,0:0:0:0:
