osu file format v14

[General]
AudioFilename: audio.mp3
AudioLeadIn: 0
PreviewTime: 53567
Countdown: 1
SampleSet: Normal
StackLeniency: 0.7
Mode: 1
LetterboxInBreaks: 0
WidescreenStoryboard: 1

[Editor]
Bookmarks: 12907,26621,40335,54049,81478,112335,139764,153478,167192,180907,194621,208335
DistanceSpacing: 1.2
BeatDivisor: 4
GridSize: 16
TimelineZoom: 2.2

[Metadata]
Title:Ima Koko
TitleUnicode:イマココ
Artist:Toyama Nao
ArtistUnicode:東山奈央
Creator:Kibbleru
Version:Nao's Muzukashii
Source:月がきれい
Tags:Here Right Now touyama tsuki ga kirei the moon is still beautiful Naotoshi Kocari Sinnoh Uta Nao Tomori
BeatmapID:1468399
BeatmapSetID:687493

[Difficulty]
HPDrainRate:6.5
CircleSize:2
OverallDifficulty:4
ApproachRate:5
SliderMultiplier:1.4
SliderTickRate:1

[Events]
//Background and Video events
0,0,"tkgkir.jpg",0,0
//Break Periods
//Storyboard Layer 0 (Background)
//Storyboard Layer 1 (Fail)
//Storyboard Layer 2 (Pass)
//Storyboard Layer 3 (Foreground)
//Storyboard Sound Samples

[TimingPoints]
957,428.571428571429,4,1,0,56,1,0
54099,-100,4,1,0,69,0,1
64385,-100,4,1,0,56,0,0
67814,-100,4,1,0,69,0,1
81528,-100,4,1,0,56,0,0
112385,-100,4,1,0,69,0,1
122671,-100,4,1,0,56,0,0
126099,-100,4,1,0,69,0,1
139814,-100,4,1,0,56,0,0
194671,-100,4,1,0,69,0,1
208385,-100,4,1,0,56,0,0
211921,-100,4,1,0,56,0,0

[Colours]
Combo1 : 170,176,193
Combo2 : 255,176,214
Combo3 : 136,130,255
Combo4 : 163,41,243

[HitObjects]
256,192,957,5,0,0:1:0:0:
256,192,1278,1,0,0:1:0:0:
256,192,1599,1,0,0:1:0:0:
256,192,2671,1,8,0:1:0:0:
256,192,2992,1,0,0:1:0:0:
256,192,3314,1,0,0:1:0:0:
256,192,3528,1,8,0:1:0:0:
256,192,4385,1,8,0:1:0:0:
256,192,4707,1,0,0:1:0:0:
256,192,5028,1,0,0:1:0:0:
256,192,5885,1,8,0:1:0:0:
256,192,5992,1,8,0:1:0:0:
256,192,6099,1,8,0:1:0:0:
256,192,6421,1,8,0:1:0:0:
256,192,6742,1,0,0:1:0:0:
256,192,7599,1,0,0:1:0:0:
256,192,7814,1,8,0:1:0:0:
256,192,8242,1,0,0:1:0:0:
256,192,8671,1,0,0:1:0:0:
256,192,9099,1,0,0:1:0:0:
256,192,9528,1,8,0:1:0:0:
256,192,9957,1,0,0:1:0:0:
256,192,10171,1,0,0:1:0:0:
256,192,10599,1,0,0:1:0:0:
256,192,11028,1,8,0:1:0:0:
256,192,12528,1,4,0:1:0:0:
256,192,12957,1,8,0:1:0:0:
256,192,13278,1,0,0:1:0:0:
256,192,13599,1,8,0:1:0:0:
256,192,13921,1,0,0:1:0:0:
256,192,14242,1,0,0:1:0:0:
256,192,14457,1,8,0:1:0:0:
256,192,14671,1,8,0:1:0:0:
256,192,14992,1,0,0:1:0:0:
256,192,15313,1,8,0:1:0:0:
256,192,15635,1,0,0:1:0:0:
256,192,15849,1,0,0:1:0:0:
256,192,15956,1,0,0:1:0:0:
256,192,16171,1,8,0:1:0:0:
256,192,16385,1,8,0:1:0:0:
256,192,16706,1,0,0:1:0:0:
256,192,17028,1,8,0:1:0:0:
256,192,17349,1,0,0:1:0:0:
256,192,17670,1,0,0:1:0:0:
256,192,17885,1,0,0:1:0:0:
256,192,18099,1,8,0:1:0:0:
256,192,18421,1,8,0:1:0:0:
256,192,18742,1,8,0:1:0:0:
256,192,18957,1,0,0:1:0:0:
256,192,19064,1,0,0:1:0:0:
256,192,19385,1,0,0:1:0:0:
256,192,19599,1,0,0:1:0:0:
256,192,19814,1,12,0:1:0:0:
256,192,20135,1,0,0:1:0:0:
256,192,20457,1,8,0:1:0:0:
256,192,20778,1,0,0:1:0:0:
256,192,21099,1,8,0:1:0:0:
256,192,21314,1,8,0:1:0:0:
256,192,21528,1,0,0:1:0:0:
256,192,21849,1,0,0:1:0:0:
256,192,21957,1,0,0:0:0:0:
256,192,22170,1,8,0:1:0:0:
256,192,22492,1,0,0:1:0:0:
256,192,22599,1,0,0:0:0:0:
256,192,22813,1,8,0:1:0:0:
256,192,23028,1,8,0:1:0:0:
256,192,23242,1,0,0:1:0:0:
256,192,23564,1,0,0:1:0:0:
256,192,23671,1,0,0:1:0:0:
256,192,23885,1,0,0:1:0:0:
256,192,24314,1,8,0:1:0:0:
256,192,24421,1,8,0:1:0:0:
256,192,24528,1,8,0:1:0:0:
256,192,24742,1,0,0:1:0:0:
256,192,24957,1,8,0:1:0:0:
256,192,25171,1,8,0:1:0:0:
256,192,25385,1,0,0:0:0:0:
256,192,25599,5,0,0:1:0:0:
256,192,25707,1,0,0:1:0:0:
256,192,25814,1,0,0:1:0:0:
256,192,26242,1,0,0:1:0:0:
256,192,26457,1,8,0:1:0:0:
256,192,26564,1,8,0:1:0:0:
256,192,26671,5,8,0:1:0:0:
256,192,27099,1,0,0:1:0:0:
256,192,27528,1,0,0:1:0:0:
256,192,27957,1,0,0:1:0:0:
256,192,28171,1,0,0:1:0:0:
256,192,28385,1,8,0:1:0:0:
256,192,28707,1,8,0:1:0:0:
256,192,29028,1,0,0:1:0:0:
256,192,29457,1,0,0:1:0:0:
256,192,29885,1,8,0:1:0:0:
256,192,30099,1,0,0:1:0:0:
256,192,30742,1,0,0:1:0:0:
256,192,31171,1,0,0:1:0:0:
256,192,31385,1,8,0:1:0:0:
256,192,31599,1,8,0:1:0:0:
256,192,31814,1,0,0:1:0:0:
256,192,32135,1,0,0:1:0:0:
256,192,32457,1,0,0:1:0:0:
256,192,33314,1,0,0:1:0:0:
256,192,33528,1,8,0:1:0:0:
256,192,33957,1,0,0:1:0:0:
256,192,34385,1,8,0:1:0:0:
256,192,34814,1,0,0:1:0:0:
256,192,35028,1,0,0:1:0:0:
256,192,35242,1,8,0:1:0:0:
256,192,35564,1,0,0:1:0:0:
256,192,35885,1,0,0:1:0:0:
256,192,36099,1,8,0:1:0:0:
256,192,36314,1,0,0:1:0:0:
256,192,36742,1,0,0:1:0:0:
256,192,36957,1,8,0:1:0:0:
256,192,38028,1,0,0:1:0:0:
256,192,38242,1,8,0:1:0:0:
256,192,38457,1,8,0:1:0:0:
256,192,38564,1,8,0:0:0:0:
256,192,38671,1,8,0:1:0:0:
256,192,38885,1,0,0:1:0:0:
256,192,39314,1,8,0:1:0:0:
256,192,39528,1,8,0:0:0:0:
256,192,39742,1,0,0:1:0:0:
256,192,39849,1,0,0:0:0:0:
256,192,39957,1,0,0:1:0:0:
256,192,40171,1,0,0:0:0:0:
256,192,40385,1,12,0:1:0:0:
256,192,40814,1,0,0:1:0:0:
256,192,41028,1,8,0:1:0:0:
256,192,41242,1,0,0:1:0:0:
256,192,41671,1,0,0:1:0:0:
256,192,41885,1,0,0:1:0:0:
256,192,42099,1,8,0:1:0:0:
256,192,42421,1,0,0:1:0:0:
256,192,42742,1,8,0:1:0:0:
256,192,42957,1,8,0:1:0:0:
256,192,43385,1,0,0:1:0:0:
256,192,43599,1,8,0:1:0:0:
256,192,43707,1,8,0:1:0:0:
256,192,43814,1,8,0:1:0:0:
256,192,44135,1,8,0:1:0:0:
256,192,44457,1,0,0:1:0:0:
256,192,44671,1,8,0:1:0:0:
256,192,44992,1,8,0:1:0:0:
256,192,45314,1,0,0:1:0:0:
256,192,45528,1,8,0:1:0:0:
256,192,45849,1,8,0:1:0:0:
256,192,46171,1,0,0:1:0:0:
256,192,46385,1,8,0:1:0:0:
256,192,46707,1,8,0:1:0:0:
256,192,47028,1,0,0:1:0:0:
256,192,47242,1,4,0:1:0:0:
256,192,47671,1,0,0:1:0:0:
256,192,47885,1,0,0:1:0:0:
256,192,48099,1,0,0:1:0:0:
256,192,48528,1,8,0:1:0:0:
256,192,48742,1,0,0:1:0:0:
256,192,48957,1,8,0:1:0:0:
256,192,49278,1,8,0:1:0:0:
256,192,49599,1,0,0:1:0:0:
256,192,50028,1,0,0:1:0:0:
256,192,50135,1,0,0:1:0:0:
256,192,50242,1,0,0:1:0:0:
256,192,50457,1,8,0:1:0:0:
256,192,50671,1,0,0:1:0:0:
256,192,51099,1,0,0:1:0:0:
256,192,51314,1,0,0:1:0:0:
256,192,51421,1,0,0:1:0:0:
256,192,51528,1,0,0:1:0:0:
256,192,51957,1,8,0:1:0:0:
256,192,52171,1,0,0:1:0:0:
256,192,52278,1,0,0:1:0:0:
256,192,52385,1,0,0:1:0:0:
256,192,53671,5,8,0:1:0:0:
256,192,54099,1,4,0:1:0:0:
256,192,54421,1,8,0:1:0:0:
256,192,54742,1,8,0:1:0:0:
256,192,54957,1,0,0:1:0:0:
256,192,55385,1,0,0:1:0:0:
256,192,55599,1,0,0:1:0:0:
256,204,55707,1,0,0:0:0:0:
256,192,55814,1,0,0:1:0:0:
256,192,56135,1,8,0:0:0:0:
256,192,56457,1,0,0:1:0:0:
256,192,56885,1,0,0:1:0:0:
256,192,57099,1,0,0:1:0:0:
256,192,57314,1,8,0:1:0:0:
256,192,57528,1,0,0:1:0:0:
256,192,57849,1,8,0:1:0:0:
256,192,58171,1,8,0:1:0:0:
256,192,58492,1,8,0:1:0:0:
256,192,58707,1,0,0:1:0:0:
256,192,58814,1,0,0:1:0:0:
256,192,59028,1,8,0:1:0:0:
256,192,59242,1,0,0:1:0:0:
256,192,59671,1,8,0:1:0:0:
256,192,59885,1,0,0:1:0:0:
256,208,60099,1,8,0:0:0:0:
256,192,60207,1,8,0:1:0:0:
256,192,60528,1,0,0:1:0:0:
256,192,60742,1,0,0:1:0:0:
256,192,60957,1,12,0:1:0:0:
256,192,61385,1,8,0:1:0:0:
256,192,61599,1,0,0:0:0:0:
256,192,61707,1,0,0:1:0:0:
256,192,61814,1,0,0:1:0:0:
256,192,62242,1,8,0:1:0:0:
256,192,62457,1,0,0:1:0:0:
256,192,62671,1,8,0:1:0:0:
256,192,62992,1,8,0:1:0:0:
256,192,63314,1,0,0:1:0:0:
256,192,63742,1,0,0:1:0:0:
256,192,63957,1,8,0:1:0:0:
256,192,64171,1,8,0:1:0:0:
256,192,64385,1,4,0:1:0:0:
256,192,64814,1,8,0:1:0:0:
264,194,65028,1,8,0:0:0:0:
256,192,65242,1,4,0:1:0:0:
256,192,65671,1,8,0:0:0:0:
198,31,65885,1,8,0:0:0:0:
256,192,66099,1,4,0:1:0:0:
256,192,66528,1,8,0:1:0:0:
256,192,66742,1,0,0:1:0:0:
256,192,66849,1,0,0:1:0:0:
256,192,66957,1,0,0:1:0:0:
256,192,67385,1,0,0:1:0:0:
256,192,67492,1,0,0:0:0:0:
256,192,67599,1,0,0:1:0:0:
256,192,67814,1,12,0:1:0:0:
256,192,68135,1,8,0:1:0:0:
256,192,68457,1,8,0:1:0:0:
256,192,68671,1,0,0:1:0:0:
256,192,69099,1,8,0:1:0:0:
256,192,69314,1,8,0:1:0:0:
256,192,69421,1,8,0:1:0:0:
256,192,69528,1,8,0:1:0:0:
256,192,69849,1,8,0:1:0:0:
256,192,70171,1,0,0:1:0:0:
256,192,70385,1,0,0:1:0:0:
256,192,70492,1,0,0:1:0:0:
256,192,70599,1,0,0:1:0:0:
256,192,70814,1,8,0:1:0:0:
256,192,71028,1,0,0:1:0:0:
256,192,71242,1,8,0:1:0:0:
256,192,71671,1,8,0:1:0:0:
256,192,71885,1,0,0:1:0:0:
256,192,72099,1,0,0:1:0:0:
256,192,72528,1,8,0:1:0:0:
272,176,72742,1,0,0:0:0:0:
256,192,72957,1,8,0:1:0:0:
256,192,73385,1,0,0:1:0:0:
256,192,73599,1,8,0:1:0:0:
256,192,74242,1,8,0:1:0:0:
256,192,74457,1,0,0:1:0:0:
256,192,74671,1,12,0:1:0:0:
256,192,74992,1,0,0:1:0:0:
256,192,75314,1,8,0:1:0:0:
256,192,75528,1,0,0:1:0:0:
256,192,75635,1,0,0:1:0:0:
256,192,75957,1,8,0:1:0:0:
256,192,76171,1,8,0:1:0:0:
256,192,76278,1,8,0:1:0:0:
256,192,76385,1,8,0:1:0:0:
256,192,76707,1,0,0:1:0:0:
256,192,77028,1,0,0:1:0:0:
256,192,77457,1,8,0:1:0:0:
256,192,77671,1,8,0:1:0:0:
256,192,77885,1,0,0:1:0:0:
256,192,77992,1,0,0:0:0:0:
256,192,78099,1,0,0:1:0:0:
256,192,78528,1,8,0:1:0:0:
256,192,78742,1,8,0:1:0:0:
256,192,78957,1,0,0:1:0:0:
256,192,79385,1,8,0:1:0:0:
256,192,79599,1,0,0:0:0:0:
256,192,79814,1,8,0:1:0:0:
256,192,80242,1,8,0:1:0:0:
256,192,80457,1,8,0:1:0:0:
256,192,80564,1,8,0:1:0:0:
256,192,80671,1,8,0:1:0:0:
256,192,80885,1,0,0:1:0:0:
256,192,81099,1,0,0:1:0:0:
256,192,81314,1,8,0:1:0:0:
256,192,81421,1,8,0:1:0:0:
256,192,81528,1,8,0:1:0:0:
256,192,82171,1,0,0:1:0:0:
256,192,82814,1,8,0:1:0:0:
256,192,83028,1,8,0:1:0:0:
256,192,83135,1,8,0:1:0:0:
256,192,83242,1,8,0:1:0:0:
256,192,83564,1,8,0:1:0:0:
256,192,83885,1,4,0:1:0:0:
256,192,84314,1,8,0:1:0:0:
256,192,84528,1,0,0:1:0:0:
256,192,84635,1,0,0:1:0:0:
256,192,84742,1,0,0:1:0:0:
256,192,84957,1,8,0:1:0:0:
256,192,85385,1,0,0:1:0:0:
256,192,85814,1,8,0:1:0:0:
256,192,86242,1,0,0:1:0:0:
256,192,86457,1,0,0:1:0:0:
256,192,86671,1,8,0:1:0:0:
256,192,86992,1,8,0:1:0:0:
256,192,87314,1,0,0:1:0:0:
256,192,87742,1,8,0:1:0:0:
256,192,87957,1,8,0:0:0:0:
256,192,88171,1,0,0:1:0:0:
256,192,88385,1,8,0:1:0:0:
256,192,88707,1,8,0:1:0:0:
256,192,88814,1,8,0:1:0:0:
256,192,89028,1,8,0:1:0:0:
256,192,89457,1,0,0:1:0:0:
256,192,89671,1,8,0:1:0:0:
256,192,89885,1,0,0:1:0:0:
256,192,90314,1,8,0:1:0:0:
256,192,90528,1,0,0:1:0:0:
256,192,90742,1,0,0:1:0:0:
256,192,90957,1,8,0:1:0:0:
256,192,91385,1,0,0:1:0:0:
256,192,91599,1,0,0:1:0:0:
256,192,91707,1,0,0:1:0:0:
256,192,91814,1,0,0:1:0:0:
256,192,92242,1,0,0:1:0:0:
256,192,92671,1,8,0:1:0:0:
256,192,93099,1,0,0:1:0:0:
256,192,93314,1,0,0:1:0:0:
256,192,93528,1,8,0:1:0:0:
256,192,93849,1,8,0:1:0:0:
256,192,93957,1,8,0:0:0:0:
256,192,94171,1,0,0:0:0:0:
256,192,94599,1,0,0:1:0:0:
256,192,94814,1,8,0:1:0:0:
256,192,95028,1,8,0:1:0:0:
256,192,95242,1,0,0:1:0:0:
256,192,95671,1,8,0:0:0:0:
256,192,96099,1,8,0:1:0:0:
256,192,96314,1,0,0:1:0:0:
256,192,96528,1,0,0:1:0:0:
256,192,96742,1,8,0:1:0:0:
256,192,97171,1,8,0:1:0:0:
256,192,97385,5,0,0:0:0:0:
256,192,97599,1,12,0:1:0:0:
256,192,97814,1,0,0:1:0:0:
256,192,97921,1,0,0:1:0:0:
256,192,98242,1,0,0:1:0:0:
256,192,98349,1,0,0:1:0:0:
256,192,98456,1,0,0:1:0:0:
256,192,98671,1,8,0:1:0:0:
256,192,99099,1,0,0:1:0:0:
256,192,99528,1,8,0:1:0:0:
256,192,100171,1,0,0:1:0:0:
256,192,100278,1,0,0:1:0:0:
256,192,100385,1,0,0:1:0:0:
256,192,100707,1,0,0:1:0:0:
256,192,101028,1,8,0:1:0:0:
256,192,101242,1,8,0:1:0:0:
256,192,101885,1,8,0:1:0:0:
256,192,101992,1,8,0:1:0:0:
256,192,102099,1,8,0:1:0:0:
256,192,102421,1,8,0:1:0:0:
256,192,102742,1,0,0:1:0:0:
256,192,102957,1,8,0:1:0:0:
256,192,103279,1,8,0:1:0:0:
256,192,103600,1,0,0:1:0:0:
256,192,103814,1,8,0:1:0:0:
256,192,104136,1,8,0:1:0:0:
256,192,104457,1,0,0:1:0:0:
256,192,104671,1,8,0:1:0:0:
256,192,104993,1,8,0:1:0:0:
256,192,105099,1,8,0:1:0:0:
256,192,105314,1,0,0:1:0:0:
256,192,105528,1,8,0:1:0:0:
256,192,105957,1,0,0:1:0:0:
256,192,106171,1,8,0:1:0:0:
256,192,106385,1,0,0:1:0:0:
256,192,106814,1,0,0:1:0:0:
256,192,107242,1,8,0:1:0:0:
256,192,107671,1,8,0:1:0:0:
256,192,107885,1,0,0:1:0:0:
256,192,108314,1,0,0:1:0:0:
256,192,108421,1,0,0:1:0:0:
256,192,108528,1,0,0:1:0:0:
256,192,108742,1,8,0:1:0:0:
256,192,108957,1,4,0:1:0:0:
256,192,109385,1,0,0:1:0:0:
256,192,109599,1,0,0:1:0:0:
256,192,109814,1,8,0:1:0:0:
256,192,109921,1,8,0:1:0:0:
256,192,110135,1,8,0:1:0:0:
256,192,110242,1,8,0:1:0:0:
256,192,110671,1,0,0:1:0:0:
256,192,110778,1,0,0:1:0:0:
256,192,110992,1,0,0:1:0:0:
256,192,111099,1,0,0:1:0:0:
256,192,111314,1,0,0:1:0:0:
256,192,111528,1,8,0:1:0:0:
256,192,111635,1,8,0:1:0:0:
256,192,111742,1,8,0:1:0:0:
256,192,111957,1,0,0:1:0:0:
256,192,112385,1,12,0:1:0:0:
256,192,112707,1,8,0:1:0:0:
256,192,113028,1,8,0:1:0:0:
256,192,113243,1,0,0:1:0:0:
256,192,113671,1,0,0:1:0:0:
256,192,113885,1,0,0:1:0:0:
256,192,114100,1,8,0:1:0:0:
256,192,114421,1,8,0:0:0:0:
256,192,114743,1,0,0:1:0:0:
256,192,114957,1,0,0:1:0:0:
256,192,115064,1,0,0:1:0:0:
256,192,115171,1,0,0:1:0:0:
256,192,115385,1,8,0:1:0:0:
256,192,115600,1,8,0:1:0:0:
256,192,115814,1,0,0:1:0:0:
256,192,116135,1,0,0:1:0:0:
256,192,116457,1,8,0:1:0:0:
256,192,116778,1,8,0:1:0:0:
256,192,116993,1,0,0:1:0:0:
256,192,117100,1,0,0:1:0:0:
256,192,117314,1,8,0:1:0:0:
256,192,117528,1,0,0:1:0:0:
256,192,117957,1,8,0:1:0:0:
256,192,118171,1,0,0:1:0:0:
256,208,118385,1,0,0:0:0:0:
256,192,118493,1,0,0:1:0:0:
256,192,118814,1,0,0:1:0:0:
256,192,119028,1,0,0:1:0:0:
256,192,119242,1,12,0:1:0:0:
256,192,119671,1,8,0:1:0:0:
256,192,119885,1,0,0:0:0:0:
256,192,119993,1,0,0:1:0:0:
256,192,120100,1,0,0:1:0:0:
256,192,120528,1,0,0:1:0:0:
256,192,120743,1,0,0:1:0:0:
256,192,120849,1,0,0:0:0:0:
256,192,120957,1,0,0:1:0:0:
256,192,121278,1,8,0:1:0:0:
256,192,121599,1,8,0:1:0:0:
256,192,121814,1,0,0:1:0:0:
256,192,122028,1,0,0:1:0:0:
256,192,122243,1,8,0:1:0:0:
256,192,122457,1,8,0:1:0:0:
256,192,122671,1,4,0:1:0:0:
256,192,123100,1,8,0:1:0:0:
256,192,123314,1,8,0:0:0:0:
256,192,123528,1,4,0:1:0:0:
255,203,123957,1,8,0:0:0:0:
262,190,124171,1,8,0:0:0:0:
256,192,124385,1,4,0:1:0:0:
256,192,124814,1,8,0:1:0:0:
256,192,125028,1,8,0:1:0:0:
256,192,125135,1,8,0:1:0:0:
256,192,125243,1,8,0:1:0:0:
256,192,125671,1,0,0:1:0:0:
256,192,125778,1,0,0:0:0:0:
256,192,125885,1,0,0:1:0:0:
256,192,126100,1,12,0:1:0:0:
256,192,126421,1,8,0:1:0:0:
256,192,126743,1,8,0:1:0:0:
256,192,126957,1,0,0:1:0:0:
256,192,127064,1,0,0:0:0:0:
256,192,127385,1,8,0:1:0:0:
256,192,127600,1,8,0:1:0:0:
256,192,127707,1,8,0:1:0:0:
256,192,127814,1,8,0:1:0:0:
256,192,128135,1,8,0:1:0:0:
256,192,128457,1,0,0:1:0:0:
256,192,128885,1,0,0:1:0:0:
256,192,129100,1,8,0:1:0:0:
256,192,129314,1,0,0:1:0:0:
256,192,129528,1,8,0:1:0:0:
256,192,129957,1,8,0:1:0:0:
256,192,130171,1,0,0:1:0:0:
256,192,130385,1,0,0:1:0:0:
256,192,130814,1,8,0:1:0:0:
256,192,131028,1,0,0:0:0:0:
256,192,131242,1,8,0:1:0:0:
256,192,131671,1,0,0:1:0:0:
256,192,131885,1,8,0:1:0:0:
256,192,132528,1,8,0:1:0:0:
256,192,132743,1,0,0:1:0:0:
256,192,132849,1,0,0:0:0:0:
256,192,132957,1,0,0:1:0:0:
256,192,133278,1,0,0:1:0:0:
256,192,133600,1,8,0:1:0:0:
256,192,133921,1,0,0:1:0:0:
256,192,134028,1,0,0:1:0:0:
256,192,134243,1,8,0:1:0:0:
256,192,134457,1,8,0:1:0:0:
256,192,134564,1,8,0:1:0:0:
256,192,134671,1,8,0:1:0:0:
256,192,134993,1,0,0:1:0:0:
256,192,135314,1,0,0:1:0:0:
256,192,135743,1,0,0:1:0:0:
256,192,135957,1,8,0:1:0:0:
256,192,136171,1,0,0:1:0:0:
256,192,136278,1,0,0:0:0:0:
256,192,136385,1,0,0:1:0:0:
256,192,136814,1,8,0:1:0:0:
256,192,137028,1,8,0:1:0:0:
256,192,137243,1,0,0:1:0:0:
256,192,137671,1,8,0:1:0:0:
256,192,138100,1,8,0:1:0:0:
256,192,138528,1,0,0:1:0:0:
256,192,138635,1,0,0:1:0:0:
256,192,138743,1,0,0:1:0:0:
256,192,138850,1,0,0:1:0:0:
256,192,138957,1,0,0:1:0:0:
256,192,139385,1,8,0:1:0:0:
256,192,139599,1,8,0:1:0:0:
256,192,139814,1,4,0:1:0:0:
256,192,140457,5,4,0:1:0:0:
256,192,141099,1,8,0:1:0:0:
256,192,141528,1,0,0:1:0:0:
256,192,141957,1,0,0:1:0:0:
256,192,142171,1,8,0:1:0:0:
256,192,142385,1,0,0:1:0:0:
256,192,142814,1,0,0:1:0:0:
256,192,143028,1,0,0:1:0:0:
256,192,143242,1,8,0:1:0:0:
256,192,143564,1,8,0:1:0:0:
256,192,143885,1,12,0:1:0:0:
256,192,144957,1,8,0:1:0:0:
256,192,145171,1,4,0:1:0:0:
256,192,145492,1,0,0:1:0:0:
256,192,145814,1,0,0:1:0:0:
256,192,146135,1,0,0:1:0:0:
256,192,146457,1,8,0:1:0:0:
256,192,146671,1,12,0:1:0:0:
256,192,146992,1,0,0:1:0:0:
256,192,147314,1,12,0:1:0:0:
256,192,148385,1,8,0:1:0:0:
256,192,149242,1,0,0:1:0:0:
256,192,149671,1,0,0:1:0:0:
256,192,150099,1,8,0:1:0:0:
256,192,150421,1,0,0:1:0:0:
256,192,150742,1,12,0:1:0:0:
256,192,151171,1,0,0:1:0:0:
256,192,151385,1,0,0:1:0:0:
256,192,151599,1,8,0:1:0:0:
256,192,151814,1,0,0:1:0:0:
256,192,152135,1,0,0:1:0:0:
256,192,152242,1,0,0:1:0:0:
256,192,152457,1,0,0:1:0:0:
256,192,152671,1,8,0:1:0:0:
256,192,153099,1,0,0:0:0:0:
256,192,153314,1,8,0:1:0:0:
256,192,153421,1,8,0:1:0:0:
256,192,153528,1,8,0:1:0:0:
256,192,153849,1,0,0:0:0:0:
256,192,154171,1,8,0:0:0:0:
256,192,154599,1,0,0:0:0:0:
256,192,154814,1,8,0:0:0:0:
256,192,155028,1,0,0:0:0:0:
256,192,155242,1,8,0:0:0:0:
256,192,155564,1,8,0:0:0:0:
256,192,155885,1,0,0:0:0:0:
256,192,156314,1,0,0:0:0:0:
256,192,156528,1,0,0:0:0:0:
256,192,156742,1,0,0:0:0:0:
256,192,156957,1,8,0:0:0:0:
256,192,157278,1,0,0:0:0:0:
256,192,157599,1,8,0:0:0:0:
256,192,158028,1,8,0:0:0:0:
256,192,158242,1,8,0:0:0:0:
256,192,158457,1,0,0:0:0:0:
256,192,158671,1,8,0:0:0:0:
256,192,158992,1,0,0:0:0:0:
256,192,159314,1,0,0:0:0:0:
256,192,159742,1,8,0:0:0:0:
256,192,159849,1,8,0:0:0:0:
256,192,159957,1,8,0:0:0:0:
256,192,160171,1,0,0:0:0:0:
256,192,160385,1,8,0:0:0:0:
256,192,160707,1,0,0:0:0:0:
256,192,161028,1,8,0:0:0:0:
256,192,161457,1,8,0:0:0:0:
256,192,161671,1,8,0:0:0:0:
256,192,161885,1,0,0:0:0:0:
256,192,162099,1,0,0:0:0:0:
256,192,162421,1,8,0:0:0:0:
256,192,162742,1,0,0:0:0:0:
256,192,163171,1,0,0:0:0:0:
256,192,163385,1,0,0:0:0:0:
256,192,163599,1,0,0:0:0:0:
256,192,163814,1,8,0:0:0:0:
256,192,164135,1,8,0:0:0:0:
256,192,164457,1,8,0:0:0:0:
256,192,165099,1,0,0:0:0:0:
256,192,165314,1,0,0:0:0:0:
256,192,165528,1,8,0:0:0:0:
256,192,165635,1,8,0:0:0:0:
256,192,165849,1,8,0:0:0:0:
256,192,165957,1,8,0:0:0:0:
256,192,166171,1,0,0:0:0:0:
256,192,166599,1,8,0:0:0:0:
256,192,166814,1,0,0:0:0:0:
256,192,167028,1,0,0:0:0:0:
256,192,167242,5,12,0:1:0:0:
256,192,167564,1,0,0:1:0:0:
256,192,167885,1,8,0:1:0:0:
256,192,168099,1,0,0:1:0:0:
256,192,168314,1,0,0:1:0:0:
256,192,168528,1,8,0:1:0:0:
256,192,168742,1,0,0:1:0:0:
256,192,168957,1,8,0:1:0:0:
256,192,169278,1,8,0:1:0:0:
256,192,169599,1,0,0:1:0:0:
256,192,170028,1,8,0:1:0:0:
256,192,170135,1,8,0:1:0:0:
256,192,170242,1,8,0:1:0:0:
256,192,170457,1,0,0:1:0:0:
256,192,170671,1,12,0:1:0:0:
256,192,170992,1,0,0:1:0:0:
256,192,171314,1,8,0:1:0:0:
256,192,171742,1,0,0:1:0:0:
256,192,171957,1,0,0:1:0:0:
256,192,172171,1,0,0:1:0:0:
256,192,172385,1,8,0:1:0:0:
256,192,172707,1,8,0:1:0:0:
256,192,173028,1,0,0:1:0:0:
256,192,173242,1,0,0:1:0:0:
256,192,173349,1,0,0:1:0:0:
256,192,173671,1,0,0:1:0:0:
256,192,173885,1,8,0:1:0:0:
256,192,173992,1,8,0:1:0:0:
256,192,174099,1,8,0:1:0:0:
256,192,174528,1,0,0:1:0:0:
256,192,174742,1,8,0:1:0:0:
256,192,174849,1,8,0:1:0:0:
256,192,174957,1,8,0:1:0:0:
256,192,175385,1,0,0:1:0:0:
256,192,175599,1,8,0:1:0:0:
256,192,175707,1,8,0:1:0:0:
256,192,175814,1,8,0:1:0:0:
256,192,176242,1,8,0:1:0:0:
256,192,176457,1,8,0:1:0:0:
256,192,176671,1,0,0:1:0:0:
256,192,177099,1,0,0:1:0:0:
256,192,177314,1,8,0:1:0:0:
256,192,177421,1,8,0:1:0:0:
256,192,177528,1,8,0:1:0:0:
256,192,177957,1,0,0:1:0:0:
256,192,178171,1,8,0:1:0:0:
256,192,178278,1,8,0:1:0:0:
256,192,178385,1,8,0:1:0:0:
256,192,178814,1,0,0:1:0:0:
256,192,179028,1,8,0:1:0:0:
256,192,179135,1,8,0:1:0:0:
256,192,179242,1,8,0:1:0:0:
256,192,179457,1,8,0:1:0:0:
256,192,179671,1,0,0:1:0:0:
256,192,179885,1,8,0:1:0:0:
256,192,179992,1,8,0:1:0:0:
256,192,180099,1,8,0:1:0:0:
256,192,180314,1,0,0:1:0:0:
256,192,180528,1,0,0:1:0:0:
256,192,180742,1,0,0:1:0:0:
256,192,180957,1,12,0:1:0:0:
256,192,182671,1,8,0:0:0:0:
256,192,184385,1,8,0:0:0:0:
256,192,186099,1,0,0:0:0:0:
256,192,186957,1,0,0:0:0:0:
256,192,187814,1,8,0:0:0:0:
256,192,189528,1,0,0:0:0:0:
256,192,191242,1,0,0:0:0:0:
256,192,191885,1,0,0:0:0:0:
256,192,191992,1,0,0:0:0:0:
256,192,192099,1,0,0:0:0:0:
256,192,192742,1,8,0:0:0:0:
256,192,192849,1,8,0:0:0:0:
256,192,192957,1,8,0:0:0:0:
256,192,194242,1,4,0:0:0:0:
256,192,194671,5,4,0:0:0:0:
256,192,194992,1,0,0:0:0:0:
256,192,195314,1,8,0:0:0:0:
256,192,195528,1,8,0:0:0:0:
256,192,195742,1,0,0:0:0:0:
256,192,195957,1,8,0:0:0:0:
256,192,196171,1,0,0:0:0:0:
256,192,196278,1,0,0:0:0:0:
256,192,196385,1,0,0:0:0:0:
256,192,196707,1,8,0:0:0:0:
256,192,197028,1,0,0:0:0:0:
256,192,197242,1,0,0:0:0:0:
256,192,197349,1,0,0:0:0:0:
256,192,197671,1,8,0:0:0:0:
256,192,197885,1,0,0:0:0:0:
256,192,198099,1,0,0:0:0:0:
256,192,198528,1,8,0:0:0:0:
256,192,198742,1,0,0:0:0:0:
256,192,198957,1,8,0:0:0:0:
256,192,199385,1,0,0:0:0:0:
256,192,199599,1,0,0:0:0:0:
256,192,199707,1,0,0:0:0:0:
256,192,199814,1,0,0:0:0:0:
256,192,200242,1,8,0:0:0:0:
256,192,200457,1,8,0:0:0:0:
256,192,200564,1,8,0:0:0:0:
256,192,200671,1,8,0:0:0:0:
256,192,201099,1,0,0:0:0:0:
256,192,201314,1,0,0:0:0:0:
256,192,201528,1,8,0:0:0:0:
256,192,201849,1,8,0:0:0:0:
256,192,202171,1,0,0:0:0:0:
256,192,202385,1,8,0:0:0:0:
256,192,202492,1,8,0:0:0:0:
256,192,202814,1,0,0:0:0:0:
256,192,203028,1,8,0:0:0:0:
256,192,203135,1,8,0:0:0:0:
256,192,203242,1,8,0:0:0:0:
256,192,203564,1,8,0:0:0:0:
256,192,203885,1,0,0:0:0:0:
256,192,204207,1,0,0:0:0:0:
256,192,204528,1,8,0:0:0:0:
256,192,204742,1,8,0:0:0:0:
256,192,204849,1,8,0:0:0:0:
256,192,204957,1,8,0:0:0:0:
256,192,205385,1,0,0:0:0:0:
256,192,205599,1,8,0:0:0:0:
256,192,205814,1,0,0:0:0:0:
256,192,206242,1,0,0:0:0:0:
256,192,206457,1,8,0:0:0:0:
256,192,206564,1,8,0:0:0:0:
256,192,206671,1,8,0:0:0:0:
256,192,207099,1,8,0:0:0:0:
256,192,207314,1,8,0:0:0:0:
256,192,207742,1,0,0:0:0:0:
256,192,207849,1,0,0:0:0:0:
256,192,207957,1,0,0:0:0:0:
256,192,208171,1,0,0:0:0:0:
256,192,208385,1,12,0:0:0:0:
256,192,209028,1,8,0:0:0:0:
256,192,209671,1,8,0:0:0:0:
256,192,209885,1,8,0:0:0:0:
256,192,210099,1,0,0:0:0:0:
256,192,210742,1,8,0:0:0:0:
256,192,210957,1,0,0:0:0:0:
256,192,211064,1,0,0:0:0:0:
256,192,211385,1,8,0:0:0:0:
256,192,211599,1,8,0:0:0:0:
256,192,211814,1,4,0:0:0:0:
