osu file format v14

[General]
AudioFilename: audio.mp3
AudioLeadIn: 0
PreviewTime: 53567
Countdown: 1
SampleSet: Soft
StackLeniency: 0.7
Mode: 0
LetterboxInBreaks: 0
WidescreenStoryboard: 1

[Editor]
Bookmarks: 12907,26621,40335,54049,81478,98621,112335,139764,153478,167192,180907,194621,208335
DistanceSpacing: 0.4
BeatDivisor: 4
GridSize: 4
TimelineZoom: 2.2

[Metadata]
Title:Ima Koko
TitleUnicode:イマココ
Artist:Toyama Nao
ArtistUnicode:東山奈央
Creator:Kibbleru
Version:Hard
Source:月がきれい
Tags:Here Right Now touyama tsuki ga kirei the moon is still beautiful Naotoshi Kocari Sinnoh Uta Nao Tomori
BeatmapID:1454923
BeatmapSetID:687493

[Difficulty]
HPDrainRate:5
CircleSize:4
OverallDifficulty:6
ApproachRate:7.5
SliderMultiplier:1.5
SliderTickRate:1

[Events]
//Background and Video events
0,0,"tkgkir.jpg",0,0
//Break Periods
2,140013,150989
2,181156,190417
//Storyboard Layer 0 (Background)
//Storyboard Layer 1 (Fail)
//Storyboard Layer 2 (Pass)
//Storyboard Layer 3 (Foreground)
//Storyboard Sound Samples

[TimingPoints]
957,428.571428571429,4,2,1,40,1,0
957,-166.666666666667,4,2,1,40,0,0
12528,-100,4,2,1,60,0,0
12957,-100,4,1,1,65,0,0
26671,-125,4,2,1,50,0,0
38671,-100,4,2,1,50,0,0
39957,-100,4,2,1,55,0,0
40385,-111.111111111111,4,2,1,55,0,0
52385,-200,4,2,1,55,0,0
54099,-100,4,1,1,70,0,1
64385,-125,4,1,1,70,0,0
65242,-100,4,1,1,70,0,0
66099,-83.3333333333333,4,1,1,70,0,0
66742,-100,4,1,1,70,0,0
67814,-100,4,1,1,70,0,1
81528,-166.666666666667,4,2,1,70,0,0
81849,-166.666666666667,4,2,1,50,0,0
83028,-166.666666666667,4,2,1,65,0,0
84314,-100,4,2,1,65,0,0
84957,-125,4,2,1,50,0,0
97599,-125,4,2,1,55,0,0
98242,-100,4,2,1,55,0,0
98671,-111.111111111111,4,2,1,55,0,0
105528,-111.111111111111,4,2,1,60,0,0
108957,-100,4,2,1,60,0,0
112385,-100,4,1,1,70,0,1
122671,-125,4,1,1,70,0,0
123528,-100,4,1,1,70,0,0
124385,-83.3333333333333,4,1,1,70,0,0
125028,-100,4,1,1,70,0,0
126099,-100,4,1,1,70,0,1
139814,-100,4,2,1,70,0,0
140457,-100,4,2,1,60,0,0
151814,-111.111111111111,4,2,1,60,0,0
153528,-111.111111111111,4,2,1,55,0,0
167242,-100,4,2,1,60,0,0
180528,-76.9230769230769,4,2,1,60,0,0
191242,-125,4,2,1,60,0,0
191885,-100,4,2,1,60,0,0
192742,-76.9230769230769,4,2,1,60,0,0
194671,-100,4,1,1,70,0,1
208385,-166.666666666667,4,2,1,70,0,0
208707,-166.666666666667,4,2,1,50,0,0
211921,-166.666666666667,4,2,4,5,0,0

[Colours]
Combo1 : 170,176,193
Combo2 : 255,176,214
Combo3 : 136,130,255
Combo4 : 163,41,243

[HitObjects]
163,202,957,6,0,P|168:238|170:277,2,67.4999979400635,2|2|2,0:0|0:0|0:0,0:0:0:0:
91,147,2671,2,0,B|182:127|163:197|268:179,1,179.999994506836,2|2,0:0|0:0,0:0:0:0:
383,100,4385,6,0,P|351:100|309:110,2,67.4999979400635,2|2|2,0:0|0:0|0:0,0:0:0:0:
351,254,5885,1,2,0:0:0:0:
351,254,5992,1,2,0:0:0:0:
351,254,6099,2,0,P|354:222|363:180,1,67.4999979400635,2|2,0:0|0:0,0:0:0:0:
440,287,6742,2,0,P|367:282|292:360,1,179.999994506836,2|0,0:0|0:0,0:0:0:0:
219,290,7814,6,0,L|146:283,2,67.4999979400635,2|2|2,0:0|0:0|0:0,0:0:0:0:
299,236,9528,2,0,L|433:225,1,134.999995880127,2|0,0:0|0:0,0:0:0:0:
433,224,11028,1,0,0:0:0:0:
120,108,12528,5,4,0:3:0:0:
120,108,12957,6,0,P|191:101|253:161,1,150,12|8,0:0|0:0,0:0:0:0:
312,196,13599,2,0,P|326:140|326:113,1,75,2|8,0:0|0:0,0:0:0:0:
327,123,13921,1,2,0:0:0:0:
327,123,14028,1,0,0:0:0:0:
405,92,14242,1,10,0:2:0:0:
461,156,14457,1,2,0:0:0:0:
407,222,14671,6,0,P|360:217|276:283,1,150,10|8,0:0|0:0,0:0:0:0:
306,349,15314,1,2,0:0:0:0:
224,337,15528,2,0,L|180:343,2,37.5,8|2|0,0:0|0:0|0:0,0:0:0:0:
306,349,15957,2,0,L|381:355,1,75,10|2,0:2|0:0,0:0:0:0:
446,302,16385,6,0,P|458:259|404:173,1,150,10|8,0:0|0:0,0:0:0:0:
429,91,17028,2,0,P|395:100|355:103,1,75,2|8,0:0|0:0,0:0:0:0:
356,104,17349,1,2,0:0:0:0:
356,104,17457,1,0,0:0:0:0:
276,81,17671,2,0,P|271:116|270:155,1,75,10|2,0:2|0:0,0:0:0:0:
295,232,18099,6,0,B|227:216|230:268|146:251,1,150,10|8,0:0|0:0,0:0:0:0:
94,194,18742,1,2,0:0:0:0:
175,167,18957,2,0,L|180:123,2,37.5,8|2|0,0:0|0:0|0:0,0:0:0:0:
76,273,19385,2,0,L|81:311,3,37.5,8|8|10|10,0:2|0:2|0:0|0:0,0:0:0:0:
77,336,19814,6,0,P|131:292|210:299,1,150,12|8,0:0|0:0,0:0:0:0:
276,337,20457,2,0,P|286:302|286:258,1,75,2|8,0:0|0:0,0:0:0:0:
287,264,20778,1,2,0:0:0:0:
287,264,20885,1,0,0:0:0:0:
237,194,21099,1,10,0:2:0:0:
294,130,21314,1,2,0:0:0:0:
249,57,21528,6,0,P|302:95|384:96,1,150,10|8,0:0|0:0,0:0:0:0:
452,138,22171,1,2,0:0:0:0:
484,213,22385,2,0,L|480:270,2,37.5,8|2|0,0:0|0:0|0:0,0:0:0:0:
401,207,22814,2,0,P|366:214|324:218,1,75,10|2,0:2|0:0,0:0:0:0:
252,182,23242,6,0,L|98:161,1,150,14|8,0:0|0:0,0:0:0:0:
53,229,23885,2,0,P|61:264|67:311,1,75,8|0,0:2|0:0,0:0:0:0:
155,333,24314,1,2,0:0:0:0:
155,333,24421,1,0,0:0:0:0:
155,333,24528,2,0,L|163:268,2,37.5,10|0|2,0:2|0:0|0:0,0:0:0:0:
255,320,24957,6,0,L|304:318,5,37.5,10|2|2|0|8|0,0:0|0:0|0:0|0:0|0:0|0:0,0:0:0:0:
317,304,25599,2,0,L|366:301,5,37.5,2|2|10|0|0|0,0:0|0:0|0:0|0:0|0:0|0:0,0:0:0:0:
378,311,26242,1,10,0:0:0:0:
448,262,26457,1,10,0:0:0:0:
448,262,26564,1,10,0:0:0:0:
448,262,26671,6,0,P|463:208|455:141,1,120,4|0,0:0|0:0,0:0:0:0:
454,65,27314,2,0,P|426:76|393:81,1,60,2|0,0:0|0:0,0:0:0:0:
319,85,27742,1,0,0:0:0:0:
239,75,27957,2,0,L|177:68,1,60,2|0,0:0|0:0,0:0:0:0:
163,144,28385,6,0,P|220:151|281:194,1,120,2|0,0:0|0:0,0:0:0:0:
349,171,29028,2,0,L|339:252,1,60,2|0,0:0|0:0,0:0:0:0:
330,308,29457,1,0,0:0:0:0:
253,322,29671,2,0,L|258:261,1,60,2|0,0:0|0:0,0:0:0:0:
190,225,30099,6,0,P|125:234|68:281,1,120,2|0,0:0|0:0,0:0:0:0:
47,194,30742,2,0,P|35:146|35:125,1,60,2|0,0:0|0:0,0:0:0:0:
87,77,31171,1,0,0:0:0:0:
154,115,31385,1,2,0:0:0:0:
214,63,31599,1,2,0:0:0:0:
282,102,31814,6,0,L|375:111,1,90,2|2,0:0|0:0,0:0:0:0:
471,73,32457,2,0,P|480:118|479:201,1,120,2|0,0:0|0:0,0:0:0:0:
391,254,33099,2,0,P|386:226|385:188,1,60,2|0,0:0|0:0,0:0:0:0:
385,195,33421,1,0,0:0:0:0:
385,195,33528,6,0,P|335:222|272:225,1,120,2|0,0:0|0:0,0:0:0:0:
196,208,34171,2,0,L|125:198,1,60,2|0,0:0|0:0,0:0:0:0:
75,248,34599,1,0,0:0:0:0:
146,284,34814,2,0,P|153:312|156:344,1,60,2|0,0:0|0:0,0:0:0:0:
236,346,35242,6,0,P|271:317|356:308,1,120,2|0,0:0|0:0,0:0:0:0:
399,359,35885,1,0,0:0:0:0:
439,292,36099,2,0,P|450:249|434:172,1,120,2|0,0:0|0:0,0:0:0:0:
365,142,36742,1,0,0:0:0:0:
365,142,36849,1,0,0:0:0:0:
365,142,36957,6,0,L|260:138,1,90,2|0,0:0|0:0,0:0:0:0:
138,101,37599,2,0,L|147:174,1,60,2|0,0:0|0:0,0:0:0:0:
104,226,38028,1,2,0:0:0:0:
163,278,38242,1,2,0:0:0:0:
226,229,38457,1,2,0:0:0:0:
295,266,38671,6,0,P|332:263|422:322,1,150,2|0,0:0|0:0,0:0:0:0:
459,228,39314,2,0,P|481:177|464:85,1,150,2|2,0:0|0:0,0:0:0:0:
334,27,39957,2,0,P|324:60|322:103,1,75,4|0,0:0|0:0,0:0:0:0:
380,155,40385,6,0,P|348:138|245:137,1,134.999995880127,12|8,0:1|0:1,0:0:0:0:
199,189,41028,1,0,0:0:0:0:
130,154,41242,2,0,L|120:79,2,67.4999979400635,10|0|8,0:1|0:0|0:1,0:0:0:0:
102,223,41885,1,0,0:0:0:0:
162,271,42099,6,0,L|59:289,2,101.249996910095,10|0|2,0:1|0:0|0:0,0:0:0:0:
228,230,42957,2,0,P|281:230|355:286,1,134.999995880127,8|8,0:1|0:1,0:0:0:0:
398,215,43599,1,0,0:0:0:0:
398,215,43707,1,0,0:0:0:0:
398,215,43814,6,0,P|418:177|403:83,1,134.999995880127,10|8,0:1|0:1,0:0:0:0:
344,47,44457,1,0,0:0:0:0:
270,59,44671,2,0,B|208:45|210:91|136:76,1,134.999995880127,10|8,0:1|0:1,0:0:0:0:
82,125,45314,1,0,0:0:0:0:
149,157,45528,6,0,L|156:263,1,101.249996910095,10|2,0:1|0:0,0:0:0:0:
145,268,45957,2,0,L|230:276,1,67.4999979400635,8|0,0:1|0:0,0:0:0:0:
269,228,46385,2,0,L|340:220,1,67.4999979400635,10|0,0:1|0:0,0:0:0:0:
408,233,46814,2,0,P|411:201|424:163,1,67.4999979400635,8|2,0:1|0:0,0:0:0:0:
394,97,47242,6,0,P|336:88|268:141,1,134.999995880127,12|8,0:1|0:1,0:0:0:0:
201,129,47885,2,0,P|169:124|135:115,1,67.4999979400635,2|8,0:0|0:1,0:0:0:0:
80,166,48314,1,2,0:0:0:0:
149,202,48528,2,0,L|158:285,1,67.4999979400635,8|0,0:1|0:0,0:0:0:0:
244,314,48957,6,0,L|231:191,1,101.249996910095,10|2,0:1|0:0,0:0:0:0:
231,201,49385,1,8,0:1:0:0:
188,113,49599,2,0,P|221:119|256:121,1,67.4999979400635,2|8,0:0|0:1,0:0:0:0:
333,166,50028,1,0,0:0:0:0:
333,166,50135,1,0,0:0:0:0:
333,166,50242,2,0,P|364:158|398:144,1,67.4999979400635,10|0,0:1|0:0,0:0:0:0:
466,173,50671,6,0,P|481:216|452:302,1,134.999995880127,12|8,0:1|0:1,0:0:0:0:
384,275,51314,2,0,L|379:234,2,33.7499989700318,0|2|8,0:0|0:0|0:1,0:0:0:0:
324,322,51742,1,0,0:0:0:0:
265,271,51957,2,0,L|217:266,3,33.7499989700318,8|2|0|2,0:1|0:0|0:0|0:0,0:0:0:0:
168,306,52385,6,0,P|190:255|89:283,1,225,12|0,0:1|0:0,0:0:0:0:
120,87,54099,6,0,B|201:71|190:123|269:110,1,150,12|10,0:0|0:0,0:0:0:0:
326,56,54742,1,0,0:0:0:0:
403,90,54957,2,0,P|414:155|408:187,1,75,10|0,0:0|0:0,0:0:0:0:
357,224,55385,1,8,0:2:0:0:
399,301,55599,1,2,0:0:0:0:
399,301,55707,1,2,0:0:0:0:
399,301,55814,6,0,L|275:291,1,112.5,10|2,0:0|0:0,0:0:0:0:
275,291,56242,1,8,0:0:0:0:
194,321,56457,2,0,P|192:285|187:246,1,75,2|8,0:0|0:0,0:0:0:0:
259,205,56885,1,2,0:0:0:0:
186,159,57099,1,10,0:2:0:0:
260,117,57314,2,0,P|262:81|270:36,1,75,2|10,0:0|0:0,0:0:0:0:
346,80,57742,6,0,L|391:82,2,37.5,0|2|8,0:0|0:0|0:0,0:0:0:0:
465,120,58171,2,0,P|414:167|336:163,1,150,2|0,0:0|0:0,0:0:0:0:
270,124,58814,1,10,0:2:0:0:
191,160,59028,1,2,0:0:0:0:
191,160,59135,1,2,0:0:0:0:
191,160,59242,6,0,P|188:124|178:86,1,75,10|0,0:0|0:0,0:0:0:0:
96,65,59671,1,10,0:0:0:0:
99,149,59885,2,0,P|96:186|86:222,1,75,2|8,0:0|0:0,0:0:0:0:
85,222,60207,1,2,0:0:0:0:
85,222,60314,1,0,0:0:0:0:
147,286,60528,1,10,0:2:0:0:
208,230,60742,1,0,0:0:0:0:
208,230,60849,1,0,0:0:0:0:
208,230,60957,6,0,B|283:218|274:271|352:262,1,150,12|10,0:0|0:0,0:0:0:0:
408,203,61599,1,0,0:0:0:0:
328,172,61814,2,0,P|329:136|336:93,1,75,10|0,0:0|0:0,0:0:0:0:
280,36,62242,1,8,0:2:0:0:
243,112,62457,1,2,0:0:0:0:
243,112,62564,1,2,0:0:0:0:
243,112,62671,6,0,P|192:150|104:137,1,150,10|8,0:0|0:0,0:0:0:0:
66,213,63314,2,0,P|57:247|55:288,1,75,2|8,0:0|0:0,0:0:0:0:
125,332,63742,1,2,0:0:0:0:
189,276,63957,1,10,0:2:0:0:
274,321,64171,1,2,0:0:0:0:
274,321,64278,1,0,0:0:0:0:
274,321,64385,6,0,P|340:315|396:347,1,120,12|8,0:0|0:0,0:0:0:0:
407,240,65028,1,2,0:0:0:0:
407,240,65135,1,2,0:0:0:0:
407,240,65242,6,0,P|429:175|378:97,1,150,12|8,0:0|0:2,0:0:0:0:
469,52,65885,1,2,0:0:0:0:
469,52,65992,1,0,0:0:0:0:
469,52,66099,6,0,B|416:59|416:59|389:79|389:79|360:67|360:67|296:76,1,179.999994506836,12|10,0:0|0:0,0:0:0:0:
229,120,66742,2,0,L|137:105,1,75,2|10,0:0|0:0,0:0:0:0:
85,183,67171,1,2,0:0:0:0:
85,183,67278,1,2,0:0:0:0:
85,183,67385,2,0,L|74:123,3,37.5,8|8|8|8,0:0|0:0|0:0|0:0,0:0:0:0:
69,206,67814,6,0,P|139:201|199:252,1,150,12|10,0:0|0:0,0:0:0:0:
276,275,68457,1,0,0:0:0:0:
335,214,68671,2,0,P|342:159|337:119,1,75,10|0,0:0|0:0,0:0:0:0:
286,77,69099,1,8,0:2:0:0:
203,98,69314,1,2,0:0:0:0:
203,98,69421,1,2,0:0:0:0:
203,98,69528,6,0,P|185:137|188:217,1,112.5,10|2,0:0|0:0,0:0:0:0:
193,217,69957,1,8,0:0:0:0:
171,300,70171,2,0,L|251:292,1,75,2|8,0:0|0:0,0:0:0:0:
300,354,70599,1,2,0:0:0:0:
329,273,70814,1,10,0:2:0:0:
383,338,71028,2,0,L|463:346,1,75,2|10,0:0|0:0,0:0:0:0:
429,263,71457,6,0,L|435:218,2,37.5,0|2|8,0:0|0:0|0:0,0:0:0:0:
478,149,71885,2,0,P|408:143|348:193,1,150,2|0,0:0|0:0,0:0:0:0:
277,226,72528,1,10,0:2:0:0:
201,188,72742,1,2,0:0:0:0:
201,188,72849,1,0,0:0:0:0:
201,188,72957,6,0,P|165:180|129:164,1,75,10|0,0:0|0:0,0:0:0:0:
49,155,73385,1,8,0:0:0:0:
61,239,73599,2,0,P|73:272|79:312,1,75,2|8,0:0|0:0,0:0:0:0:
78,311,73921,1,2,0:0:0:0:
78,311,74028,1,0,0:0:0:0:
162,348,74242,1,8,0:2:0:0:
218,285,74457,1,0,0:0:0:0:
218,285,74564,1,0,0:0:0:0:
218,285,74671,6,0,B|295:271|283:326|368:316,1,150,12|10,0:0|0:0,0:0:0:0:
433,276,75314,1,0,0:0:0:0:
455,196,75528,2,0,P|428:139|331:133,1,150,10|8,0:0|0:2,0:0:0:0:
283,175,76171,1,2,0:0:0:0:
283,175,76278,1,0,0:0:0:0:
283,175,76385,6,0,P|270:121|275:59,1,112.5,10|2,0:0|0:0,0:0:0:0:
281,50,76814,1,8,0:0:0:0:
198,53,77028,2,0,L|102:34,1,75,2|8,0:0|0:0,0:0:0:0:
134,125,77457,1,2,0:0:0:0:
54,95,77671,1,10,0:2:0:0:
69,178,77885,1,2,0:0:0:0:
69,178,77992,1,2,0:0:0:0:
69,178,78099,6,0,P|100:242|92:321,1,150,12|8,0:0|0:0,0:0:0:0:
166,356,78742,1,2,0:0:0:0:
224,296,78957,2,0,P|256:278|299:271,1,75,8|0,0:0|0:0,0:0:0:0:
350,211,79385,2,0,P|316:197|278:193,1,75,8|8,0:2|0:0,0:0:0:0:
279,193,79707,1,8,0:0:0:0:
279,193,79814,6,0,P|257:144|260:81,1,112.5,12|8,0:0|0:0,0:0:0:0:
270,71,80242,1,0,0:0:0:0:
174,53,80457,2,0,L|129:44,4,37.5,8|8|8|8|8,0:0|0:0|0:0|0:0|0:0,0:0:0:0:
172,154,81099,2,0,L|123:166,4,37.5,8|10|10|10|12,0:0|0:0|0:0|0:0|0:1,0:0:0:0:
324,200,83028,5,8,0:3:0:0:
324,200,83135,1,4,0:3:0:0:
324,200,83242,2,0,L|333:275,2,67.4999979400635,12|12|12,0:1|0:1|0:1,0:0:0:0:
207,160,84314,5,8,0:1:0:0:
207,160,84421,1,8,0:1:0:0:
207,160,84528,2,0,L|203:224,3,37.5,8|8|8|8,0:1|0:3|0:1|0:3,0:0:0:0:
223,137,84957,6,0,P|174:161|105:159,1,120,12|10,0:1|0:1,0:0:0:0:
38,193,85599,1,2,0:0:0:0:
77,262,85814,2,0,P|105:264|137:273,1,60,10|0,0:1|0:0,0:0:0:0:
208,246,86242,2,0,P|219:274|226:307,1,60,10|0,0:1|0:0,0:0:0:0:
302,319,86671,6,0,P|328:273|328:200,1,120,10|8,0:1|0:1,0:0:0:0:
293,137,87314,2,0,L|362:131,1,60,0|10,0:0|0:1,0:0:0:0:
329,57,87742,2,0,L|269:63,1,60,0|10,0:0|0:1,0:0:0:0:
212,117,88171,1,0,0:0:0:0:
212,117,88278,1,0,0:0:0:0:
212,117,88385,6,0,P|155:115|98:86,1,120,10|10,0:1|0:1,0:0:0:0:
65,160,89028,2,0,L|75:229,1,60,2|8,0:0|0:1,0:0:0:0:
128,274,89457,1,2,0:0:0:0:
192,228,89671,1,10,0:1:0:0:
256,275,89885,2,0,L|332:283,1,60,2|8,0:0|0:1,0:0:0:0:
386,251,90314,6,0,L|393:326,2,60,2|10|0,0:0|0:1|0:0,0:0:0:0:
346,181,90957,2,0,L|339:118,2,60,10|2|10,0:1|0:0|0:1,0:0:0:0:
424,179,91599,1,8,0:0:0:0:
308,255,91814,6,0,P|251:254|197:225,1,120,10|10,0:1|0:1,0:0:0:0:
156,162,92457,1,0,0:0:0:0:
97,214,92671,2,0,P|89:242|89:277,1,60,8|2,0:1|0:0,0:0:0:0:
156,162,93099,2,0,P|164:135|164:101,1,60,8|2,0:1|0:0,0:0:0:0:
224,53,93528,6,0,P|263:56|327:120,1,120,10|10,0:1|0:1,0:0:0:0:
298,181,94171,2,0,L|361:186,1,60,0|10,0:0|0:1,0:0:0:0:
338,261,94599,2,0,L|276:256,1,60,0|10,0:0|0:1,0:0:0:0:
217,208,95028,1,0,0:0:0:0:
217,208,95135,1,0,0:0:0:0:
217,208,95242,6,0,L|95:218,1,120,10|10,0:1|0:1,0:0:0:0:
24,247,95885,2,0,P|18:219|15:186,1,60,2|10,0:0|0:1,0:0:0:0:
76,139,96314,1,0,0:0:0:0:
45,67,96528,1,10,0:1:0:0:
115,27,96742,2,0,P|142:33|179:35,1,60,2|8,0:0|0:1,0:0:0:0:
222,98,97171,5,2,0:0:0:0:
287,51,97385,1,10,0:1:0:0:
358,119,97599,2,0,P|330:122|299:131,1,60,12|8,0:0|0:1,0:0:0:0:
300,131,97921,1,8,0:3:0:0:
300,131,98028,1,0,0:0:0:0:
249,224,98242,2,0,L|244:275,3,37.5,8|8|4|4,0:3|0:3|0:3|0:3,0:0:0:0:
264,206,98671,6,0,P|198:209|140:165,1,134.999995880127,12|10,0:1|0:1,0:0:0:0:
148,96,99314,1,0,0:0:0:0:
211,56,99528,2,0,L|252:54,2,33.7499989700318,10|0|0,0:1|0:0|0:0,0:0:0:0:
148,96,99957,1,8,0:0:0:0:
79,54,100171,1,2,0:0:0:0:
79,54,100278,1,2,0:0:0:0:
79,54,100385,6,0,P|56:112|60:189,1,134.999995880127,10|8,0:1|0:1,0:0:0:0:
77,255,101028,2,0,P|107:244|142:240,1,67.4999979400635,2|8,0:0|0:1,0:0:0:0:
208,204,101457,1,0,0:0:0:0:
262,257,101671,1,10,0:1:0:0:
336,224,101885,1,8,0:0:0:0:
336,224,101992,1,8,0:0:0:0:
336,224,102099,6,0,P|350:177|348:124,1,101.249996910095,10|2,0:1|0:0,0:0:0:0:
357,111,102528,2,0,L|271:101,1,67.4999979400635,8|2,0:1|0:0,0:0:0:0:
231,149,102957,2,0,L|144:159,1,67.4999979400635,10|0,0:1|0:0,0:0:0:0:
95,121,103385,2,0,P|89:152|87:189,1,67.4999979400635,8|2,0:0|0:0,0:0:0:0:
70,260,103814,6,0,P|119:266|187:330,1,134.999995880127,10|8,0:1|0:1,0:0:0:0:
253,343,104457,1,2,0:0:0:0:
310,296,104671,2,0,P|327:242|324:184,1,101.249996910095,8|8,0:1|0:0,0:0:0:0:
326,197,105099,2,0,L|382:204,2,33.7499989700318,8|8|8,0:1|0:1|0:3,0:0:0:0:
403,112,105528,6,0,L|262:121,1,134.999995880127,12|8,0:1|0:1,0:0:0:0:
205,160,106171,2,0,P|155:160|82:108,1,134.999995880127,2|2,0:0|0:0,0:0:0:0:
28,176,106814,1,8,0:0:0:0:
55,244,107028,1,0,0:0:0:0:
30,319,107242,6,0,P|82:284|154:282,1,134.999995880127,10|8,0:1|0:1,0:0:0:0:
221,323,107885,2,0,P|227:291|229:253,1,67.4999979400635,2|8,0:0|0:1,0:0:0:0:
229,256,108207,1,2,0:0:0:0:
229,256,108314,1,2,0:0:0:0:
127,133,108528,2,0,P|119:163|116:200,1,67.4999979400635,12|2,0:0|0:0,0:0:0:0:
100,47,108957,6,0,P|168:58|222:118,1,150,12|8,0:1|0:1,0:0:0:0:
311,144,109599,1,0,0:0:0:0:
311,144,109707,1,8,0:0:0:0:
311,144,109814,2,0,L|367:135,2,37.5,8|8|0,0:0|0:0|0:0,0:0:0:0:
353,246,110242,2,0,P|319:235|276:230,1,75,8|0,0:0|0:0,0:0:0:0:
206,267,110671,5,8,0:1:0:0:
206,267,110778,2,0,P|198:232|196:185,1,75,8|8,0:0|0:0,0:0:0:0:
203,174,111099,2,0,L|128:167,1,75,8|8,0:1|0:0,0:0:0:0:
114,172,111421,1,8,0:0:0:0:
100,177,111528,2,0,L|95:134,2,37.5,8|8|8,0:1|0:0|0:0,0:0:0:0:
119,291,111957,2,0,L|114:328,3,37.5,8|8|4|4,0:3|0:3|0:3|0:3,0:0:0:0:
106,271,112385,6,0,P|176:273|234:331,1,150,12|10,0:0|0:0,0:0:0:0:
293,271,113028,1,0,0:0:0:0:
375,297,113242,2,0,P|389:247|384:203,1,75,10|0,0:0|0:0,0:0:0:0:
338,158,113671,1,8,0:2:0:0:
359,75,113885,1,2,0:0:0:0:
359,75,113992,1,2,0:0:0:0:
359,75,114099,6,0,B|288:59|290:111|211:94,1,150,10|8,0:0|0:0,0:0:0:0:
147,45,114742,2,0,P|141:81|140:123,1,75,2|8,0:0|0:0,0:0:0:0:
149,203,115171,1,2,0:0:0:0:
72,167,115385,1,10,0:2:0:0:
76,251,115599,2,0,P|82:285|85:326,1,75,2|10,0:0|0:0,0:0:0:0:
164,283,116028,6,0,L|208:279,2,37.5,0|2|8,0:0|0:0|0:0,0:0:0:0:
164,196,116457,2,0,P|234:200|293:256,1,150,2|0,0:0|0:0,0:0:0:0:
340,186,117099,1,10,0:2:0:0:
417,226,117314,1,2,0:0:0:0:
417,226,117421,1,2,0:0:0:0:
417,226,117528,6,0,P|419:191|427:150,1,75,10|0,0:0|0:0,0:0:0:0:
444,71,117957,1,10,0:0:0:0:
368,26,118171,2,0,P|365:61|356:101,1,75,2|8,0:0|0:0,0:0:0:0:
357,100,118492,1,2,0:0:0:0:
357,100,118599,1,0,0:0:0:0:
278,74,118814,1,10,0:2:0:0:
277,160,119028,1,0,0:0:0:0:
277,160,119135,1,0,0:0:0:0:
277,160,119242,6,0,B|191:139|191:139|138:177,1,150,12|10,0:0|0:0,0:0:0:0:
204,234,119885,1,0,0:0:0:0:
164,308,120099,2,0,P|199:311|237:319,1,75,10|0,0:0|0:0,0:0:0:0:
306,273,120528,1,8,0:2:0:0:
372,326,120742,1,2,0:0:0:0:
372,326,120849,1,2,0:0:0:0:
372,326,120957,6,0,P|356:270|358:216,1,112.5,10|2,0:0|0:0,0:0:0:0:
367,202,121385,1,8,0:0:0:0:
399,125,121599,2,0,L|323:117,1,75,2|8,0:0|0:0,0:0:0:0:
260,64,122028,1,2,0:0:0:0:
203,127,122242,1,10,0:2:0:0:
127,88,122457,1,2,0:0:0:0:
127,88,122564,1,0,0:0:0:0:
127,88,122671,6,0,P|155:134|157:210,1,120,12|8,0:0|0:0,0:0:0:0:
91,246,123314,1,2,0:0:0:0:
91,246,123421,1,2,0:0:0:0:
91,246,123528,6,0,B|161:217|161:217|225:254,1,150,12|8,0:0|0:2,0:0:0:0:
217,335,124171,1,2,0:0:0:0:
217,335,124278,1,0,0:0:0:0:
217,335,124385,6,0,B|285:325|285:325|312:287|312:287|384:277,1,179.999994506836,12|10,0:0|0:0,0:0:0:0:
437,333,125028,2,0,P|451:300|458:250,1,75,2|10,0:0|0:0,0:0:0:0:
449,157,125457,1,2,0:0:0:0:
449,157,125564,1,2,0:0:0:0:
449,157,125671,2,0,L|443:107,3,37.5,8|8|8|8,0:0|0:0|0:0|0:0,0:0:0:0:
468,176,126099,6,0,B|398:161|402:216|316:200,1,150,12|10,0:0|0:0,0:0:0:0:
244,225,126742,1,0,0:0:0:0:
230,141,126957,2,0,P|225:91|231:57,1,75,10|0,0:0|0:0,0:0:0:0:
302,29,127385,1,8,0:2:0:0:
145,107,127599,1,2,0:0:0:0:
145,107,127707,1,2,0:0:0:0:
145,107,127814,6,0,L|25:95,1,112.5,10|2,0:0|0:0,0:0:0:0:
17,93,128242,1,8,0:0:0:0:
62,177,128457,2,0,P|69:211|72:252,1,75,2|8,0:0|0:0,0:0:0:0:
156,246,128885,1,2,0:0:0:0:
115,321,129099,1,10,0:2:0:0:
200,318,129314,2,0,P|236:319|276:331,1,75,2|10,0:0|0:0,0:0:0:0:
373,265,129742,6,0,L|415:259,2,37.5,0|2|8,0:0|0:0|0:0,0:0:0:0:
347,356,130171,2,0,P|299:312|292:225,1,150,2|0,0:0|0:0,0:0:0:0:
349,173,130814,1,10,0:2:0:0:
319,94,131028,1,2,0:0:0:0:
319,94,131135,1,0,0:0:0:0:
319,94,131242,6,0,P|288:77|248:68,1,75,10|0,0:0|0:0,0:0:0:0:
169,88,131671,1,8,0:0:0:0:
181,171,131885,2,0,P|215:156|253:151,1,75,2|8,0:0|0:0,0:0:0:0:
252,151,132207,1,2,0:0:0:0:
252,151,132314,1,0,0:0:0:0:
312,219,132528,2,0,P|300:260|296:299,1,75,8|0,0:2|0:0,0:0:0:0:
416,346,132957,6,0,P|452:284|441:204,1,150,12|10,0:0|0:0,0:0:0:0:
376,160,133599,1,0,0:0:0:0:
432,95,133814,2,0,L|474:89,2,37.5,10|0|0,0:0|0:0|0:0,0:0:0:0:
376,160,134242,1,8,0:2:0:0:
300,119,134457,1,2,0:0:0:0:
300,119,134564,1,0,0:0:0:0:
300,119,134671,6,0,L|174:113,1,112.5,10|2,0:0|0:0,0:0:0:0:
173,113,135099,1,8,0:0:0:0:
94,143,135314,2,0,P|91:107|81:66,1,75,2|8,0:0|0:0,0:0:0:0:
164,199,135742,1,2,0:0:0:0:
103,256,135957,1,10,0:2:0:0:
171,311,136171,1,2,0:0:0:0:
171,311,136278,1,2,0:0:0:0:
171,311,136385,6,0,P|210:281|310:283,1,150,12|8,0:1|0:0,0:0:0:0:
380,249,137028,2,0,P|387:211|385:172,1,75,2|8,0:0|0:0,0:0:0:0:
386,175,137349,1,0,0:0:0:0:
386,175,137457,1,0,0:0:0:0:
307,145,137671,1,8,0:2:0:0:
319,61,137885,1,0,0:0:0:0:
319,61,137992,1,0,0:0:0:0:
319,61,138099,6,0,L|192:74,1,112.5,12|0,0:0|0:0,0:0:0:0:
194,77,138528,1,8,0:0:0:0:
114,39,138742,2,0,L|108:127,1,75,0|8,0:0|0:0,0:0:0:0:
109,114,139064,1,8,0:0:0:0:
109,114,139171,1,8,0:0:0:0:
177,183,139385,2,0,L|186:243,4,37.5,10|10|10|10|12,0:0|0:0|0:0|0:0|0:1,0:0:0:0:
127,134,151814,6,0,P|95:128|59:118,1,67.4999979400635,12|8,0:1|0:1,0:0:0:0:
139,219,152242,2,0,L|72:275,1,67.4999979400635,8|8,0:1|0:1,0:0:0:0:
225,240,152671,2,0,L|230:321,1,67.4999979400635,8|8,0:0|0:0,0:0:0:0:
333,245,153099,2,0,L|330:200,3,33.7499989700318,8|8|8|8,0:0|0:0|0:0|0:0,0:0:0:0:
316,263,153528,6,0,P|378:270|432:320,1,134.999995880127,12|8,0:1|0:1,0:0:0:0:
475,250,154171,2,0,P|486:221|491:182,1,67.4999979400635,2|8,0:0|0:1,0:0:0:0:
427,142,154599,1,2,0:0:0:0:
423,64,154814,2,0,P|392:73|358:78,1,67.4999979400635,10|0,0:1|0:0,0:0:0:0:
297,122,155242,6,0,P|234:120|173:77,1,134.999995880127,10|8,0:1|0:1,0:0:0:0:
110,122,155885,2,0,P|119:153|122:190,1,67.4999979400635,2|8,0:0|0:1,0:0:0:0:
200,191,156314,1,2,0:0:0:0:
161,257,156528,2,0,P|152:287|148:329,1,67.4999979400635,6|0,0:3|0:0,0:0:0:0:
219,353,156957,6,0,P|266:316|342:313,1,134.999995880127,10|8,0:1|0:1,0:0:0:0:
407,339,157599,2,0,P|439:336|475:330,1,67.4999979400635,2|8,0:0|0:1,0:0:0:0:
491,257,158028,1,2,0:0:0:0:
431,212,158242,2,0,P|399:214|361:224,1,67.4999979400635,10|0,0:1|0:0,0:0:0:0:
289,192,158671,6,0,B|226:180|231:224|157:212,1,134.999995880127,10|8,0:1|0:1,0:0:0:0:
87,242,159314,2,0,P|83:209|85:170,1,67.4999979400635,2|8,0:0|0:1,0:0:0:0:
106,96,159742,1,8,0:1:0:0:
106,96,159849,1,8,0:1:0:0:
106,96,159957,2,0,L|58:90,3,33.7499989700318,8|8|4|4,0:3|0:3|0:3|0:3,0:0:0:0:
121,113,160385,6,0,P|188:114|245:76,1,134.999995880127,12|8,0:1|0:1,0:0:0:0:
315,98,161028,2,0,P|321:130|323:169,1,67.4999979400635,2|8,0:0|0:1,0:0:0:0:
273,222,161457,1,2,0:0:0:0:
337,258,161671,2,0,P|392:251|411:244,1,67.4999979400635,10|0,0:1|0:0,0:0:0:0:
273,222,162099,6,0,P|211:230|162:280,1,134.999995880127,10|8,0:1|0:1,0:0:0:0:
109,220,162742,2,0,L|100:145,1,67.4999979400635,2|8,0:0|0:1,0:0:0:0:
146,94,163171,1,2,0:0:0:0:
219,119,163385,2,0,L|227:44,1,67.4999979400635,6|0,0:3|0:0,0:0:0:0:
295,23,163814,6,0,P|360:27|410:85,1,134.999995880127,12|8,0:1|0:1,0:0:0:0:
389,152,164457,2,0,P|420:155|458:157,1,67.4999979400635,2|8,0:0|0:1,0:0:0:0:
484,225,164885,1,0,0:0:0:0:
415,263,165099,2,0,P|383:258|343:256,1,67.4999979400635,10|0,0:1|0:0,0:0:0:0:
195,271,165528,5,10,0:1:0:0:
219,348,165742,1,2,0:0:0:0:
273,288,165957,2,0,L|269:208,1,67.4999979400635,8|8,0:1|0:1,0:0:0:0:
326,161,166385,2,0,L|333:101,3,33.7499989700318,8|8|8|8,0:3|0:3|0:3|0:3,0:0:0:0:
294,118,166814,2,0,L|287:58,3,33.7499989700318,4|4|4|4,0:3|0:3|0:3|0:3,0:0:0:0:
311,66,167242,6,0,L|198:76,1,112.5,12|10,0:1|0:3,0:0:0:0:
185,79,167671,1,8,0:1:0:0:
107,39,167885,2,0,P|105:78|99:117,1,75,10|0,0:3|0:0,0:0:0:0:
164,165,168314,1,10,0:1:0:0:
97,217,168528,1,10,0:1:0:0:
170,260,168742,1,0,0:0:0:0:
128,334,168957,6,0,P|171:305|236:304,1,112.5,10|10,0:1|0:3,0:0:0:0:
246,311,169385,1,8,0:1:0:0:
328,328,169599,2,0,P|344:282|347:253,1,75,10|0,0:3|0:0,0:0:0:0:
346,173,170028,1,10,0:1:0:0:
272,216,170242,1,10,0:1:0:0:
422,219,170457,1,10,0:3:0:0:
367,91,170671,6,0,L|254:103,1,112.5,10|10,0:1|0:3,0:0:0:0:
243,105,171099,1,8,0:1:0:0:
158,107,171314,2,0,P|146:55|146:28,1,75,10|0,0:3|0:0,0:0:0:0:
97,164,171742,1,10,0:1:0:0:
178,191,171957,1,10,0:1:0:0:
114,247,172171,1,10,0:1:0:0:
194,277,172385,6,0,L|318:265,1,112.5,10|10,0:1|0:3,0:0:0:0:
319,264,172814,1,8,0:1:0:0:
397,296,173028,2,0,P|400:261|406:222,1,75,10|0,0:3|0:0,0:0:0:0:
345,165,173457,1,8,0:1:0:0:
419,99,173671,2,0,L|413:53,3,37.5,8|8|10|8,0:0|0:3|0:1|0:3,0:0:0:0:
423,121,174099,6,0,P|366:82|284:86,1,150,12|10,0:1|0:1,0:0:0:0:
225,132,174742,1,10,0:3:0:0:
225,132,174849,1,0,0:0:0:0:
225,132,174957,2,0,P|182:144|153:149,1,75,8|8,0:1|0:1,0:0:0:0:
71,140,175385,1,10,0:1:0:0:
99,230,175599,1,8,0:3:0:0:
99,230,175707,1,8,0:3:0:0:
99,230,175814,6,0,P|152:235|225:304,1,150,10|8,0:1|0:3,0:0:0:0:
289,247,176457,2,0,L|293:172,1,75,10|0,0:1|0:0,0:0:0:0:
293,173,176778,1,8,0:3:0:0:
293,173,176885,1,8,0:1:0:0:
229,117,177099,1,2,0:0:0:0:
309,86,177314,1,10,0:1:0:0:
239,36,177528,6,0,L|162:28,1,75,10|8,0:1|0:1,0:0:0:0:
92,68,177957,1,10,0:1:0:0:
139,138,178171,1,10,0:1:0:0:
86,205,178385,6,0,L|82:292,1,75,10|8,0:1|0:1,0:0:0:0:
151,326,178814,1,10,0:1:0:0:
203,258,179028,1,10,0:1:0:0:
280,294,179242,6,0,L|368:283,1,75,10|8,0:1|0:1,0:0:0:0:
248,183,179671,2,0,L|160:172,1,75,8|10,0:1|0:1,0:0:0:0:
340,123,180099,2,0,L|384:117,3,37.5,8|8|8|8,0:0|0:0|0:0|0:0,0:0:0:0:
408,106,180528,2,0,P|432:108|462:121,4,48.7499977684022,8|8|8|8|2,0:0|0:0|0:0|0:0|0:0,0:0:0:0:
153,273,191242,6,0,L|130:182,1,90,2|2,0:0|0:0,0:0:0:0:
258,201,191885,2,0,L|262:156,2,37.5,2|2|2,0:0|0:0|0:0,0:0:0:0:
347,264,192742,2,0,L|379:224,2,48.7499977684022,2|2|2,0:0|0:0|0:0,0:0:0:0:
416,98,194242,5,4,0:3:0:0:
416,98,194671,6,0,P|343:99|290:153,1,150,12|10,0:0|0:0,0:0:0:0:
212,177,195314,1,0,0:0:0:0:
149,119,195528,2,0,P|114:112|73:99,1,75,10|0,0:0|0:0,0:0:0:0:
13,153,195957,1,8,0:2:0:0:
88,192,196171,1,2,0:0:0:0:
88,192,196278,1,2,0:0:0:0:
88,192,196385,6,0,L|97:312,1,112.5,10|2,0:0|0:0,0:0:0:0:
99,318,196814,1,8,0:0:0:0:
175,281,197028,2,0,P|210:285|248:297,1,75,2|8,0:0|0:0,0:0:0:0:
317,252,197457,1,2,0:0:0:0:
331,336,197671,1,10,0:2:0:0:
397,282,197885,2,0,P|432:276|470:264,1,75,2|10,0:0|0:0,0:0:0:0:
417,194,198314,6,0,L|423:134,2,37.5,0|2|8,0:0|0:0|0:0,0:0:0:0:
333,213,198742,1,2,0:0:0:0:
333,213,198849,1,0,0:0:0:0:
333,213,198957,2,0,L|323:98,1,112.5,8|0,0:0|0:0,0:0:0:0:
330,82,199385,2,0,P|294:80|252:74,1,75,10|2,0:2|0:0,0:0:0:0:
110,143,199814,6,0,P|180:134|244:177,1,150,10|8,0:0|0:0,0:0:0:0:
206,247,200457,2,0,P|195:282|181:319,1,75,2|8,0:0|0:0,0:0:0:0:
267,306,200885,1,0,0:0:0:0:
324,241,201099,2,0,P|335:275|353:313,1,75,8|0,0:2|0:0,0:0:0:0:
473,303,201528,6,0,P|483:263|440:152,1,150,12|10,0:0|0:0,0:0:0:0:
370,160,202171,1,0,0:0:0:0:
410,84,202385,2,0,P|447:79|483:69,1,75,10|0,0:0|0:0,0:0:0:0:
370,160,202814,1,8,0:2:0:0:
302,108,203028,1,2,0:0:0:0:
302,108,203135,1,0,0:0:0:0:
302,108,203242,6,0,L|167:100,1,112.5,10|2,0:0|0:0,0:0:0:0:
175,100,203671,1,8,0:0:0:0:
89,73,203885,2,0,P|95:107|99:149,1,75,2|8,0:0|0:0,0:0:0:0:
165,201,204314,1,2,0:0:0:0:
87,240,204528,1,10,0:2:0:0:
164,303,204742,1,2,0:0:0:0:
164,303,204849,1,2,0:0:0:0:
164,303,204957,6,0,P|211:273|302:279,1,150,12|8,0:1|0:0,0:0:0:0:
352,344,205599,1,2,0:0:0:0:
418,296,205814,2,0,P|426:261|429:222,1,75,8|0,0:0|0:0,0:0:0:0:
362,173,206242,2,0,P|353:138|352:99,1,75,8|0,0:2|0:0,0:0:0:0:
352,100,206564,1,0,0:0:0:0:
352,100,206671,6,0,P|314:137|254:150,1,112.5,12|0,0:1|0:0,0:0:0:0:
242,146,207099,1,8,0:0:0:0:
161,114,207314,2,0,L|154:173,2,37.5,0|0|8,0:0|0:0|0:0,0:0:0:0:
65,138,207742,1,8,0:0:0:0:
65,138,207849,1,0,0:0:0:0:
65,138,207957,2,0,L|72:198,4,37.5,10|10|10|10|12,0:0|0:0|0:0|0:0|0:1,0:0:0:0:
256,192,210099,5,2,0:0:0:0:
256,192,211814,5,12,0:1:0:0:
256,192,211921,12,0,218242,0:0:0:0:
