osu file format v14

[General]
AudioFilename: audio.mp3
AudioLeadIn: 0
PreviewTime: 52984
Countdown: 0
SampleSet: Soft
StackLeniency: 0.7
Mode: 0
LetterboxInBreaks: 0
WidescreenStoryboard: 1

[Editor]
Bookmarks: 68734
DistanceSpacing: 0.9
BeatDivisor: 4
GridSize: 4
TimelineZoom: 1.3

[Metadata]
Title:Ima Koko
TitleUnicode:イマココ
Artist:Toyama Nao
ArtistUnicode:東山奈央
Creator:Dubturt
Version:Normal
Source:月がきれい
Tags:karen opening tsuki ga kirei as the moon so beautiful touyama
BeatmapID:1302612
BeatmapSetID:617836

[Difficulty]
HPDrainRate:3
CircleSize:3.4
OverallDifficulty:4.5
ApproachRate:5
SliderMultiplier:1.2
SliderTickRate:1

[Events]
//Background and Video events
0,0,"cropped-1920-1080-8309571.jpg",0,0
//Break Periods
//Storyboard Layer 0 (Background)
//Storyboard Layer 1 (Fail)
//Storyboard Layer 2 (Pass)
//Storyboard Layer 3 (Foreground)
//Storyboard Sound Samples

[TimingPoints]
270,428.571428571429,4,2,1,40,1,0
270,-100,4,2,1,40,0,0
11841,-100,4,2,1,60,0,0
12270,-100,4,2,1,60,0,0
25984,-100,4,2,1,50,0,0
39698,-100,4,2,1,55,0,0
52984,-100,4,2,1,50,0,0
53412,-100,4,2,1,65,0,1
80841,-100,4,2,1,40,0,0
84270,-100,4,2,1,40,0,0
84377,-100,4,2,1,20,0,0
89412,-100,4,2,1,5,0,0

[Colours]
Combo1 : 4,196,251
Combo2 : 255,128,192
Combo3 : 0,128,192
Combo4 : 242,216,223

[HitObjects]
214,343,270,6,0,P|155:354|96:342,1,120,2|0,0:0|0:0,0:0:0:0:
40,250,1127,1,0,0:0:0:0:
109,167,1555,2,0,P|144:160|191:179,1,60,0|0,0:0|0:0,0:0:0:0:
219,180,1984,2,0,L|225:284,2,90,2|0|0,0:0|0:0|0:0,0:0:0:0:
271,165,2841,1,2,0:0:0:0:
316,194,3055,2,0,P|374:203|433:191,1,120,0|0,0:0|0:0,0:0:0:0:
487,197,3698,6,0,P|498:255|485:303,2,90,2|2|2,0:0|0:0|0:0,0:0:0:0:
412,117,4770,2,0,L|445:57,2,60,0|0|2,0:0|0:0|0:0,0:0:0:0:
385,164,5412,2,0,L|397:262,2,90,2|2|2,0:0|0:0|0:0,0:0:0:0:
147,34,7127,6,0,L|110:177,1,120,2|0,0:0|0:0,0:0:0:0:
88,254,7984,1,0,0:0:0:0:
171,321,8412,1,0,0:0:0:0:
272,282,8841,2,0,P|324:274|399:291,1,120,2|0,0:0|0:0,0:0:0:0:
441,303,9484,2,0,P|449:243|440:184,1,120,0|0,0:0|0:0,0:0:0:0:
379,94,10341,1,0,0:0:0:0:
184,48,11841,5,4,3:0:0:0:
184,48,12270,6,0,P|137:91|69:105,1,120,6|2,0:0|0:0,0:0:0:0:
34,127,12912,2,0,P|34:188|58:254,1,120,8|0,0:0|0:0,0:0:0:0:
87,284,13555,1,8,0:0:0:0:
184,331,13984,2,0,P|244:332|312:313,1,120,10|2,0:0|0:0,0:0:0:0:
351,295,14627,2,0,P|365:233|357:164,1,120,8|0,0:0|0:0,0:0:0:0:
333,130,15270,1,8,0:0:0:0:
252,57,15698,6,0,P|192:49|113:81,1,120,10|2,0:0|0:0,0:0:0:0:
91,96,16341,2,0,P|112:165|105:224,1,120,8|0,0:0|0:0,0:0:0:0:
95,264,16984,2,0,P|119:281|147:292,1,60,8|0,0:0|3:0,0:0:0:0:
201,296,17412,2,0,P|265:285|294:248,2,90,10|2|10,0:0|0:0|0:0,0:0:0:0:
147,292,18270,2,0,L|136:163,1,120,0|8,0:0|0:0,0:0:0:0:
170,70,19127,6,0,P|229:64|299:86,1,120,6|2,0:0|0:0,0:0:0:0:
319,123,19770,2,0,P|300:171|317:262,1,120,8|0,0:0|0:0,0:0:0:0:
325,288,20412,1,8,0:0:0:0:
409,355,20841,2,0,P|429:299|424:229,1,120,10|2,0:0|0:0,0:0:0:0:
401,191,21484,2,0,P|344:174|288:118,1,120,8|0,0:0|0:0,0:0:0:0:
265,92,22127,1,8,0:0:0:0:
178,27,22555,6,0,L|156:162,1,120,6|2,0:0|0:0,0:0:0:0:
151,199,23198,1,8,0:0:0:0:
197,296,23627,2,0,P|268:284|333:306,1,120,2|0,0:0|3:0,0:0:0:0:
364,313,24270,2,0,L|388:186,1,120,6|8,0:0|0:0,0:0:0:0:
384,141,24912,1,0,0:0:0:0:
348,38,25341,2,0,P|290:22|232:34,1,120,0|2,0:0|0:0,0:0:0:0:
185,62,25984,5,6,0:0:0:0:
98,126,26412,2,0,P|88:186|94:251,1,120
160,329,27270,2,0,B|187:331|219:335,1,60,2|0,0:0|0:0,0:0:0:0:
271,349,27698,2,0,L|390:341,1,120,2|0,0:0|0:0,0:0:0:0:
435,311,28341,1,2,0:0:0:0:
464,207,28770,2,0,P|478:149|464:91,1,120,0|0,0:0|3:0,0:0:0:0:
425,53,29412,6,0,P|362:64|282:46,1,120,2|0,0:0|0:0,0:0:0:0:
255,40,30055,1,2,0:0:0:0:
151,69,30484,1,0,0:0:0:0:
151,69,30698,2,0,P|156:100|152:140,1,60,2|2,0:0|0:0,0:0:0:0:
115,166,31127,2,0,P|107:230|121:300,1,120,2|0,0:0|0:0,0:0:0:0:
144,330,31770,2,0,P|193:358|323:354,1,180,2|2,0:0|0:0,0:0:0:0:
413,315,32841,5,6,0:0:0:0:
465,220,33270,2,0,P|468:162|425:96,1,120,0|0,0:0|0:0,0:0:0:0:
356,40,34127,2,0,L|280:40,1,60,2|0,0:0|0:0,0:0:0:0:
244,56,34555,2,0,L|118:56,1,120,2|0,0:0|0:0,0:0:0:0:
81,89,35198,1,2,0:0:0:0:
46,191,35627,2,0,P|50:256|95:314,1,120,0|0,3:0|0:0,0:0:0:0:
126,327,36270,6,0,P|193:337|264:318,1,120,2|0,0:0|0:0,0:0:0:0:
294,308,36912,1,2,0:0:0:0:
383,247,37341,1,0,0:0:0:0:
383,247,37555,2,0,P|383:212|377:185,1,60,2|2,0:0|0:0,0:0:0:0:
361,136,37984,2,0,P|322:94|271:55,1,120,2|2,3:2|3:2,0:0:0:0:
220,72,38627,2,0,L|209:208,1,120
235,239,39270,2,0,L|228:319,1,60,2|0,3:2|0:0,0:0:0:0:
201,344,39698,5,6,0:0:0:0:
98,310,40127,1,0,3:0:0:0:
87,202,40555,1,0,3:0:0:0:
109,98,40984,2,0,L|181:78,1,60,0|0,3:0|0:0,0:0:0:0:
219,72,41412,2,0,L|234:180,2,90,2|0|0,0:0|0:0|0:0,0:0:0:0:
267,49,42270,2,0,P|327:41|391:49,1,120,0|0,3:0|3:0,0:0:0:0:
456,129,43127,6,0,L|484:239,2,90,2|0|0,0:0|3:0|3:0,0:0:0:0:
401,129,43984,2,0,P|317:140|277:130,1,120,2|0,0:0|3:0,0:0:0:0:
230,119,44627,1,0,0:0:0:0:
176,127,44841,2,0,L|70:147,2,90,2|0|0,0:0|3:0|0:0,0:0:0:0:
230,119,45698,2,0,P|239:177|226:248,1,120,2|0,0:0|3:0,0:0:0:0:
162,322,46555,6,0,P|100:314|45:263,1,120,6|0,0:0|3:0,0:0:0:0:
24,234,47198,2,0,P|21:163|45:97,1,120
68,73,47841,1,0,3:0:0:0:
174,90,48270,2,0,P|182:136|181:193,2,90,2|0|2,0:0|0:0|0:0,0:0:0:0:
160,37,49127,1,0,3:0:0:0:
266,54,49555,2,0,P|322:56|349:48,1,60,0|0,3:0|0:0,0:0:0:0:
256,192,49984,12,4,51698,0:0:0:0:
59,40,52984,5,0,0:0:0:0:
59,40,53412,6,0,P|115:28|179:36,1,120,6|2,0:0|0:0,0:0:0:0:
284,48,54270,2,0,B|297:121|272:184,1,120,2|8,0:0|0:0,0:0:0:0:
179,211,55127,2,0,P|112:216|69:204,2,90,8|2|8,0:0|0:0|0:0,0:0:0:0:
275,259,56198,2,0,P|274:229|276:199,2,60,2|8|0,0:0|0:0|0:0,0:0:0:0:
282,312,56841,1,6,0:0:0:0:
390,312,57270,5,0,3:0:0:0:
401,259,57484,2,0,P|403:228|399:198,1,60,8|0,0:0|0:0,0:0:0:0:
352,102,58127,1,8,0:0:0:0:
298,109,58341,2,0,P|267:113|239:109,1,60,0|6,3:0|0:0,0:0:0:0:
131,97,58984,1,0,0:0:0:0:
90,132,59198,2,0,P|82:164|93:261,1,120,8|0,0:0|0:0,0:0:0:0:
124,290,59841,2,0,L|196:298,1,60,8|0,0:0|3:0,0:0:0:0:
236,308,60270,6,0,P|312:321|378:306,1,120,6|2,0:0|0:0,0:0:0:0:
447,260,61127,2,0,P|447:182|422:120,1,120,2|8,0:0|0:0,0:0:0:0:
354,69,61984,2,0,L|255:28,2,90,8|8|8,0:0|0:0|0:0,0:0:0:0:
434,142,63055,2,0,P|463:145|493:139,2,60,0|8|2,0:0|0:0|0:0,0:0:0:0:
379,142,63698,1,6,0:0:0:0:
276,107,64127,5,0,0:0:0:0:
268,160,64341,2,0,P|265:189|265:219,1,60,8|6,0:0|0:0,0:0:0:0:
266,327,64984,1,8,0:0:0:0:
316,346,65198,2,0,P|345:350|375:349,1,60,0|6,3:0|0:0,0:0:0:0:
442,263,65841,1,0,0:0:0:0:
467,215,66055,2,0,P|476:155|466:97,1,120,8|0,0:0|3:0,0:0:0:0:
422,64,66698,2,0,L|359:53,1,60,10|0,0:0|3:0,0:0:0:0:
311,37,67127,6,0,P|251:39|196:64,1,120,6|2,0:0|0:0,0:0:0:0:
111,129,67984,2,0,P|108:188|130:243,1,120,0|8,3:0|0:0,0:0:0:0:
224,297,68841,2,0,L|325:312,2,90,8|0|8,0:0|3:0|0:0,0:0:0:0:
130,243,69912,2,0,P|102:254|73:260,2,60,0|8|2,0:0|0:0|0:0,0:0:0:0:
176,215,70555,1,6,0:0:0:0:
203,110,70984,5,0,0:0:0:0:
255,99,71198,2,0,B|284:96|314:100,1,60,8|6,0:0|0:0,0:0:0:0:
418,131,71841,1,8,0:0:0:0:
407,183,72055,2,0,P|404:212|407:242,1,60,2|6,0:0|0:0,0:0:0:0:
441,345,72698,1,0,0:0:0:0:
389,360,72912,2,0,P|325:365|264:359,1,120,8|0,0:0|0:0,0:0:0:0:
215,352,73555,2,0,L|140:352,1,60,8|0,0:0|3:0,0:0:0:0:
101,341,73984,6,0,P|91:292|113:215,1,120,6|2,0:0|0:0,0:0:0:0:
211,252,74841,2,0,P|270:258|329:249,1,120,2|8,0:0|0:0,0:0:0:0:
410,177,75698,2,0,L|516:166,2,90,8|0|8,0:0|3:0|0:0,0:0:0:0:
329,248,76770,2,0,P|347:271|368:292,2,60,2|8|2,0:0|0:0|0:0,0:0:0:0:
291,209,77412,1,6,0:0:0:0:
265,104,77841,5,2,0:0:0:0:
318,96,78055,2,0,P|347:94|376:96,1,60,8|0,0:0|3:0,0:0:0:0:
465,160,78698,1,8,0:0:0:0:
466,213,78912,2,0,P|466:242|461:272,1,60,2|8,3:2|0:0,0:0:0:0:
373,335,79555,1,2,0:0:0:0:
320,350,79770,2,0,P|249:355|185:339,1,120,8|0,0:0|3:0,0:0:0:0:
154,318,80412,1,8,0:0:0:0:
89,231,80841,6,0,P|81:167|118:58,2,180,6|2|2,0:0|0:0|0:0,0:0:0:0:
155,315,82555,2,0,L|338:310,1,180,6|2,0:0|0:0,0:0:0:0:
382,284,83412,2,0,P|397:229|382:164,1,120,2|2,0:0|0:0,0:0:0:0:
304,95,84270,1,4,0:3:0:0:
256,192,84484,12,0,89412,0:0:0:0:
