osu file format v14

[General]
AudioFilename: audio.mp3
AudioLeadIn: 0
PreviewTime: 52984
Countdown: 0
SampleSet: Soft
StackLeniency: 0.6
Mode: 0
LetterboxInBreaks: 0
WidescreenStoryboard: 1

[Editor]
Bookmarks: 12270,37984,64555
DistanceSpacing: 0.9
BeatDivisor: 4
GridSize: 4
TimelineZoom: 2.4

[Metadata]
Title:Ima Koko
TitleUnicode:イマココ
Artist:Toyama Nao
ArtistUnicode:東山奈央
Creator:Dubturt
Version:Hard
Source:月がきれい
Tags:karen opening tsuki ga kirei as the moon so beautiful touyama
BeatmapID:1302610
BeatmapSetID:617836

[Difficulty]
HPDrainRate:4
CircleSize:3.8
OverallDifficulty:6.5
ApproachRate:7
SliderMultiplier:1.4
SliderTickRate:1

[Events]
//Background and Video events
0,0,"cropped-1920-1080-8309571.jpg",0,0
//Break Periods
//Storyboard Layer 0 (Background)
//Storyboard Layer 1 (Fail)
//Storyboard Layer 2 (Pass)
//Storyboard Layer 3 (Foreground)
//Storyboard Sound Samples

[TimingPoints]
270,428.571428571429,4,2,1,40,1,0
270,-111.111111111111,4,2,1,40,0,0
11841,-111.111111111111,4,2,1,60,0,0
12270,-90.9090909090909,4,2,1,60,0,0
25984,-100,4,2,1,50,0,0
39698,-100,4,2,1,55,0,0
52984,-100,4,2,1,50,0,0
53412,-90.9090909090909,4,2,1,65,0,1
80841,-100,4,2,1,40,0,0
84270,-100,4,2,1,40,0,0
84377,-100,4,2,1,20,0,0
89412,-100,4,2,1,5,0,0

[Colours]
Combo1 : 4,196,251
Combo2 : 255,128,192
Combo3 : 0,128,192
Combo4 : 242,216,223

[HitObjects]
488,25,270,6,0,P|423:14|344:27,1,125.999996154785,2|0,0:0|0:0,0:0:0:0:
270,138,1127,1,0,0:0:0:0:
169,25,1555,2,0,P|112:21|81:32,1,62.9999980773926
37,84,1984,6,0,P|24:126|41:201,2,94.499997116089,2|0|0,0:0|0:0|0:0,0:0:0:0:
110,139,2841,1,2,0:0:0:0:
110,139,3055,2,0,P|120:202|111:266,1,125.999996154785,0|0,0:0|0:0,0:0:0:0:
160,341,3698,6,0,P|208:350|273:340,2,94.499997116089,2|2|2,0:0|0:0|0:0,0:0:0:0:
178,213,4770,2,0,L|237:182,1,62.9999980773926,0|0,0:0|0:0,0:0:0:0:
280,95,5198,1,2,0:0:0:0:
280,95,5305,1,2,0:0:0:0:
280,95,5412,2,0,P|234:86|164:101,2,94.499997116089,2|2|2,0:0|0:0|0:0,0:0:0:0:
416,133,7127,6,0,P|418:170|407:218,1,62.9999980773926,2|0,0:0|0:0,0:0:0:0:
399,289,7555,2,0,P|355:298|260:286,1,125.999996154785,0|0,0:0|0:0,0:0:0:0:
117,195,8412,2,0,P|112:142|118:117,1,62.9999980773926,0|0,0:0|0:0,0:0:0:0:
151,42,8841,6,0,P|203:74|281:84,1,125.999996154785,2|0,0:0|0:0,0:0:0:0:
352,82,9484,1,0,0:0:0:0:
435,216,9912,1,0,0:0:0:0:
296,290,10341,1,0,0:0:0:0:
213,34,11841,5,4,3:0:0:0:
213,34,12270,6,0,P|273:26|349:50,1,115.50000352478,6|8,0:0|0:0,0:0:0:0:
363,58,12698,1,2,0:0:0:0:
431,153,12912,2,0,P|439:201|430:296,2,115.50000352478,8|8|8,0:0|0:0|0:0,0:0:0:0:
322,146,13770,1,0,3:0:0:0:
322,146,13984,6,0,P|262:157|185:146,1,115.50000352478,10|8,0:0|0:0,0:0:0:0:
169,135,14412,1,2,0:0:0:0:
70,76,14627,2,0,P|60:132|76:211,2,115.50000352478,8|8|8,0:0|0:0|0:0,0:0:0:0:
181,22,15484,1,2,0:0:0:0:
181,22,15698,6,0,B|239:65|323:62,1,115.50000352478,10|8,0:0|0:0,0:0:0:0:
330,63,16127,1,2,0:0:0:0:
415,142,16341,2,0,P|450:107|469:37,2,115.50000352478,8|8|8,0:0|0:0|0:0,0:0:0:0:
314,170,17198,1,0,3:0:0:0:
314,170,17305,1,0,3:0:0:0:
314,170,17412,6,0,P|265:160|209:132,1,77.0000023498536,10|0,0:0|0:0,0:0:0:0:
198,139,17734,2,0,P|199:193|186:241,1,77.0000023498536,2|0,0:0|0:0,0:0:0:0:
178,254,18055,1,10,0:0:0:0:
88,303,18270,1,0,0:0:0:0:
62,270,18377,2,0,P|53:201|56:179,1,77.0000023498536,8|0,0:0|0:0,0:0:0:0:
61,152,18698,2,0,L|88:87,3,38.5000011749268,8|0|0|0,0:0|0:0|3:0|3:0,0:0:0:0:
106,86,19127,6,0,P|159:82|230:104,1,115.50000352478,6|8,0:0|0:0,0:0:0:0:
247,128,19555,1,2,0:0:0:0:
360,214,19770,2,0,P|374:174|369:93,2,115.50000352478,8|8|8,0:0|0:0|0:0,0:0:0:0:
289,301,20627,1,0,3:0:0:0:
289,301,20841,6,0,P|232:325|149:327,1,115.50000352478,10|8,0:0|0:0,0:0:0:0:
137,319,21270,1,2,0:0:0:0:
54,239,21484,2,0,P|40:188|45:111,2,115.50000352478,8|8|8,0:0|0:0|0:0,0:0:0:0:
163,227,22341,1,0,3:0:0:0:
163,227,22555,6,0,P|206:198|231:165,1,77.0000023498536,6|0,0:0|0:0,0:0:0:0:
277,82,22984,2,0,P|295:122|324:147,1,77.0000023498536,2|8,0:0|0:0,0:0:0:0:
413,151,23412,1,0,0:0:0:0:
441,246,23627,1,2,0:0:0:0:
441,246,23734,1,2,0:0:0:0:
441,246,23841,2,0,L|439:301,3,38.5000011749268,0|0|0|0,3:0|3:0|3:0|3:0,0:0:0:0:
402,305,24270,6,0,L|419:370,4,38.5000011749268,6|0|0|2|0,0:0|0:0|0:0|0:0|0:0,0:0:0:0:
339,219,24912,2,0,P|261:219|168:259,1,154.000004699707
143,328,25555,2,0,L|86:337,3,38.5000011749268,0|0|2|2,3:0|0:0|0:0|0:0,0:0:0:0:
188,315,25984,6,0,L|191:212,1,70,6|0,0:0|0:0,0:0:0:0:
130,170,26412,2,0,P|152:143|182:125,1,70,0|2,0:0|0:0,0:0:0:0:
265,111,26841,2,0,P|326:121|361:111,1,70,0|0,0:0|0:0,0:0:0:0:
416,66,27270,1,2,0:0:0:0:
399,175,27484,1,0,0:0:0:0:
465,236,27698,6,0,P|485:184|467:117,2,105,2|0|2,0:0|0:0|0:0,0:0:0:0:
382,270,28555,2,0,L|293:272,1,70,0|0,0:0|0:0,0:0:0:0:
310,358,28984,2,0,L|393:366,1,70,2|0,0:0|0:0,0:0:0:0:
379,364,29412,5,2,0:0:0:0:
471,158,29841,1,0,0:0:0:0:
471,158,30055,2,0,P|473:199|467:234,1,70,2|0,0:0|0:0,0:0:0:0:
365,274,30484,2,8,P|356:240|362:206,2,70,0|2|2,0:0|0:0|0:0,0:0:0:0:
311,352,31127,5,2,0:0:0:0:
184,181,31448,1,2,0:0:0:0:
92,345,31770,2,0,P|172:340|225:296,1,140,2|0,0:0|0:0,0:0:0:0:
262,215,32412,2,0,P|259:162|272:120,1,70,2|2,0:0|0:0,0:0:0:0:
345,182,32841,6,0,P|393:184|428:177,1,70,6|0,0:0|0:0,0:0:0:0:
501,118,33270,2,0,P|505:69|484:29,1,70,0|2,0:0|0:0,0:0:0:0:
416,5,33698,2,0,P|360:1|320:9,1,70
294,86,34127,1,2,0:0:0:0:
201,72,34341,1,0,0:0:0:0:
114,101,34555,6,0,P|110:59|150:-5,2,105,2|0|2,0:0|3:0|0:0,0:0:0:0:
209,144,35412,2,0,P|244:176|257:212,1,70,2|0,0:0|3:0,0:0:0:0:
292,288,35841,2,0,P|240:294|199:310,1,70,2|0,0:0|0:0,0:0:0:0:
223,298,36270,5,2,0:0:0:0:
75,336,36698,1,0,0:0:0:0:
75,336,36912,2,0,P|84:277|70:237,1,70,2|0,0:0|0:0,0:0:0:0:
68,156,37341,2,0,L|0:225,2,70,0|2|2,0:0|0:0|0:0,0:0:0:0:
103,139,37877,1,2,0:0:0:0:
103,139,37984,6,0,P|148:148|232:109,1,140,2|0,3:2|0:0,0:0:0:0:
336,122,38627,2,0,P|289:175|272:248,1,140
186,222,39270,2,0,P|194:280|188:311,1,70,2|0,3:2|0:0,0:0:0:0:
238,371,39698,6,0,B|319:405|389:363,1,140,6|0,0:0|3:0,0:0:0:0:
437,310,40341,1,2,0:0:0:0:
362,269,40555,2,0,P|358:222|366:192,1,70,0|0,3:0|0:0,0:0:0:0:
443,160,40984,2,0,P|446:103|434:68,1,70,0|0,3:0|0:0,0:0:0:0:
401,17,41412,6,0,P|336:36|248:19,1,140,2|0,0:0|3:0,0:0:0:0:
175,12,42055,2,0,P|172:73|190:104,1,70,0|0,0:0|3:0,0:0:0:0:
227,167,42484,2,0,P|185:179|150:171,1,70,0|0,0:0|3:0,0:0:0:0:
31,145,42912,1,0,0:0:0:0:
31,145,43020,1,0,0:0:0:0:
31,145,43127,6,0,P|47:184|52:228,1,70,2|0,0:0|0:0,0:0:0:0:
44,249,43448,2,0,P|52:307|113:324,1,105,0|0,3:0|3:0,0:0:0:0:
203,355,43984,2,0,P|199:302|150:208,1,140,2|0,0:0|3:0,0:0:0:0:
115,124,44627,1,0,0:0:0:0:
115,124,44841,6,0,L|189:117,1,70,2|0,0:0|0:0,0:0:0:0:
220,131,45162,2,0,P|252:166|335:171,1,105,0|0,3:0|0:0,0:0:0:0:
407,224,45698,2,0,P|408:285|415:314,2,70,2|0|0,0:0|0:0|3:0,0:0:0:0:
452,107,46341,1,0,0:0:0:0:
452,107,46555,6,0,P|384:109|306:56,1,140,6|0,0:0|3:0,0:0:0:0:
217,12,47198,2,0,P|206:69|169:148,1,140,0|0,0:0|0:0,0:0:0:0:
81,128,47841,2,0,P|80:165|102:211,1,70,0|0,3:0|0:0,0:0:0:0:
198,263,48270,6,0,P|144:275|85:303,2,105,2|2|2,0:0|0:0|0:0,0:0:0:0:
317,297,49127,1,0,3:0:0:0:
481,178,49555,2,0,L|432:91,1,70,0|0,3:0|0:0,0:0:0:0:
383,61,49984,6,0,P|313:48|221:63,1,140,0|0,3:0|3:0,0:0:0:0:
160,119,50627,1,0,0:0:0:0:
234,190,50841,2,0,P|246:249|239:282,1,70,0|0,3:0|0:0,0:0:0:0:
168,293,51270,2,0,P|165:337|184:374,1,70,0|0,3:0|0:0,0:0:0:0:
267,384,51698,5,4,0:0:0:0:
398,310,52984,5,0,0:0:0:0:
398,310,53412,6,0,L|383:214,1,77.0000023498536,6|0,0:0|3:0,0:0:0:0:
318,163,53841,2,0,P|261:161|220:144,1,77.0000023498536,2|8,0:0|0:0,0:0:0:0:
156,130,54270,2,0,P|130:162|105:218,1,77.0000023498536,2|0,0:0|0:0,0:0:0:0:
122,286,54698,1,8,0:0:0:0:
220,324,54912,1,2,3:2:0:0:
220,324,55020,1,0,3:0:0:0:
220,324,55127,6,0,P|274:323|372:248,1,154.000004699707,8|0,0:0|3:0,0:0:0:0:
311,188,55770,1,8,0:0:0:0:
348,108,55984,2,0,P|397:112|447:103,2,77.0000023498536,0|2|8,3:0|0:0|0:0,0:0:0:0:
262,77,56627,1,0,0:0:0:0:
175,44,56841,6,0,P|131:36|95:45,1,77.0000023498536,6|0,0:0|0:0,0:0:0:0:
32,117,57270,1,0,3:0:0:0:
68,210,57484,1,8,0:0:0:0:
68,210,57698,2,0,P|118:193|153:169,1,77.0000023498536,0|0,0:0|0:0,0:0:0:0:
212,113,58127,1,8,0:0:0:0:
246,206,58341,1,0,3:0:0:0:
246,206,58555,6,0,P|275:237|320:255,1,77.0000023498536,6|2,0:0|0:0,0:0:0:0:
401,281,58984,1,0,0:0:0:0:
457,198,59198,1,8,0:0:0:0:
457,198,59412,2,0,P|462:133|457:98,1,77.0000023498536,0|0,0:0|0:0,0:0:0:0:
381,60,59841,1,8,0:0:0:0:
281,55,60055,1,0,3:0:0:0:
197,110,60270,6,0,P|192:160|197:200,1,77.0000023498536,6|0,0:0|0:0,0:0:0:0:
238,260,60698,2,0,P|311:257|340:261,1,77.0000023498536,2|8,0:0|0:0,0:0:0:0:
376,195,61127,2,0,P|401:249|397:285,1,77.0000023498536,2|0,0:0|0:0,0:0:0:0:
400,367,61555,1,8,0:0:0:0:
499,312,61770,1,2,3:2:0:0:
499,312,61877,1,0,3:0:0:0:
499,312,61984,6,0,L|489:155,1,154.000004699707,8|0,0:0|3:0,0:0:0:0:
450,67,62627,1,8,0:0:0:0:
357,84,62841,2,0,P|319:90|281:84,2,77.0000023498536,0|0|8,3:0|0:0|0:0,0:0:0:0:
450,67,63484,1,2,0:0:0:0:
418,157,63698,6,0,L|376:253,1,77.0000023498536,6|0,0:0|0:0,0:0:0:0:
318,301,64127,1,0,0:0:0:0:
280,208,64341,1,8,0:0:0:0:
280,208,64555,2,0,P|241:241|212:255,1,77.0000023498536,6|0,0:0|0:0,0:0:0:0:
125,290,64984,1,8,0:0:0:0:
50,223,65198,1,0,3:0:0:0:
50,223,65412,6,0,P|47:161|52:134,1,77.0000023498536,6|0,0:0|3:0,0:0:0:0:
82,51,65841,1,0,0:0:0:0:
162,109,66055,1,8,0:0:0:0:
162,109,66270,2,0,P|234:95|251:86,1,77.0000023498536,6|0,0:0|3:0,0:0:0:0:
331,61,66698,1,10,0:0:0:0:
384,145,66912,1,0,3:0:0:0:
382,257,67127,6,0,P|356:288|316:305,1,77.0000023498536,6|0,0:0|3:0,0:0:0:0:
209,303,67555,2,0,P|201:265|184:231,1,77.0000023498536,2|8,0:0|0:0,0:0:0:0:
212,144,67984,2,0,P|264:128|284:132,1,77.0000023498536,0|0,3:0|0:0,0:0:0:0:
360,197,68412,1,8,0:0:0:0:
458,178,68627,1,2,3:2:0:0:
458,178,68734,1,0,3:0:0:0:
458,178,68841,6,0,P|468:104|440:18,1,154.000004699707,8|0,0:0|3:0,0:0:0:0:
355,72,69484,1,8,0:0:0:0:
243,69,69698,2,0,L|185:-9,2,77.0000023498536,0|0|8,3:0|0:0|0:0,0:0:0:0:
305,149,70341,1,2,0:0:0:0:
352,243,70555,6,0,P|326:276|290:301,1,77.0000023498536,6|0,0:0|0:0,0:0:0:0:
207,339,70984,1,0,0:0:0:0:
113,303,71198,1,8,0:0:0:0:
113,303,71412,2,0,P|102:244|109:207,1,77.0000023498536,6|0,0:0|0:0,0:0:0:0:
134,132,71841,1,8,0:0:0:0:
217,187,72055,1,2,0:0:0:0:
217,187,72270,6,0,P|281:194|312:183,1,77.0000023498536,6|0,0:0|3:0,0:0:0:0:
369,128,72698,1,0,0:0:0:0:
302,53,72912,1,8,0:0:0:0:
302,53,73127,2,0,P|238:46|207:57,1,77.0000023498536,2|0,0:0|0:0,0:0:0:0:
131,78,73555,1,8,0:0:0:0:
146,178,73770,1,0,3:0:0:0:
187,269,73984,6,0,P|156:299|117:309,1,77.0000023498536,6|0,0:0|0:0,0:0:0:0:
146,178,74412,2,0,P|188:172|224:176,1,77.0000023498536,2|8,0:0|0:0,0:0:0:0:
330,208,74841,2,0,P|342:160|339:120,1,77.0000023498536,2|0,0:0|0:0,0:0:0:0:
291,33,75270,1,8,0:0:0:0:
212,102,75484,1,2,3:2:0:0:
212,102,75591,1,0,3:0:0:0:
212,102,75698,6,0,L|236:271,1,154.000004699707,8|2,0:0|0:0,0:0:0:0:
324,291,76341,1,8,0:0:0:0:
371,193,76555,2,0,P|400:214|450:227,2,77.0000023498536,0|2|8,0:0|0:0|0:0,0:0:0:0:
319,101,77198,1,2,0:0:0:0:
219,38,77412,6,0,P|172:49|135:72,1,77.0000023498536,6|0,0:0|0:0,0:0:0:0:
60,113,77841,1,2,0:0:0:0:
92,207,78055,1,8,0:0:0:0:
92,207,78270,2,0,P|150:219|178:243,1,77.0000023498536,0|0,3:0|0:0,0:0:0:0:
212,316,78698,1,8,0:0:0:0:
293,258,78912,1,2,3:2:0:0:
293,258,79127,6,0,P|341:294|371:304,1,77.0000023498536,8|0,0:0|3:0,0:0:0:0:
450,332,79555,1,2,0:0:0:0:
484,237,79770,1,8,0:0:0:0:
484,237,79984,2,0,P|482:170|474:140,1,77.0000023498536,0|0,3:0|3:0,0:0:0:0:
424,71,80412,2,0,L|386:80,3,38.5000011749268,8|0|2|2,0:0|0:0|0:0|0:0,0:0:0:0:
349,101,80841,6,0,P|353:161|336:229,3,105,6|2|2|2,0:0|0:0|0:0|0:0,0:0:0:0:
246,291,82127,1,2,0:0:0:0:
180,230,82341,1,2,0:0:0:0:
257,142,82555,6,0,P|255:88|238:30,3,105,6|2|2|2,0:0|0:0|0:0|0:0,0:0:0:0:
101,33,83841,1,2,0:0:0:0:
61,113,84055,1,2,0:0:0:0:
96,195,84269,5,4,0:3:0:0:
256,192,84377,12,0,89412,0:0:0:0:
