osu file format v14

[General]
AudioFilename: audio.mp3
AudioLeadIn: 0
PreviewTime: 52984
Countdown: 0
SampleSet: Soft
StackLeniency: 0.9
Mode: 0
LetterboxInBreaks: 0
WidescreenStoryboard: 1

[Editor]
DistanceSpacing: 0.9
BeatDivisor: 4
GridSize: 4
TimelineZoom: 2

[Metadata]
Title:Ima Koko
TitleUnicode:イマココ
Artist:Toyama Nao
ArtistUnicode:東山奈央
Creator:Dubturt
Version:Easy
Source:月がきれい
Tags:karen opening tsuki ga kirei as the moon so beautiful touyama
BeatmapID:1302609
BeatmapSetID:617836

[Difficulty]
HPDrainRate:2
CircleSize:3
OverallDifficulty:2.5
ApproachRate:3.3
SliderMultiplier:1
SliderTickRate:1

[Events]
//Background and Video events
0,0,"cropped-1920-1080-8309571.jpg",0,0
//Break Periods
//Storyboard Layer 0 (Background)
//Storyboard Layer 1 (Fail)
//Storyboard Layer 2 (Pass)
//Storyboard Layer 3 (Foreground)
//Storyboard Sound Samples

[TimingPoints]
270,428.571428571429,4,2,1,40,1,0
270,-100,4,2,1,40,0,0
10555,-100,4,2,1,40,0,0
11841,-100,4,2,1,60,0,0
25984,-100,4,2,1,50,0,0
39698,-100,4,2,1,55,0,0
52984,-100,4,2,1,55,0,0
53412,-100,4,2,1,65,0,1
80841,-100,4,2,1,40,0,0
84270,-100,4,2,1,40,0,0
84377,-100,4,2,1,20,0,0
89412,-100,4,2,1,5,0,0

[Colours]
Combo1 : 4,196,251
Combo2 : 255,128,192
Combo3 : 0,128,192
Combo4 : 242,216,223

[HitObjects]
32,348,270,6,0,P|136:376|236:336,1,200,2|0,0:0|0:0,0:0:0:0:
400,349,1984,2,0,P|420:289|400:149,1,200,2|2,0:0|0:0,0:0:0:0:
270,31,3698,6,0,P|215:16|102:36,1,150,2|2,0:0|0:0,0:0:0:0:
114,251,5412,2,0,P|188:263|261:247,1,150,2|2,0:0|0:0,0:0:0:0:
424,93,7127,6,0,P|328:63|237:93,1,200,2|0,0:0|0:0,0:0:0:0:
256,192,8841,12,0,10555,0:0:0:0:
406,196,12270,6,0,L|420:364,2,150,6|8|8,0:0|0:0|0:0,0:0:0:0:
346,127,13984,2,0,P|279:111|192:128,1,150,10|8,0:0|0:0,0:0:0:0:
76,180,15270,1,8,0:0:0:0:
94,267,15698,6,0,P|141:308|227:317,2,150,10|8|8,0:0|0:0|0:0,0:0:0:0:
72,179,17412,2,0,P|79:107|270:118,1,300,10|8,0:0|0:0,0:0:0:0:
352,109,19127,6,0,L|518:91,2,150,6|8|8,0:0|0:0|0:0,0:0:0:0:
269,144,20841,2,0,P|277:219|270:321,1,150,10|8,0:0|0:0,0:0:0:0:
149,347,22127,1,8,0:0:0:0:
70,302,22555,6,0,P|56:225|91:127,1,150,6|8,0:0|0:0,0:0:0:0:
153,47,23841,1,2,0:0:0:0:
210,116,24270,2,0,L|230:251,1,100,6|8,0:0|0:0,0:0:0:0:
314,216,25127,2,0,L|340:119,1,100
409,62,25984,6,0,P|353:34|289:41,1,100,6|0,0:0|0:0,0:0:0:0:
226,36,26841,2,0,P|178:48|143:83,1,100,0|2,0:0|0:0,0:0:0:0:
110,166,27698,2,0,P|170:243|234:249,1,150,2|0,0:0|0:0,0:0:0:0:
342,199,28984,1,0,0:0:0:0:
426,230,29412,6,0,L|473:389,2,150,2|2|2,0:0|0:0|0:0,0:0:0:0:
365,162,31127,2,0,L|218:81,2,150,2|2|2,0:0|0:0|0:0,0:0:0:0:
449,129,32841,6,0,P|455:179|431:232,1,100,6|0,0:0|0:0,0:0:0:0:
382,296,33698,2,0,P|326:309|256:297,1,100,0|2,0:0|0:0,0:0:0:0:
195,324,34555,2,0,P|151:249|150:169,1,150,2|0,0:0|0:0,0:0:0:0:
189,59,35841,1,0,0:0:0:0:
278,65,36270,6,0,P|335:111|351:182,2,150,2|2|2,0:0|0:0|0:0,0:0:0:0:
189,59,37984,2,0,P|114:53|47:21,2,150,2|0|2,3:2|0:0|3:2,0:0:0:0:
275,32,39698,5,6,0:0:0:0:
288,120,40127,1,0,3:0:0:0:
249,201,40555,2,0,P|237:257|273:317,1,100,0|0,3:0|3:0,0:0:0:0:
318,356,41412,2,0,P|389:375|478:333,2,150,2|0|0,0:0|0:0|3:0,0:0:0:0:
382,292,43127,6,0,P|355:250|356:201,2,100,2|0|2,0:0|0:0|0:0,0:0:0:0:
439,222,44412,1,0,3:0:0:0:
422,133,44841,2,0,P|471:135|511:168,2,100,2|0|2,0:0|0:0|0:0,0:0:0:0:
334,153,46127,1,0,3:0:0:0:
333,242,46555,6,0,L|349:365,1,100,6|0,0:0|3:0,0:0:0:0:
255,345,47412,2,0,L|241:236,1,100,0|0,0:0|3:0,0:0:0:0:
282,164,48270,2,0,P|215:157|171:184,2,100,2|0|0,0:0|0:0|3:0,0:0:0:0:
256,192,49555,12,4,51698,0:0:0:0:
255,191,53412,6,0,L|147:191,1,100,6|2,0:0|0:0,0:0:0:0:
78,238,54270,2,0,P|66:190|86:126,1,100,2|8,0:0|0:0,0:0:0:0:
130,68,55127,2,0,P|178:56|226:69,1,100,0|8,0:0|0:0,0:0:0:0:
310,102,55984,1,0,0:0:0:0:
393,67,56412,1,8,0:0:0:0:
458,129,56841,6,0,P|465:203|455:247,1,100,6|0,0:0|3:0,0:0:0:0:
440,315,57698,2,0,P|391:325|343:312,1,100,0|8,3:0|0:0,0:0:0:0:
273,255,58555,2,0,P|224:245|176:258,1,100,0|8,3:0|0:0,0:0:0:0:
101,308,59412,2,0,P|90:259|102:210,1,100,0|8,3:0|0:0,0:0:0:0:
127,124,60270,6,0,P|223:146|320:123,1,200,6|2,0:0|0:0,0:0:0:0:
381,57,61555,1,8,0:0:0:0:
464,91,61984,2,0,P|479:176|478:242,2,150,8|0|8,0:0|0:0|0:0,0:0:0:0:
381,57,63698,6,0,P|330:68|264:48,1,100,6|0,0:0|0:0,0:0:0:0:
198,31,64555,2,0,P|184:79|198:125,1,100,6|8,0:0|0:0,0:0:0:0:
266,183,65412,2,0,P|280:230|266:277,1,100,6|8,0:0|0:0,0:0:0:0:
190,327,66270,2,0,P|141:341|95:327,1,100,6|8,0:0|0:0,0:0:0:0:
37,258,67127,6,0,P|59:163|143:112,1,200,6|0,0:0|3:0,0:0:0:0:
224,151,68412,1,8,0:0:0:0:
309,123,68841,2,0,L|330:273,2,150,0|8|8,0:0|0:0|0:0,0:0:0:0:
250,54,70555,6,0,P|184:46|139:66,1,100,6|8,0:0|0:0,0:0:0:0:
91,122,71412,2,0,P|81:170|93:217,1,100,6|8,0:0|0:0,0:0:0:0:
165,274,72270,2,0,P|214:281|261:267,1,100,6|8,0:0|0:0,0:0:0:0:
326,204,73127,2,0,P|330:154|313:107,1,100,6|8,0:0|0:0,0:0:0:0:
235,62,73984,6,0,P|136:47|37:100,1,200,6|2,0:0|0:0,0:0:0:0:
65,177,75270,1,8,0:0:0:0:
49,265,75698,2,0,P|105:306|196:301,2,150,0|8|8,0:0|0:0|0:0,0:0:0:0:
65,177,77412,6,0,L|162:152,1,100,6|2,0:0|0:0,0:0:0:0:
210,229,78270,2,0,L|329:201,1,100,0|8,3:0|0:0,0:0:0:0:
383,157,79127,2,0,L|435:262,2,100,8|2|0,0:0|0:0|0:0,0:0:0:0:
313,100,80412,1,8,0:0:0:0:
228,130,80841,6,0,P|200:198|215:286,2,150,6|2|2,0:0|0:0|0:0,0:0:0:0:
313,100,82555,2,0,P|369:116|426:98,1,100,6|0,0:0|0:0,0:0:0:0:
476,48,83412,2,0,P|495:104|480:160,1,100,2|2,0:0|0:0,0:0:0:0:
424,207,84270,1,4,0:3:0:0:
256,192,84484,12,0,89412,0:0:0:0:
