osu file format v14

[General]
AudioFilename: audio.mp3
AudioLeadIn: 0
PreviewTime: 52523
Countdown: 0
SampleSet: Soft
StackLeniency: 0.7
Mode: 0
LetterboxInBreaks: 0
WidescreenStoryboard: 1

[Editor]
DistanceSpacing: 0.2
BeatDivisor: 4
GridSize: 4
TimelineZoom: 2.1

[Metadata]
Title:Gunjou Infinity
TitleUnicode:群青インフィニティ
Artist:Toyama Nao
ArtistUnicode:東山奈央
Creator:HeTo
Version:Forever
Source:
Tags:japanese jpop pop cut ver touyama
BeatmapID:2351580
BeatmapSetID:1125470

[Difficulty]
HPDrainRate:6
CircleSize:3.8
OverallDifficulty:8.7
ApproachRate:9.3
SliderMultiplier:1.82
SliderTickRate:1

[Events]
//Background and Video events
0,0,"bg.jpg",0,0
//Break Periods
2,6749,7942
//Storyboard Layer 0 (Background)
//Storyboard Layer 1 (Fail)
//Storyboard Layer 2 (Pass)
//Storyboard Layer 3 (Foreground)
//Storyboard Layer 4 (Overlay)
//Storyboard Sound Samples

[TimingPoints]
64,324.324324324324,4,2,5,40,1,0
64,-200,4,2,5,40,0,0
5820,-200,4,2,5,5,0,0
5901,-200,4,2,5,40,0,0
6550,-133.333333333333,4,2,5,50,0,0
8496,-105.263157894737,4,2,5,55,0,0
9145,-105.263157894737,4,2,5,60,0,0
19523,-125,4,2,5,50,0,0
29901,-105.263157894737,4,2,5,60,0,0
40280,-105.263157894737,4,2,5,60,0,0
48388,-105.263157894737,4,2,5,40,0,0
48712,-105.263157894737,4,2,5,45,0,0
49036,-105.263157894737,4,2,5,50,0,0
49361,-105.263157894737,4,2,5,60,0,0
52604,-76.9230769230769,4,2,5,60,0,0
52685,-76.9230769230769,4,2,5,5,0,0
52766,-105.263157894737,4,2,5,60,0,0
53091,-95.2380952380952,4,2,5,70,0,1
63550,-95.2380952380952,4,2,5,5,0,1
63631,-117.647058823529,4,2,5,70,0,0
68739,-117.647058823529,4,2,5,5,0,0
68820,-95.238095238095,4,2,5,70,0,0
70118,-95.238095238095,4,2,5,50,0,0
70442,-95.238095238095,4,2,5,60,0,0
70766,-95.238095238095,4,2,5,70,0,0
73847,-95.2380952380952,4,2,5,70,0,1
81793,-95.2380952380952,4,2,5,70,0,1
84388,-117.647058823529,4,2,5,70,0,0
89577,-285.714285714286,4,2,5,50,0,0
91523,-153.846153846154,4,2,5,60,0,0
92172,-105.263157894737,4,2,5,65,0,0

[Colours]
Combo1 : 255,223,128
Combo2 : 255,204,230
Combo3 : 140,239,247
Combo4 : 192,192,192

[HitObjects]
103,61,1361,6,0,P|97:95|81:166,1,91,2|0,0:0|0:0,0:0:0:0:
205,16,1847,2,0,P|211:50|227:123,1,91,2|0,0:0|0:0,0:0:0:0:
329,29,2334,2,0,P|320:77|317:93,1,45.5,2|0,0:0|0:0,0:0:0:0:
383,182,2658,6,0,P|454:151|530:145,2,136.5,2|2|2,0:0|0:0|0:0,0:0:0:0:
338,358,3955,2,0,B|165:367|269:261|76:273,1,273,2|0,0:0|0:0,0:0:0:0:
3,265,5091,1,0,0:0:0:0:
0,176,5253,6,0,P|14:97|29:19,1,159.25,2|0,0:0|0:0,0:0:0:0:
23,10,5901,2,0,P|57:89|143:87,1,182,2|0,0:0|0:0,0:0:0:0:
337,311,8496,5,8,0:0:0:0:
337,268,8577,1,8,0:0:0:0:
363,234,8658,1,4,3:0:0:0:
404,223,8739,1,4,3:0:0:0:
444,237,8820,2,0,L|451:187,1,43.224998845768,8|8,3:0|3:0,0:0:0:0:
352,51,8982,2,4,L|357:93,1,43.224998845768,4|4,3:0|3:0,0:0:0:0:
241,191,9145,6,0,P|195:193|153:152,1,86.449997691536,6|0,1:2|0:0,0:0:0:0:
146,29,9469,1,10,0:0:0:0:
21,267,9631,2,0,P|7:206|-6:150,1,86.449997691536,2|0,0:0|1:2,0:0:0:0:
217,69,9955,1,2,1:2:0:0:
35,114,10118,1,10,0:0:0:0:
222,290,10280,6,0,B|338:297|254:234|396:244,1,172.899995383072,6|0,1:2|1:2,0:0:0:0:
483,370,10766,2,0,P|425:356|403:325,1,86.449997691536,10|0,0:0|0:0,0:0:0:0:
444,91,11091,1,2,1:2:0:0:
476,288,11253,1,0,1:2:0:0:
345,77,11415,2,0,P|334:134|324:186,1,86.449997691536,10|0,0:0|0:0,0:0:0:0:
178,378,11739,6,0,P|169:335|161:293,1,86.449997691536,6|0,1:2|0:0,0:0:0:0:
214,106,12063,1,10,0:0:0:0:
0,263,12226,2,0,P|43:226|91:224,1,86.449997691536,2|0,0:0|1:2,0:0:0:0:
269,342,12550,1,0,1:2:0:0:
72,305,12712,1,10,0:0:0:0:
300,103,12874,6,0,L|315:296,1,172.899995383072,6|0,1:2|1:2,0:0:0:0:
479,112,13361,2,0,L|490:20,1,86.449997691536,10|0,0:0|0:0,0:0:0:0:
313,275,13685,1,2,1:2:0:0:
352,33,13847,1,0,1:2:0:0:
446,237,14009,1,10,0:0:0:0:
239,50,14172,1,8,0:0:0:0:
239,50,14253,1,8,0:0:0:0:
239,50,14334,6,0,P|177:61|154:90,1,86.449997691536,6|0,1:2|0:0,0:0:0:0:
104,252,14658,1,10,0:0:0:0:
313,208,14820,2,0,P|270:208|236:183,1,86.449997691536,2|0,0:0|1:2,0:0:0:0:
78,34,15145,1,0,1:2:0:0:
296,130,15307,1,10,0:0:0:0:
2,226,15469,6,0,B|42:186|82:183|82:183|111:221|172:216,1,172.899995383072,6|0,1:2|1:2,0:0:0:0:
285,369,15955,2,0,P|296:315|307:269,1,86.449997691536,10|0,0:0|0:0,0:0:0:0:
161,79,16280,1,2,1:2:0:0:
205,289,16442,1,0,1:2:0:0:
348,70,16604,2,0,P|312:42|269:42,1,86.449997691536,10|0,0:0|0:0,0:0:0:0:
424,248,16928,6,0,P|466:245|499:218,1,86.449997691536,6|0,1:2|0:0,0:0:0:0:
422,8,17253,1,10,0:0:0:0:
323,254,17415,2,0,P|309:192|293:143,1,86.449997691536,2|0,0:0|1:2,0:0:0:0:
462,75,17739,1,0,0:1:0:0:
377,311,17901,1,10,0:0:0:0:
250,65,18063,6,0,P|195:69|162:178,1,172.899995383072,6|0,1:2|1:2,0:0:0:0:
262,365,18550,1,10,0:0:0:0:
235,145,18712,1,8,0:0:0:0:
235,145,18793,1,8,0:0:0:0:
235,145,18874,1,8,0:0:0:0:
190,290,19036,1,8,3:0:0:0:
337,231,19199,1,8,3:0:0:0:
244,225,19361,1,4,3:0:0:0:
426,360,19523,5,6,1:2:0:0:
426,360,19847,2,0,L|433:267,1,72.8,2|0,1:2|0:0,0:0:0:0:
493,153,20172,2,0,B|392:153|466:211|338:204,1,145.6,2|0,1:2|1:2,0:0:0:0:
273,126,20658,2,0,P|282:74|286:43,1,72.8,2|0,0:0|1:2,0:0:0:0:
181,174,20982,2,0,P|186:210|192:245,1,72.8,2|0,0:0|1:2,0:0:0:0:
288,118,21307,2,0,P|297:66|301:35,1,72.8,2|0,0:0|1:2,0:0:0:0:
179,7,21631,2,0,P|140:13|107:39,1,72.8,2|0,0:0|1:2,0:0:0:0:
42,181,21955,1,8,0:0:0:0:
42,181,22036,1,8,0:0:0:0:
42,181,22118,6,0,P|34:131|26:89,1,72.8,2|0,1:2|0:0,0:0:0:0:
154,173,22442,2,0,P|145:218|126:326,2,145.6,2|0|0,1:2|1:2|1:2,0:0:0:0:
375,59,23415,2,0,P|306:59|264:126,1,145.6,0|0,1:2|1:2,0:0:0:0:
415,216,23901,1,2,0:0:0:0:
337,131,24063,1,2,1:2:0:0:
415,216,24226,2,0,P|422:170|427:134,1,72.8,2|0,0:0|1:2,0:0:0:0:
312,253,24550,6,0,P|317:289|322:325,1,72.8,2|0,0:0|1:2,0:0:0:0:
177,232,24874,2,0,P|208:201|239:194,1,72.8,2|0,0:0|1:2,0:0:0:0:
170,350,25199,2,0,P|135:338|111:312,1,72.8,2|0,0:0|1:2,0:0:0:0:
183,211,25523,2,0,P|214:180|245:173,1,72.8,2|0,0:0|1:2,0:0:0:0:
392,305,25847,2,0,B|291:314|343:254|242:272,1,145.6,2|0,0:0|0:0,0:0:0:0:
438,192,26334,1,2,1:2:0:0:
477,299,26496,1,2,0:0:0:0:
354,197,26658,2,0,P|370:132|378:106,1,72.8,2|0,1:2|0:0,0:0:0:0:
399,27,26982,1,0,0:0:0:0:
267,146,27145,1,10,0:0:0:0:
267,146,27226,1,8,0:0:0:0:
267,146,27307,6,0,P|251:81|243:55,1,72.8,2|0,1:2|0:0,0:0:0:0:
154,12,27631,2,0,P|144:47|136:82,1,72.8,2|0,1:2|0:0,0:0:0:0:
90,229,27955,1,0,1:2:0:0:
172,158,28118,1,0,0:0:0:0:
15,212,28280,1,0,1:2:0:0:
178,318,28442,1,8,0:0:0:0:
413,93,29091,6,2,L|408:58,2,36.4
359,168,29415,1,2,0:0:0:0:
230,52,29577,1,2,0:0:0:0:
231,44,29658,1,2,0:0:0:0:
233,37,29739,1,2,0:0:0:0:
234,29,29820,1,2,0:0:0:0:
235,20,29901,6,0,P|184:21|129:65,1,86.449997691536,6|0,1:2|0:0,0:0:0:0:
88,168,30226,1,10,0:0:0:0:
251,231,30388,1,2,0:0:0:0:
184,110,30550,2,0,P|169:175|160:207,1,86.449997691536,2|0,0:0|1:2,0:0:0:0:
315,109,30874,1,8,0:0:0:0:
376,299,31036,6,0,P|315:309|256:198,1,172.899995383072,2|2,0:0|0:0,0:0:0:0:
320,97,31523,1,10,0:0:0:0:
428,209,31685,2,0,P|479:195|520:185,1,86.449997691536,2|0,0:0|0:0,0:0:0:0:
398,36,32009,2,0,P|347:22|306:12,1,86.449997691536,2|8,1:2|0:0,0:0:0:0:
155,116,32334,1,0,0:0:0:0:
281,224,32496,6,0,P|294:167|306:120,1,86.449997691536,2|0,1:2|0:0,0:0:0:0:
148,294,32820,2,0,P|135:237|123:190,1,86.449997691536,10|0,0:0|0:0,0:0:0:0:
46,27,33145,1,2,0:0:0:0:
28,212,33307,1,0,1:2:0:0:
177,119,33469,1,10,0:0:0:0:
20,27,33631,6,0,P|39:87|46:128,1,86.449997691536,2|0,0:0|1:2,0:0:0:0:
148,294,33955,2,0,P|159:250|174:210,1,86.449997691536,2|8,1:2|1:2,0:0:0:0:
286,72,34280,2,0,P|327:45|365:45,1,86.449997691536,2|0,0:0|1:2,0:0:0:0:
379,248,34604,1,2,1:2:0:0:
345,125,34766,1,8,0:0:0:0:
470,233,34928,1,2,0:0:0:0:
332,356,35091,6,0,B|274:323|246:326|246:326|219:372|149:363,1,172.899995383072,6|8,1:2|0:0,0:0:0:0:
91,151,35577,2,0,P|141:163|175:291,1,172.899995383072,2|0,0:0|1:2,0:0:0:0:
11,377,36063,2,0,P|21:311|29:266,1,86.449997691536,10|0,0:0|0:0,0:0:0:0:
195,139,36388,5,0,0:0:0:0:
107,244,36550,1,0,1:2:0:0:
24,75,36712,2,0,P|70:61|121:46,1,86.449997691536,10|0,0:0|0:0,0:0:0:0:
278,164,37036,2,0,P|236:151|195:139,1,86.449997691536,0|0,0:0|1:2,0:0:0:0:
431,96,37361,1,10,0:0:0:0:
386,256,37523,1,0,0:0:0:0:
365,32,37685,6,0,P|355:74|347:116,1,86.449997691536,2|0,1:2|0:0,0:0:0:0:
276,273,38009,1,10,0:0:0:0:
195,139,38172,1,0,0:0:0:0:
370,243,38334,1,2,1:2:0:0:
208,333,38496,2,0,P|154:319|109:307,1,86.449997691536,2|8,1:2|0:0,0:0:0:0:
175,56,38820,6,0,P|254:78|270:170,1,172.899995383072,2|2,0:0|1:2,0:0:0:0:
118,219,39307,1,10,0:0:0:0:
45,74,39469,1,0,1:2:0:0:
145,227,39631,2,0,P|133:277|121:321,1,86.449997691536,10|0,0:0|0:0,0:0:0:0:
232,220,39955,1,4,3:0:0:0:
131,119,40118,1,0,1:2:0:0:
226,0,40280,6,0,P|238:50|250:94,1,86.449997691536,14|0,0:0|1:2,0:0:0:0:
299,268,40604,1,0,1:2:0:0:
399,71,40766,2,0,P|355:82|313:116,1,86.449997691536,10|0,0:0|1:2,0:0:0:0:
216,325,41091,1,0,1:2:0:0:
106,117,41253,6,0,P|150:128|189:165,1,86.449997691536,10|0,0:0|1:2,0:0:0:0:
320,359,41577,1,0,1:2:0:0:
353,174,41739,1,0,0:0:0:0:
216,325,41901,2,0,P|182:351|140:361,1,86.449997691536,10|8,0:0|3:0,0:0:0:0:
263,114,42226,5,0,1:2:0:0:
372,259,42388,1,8,3:0:0:0:
277,122,42550,1,4,3:0:0:0:
272,263,42712,1,4,3:0:0:0:
355,31,42874,6,0,P|392:8|456:16,1,86.449997691536,10|0,0:0|1:2,0:0:0:0:
449,187,43199,1,0,1:2:0:0:
511,7,43361,1,10,0:0:0:0:
319,162,43523,1,0,1:2:0:0:
512,254,43685,1,0,1:2:0:0:
298,83,43847,6,0,P|340:84|376:106,1,86.449997691536,10|0,0:0|1:2,0:0:0:0:
341,300,44172,1,0,1:2:0:0:
178,175,44334,2,0,P|188:122|217:-10,1,172.899995383072,8|8,3:0|3:0,0:0:0:0:
66,158,44820,1,4,3:0:0:0:
248,209,44982,1,4,3:0:0:0:
93,0,45145,2,0,P|102:42|110:84,1,86.449997691536,8|0,3:0|0:0,0:0:0:0:
62,345,45469,5,10,0:0:0:0:
150,205,45631,1,0,1:2:0:0:
3,267,45793,1,0,1:2:0:0:
239,299,45955,5,10,0:0:0:0:
58,189,46118,1,0,1:2:0:0:
143,378,46280,1,0,1:2:0:0:
309,155,46442,5,10,0:0:0:0:
153,292,46604,1,0,1:2:0:0:
355,319,46766,1,0,1:2:0:0:
192,105,46928,5,10,0:0:0:0:
282,277,47091,1,0,1:2:0:0:
359,93,47253,1,0,1:2:0:0:
193,209,47415,6,0,P|138:195|112:155,1,86.449997691536,10|0,0:0|1:2,0:0:0:0:
0,40,47739,2,0,P|31:11|73:4,1,86.449997691536,10|0,0:0|0:0,0:0:0:0:
268,162,48063,6,0,B|358:160|305:109|428:121,1,129.674996537304,6|0,1:2|0:0,0:0:0:0:
425,131,48388,1,0,1:2:0:0:
380,219,48550,1,0,1:2:0:0:
335,53,48712,1,0,1:2:0:0:
472,235,48874,1,0,1:2:0:0:
292,232,49036,1,8,0:0:0:0:
505,121,49199,1,8,0:0:0:0:
341,316,49361,5,8,0:0:0:0:
220,84,49523,1,8,0:0:0:0:
448,247,49685,1,8,0:0:0:0:
203,314,49847,1,8,0:0:0:0:
424,58,50009,1,8,0:0:0:0:
123,209,50172,1,8,0:0:0:0:
425,257,50334,1,8,0:0:0:0:
126,77,50496,1,8,0:0:0:0:
298,340,50658,5,8,0:0:0:0:
300,331,50739,1,8,0:0:0:0:
302,322,50820,1,8,0:0:0:0:
215,31,50982,1,0,1:2:0:0:
51,272,51145,5,8,0:0:0:0:
59,270,51226,1,8,0:0:0:0:
67,268,51307,1,8,0:0:0:0:
375,192,51469,1,0,1:2:0:0:
39,100,51631,5,10,0:0:0:0:
288,304,52604,6,0,L|299:220,1,59.149997292328,2|0,0:0|0:0,0:0:0:0:
231,86,52766,1,2,0:0:0:0:
230,71,53091,6,0,B|107:81|193:145|37:164,1,191.099994168091,6|0,1:2|1:2,0:0:0:0:
7,5,53577,2,0,P|64:29|80:69,1,95.5499970840455,10|0,0:0|0:0,0:0:0:0:
235,254,53901,1,0,1:2:0:0:
150,106,54063,1,0,1:2:0:0:
88,328,54226,1,10,0:0:0:0:
337,161,54388,6,0,P|340:86|225:50,1,191.099994168091,6|0,1:2|1:2,0:0:0:0:
322,285,54874,2,0,P|377:278|409:241,1,95.5499970840455,8|0,0:0|0:0,0:0:0:0:
244,164,55199,1,0,1:2:0:0:
431,339,55361,1,0,1:2:0:0:
477,88,55523,2,0,P|441:127|425:177,1,95.5499970840455,10|0,0:0|0:0,0:0:0:0:
272,332,55847,6,0,B|227:298|179:299|179:299|146:339|70:336,1,191.099994168091,6|8,1:2|0:0,0:0:0:0:
240,119,56334,1,0,0:0:0:0:
196,381,56496,1,0,1:2:0:0:
158,132,56658,1,0,1:2:0:0:
271,342,56820,1,10,0:0:0:0:
3,121,56982,6,0,P|18:215|29:310,1,191.099994168091,6|0,1:2|1:2,0:0:0:0:
211,199,57469,1,10,0:0:0:0:
54,18,57631,1,2,0:0:0:0:
133,210,57793,1,2,1:2:0:0:
231,19,57955,1,2,1:2:0:0:
87,147,58118,1,10,0:0:0:0:
288,145,58280,1,2,0:0:0:0:
153,20,58442,6,0,P|145:83|130:240,1,191.099994168091,6|8,1:2|0:0,0:0:0:0:
258,340,58928,2,0,B|397:320|298:273|449:247,1,191.099994168091,2|0,0:0|1:2,0:0:0:0:
510,378,59415,2,0,P|434:344|422:331,1,95.5499970840455,8|0,0:0|0:0,0:0:0:0:
479,64,59739,6,0,P|492:124|499:174,1,95.5499970840455,2|0,1:2|1:2,0:0:0:0:
501,190,59982,1,2,0:0:0:0:
501,190,60063,1,10,0:0:0:0:
336,344,60226,1,2,0:0:0:0:
250,135,60388,6,0,P|257:87|268:41,1,95.5499970840455,2|0,1:2|1:2,0:0:0:0:
291,17,60631,1,2,0:0:0:0:
291,17,60712,1,10,0:0:0:0:
387,192,60874,1,2,0:0:0:0:
156,91,61036,5,6,1:2:0:0:
395,51,61199,1,0,0:0:0:0:
386,47,61280,1,2,0:0:0:0:
376,43,61361,1,10,0:0:0:0:
182,253,61523,1,2,0:0:0:0:
291,17,61685,5,2,1:2:0:0:
390,305,61847,1,0,1:2:0:0:
391,295,61928,1,2,0:0:0:0:
394,284,62009,1,10,0:0:0:0:
130,170,62172,1,2,0:0:0:0:
351,212,62334,5,2,1:2:0:0:
123,371,62496,1,0,1:2:0:0:
291,160,62658,1,10,0:0:0:0:
320,369,62820,1,0,1:2:0:0:
210,158,62982,2,0,P|223:92|236:42,1,95.5499970840455,0|0,1:2|1:2,0:0:0:0:
16,261,63307,1,10,0:0:0:0:
16,261,63631,6,0,B|128:269|65:210|186:220,1,154.700002950668,6|0,1:2|0:0,0:0:0:0:
285,328,64118,1,0,1:2:0:0:
244,192,64280,2,0,P|232:246|225:280,1,77.3500014753342,10|0,0:0|0:0,0:0:0:0:
313,133,64604,1,0,1:2:0:0:
163,45,64766,6,0,P|175:99|182:133,1,77.3500014753342,2|0,1:2|0:0,0:0:0:0:
239,278,65091,2,0,P|246:240|255:202,1,77.3500014753342,2|0,1:2|0:0,0:0:0:0:
353,62,65415,1,0,1:2:0:0:
353,62,65496,1,0,1:2:0:0:
353,62,65577,1,10,0:0:0:0:
386,195,65739,2,0,P|433:187|466:77,1,154.700002950668,0|0,1:2|1:2,0:0:0:0:
287,6,66226,6,0,B|185:16|264:57|137:85,1,154.700002950668,6|0,1:2|0:0,0:0:0:0:
248,140,66712,1,0,1:2:0:0:
96,0,66874,2,0,P|83:44|75:83,1,77.3500014753342,10|0,0:0|0:0,0:0:0:0:
158,212,67199,1,0,1:2:0:0:
0,106,67361,6,0,P|13:150|21:189,1,77.3500014753342,2|0,1:2|0:0,0:0:0:0:
0,335,67685,2,0,P|74:331|104:263,1,154.700002950668,10|0,0:0|1:2,0:0:0:0:
270,131,68172,1,8,0:0:0:0:
306,118,68253,1,0,1:2:0:0:
342,127,68334,1,0,1:2:0:0:
368,155,68415,1,0,1:2:0:0:
374,193,68496,2,0,P|365:253|357:342,1,116.025002213001,14|0,0:0|0:0,0:0:0:0:
279,375,68820,6,0,P|269:320|260:272,1,95.5499970840455,2|0,1:2|0:0,0:0:0:0:
158,111,69145,2,0,P|149:157|140:204,1,95.5499970840455,0|0,1:2|0:0,0:0:0:0:
359,308,69469,2,0,P|349:253|340:205,1,95.5499970840455,0|0,1:2|0:0,0:0:0:0:
283,115,69793,1,0,1:2:0:0:
446,192,69955,1,0,1:2:0:0:
261,281,70118,5,8,0:0:0:0:
400,114,70280,1,8,0:0:0:0:
190,220,70442,1,8,0:0:0:0:
450,284,70604,1,8,0:0:0:0:
243,83,70766,1,8,0:0:0:0:
364,350,70928,1,8,0:0:0:0:
484,125,71091,2,0,P|469:62|458:16,1,95.5499970840455,8|0,0:0|1:2,0:0:0:0:
253,297,71415,5,14,0:0:0:0:
512,231,71577,1,0,1:2:0:0:
191,127,71739,1,0,1:2:0:0:
394,348,71901,5,14,0:0:0:0:
341,57,72063,1,0,1:2:0:0:
165,316,72226,1,0,1:2:0:0:
420,170,72388,5,10,0:0:0:0:
141,24,72550,1,0,1:2:0:0:
141,24,72631,1,0,1:2:0:0:
141,24,72712,6,0,L|131:83,1,47.7749985420228,8|8,0:0|3:0,0:0:0:0:
289,220,72874,2,0,L|281:172,1,47.7749985420228,0|0,1:2|1:2,0:0:0:0:
364,22,73036,1,0,1:2:0:0:
408,6,73117,1,0,1:2:0:0:
453,19,73198,1,8,0:0:0:0:
483,56,73279,1,0,1:2:0:0:
486,103,73361,6,0,L|499:157,1,47.7749985420228,4|0,3:0|0:0,0:0:0:0:
372,251,73523,2,0,L|363:305,1,47.7749985420228,4|0,3:0|0:0,0:0:0:0:
204,176,73685,2,0,L|175:223,1,47.7749985420228,8|0,0:0|0:0,0:0:0:0:
13,368,73847,6,0,B|139:360|63:298|209:297,1,191.099994168091,6|0,1:2|1:2,0:0:0:0:
413,362,74334,1,10,0:0:0:0:
253,236,74496,1,2,0:0:0:0:
389,380,74658,1,2,1:2:0:0:
383,143,74820,1,0,1:2:0:0:
261,343,74982,1,10,0:0:0:0:
457,165,75145,6,0,P|431:76|357:69,1,143.324995626068,6|0,1:2|0:0,0:0:0:0:
347,72,75469,1,2,1:2:0:0:
512,7,75631,1,8,0:0:0:0:
321,193,75793,2,0,P|272:182|199:162,1,95.5499970840455,2|0,0:0|1:2,0:0:0:0:
36,74,76118,1,2,1:2:0:0:
176,264,76280,1,8,0:0:0:0:
127,8,76442,6,0,P|115:68|94:186,1,143.324995626068,6|0,1:2|0:0,0:0:0:0:
91,189,76766,1,2,1:2:0:0:
11,361,76928,1,10,0:0:0:0:
247,75,77091,2,0,P|259:135|271:202,1,95.5499970840455,2|0,0:0|1:2,0:0:0:0:
348,380,77415,1,2,1:2:0:0:
177,185,77577,1,10,0:0:0:0:
476,281,77739,6,0,B|432:254|389:254|389:254|362:309|279:304,1,191.099994168091,6|0,1:2|1:2,0:0:0:0:
510,368,78226,1,10,0:0:0:0:
314,224,78388,1,2,0:0:0:0:
494,128,78550,1,2,1:2:0:0:
390,256,78712,1,2,1:2:0:0:
401,79,78874,1,10,0:0:0:0:
507,208,79036,1,2,0:0:0:0:
314,19,79199,6,0,P|304:72|293:147,1,95.5499970840455,6|0,1:2|1:2,0:0:0:0:
325,323,79523,1,10,0:0:0:0:
175,102,79685,2,0,B|45:110|138:170|-22:183,1,191.099994168091,2|0,0:0|1:2,0:0:0:0:
233,327,80172,2,0,P|225:279|216:232,1,95.5499970840455,10|0,0:0|0:0,0:0:0:0:
349,43,80496,5,2,1:2:0:0:
387,279,80658,1,0,1:2:0:0:
377,276,80739,1,2,0:0:0:0:
367,273,80820,1,10,0:0:0:0:
501,80,80982,1,2,1:2:0:0:
272,166,81145,5,8,3:0:0:0:
491,328,81307,1,8,0:0:0:0:
492,318,81388,1,8,0:0:0:0:
494,308,81469,1,8,0:0:0:0:
392,115,81631,1,0,1:2:0:0:
177,350,81793,5,14,0:0:0:0:
425,196,81955,1,0,1:2:0:0:
97,152,82118,1,10,0:0:0:0:
417,227,82280,1,0,1:2:0:0:
181,25,82442,5,10,0:0:0:0:
320,332,82604,1,0,1:2:0:0:
310,10,82766,1,10,0:0:0:0:
285,338,82928,1,0,1:2:0:0:
466,55,83091,5,10,0:0:0:0:
162,205,83253,1,0,1:2:0:0:
497,331,83415,1,10,0:0:0:0:
175,169,83577,1,0,1:2:0:0:
401,380,83739,6,0,L|413:302,1,63.6999980560303,8|8,0:0|0:0,0:0:0:0:
306,135,83955,6,0,L|315:197,1,63.6999980560303,8|8,0:0|3:0,0:0:0:0:
194,365,84172,6,0,L|201:300,1,63.6999980560303,4|4,3:0|3:0,0:0:0:0:
166,66,84388,6,0,P|107:84|80:183,1,154.700002950668,6|0,1:2|0:0,0:0:0:0:
52,318,84874,1,0,1:2:0:0:
165,172,85036,2,0,P|204:182|236:214,1,77.3500014753342,10|0,0:0|0:0,0:0:0:0:
352,273,85361,1,2,1:2:0:0:
325,137,85523,6,0,P|309:196|301:234,1,77.3500014753342,2|0,1:2|0:0,0:0:0:0:
449,344,85847,2,0,P|440:306|429:269,1,77.3500014753342,10|0,0:0|0:0,0:0:0:0:
471,121,86172,1,0,1:2:0:0:
471,121,86253,1,0,1:2:0:0:
471,121,86334,1,8,0:0:0:0:
331,286,86496,2,0,P|269:283|239:188,1,154.700002950668,0|0,1:2|1:2,0:0:0:0:
218,44,86982,6,0,B|123:43|179:100|43:96,1,154.700002950668,6|0,1:2|0:0,0:0:0:0:
86,3,87469,1,0,1:2:0:0:
243,128,87631,2,0,P|289:115|314:84,1,77.3500014753342,10|0,0:0|0:0,0:0:0:0:
439,22,87955,1,10,0:0:0:0:
476,180,88118,6,0,P|416:163|391:66,2,154.700002950668,2|8|0,1:2|0:0|1:2,0:0:0:0:
310,211,88928,1,10,0:0:0:0:
468,100,89091,1,8,3:0:0:0:
369,305,89253,1,4,3:0:0:0:
399,172,89415,1,4,3:0:0:0:
484,368,89577,6,0,B|335:377|423:278|243:300,1,254.799992224121,6|2,1:2|0:0,0:0:0:0:
44,354,91523,6,0,L|56:226,1,118.299994584656,4|0,3:0|0:0,0:0:0:0:
215,34,92172,6,0,P|263:43|298:87,1,86.449997691536,6|0,1:2|0:0,0:0:0:0:
288,265,92496,1,10,0:0:0:0:
430,85,92658,2,0,P|382:94|347:138,1,86.449997691536,2|0,0:0|1:2,0:0:0:0:
451,308,92982,1,2,1:2:0:0:
419,166,93145,1,10,0:0:0:0:
264,348,93307,6,0,B|160:351|217:287|96:294,1,172.899995383072,6|0,1:2|1:2,0:0:0:0:
230,112,93793,2,0,P|243:170|250:217,1,86.449997691536,10|0,0:0|0:0,0:0:0:0:
122,370,94118,1,2,1:2:0:0:
142,160,94280,1,0,1:2:0:0:
285,358,94442,2,0,P|355:337|397:331,1,86.449997691536,10|0,0:0|0:0,0:0:0:0:
487,147,94766,5,6,1:2:0:0:
344,255,94928,1,0,0:0:0:0:
510,339,95091,1,10,0:0:0:0:
323,167,95253,2,0,P|280:189|258:235,1,86.449997691536,2|0,0:0|1:2,0:0:0:0:
414,350,95577,1,0,1:2:0:0:
394,124,95739,1,10,0:0:0:0:
257,321,95901,6,0,P|184:311|169:206,1,172.899995383072,6|0,1:2|1:2,0:0:0:0:
53,55,96388,2,0,P|98:22|159:17,1,86.449997691536,10|0,0:0|1:2,0:0:0:0:
323,167,96712,2,0,P|279:159|248:127,1,86.449997691536,2|0,1:2|1:2,0:0:0:0:
228,100,96955,1,8,0:0:0:0:
228,100,97036,1,8,0:0:0:0:
472,20,97199,1,8,0:0:0:0:
472,20,97280,1,8,0:0:0:0:
472,20,97361,6,0,P|489:85|498:129,1,86.449997691536,6|0,1:2|0:0,0:0:0:0:
346,267,97685,1,10,0:0:0:0:
338,9,97847,2,0,P|321:74|312:118,1,86.449997691536,2|0,0:0|1:2,0:0:0:0:
454,286,98172,1,2,1:2:0:0:
394,102,98334,1,10,0:0:0:0:
180,260,98496,6,0,B|219:226|259:216|259:216|291:256|363:254,1,172.899995383072,6|0,1:2|1:2,0:0:0:0:
183,354,98982,2,0,P|134:344|107:305,1,86.449997691536,10|0,0:0|0:0,0:0:0:0:
321,160,99307,1,2,1:2:0:0:
265,358,99469,1,0,1:2:0:0:
127,127,99631,2,0,P|138:61|145:16,1,86.449997691536,10|0,0:0|0:0,0:0:0:0:
248,221,99955,5,6,1:2:0:0:
391,52,100118,1,0,0:0:0:0:
216,146,100280,1,10,0:0:0:0:
423,264,100442,2,0,P|481:245|499:218,1,86.449997691536,2|0,0:0|1:2,0:0:0:0:
334,122,100766,1,2,1:2:0:0:
285,351,100928,1,10,0:0:0:0:
410,127,101091,6,0,P|390:65|303:51,1,129.674996537304,6|0,1:2|0:0,0:0:0:0:
296,54,101415,1,10,0:0:0:0:
188,253,101577,1,8,0:0:0:0:
126,38,101739,1,8,0:0:0:0:
295,222,101901,1,8,0:0:0:0:
292,230,101982,1,8,0:0:0:0:
289,238,102063,1,8,0:0:0:0:
119,367,102226,5,8,0:0:0:0:
79,382,102307,1,8,0:0:0:0:
38,371,102388,1,8,0:0:0:0:
11,338,102469,1,8,0:0:0:0:
8,295,102550,1,2,0:0:0:0:
