osu file format v14

[General]
AudioFilename: audio.mp3
AudioLeadIn: 0
PreviewTime: 161419
Countdown: 0
SampleSet: Soft
StackLeniency: 0.7
Mode: 0
LetterboxInBreaks: 0
WidescreenStoryboard: 1

[Editor]
Bookmarks: 84311,161986
DistanceSpacing: 0.5
BeatDivisor: 4
GridSize: 32
TimelineZoom: 2.2

[Metadata]
Title:Gunjou Infinity (Cut Ver.)
TitleUnicode:群青インフィニティ (Cut Ver.)
Artist:Toyama Nao
ArtistUnicode:東山奈央
Creator:Kujinn
Version:BasenMarkV's Hard
Source:
Tags:Reform Sotarks Basensorex Nachmark SupaV Touyama jpop j-pop pop japanese female vocals vocalist
BeatmapID:3987089
BeatmapSetID:1927611

[Difficulty]
HPDrainRate:4.5
CircleSize:3.5
OverallDifficulty:6
ApproachRate:8
SliderMultiplier:1.4
SliderTickRate:1

[Events]
//Background and Video events
0,0,"bg.jpg",0,0
//Break Periods
//Storyboard Layer 0 (Background)
//Storyboard Layer 1 (Fail)
//Storyboard Layer 2 (Pass)
//Storyboard Layer 3 (Foreground)
//Storyboard Layer 4 (Overlay)
//Storyboard Sound Samples

[TimingPoints]
1284,324.324324324324,4,2,1,40,1,0
1284,-111.111111111111,4,2,1,40,0,0
8419,-111.111111111111,4,2,1,70,0,0
9068,-99.9999999999999,4,2,1,70,0,0
19446,-99.9999999999999,4,2,1,60,0,0
19770,-111.111111111111,4,2,1,60,0,0
29014,-111.111111111111,4,2,1,50,0,0
29824,-105.263157894737,4,2,1,70,0,0
40203,-100,4,2,1,70,0,0
52446,-100,4,2,1,5,0,0
52527,-100,4,2,1,60,0,0
52932,-100,4,2,1,5,0,0
53013,-90.9090909090909,4,2,1,80,0,1
62743,-90.9090909090909,4,2,1,60,0,1
62905,-90.9090909090909,4,2,1,80,0,1
63554,-111.111111111111,4,2,1,70,0,0
68743,-90.9090909090909,4,2,1,70,0,0
73770,-90.9090909090909,4,2,1,80,0,1
84311,-100,4,2,1,60,0,0
90797,-111.111111111111,4,2,1,60,0,0
92095,-238.095238095238,4,2,1,60,0,0
95986,-100,4,2,1,60,0,0
96635,-100,4,2,1,70,0,0
97284,-95.2380952380952,4,2,1,80,0,0
116905,-95.2380952380952,4,2,1,50,0,0
117068,-95.2380952380952,4,2,1,60,0,0
117392,-86.9565217391304,4,2,1,70,0,0
117716,-86.9565217391304,4,2,1,80,0,0
118041,-111.111111111111,4,2,1,80,0,0
128419,-100,4,2,1,80,0,0
133608,-95.2380952380952,4,2,1,80,0,0
136365,-95.2380952380952,4,2,1,50,0,0
136689,-95.2380952380952,4,2,1,60,0,0
137176,-95.2380952380952,4,2,1,70,0,0
137500,-95.2380952380952,4,2,1,80,0,0
138635,-95.2380952380952,4,2,1,100,0,0
141392,-200,4,2,2,30,0,0
149176,-166.666666666667,4,2,2,30,0,0
151122,-166.666666666667,4,2,1,40,0,0
151446,-166.666666666667,4,2,1,20,0,0
151770,-133.333333333333,4,2,1,40,0,0
156959,-111.111111111111,4,2,2,60,0,0
157122,-111.111111111111,4,2,1,50,0,0
159554,-100,4,2,1,60,0,0
160851,-100,4,2,1,80,0,0
161905,-100,4,2,1,5,0,0
161986,-83.3333333333333,4,2,1,80,0,1
171716,-83.3333333333333,4,2,1,60,0,1
171878,-83.3333333333333,4,2,1,80,0,1
172527,-100,4,2,1,70,0,0
177716,-90.9090909090909,4,2,1,70,0,0
179176,-90.9090909090909,4,2,1,50,0,0
179662,-90.9090909090909,4,2,1,60,0,0
179987,-90.9090909090909,4,2,1,70,0,0
180311,-90.9090909090909,4,2,1,80,0,0
182743,-83.3333333333333,4,2,1,80,0,1
190122,-83.3333333333333,4,2,1,60,0,1
190365,-83.3333333333333,4,2,1,80,0,1
193283,-100,4,2,1,70,0,0
199446,-100,4,2,1,40,0,0
200419,-100,4,2,1,70,0,0
200743,-100,4,2,1,40,0,0
201068,-100,4,2,1,70,0,0
211446,-100,4,2,1,30,0,0

[Colours]
Combo1 : 158,207,226
Combo2 : 241,198,255
Combo3 : 208,171,216

[HitObjects]
36,326,1122,5,0,0:0:0:0:
35,326,1284,2,0,P|97:314|158:295,1,125.999996154785,2|0,0:0|0:0,0:0:0:0:
244,314,1770,2,0,P|262:284|218:203,1,125.999996154785
150,176,2257,1,0,0:0:0:0:
150,176,2419,1,0,0:0:0:0:
218,120,2581,6,0,B|271:100|307:141|286:158|335:192|394:161,2,188.999994232178,2|2|2,0:0|0:0|0:0,0:0:0:0:
383,60,3878,2,0,P|438:65|463:232,1,251.999992309571,2|0,0:0|0:0,0:0:0:0:
314,313,4852,1,0,0:0:0:0:
314,312,5014,2,0,P|158:336|8:384,1,314.999990386963
316,211,6473,6,0,L|241:193,1,62.9999980773926
174,173,6797,1,0,0:0:0:0:
174,173,6959,1,0,0:0:0:0:
293,43,7284,1,0,0:0:0:0:
293,43,7446,2,0,L|314:116,2,62.9999980773926
210,14,7932,1,0,0:0:0:0:
474,2,8419,6,0,L|432:13,3,31.4999990386963,8|8|0|0,0:0|0:0|1:2|1:2,0:0:0:0:
435,20,8743,2,0,L|393:31,3,31.4999990386963,8|8|4|4,0:3|0:3|0:3|0:3,0:0:0:0:
393,41,9068,6,0,B|340:59|340:59|331:78|331:78|252:104,1,140,6|10,1:2|0:0,0:0:0:0:
218,179,9554,2,0,P|178:171|137:163,1,70,2|0,0:0|1:2,0:0:0:0:
96,89,9878,1,2,1:2:0:0:
96,89,10041,1,8,0:0:0:0:
12,173,10203,6,0,P|-7:209|26:298,1,140,6|0,1:2|1:2,0:0:0:0:
102,355,10689,2,0,P|141:359|177:339,1,70,10|0,0:0|0:0,0:0:0:0:
261,377,11014,2,0,P|285:344|285:303,1,70,2|0,1:2|1:2,0:0:0:0:
370,263,11338,2,0,P|354:226|318:205,1,70,10|0,0:0|0:0,0:0:0:0:
212,192,11662,6,0,P|288:175|315:99,1,140,6|10,1:2|0:0,0:0:0:0:
285,35,12149,1,2,0:0:0:0:
285,35,12311,2,0,P|239:25|200:15,1,70,0|2,1:2|1:2,0:0:0:0:
118,13,12635,1,8,0:0:0:0:
40,103,12797,6,0,B|5:164|5:164|47:225,1,140,6|0,1:2|1:2,0:0:0:0:
110,294,13284,2,0,P|159:276|189:270,1,70,10|0,0:0|0:0,0:0:0:0:
245,202,13608,2,0,P|294:220|324:226,1,70,2|0,1:2|1:2,0:0:0:0:
381,158,13932,2,0,P|430:140|460:134,1,70,10|8,0:0|0:0,0:0:0:0:
463,143,14176,1,8,0:0:0:0:
479,151,14257,6,0,P|501:208|463:271,1,140,6|10,1:2|0:0,0:0:0:0:
393,334,14743,1,2,0:0:0:0:
393,334,14905,2,0,P|347:344|308:357,1,70,0|2,1:2|1:2,0:0:0:0:
244,297,15230,1,8,0:0:0:0:
139,353,15392,6,0,P|126:301|96:201,1,140,6|0,1:2|1:2,0:0:0:0:
174,152,15878,2,0,L|201:238,1,70,10|0,0:0|0:0,0:0:0:0:
96,213,16203,2,0,L|75:146,1,70,2|0,1:2|1:2,0:0:0:0:
0,211,16527,2,0,L|20:277,1,70,10|0,0:0|0:0,0:0:0:0:
104,362,16851,6,0,P|164:372|215:314,1,140,6|10,1:2|0:0,0:0:0:0:
301,269,17338,1,2,0:0:0:0:
301,269,17500,2,0,P|313:231|303:189,1,70,0|2,1:2|1:2,0:0:0:0:
242,129,17824,1,8,0:0:0:0:
361,124,17986,6,0,B|413:108|413:108|423:89|423:89|510:60,1,140,6|0,1:2|1:2,0:0:0:0:
421,0,18473,1,10,0:0:0:0:
421,0,18635,2,0,B|359:21|359:21|345:37|345:37|283:56,1,140,10|8,0:0|0:3,0:0:0:0:
195,47,19122,2,0,P|149:36|112:30,1,70,4|0,0:3|1:2,0:0:0:0:
32,4,19446,1,4,1:2:0:0:
28,180,19770,6,0,P|39:234|45:265,1,62.9999980773926,2|2,1:2|0:0,0:0:0:0:
24,328,20095,2,0,P|64:338|141:294,1,125.999996154785,2|2,1:2|1:2,0:0:0:0:
186,228,20581,2,0,P|223:213|261:227,1,62.9999980773926,2|0,0:0|1:2,0:0:0:0:
298,287,20905,2,0,P|335:302|373:288,1,62.9999980773926,2|0,0:0|1:2,0:0:0:0:
443,279,21230,2,0,P|453:223|468:144,1,125.999996154785,2|2,0:0|0:0,0:0:0:0:
506,79,21716,1,0,1:2:0:0:
419,36,21878,2,0,L|425:0,2,31.4999990386963,10|8|0,0:0|0:0|1:2,0:0:0:0:
345,86,22203,5,2,0:0:0:0:
345,86,22365,2,0,P|291:75|203:42,1,125.999996154785,2|0,1:2|1:2,0:0:0:0:
53,96,23014,1,2,1:2:0:0:
153,243,23338,2,0,P|202:225|241:217,1,62.9999980773926,2|2,1:2|0:0,0:0:0:0:
207,310,23662,2,0,P|256:292|295:284,1,62.9999980773926,0|2,1:2|0:0,0:0:0:0:
281,294,23905,1,0,3:2:0:0:
297,298,23986,6,0,P|350:283|372:232,1,94.499997116089,6|0,1:2|0:0,0:0:0:0:
382,240,24311,2,0,P|389:196|371:173,1,62.9999980773926,8|2,0:3|0:0,0:0:0:0:
315,122,24635,6,0,P|367:101|433:62,1,125.999996154785,4|0,1:2|1:2,0:0:0:0:
357,11,25122,1,2,0:0:0:0:
357,11,25284,2,0,P|300:42|242:63,1,125.999996154785,0|0,1:2|1:2,0:0:0:0:
158,37,25770,1,2,0:0:0:0:
158,37,25932,6,0,P|141:72|153:116,1,62.9999980773926,0|2,1:2|0:0,0:0:0:0:
116,179,26257,2,0,P|151:220|181:219,1,62.9999980773926,2|2,1:2|0:0,0:0:0:0:
212,289,26581,2,0,P|266:278|286:253,1,62.9999980773926,2|0,1:2|0:0,0:0:0:0:
356,293,26905,2,0,P|378:261|380:230,1,62.9999980773926,2|10,1:2|0:0,0:0:0:0:
378,225,27149,1,8,0:0:0:0:
373,210,27230,6,0,P|381:159|387:118,1,62.9999980773926,0|0,1:2|0:0,0:0:0:0:
459,96,27554,2,0,B|407:58|407:58|340:73,1,125.999996154785,2|0,1:2|1:2,0:0:0:0:
260,92,28041,2,0,L|181:114,1,62.9999980773926,2|2,0:0|1:2,0:0:0:0:
92,137,28365,1,10,0:0:0:0:
303,364,29824,5,6,1:2:0:0:
226,311,29986,1,2,0:0:0:0:
226,311,30149,2,0,P|213:267|195:228,1,66.4999982242585,8|2,0:0|0:0,0:0:0:0:
136,184,30473,2,0,P|176:137|260:160,1,132.999996448517,2|10,0:0|0:0,0:0:0:0:
307,208,30959,6,0,P|357:195|402:188,1,66.4999982242585,2|0,0:0|0:0,0:0:0:0:
441,130,31284,1,2,1:2:0:0:
441,130,31446,1,8,0:0:0:0:
503,198,31608,2,0,P|515:266|525:334,1,132.999996448517,2|2,0:0|1:2,0:0:0:0:
433,350,32095,2,0,P|400:356|368:365,1,66.4999982242585,8|0,0:0|0:0,0:0:0:0:
289,316,32419,5,2,1:2:0:0:
289,316,32581,1,2,0:0:0:0:
207,361,32743,2,0,P|174:354|142:345,1,66.4999982242585,10|2,0:0|0:0,0:0:0:0:
48,347,33068,2,0,B|25:288|25:288|86:224,1,132.999996448517,2|10,0:0|0:0,0:0:0:0:
171,182,33554,6,0,P|149:154|116:145,1,66.4999982242585,2|0,0:0|0:0,0:0:0:0:
34,109,33878,2,0,P|58:78|86:66,1,66.4999982242585,2|8,1:2|0:0,0:0:0:0:
154,7,34203,2,0,P|208:17|231:44,1,66.4999982242585,2|0,0:0|1:2,0:0:0:0:
306,45,34527,1,2,1:2:0:0:
306,45,34689,2,0,P|337:79|341:117,1,66.4999982242585,8|10,0:0|0:0,0:0:0:0:
294,178,35014,6,0,B|309:248|334:209|351:306,2,132.999996448517,6|8|0,1:2|0:0|0:0,0:0:0:0:
380,173,35824,1,0,1:2:0:0:
380,173,35986,2,0,P|425:159|469:139,1,66.4999982242585,10|0,0:0|0:0,0:0:0:0:
477,239,36311,2,0,P|441:286|409:295,1,66.4999982242585,0|0,0:0|1:2,0:0:0:0:
325,289,36635,1,8,0:0:0:0:
143,331,36959,5,0,0:0:0:0:
143,331,37122,1,0,1:2:0:0:
59,290,37284,2,0,P|69:243|82:185,1,99.7499973363877,10|0,0:0|0:0,0:0:0:0:
72,184,37608,6,0,P|84:134|90:110,1,66.4999982242585,2|2,1:2|0:0,0:0:0:0:
164,67,37932,2,0,P|214:79|238:85,1,66.4999982242585,10|2,0:0|0:0,0:0:0:0:
307,144,38257,1,2,0:0:0:0:
307,144,38419,2,0,P|339:135|371:127,1,66.4999982242585,2|8,1:2|0:0,0:0:0:0:
481,151,38743,2,0,P|503:190|470:269,1,132.999996448517,2|2,0:0|1:2,0:0:0:0:
403,343,39230,2,0,P|367:347|338:333,1,66.4999982242585,10|0,0:0|0:0,0:0:0:0:
269,264,39554,5,8,0:0:0:0:
269,264,39716,1,0,1:2:0:0:
210,336,39878,1,8,0:3:0:0:
210,336,40041,1,4,0:3:0:0:
146,257,40203,6,0,P|103:247|67:236,2,70,14|0|2,0:0|1:2|1:2,0:0:0:0:
195,172,40689,2,0,P|107:151|45:136,1,140,10|0,0:0|1:2,0:0:0:0:
114,57,41176,6,0,P|147:66|181:74,2,70,10|2|2,0:0|0:0|1:2,0:0:0:0:
58,139,41662,1,10,0:0:0:0:
74,144,41743,1,8,0:0:0:0:
90,148,41824,2,0,P|143:161|171:167,1,70,8|8,0:0|0:3,0:0:0:0:
225,243,42149,1,6,0:3:0:0:
225,243,42311,1,4,0:3:0:0:
314,201,42473,2,0,P|367:214|395:220,1,70,0|0,1:2|1:2,0:0:0:0:
498,190,42797,6,0,P|513:156|503:122,2,70,10|0|2,0:0|1:2|1:2,0:0:0:0:
495,289,43284,2,0,P|460:334|365:332,1,140,10|0,0:0|1:2,0:0:0:0:
286,362,43770,6,0,P|255:346|240:315,2,70,10|2|2,0:0|0:0|1:2,0:0:0:0:
382,341,44257,1,10,0:0:0:0:
250,196,44581,5,10,0:3:0:0:
158,231,44743,2,0,P|151:182|145:148,1,70,4|6,0:3|0:3,0:0:0:0:
51,183,45068,2,0,P|56:217|61:252,1,70,2|0,1:2|0:0,0:0:0:0:
79,351,45392,6,0,P|142:360|180:366,1,70,12|0,0:0|1:2,0:0:0:0:
229,305,45716,1,2,1:2:0:0:
229,305,45878,2,0,P|263:299|298:295,1,70,8|2,0:0|1:2,0:0:0:0:
366,372,46202,1,0,1:2:0:0:
366,372,46364,2,0,P|400:377|435:381,1,70,10|0,0:0|1:2,0:0:0:0:
510,317,46689,5,2,1:2:0:0:
440,247,46851,1,10,0:0:0:0:
503,173,47013,2,0,P|513:139|505:106,1,70,2|0,1:2|1:2,0:0:0:0:
439,33,47338,2,0,L|369:43,1,70,10|0,0:0|1:2,0:0:0:0:
345,138,47662,2,0,L|414:128,1,70,14|0,0:0|1:2,0:0:0:0:
346,235,47986,6,0,P|288:223|248:135,1,140,6|2,1:2|1:2,0:0:0:0:
247,59,48473,2,0,P|235:115|135:142,1,140,2|2,0:0|0:0,0:0:0:0:
72,181,48959,2,0,P|40:161|30:122,1,70,0|2,1:2|0:0,0:0:0:0:
77,49,49284,5,0,1:2:0:0:
172,26,49446,1,10,0:0:0:0:
236,99,49608,2,0,P|283:87|315:82,1,70,10|10,1:2|0:0,0:0:0:0:
377,18,49932,5,10,1:2:0:0:
377,18,50094,1,10,0:0:0:0:
474,52,50257,1,10,1:2:0:0:
474,52,50419,1,2,1:2:0:0:
488,148,50581,6,0,L|501:196,2,35,10|8|8,0:0|0:0|0:0,0:0:0:0:
402,192,50905,1,0,1:2:0:0:
402,192,51068,2,0,L|415:240,2,35,10|8|8,0:0|0:0|0:0,0:0:0:0:
311,229,51392,1,0,1:2:0:0:
361,312,51554,5,10,0:0:0:0:
162,110,52527,5,2,0:0:0:0:
162,110,52689,1,2,0:0:0:0:
65,303,53014,6,0,B|118:316|134:283|124:262|166:231|199:249,1,154.000004699707,6|0,1:2|1:2,0:0:0:0:
282,311,53500,2,0,P|303:270|298:224,1,77.0000023498536,8|0,0:0|0:0,0:0:0:0:
247,156,53824,1,0,1:2:0:0:
247,156,53986,1,0,1:2:0:0:
326,89,54149,1,10,0:0:0:0:
418,182,54311,6,0,P|470:128|465:54,1,154.000004699707,6|0,1:2|1:2,0:0:0:0:
371,0,54797,2,0,P|333:8|296:18,1,77.0000023498536,8|0,0:0|0:0,0:0:0:0:
193,4,55122,1,0,1:2:0:0:
193,4,55284,1,0,1:2:0:0:
142,99,55446,2,0,P|151:136|160:173,1,77.0000023498536,10|0,0:0|0:0,0:0:0:0:
219,284,55770,6,0,P|178:334|77:317,2,154.000004699707,6|8|0,1:2|0:0|1:2,0:0:0:0:
273,190,56581,1,0,1:2:0:0:
273,190,56743,1,10,0:0:0:0:
361,252,56905,2,0,P|436:239|512:226,1,154.000004699707,6|2,1:2|1:2,0:0:0:0:
486,330,57392,6,0,P|448:337|410:345,1,77.0000023498536,10|0,0:0|0:0,0:0:0:0:
309,371,57716,1,2,1:2:0:0:
309,371,57878,1,2,1:2:0:0:
227,299,58041,2,0,P|170:287|132:280,1,77.0000023498536,10|0,0:0|0:0,0:0:0:0:
24,316,58365,6,0,B|0:243|0:243|75:170,1,154.000004699707,6|8,1:2|0:0,0:0:0:0:
148,134,58851,2,0,P|185:141|223:149,1,77.0000023498536,2|0,0:0|1:2,0:0:0:0:
325,111,59176,1,0,1:2:0:0:
383,201,59338,1,8,0:0:0:0:
253,28,59662,6,0,P|205:17|126:0,2,115.50000352478,2|2|2,1:2|0:0|0:0,0:0:0:0:
325,111,60311,2,0,P|376:98|403:92,1,77.0000023498536,2|0,1:2|1:2,0:0:0:0:
411,85,60554,2,0,P|453:73|494:63,1,77.0000023498536,2|0,0:0|0:0,0:0:0:0:
500,52,60797,1,2,0:0:0:0:
506,159,60959,6,0,P|492:217|477:283,2,115.50000352478,6|2|2,1:2|0:0|0:0,0:0:0:0:
404,197,61608,2,0,L|384:280,1,77.0000023498536,2|0,1:2|1:2,0:0:0:0:
368,274,61851,2,0,L|344:366,1,77.0000023498536,2|0,0:0|0:0,0:0:0:0:
359,365,62095,1,2,0:0:0:0:
251,372,62257,6,0,B|198:359|185:330|204:321|183:278|132:286,1,154.000004699707,2|8,1:2|0:0,0:0:0:0:
36,324,62743,1,8,0:0:0:0:
33,305,62824,1,8,0:0:0:0:
30,288,62905,2,0,P|24:240|15:201,1,77.0000023498536,10|8,0:0|0:3,0:0:0:0:
5,108,63230,1,6,0:3:0:0:
5,108,63392,1,8,0:0:0:0:
106,72,63554,6,0,P|155:68|249:177,1,188.999994232178,6|0,1:2|1:2,0:0:0:0:
219,243,64203,2,0,P|181:222|168:196,1,62.9999980773926,10|2,0:0|0:0,0:0:0:0:
251,163,64527,1,2,0:0:0:0:
251,163,64689,2,0,P|309:147|387:109,1,125.999996154785,2|2,1:2|1:2,0:0:0:0:
447,78,65176,2,0,P|476:112|474:150,1,62.9999980773926,0|0,0:0|1:2,0:0:0:0:
475,145,65419,1,0,1:2:0:0:
472,157,65500,2,0,P|459:198|483:275,1,125.999996154785,8|2,0:0|1:2,0:0:0:0:
330,365,66149,6,0,B|281:383|241:346|253:320|233:279|167:295,1,188.999994232178,6|0,1:2|1:2,0:0:0:0:
88,319,66797,2,0,P|124:296|116:195,1,125.999996154785,10|10,0:0|0:0,0:0:0:0:
65,161,67284,2,0,P|74:125|83:87,1,62.9999980773926,2|0,1:2|0:0,0:0:0:0:
43,25,67608,1,10,0:0:0:0:
43,25,67770,2,0,P|89:13|117:23,1,62.9999980773926,0|0,0:0|1:2,0:0:0:0:
167,76,68095,2,0,P|204:89|236:82,1,62.9999980773926,2|0,1:2|0:0,0:0:0:0:
240,80,68338,1,8,0:0:0:0:
254,71,68419,1,10,0:0:0:0:
324,18,68581,1,8,0:0:0:0:
433,91,68743,6,0,P|419:178|407:253,1,154.000004699707,6|8,1:2|0:0,0:0:0:0:
477,333,69230,1,0,3:0:0:0:
477,333,69392,2,0,P|434:359|396:350,1,77.0000023498536,2|0,1:2|0:0,0:0:0:0:
303,375,69716,2,0,P|276:340|285:302,1,77.0000023498536,10|0,0:0|3:0,0:0:0:0:
309,205,70041,5,2,1:2:0:0:
134,331,70365,2,0,P|84:318|43:311,1,77.0000023498536,10|0,0:0|3:0,0:0:0:0:
53,213,70689,2,0,P|90:220|127:230,1,77.0000023498536,2|8,1:2|0:0,0:0:0:0:
126,130,71014,2,0,P|88:119|51:112,1,77.0000023498536,10|0,0:0|0:0,0:0:0:0:
32,5,71338,6,0,P|119:24|193:45,1,154.000004699707,14|2,0:0|1:2,0:0:0:0:
247,126,71824,1,12,0:0:0:0:
318,46,71986,2,0,P|359:34|409:21,1,77.0000023498536,2|0,1:2|0:0,0:0:0:0:
500,16,72311,1,14,0:0:0:0:
505,34,72392,1,0,3:2:0:0:
511,52,72473,1,0,0:0:0:0:
465,149,72635,6,0,P|476:209|483:248,1,77.0000023498536,0|4,1:2|0:3,0:0:0:0:
374,198,72959,2,0,P|385:258|392:297,1,77.0000023498536,0|8,1:2|0:0,0:0:0:0:
475,337,73284,1,10,0:0:0:0:
377,382,73446,1,10,0:0:0:0:
358,380,73527,1,8,0:0:0:0:
339,378,73608,1,8,0:0:0:0:
270,294,73770,6,0,B|217:303|217:303|196:321|196:321|109:337,1,154.000004699707,6|0,1:2|1:2,0:0:0:0:
18,309,74257,2,0,P|-1:275|8:232,1,77.0000023498536,10|2,0:0|0:0,0:0:0:0:
4,134,74581,1,2,1:2:0:0:
4,134,74743,2,0,P|23:100|65:86,1,77.0000023498536,0|10,1:2|0:0,0:0:0:0:
141,153,75068,2,0,P|217:141|300:122,1,154.000004699707,6|2,1:2|1:2,0:0:0:0:
390,77,75554,1,8,0:0:0:0:
390,77,75716,2,0,B|437:138|437:138|390:212,1,154.000004699707,2|2,0:0|1:2,0:0:0:0:
322,283,76203,1,10,0:0:0:0:
406,383,76365,6,0,P|413:343|422:303,1,77.0000023498536,6|0,1:2|0:0,0:0:0:0:
511,248,76689,1,0,1:2:0:0:
511,248,76851,2,0,P|504:208|495:168,1,77.0000023498536,10|2,0:0|0:0,0:0:0:0:
436,81,77176,2,0,P|398:89|360:95,1,77.0000023498536,2|0,1:2|1:2,0:0:0:0:
269,36,77500,1,10,0:0:0:0:
162,110,77662,6,0,B|176:194|205:140|233:252,1,154.000004699707,6|2,1:2|1:2,0:0:0:0:
146,312,78149,2,0,P|132:267|148:235,1,77.0000023498536,8|0,0:0|0:0,0:0:0:0:
251,221,78473,1,0,1:2:0:0:
251,221,78635,1,2,1:2:0:0:
319,304,78797,2,0,P|355:314|392:325,1,77.0000023498536,12|2,0:0|0:0,0:0:0:0:
509,266,79122,6,0,P|530:214|464:131,1,154.000004699707,6|8,1:2|0:0,0:0:0:0:
393,84,79608,1,2,0:0:0:0:
393,84,79770,2,0,P|346:64|321:76,1,77.0000023498536,0|0,1:2|1:2,0:0:0:0:
250,151,80095,1,8,0:0:0:0:
41,96,80419,6,0,B|18:43|18:43|60:-7,2,115.50000352478,6|2|2,1:2|0:0|0:0,0:0:0:0:
2,197,81068,2,0,P|13:248|19:280,1,77.0000023498536,2|0,1:2|1:2,0:0:0:0:
9,284,81311,2,0,L|28:364,1,77.0000023498536,2|0,0:0|0:0,0:0:0:0:
20,372,81554,1,2,0:0:0:0:
127,383,81716,6,0,B|171:347|171:347|253:366,2,115.50000352478,6|2|2,1:2|0:0|0:0,0:0:0:0:
106,276,82365,2,0,P|95:225|90:193,1,77.0000023498536,2|0,1:2|1:2,0:0:0:0:
99,189,82608,2,0,L|80:108,1,77.0000023498536,2|0,0:0|0:0,0:0:0:0:
88,101,82851,1,2,0:0:0:0:
26,11,83014,6,0,P|94:-13|174:36,1,154.000004699707,2|12,1:2|0:0,0:0:0:0:
214,116,83500,1,0,1:2:0:0:
293,44,83662,6,0,B|309:23|309:23|303:-2,2,51.3333348999024,10|8|4,0:0|0:3|0:3,0:0:0:0:
338,112,83986,2,0,B|354:133|354:133|348:158,2,51.3333348999024,10|4|0,0:3|0:3|1:2,0:0:0:0:
387,46,84311,6,0,P|451:20|505:130,1,210,6|0,1:2|1:2,0:0:0:0:
442,184,84959,2,0,P|451:223|461:266,1,70,10|2,0:0|0:0,0:0:0:0:
511,334,85284,1,2,1:2:0:0:
425,382,85446,6,0,P|368:329|290:348,1,140,2|10,1:2|0:0,0:0:0:0:
119,379,86095,1,0,1:2:0:0:
102,374,86176,1,0,1:2:0:0:
86,368,86257,2,0,P|78:333|71:299,1,70,8|0,0:0|1:2,0:0:0:0:
146,237,86581,2,0,P|154:272|160:305,1,70,2|0,0:0|1:2,0:0:0:0:
261,367,86905,6,0,P|330:320|287:208,1,210,6|0,1:2|1:2,0:0:0:0:
219,152,87554,2,0,P|213:119|201:63,1,70,10|0,0:0|0:0,0:0:0:0:
268,8,87878,1,0,1:2:0:0:
346,67,88041,6,0,P|383:70|422:36,1,70,2|0,1:2|0:0,0:0:0:0:
495,6,88365,2,0,P|502:40|508:74,1,70,10|0,0:0|0:0,0:0:0:0:
509,172,88689,1,0,1:2:0:0:
500,187,88770,1,0,1:2:0:0:
491,202,88851,2,0,P|450:190|413:181,1,70,8|0,0:0|1:2,0:0:0:0:
330,169,89176,1,10,0:3:0:0:
330,169,89338,1,8,0:0:0:0:
381,277,89500,6,0,P|412:314|389:383,1,105,6|0,1:2|0:0,0:0:0:0:
392,382,89824,2,0,P|351:371|308:360,1,70,4|0,0:3|0:0,0:0:0:0:
308,372,90068,1,8,0:0:0:0:
293,381,90149,2,0,P|267:348|273:313,1,70,8|8,0:0|0:3,0:0:0:0:
193,259,90473,2,0,P|152:270|109:281,1,70,6|0,0:3|1:2,0:0:0:0:
63,364,90797,6,0,P|20:299|51:199,1,188.999994232178,6|8,1:2|0:3,0:0:0:0:
57,110,91446,2,0,P|49:74|37:27,1,62.9999980773926,2|4,0:0|0:3,0:0:0:0:
118,4,91770,2,0,P|133:66|143:112,1,94.499997116089,2|0,1:2|0:0,0:0:0:0:
141,114,92095,6,0,B|212:-6|479:65|345:260|517:248,1,470.399985644532,4|0,1:2|0:0,0:0:0:0:
0,58,95986,5,4,0:0:0:0:
85,163,96311,1,4,0:0:0:0:
216,135,96635,2,0,L|206:96,3,35,8|8|0|0,0:0|0:0|1:2|1:2,0:0:0:0:
175,68,96959,2,0,L|185:29,3,35,10|0|0|0,0:0|0:0|0:1|0:0,0:0:0:0:
219,2,97284,6,0,B|307:-9|256:65|374:49,2,146.999995513916,6|8|0,1:2|0:0|1:2,0:0:0:0:
140,68,98095,1,0,1:2:0:0:
140,68,98257,1,10,0:0:0:0:
52,15,98419,6,0,P|32:80|9:179,1,146.999995513916,6|0,1:2|1:2,0:0:0:0:
8,259,98905,2,0,P|48:275|89:262,1,73.4999977569581,10|2,0:0|0:0,0:0:0:0:
166,215,99230,1,2,1:2:0:0:
166,215,99392,1,2,1:2:0:0:
211,307,99554,1,10,0:0:0:0:
301,258,99716,6,0,P|309:217|318:168,1,73.4999977569581,2|4,0:0|1:2,0:0:0:0:
251,103,100041,1,2,0:0:0:0:
313,21,100203,2,0,B|398:-2|358:78|468:52,1,146.999995513916,10|0,0:0|1:2,0:0:0:0:
512,141,100689,1,0,1:2:0:0:
512,141,100851,1,8,0:0:0:0:
432,206,101014,6,0,P|441:243|456:295,1,73.4999977569581,6|0,1:2|0:0,0:0:0:0:
506,369,101338,1,2,1:2:0:0:
506,369,101500,2,0,P|473:384|425:379,1,73.4999977569581,10|0,0:0|0:0,0:0:0:0:
358,315,101824,1,2,1:2:0:0:
276,377,101986,2,0,P|266:341|257:305,1,73.4999977569581,2|10,1:2|0:0,0:0:0:0:
179,237,102311,1,2,0:0:0:0:
188,222,102392,1,0,3:2:0:0:
197,208,102473,6,0,P|206:172|215:136,1,73.4999977569581,4|0,1:2|0:0,0:0:0:0:
269,50,102797,1,8,0:0:0:0:
269,50,102959,2,0,P|216:-2|140:11,1,146.999995513916,2|0,0:0|1:2,0:0:0:0:
46,20,103446,1,8,0:0:0:0:
2,113,103608,6,0,B|14:164|14:164|3:201|3:201|21:269,1,146.999995513916,6|0,1:2|1:2,0:0:0:0:
0,357,104095,2,0,P|30:375|66:368,1,73.4999977569581,10|2,0:0|0:0,0:0:0:0:
165,335,104419,1,2,1:2:0:0:
165,335,104581,1,2,1:2:0:0:
206,241,104743,2,0,P|196:202|187:163,1,73.4999977569581,10|0,0:0|0:0,0:0:0:0:
291,174,105068,6,0,P|299:209|308:245,1,73.4999977569581,6|0,1:2|0:0,0:0:0:0:
340,342,105392,2,0,P|381:347|413:318,1,73.4999977569581,8|0,0:0|0:0,0:0:0:0:
498,280,105716,1,2,1:2:0:0:
498,280,105878,1,2,1:2:0:0:
428,203,106041,1,10,0:0:0:0:
510,141,106203,6,0,B|495:86|495:86|506:49|506:49|494:-2,1,146.999995513916,6|8,1:2|0:0,0:0:0:0:
391,0,106689,1,10,0:0:0:0:
337,88,106851,1,0,1:2:0:0:
242,42,107014,2,0,L|231:96,3,36.749998878479,10|8|0|0,0:0|0:0|1:2|1:2,0:0:0:0:
199,115,107338,2,0,L|210:169,3,36.749998878479,8|8|4|4,0:3|0:3|0:3|0:3,0:0:0:0:
183,196,107662,6,0,B|97:183|144:256|28:243,2,146.999995513916,6|8|2,1:2|0:0|1:2,0:0:0:0:
276,239,108473,1,2,1:2:0:0:
206,314,108635,1,10,0:0:0:0:
282,382,108797,6,0,B|333:370|333:370|370:381|370:381|424:366,1,146.999995513916,6|2,1:2|1:2,0:0:0:0:
441,370,109203,1,2,0:0:0:0:
457,374,109284,2,0,P|504:323|472:255,1,146.999995513916,10|0,0:0|1:2,0:0:0:0:
409,180,109770,1,0,1:2:0:0:
328,244,109932,2,0,P|289:235|241:224,1,73.4999977569581,8|0,0:0|0:0,0:0:0:0:
240,217,110176,1,0,3:2:0:0:
226,207,110257,6,0,P|187:216|139:227,1,73.4999977569581,6|2,1:2|0:0,0:0:0:0:
73,286,110581,2,0,P|22:237|51:155,1,146.999995513916,10|0,0:0|1:2,0:0:0:0:
77,73,111068,1,2,1:2:0:0:
94,63,111149,1,2,0:0:0:0:
109,54,111230,1,10,0:0:0:0:
202,97,111392,6,0,B|253:85|253:85|290:96|290:96|344:81,1,146.999995513916,6|2,1:2|1:2,0:0:0:0:
446,55,111878,1,8,0:0:0:0:
446,55,112041,2,0,P|438:92|430:141,1,73.4999977569581,0|2,0:0|1:2,0:0:0:0:
351,189,112365,1,2,1:2:0:0:
351,189,112527,1,10,0:0:0:0:
376,288,112689,1,0,1:2:0:0:
380,307,112770,1,0,1:2:0:0:
386,324,112851,6,0,P|427:327|466:305,1,73.4999977569581,14|2,0:0|0:0,0:0:0:0:
512,223,113176,2,0,P|474:205|430:216,1,73.4999977569581,10|2,0:0|1:2,0:0:0:0:
363,154,113500,1,10,0:0:0:0:
363,154,113662,1,2,1:2:0:0:
420,68,113824,1,10,0:0:0:0:
342,1,113986,1,2,1:2:0:0:
325,7,114068,1,0,1:2:0:0:
307,13,114149,6,0,P|273:21|223:31,1,73.4999977569581,8|2,0:0|0:0,0:0:0:0:
156,95,114473,2,0,P|139:129|153:172,1,73.4999977569581,10|2,0:0|1:2,0:0:0:0:
225,228,114797,1,10,0:0:0:0:
149,297,114959,2,0,P|113:289|78:281,1,73.4999977569581,2|8,1:2|0:0,0:0:0:0:
6,205,115284,1,0,1:2:0:0:
12,189,115365,1,0,1:2:0:0:
18,174,115446,6,0,P|11:138|3:103,1,73.4999977569581,14|2,0:0|1:2,0:0:0:0:
79,33,115770,2,0,P|88:69|95:105,1,73.4999977569581,10|2,0:0|1:2,0:0:0:0:
168,185,116095,1,2,1:2:0:0:
168,185,116257,1,2,1:2:0:0:
99,261,116419,1,8,2:0:0:0:
163,340,116581,6,0,B|246:312|216:386|312:355,1,146.999995513916,6|8,1:2|0:0,0:0:0:0:
403,377,117068,2,0,L|450:369,3,36.749998878479,8|8|8|8,0:0|0:0|0:0|0:0,0:0:0:0:
493,354,117392,2,0,L|509:296,3,40.2500007677078,10|8|8|8,0:0|0:0|0:0|0:0,0:0:0:0:
470,269,117716,2,0,L|461:230,3,40.2500007677078,8|8|8|8,0:0|0:0|0:0|0:0,0:0:0:0:
487,193,118041,6,0,P|438:150|375:177,1,125.999996154785,6|2,1:2|0:0,0:0:0:0:
357,249,118527,1,2,1:2:0:0:
278,209,118689,1,8,0:0:0:0:
154,335,119014,1,2,1:2:0:0:
154,335,119176,2,0,P|142:276|128:212,1,125.999996154785,0|8,1:2|0:0,0:0:0:0:
0,90,119824,1,0,1:2:0:0:
15,79,119905,1,0,1:2:0:0:
29,69,119986,2,0,P|61:67|93:94,1,62.9999980773926,8|0,0:0|1:2,0:0:0:0:
160,131,120311,2,0,P|190:122|221:115,1,62.9999980773926,2|0,0:0|1:2,0:0:0:0:
288,171,120635,6,0,P|342:123|302:15,1,188.999994232178,2|0,1:2|1:2,0:0:0:0:
233,62,121284,1,8,0:0:0:0:
65,7,121608,1,2,1:2:0:0:
2,68,121770,2,0,P|17:136|34:209,1,125.999996154785,2|8,1:2|0:0,0:0:0:0:
4,365,122419,1,0,1:2:0:0:
78,318,122581,2,0,P|113:327|155:336,1,62.9999980773926,8|0,0:0|1:2,0:0:0:0:
149,345,122824,1,0,1:2:0:0:
160,356,122905,2,0,P|195:347|237:338,1,62.9999980773926,8|0,0:0|0:0,0:0:0:0:
304,372,123230,6,0,P|337:331|300:259,1,125.999996154785,6|2,1:2|0:0,0:0:0:0:
251,204,123716,2,0,P|258:173|265:129,1,62.9999980773926,2|8,1:2|0:0,0:0:0:0:
220,70,124041,1,2,0:0:0:0:
220,70,124203,1,0,1:2:0:0:
293,21,124365,6,0,P|350:4|412:59,1,125.999996154785,2|8,1:2|0:0,0:0:0:0:
488,56,124851,2,0,P|480:93|470:141,1,62.9999980773926,0|2,0:0|1:2,0:0:0:0:
485,130,125095,1,0,1:2:0:0:
496,142,125176,1,8,0:0:0:0:
448,215,125338,2,0,P|395:173|325:187,1,125.999996154785,2|0,1:2|1:2,0:0:0:0:
261,217,125824,6,0,P|266:247|272:279,2,62.9999980773926,2|2|2,1:2|0:0|0:0,0:0:0:0:
180,180,126311,1,2,1:2:0:0:
103,223,126473,1,8,0:0:0:0:
7,81,126797,1,0,1:2:0:0:
7,81,126959,1,10,0:0:0:0:
73,21,127122,6,0,P|125:59|185:43,1,125.999996154785,2|8,0:0|0:0,0:0:0:0:
260,8,127608,1,8,0:0:0:0:
268,23,127689,1,8,0:0:0:0:
275,37,127770,2,0,L|286:86,3,31.4999990386963,10|0|8|0,0:3|0:0|0:3|0:0,0:0:0:0:
317,93,128095,2,0,L|307:151,3,31.4999990386963,4|0|0|0,0:3|0:0|1:2|0:0,0:0:0:0:
303,172,128419,6,0,P|352:219|431:197,1,140,6|8,1:2|0:0,0:0:0:0:
505,164,128905,2,0,P|499:133|489:84,1,70,6|0,0:3|1:2,0:0:0:0:
464,5,129230,1,2,1:2:0:0:
464,5,129392,1,10,0:0:0:0:
367,20,129554,6,0,P|297:32|224:46,1,140,2|0,0:0|1:2,0:0:0:0:
141,0,130041,1,8,0:0:0:0:
0,136,130365,2,0,P|7:171|17:214,1,70,2|0,1:2|1:2,0:0:0:0:
106,237,130689,2,0,P|98:271|91:305,1,70,10|8,0:0|0:0,0:0:0:0:
92,324,130932,1,8,0:0:0:0:
97,340,131014,6,0,P|125:362|175:350,1,70,2|0,1:2|0:0,0:0:0:0:
219,284,131338,1,8,0:0:0:0:
298,340,131500,2,0,P|361:353|446:371,1,140,6|0,0:3|1:2,0:0:0:0:
506,302,131986,2,0,P|510:268|490:240,1,70,10|0,0:0|0:0,0:0:0:0:
425,166,132311,6,0,P|385:174|343:183,1,70,2|0,1:2|1:2,0:0:0:0:
296,257,132635,1,10,0:0:0:0:
201,229,132797,1,2,1:2:0:0:
194,212,132878,1,0,1:2:0:0:
188,197,132959,2,0,L|196:148,3,35,8|8|6|0,0:0|0:3|0:3|1:2,0:0:0:0:
238,140,133284,2,0,L|228:90,3,35,8|4|0|0,0:3|0:3|1:2|1:2,0:0:0:0:
263,65,133608,6,0,P|291:43|339:49,1,73.4999977569581,14|0,0:0|0:0,0:0:0:0:
425,12,133932,2,0,P|433:48|444:101,1,73.4999977569581,8|0,0:0|1:2,0:0:0:0:
506,163,134257,2,0,P|498:199|487:252,1,73.4999977569581,8|0,0:0|1:2,0:0:0:0:
509,335,134581,1,10,0:0:0:0:
415,378,134743,1,2,1:2:0:0:
402,367,134824,1,0,1:2:0:0:
390,356,134905,6,0,P|346:329|316:335,1,73.4999977569581,8|0,0:0|1:2,0:0:0:0:
230,370,135230,2,0,P|221:327|210:276,1,73.4999977569581,8|0,0:0|1:2,0:0:0:0:
293,231,135554,1,10,0:0:0:0:
293,231,135716,1,0,1:2:0:0:
260,133,135878,2,0,P|217:124|166:113,1,73.4999977569581,10|0,0:0|1:2,0:0:0:0:
84,117,136203,6,0,B|98:170|98:170|85:205|85:205|100:263,1,146.999995513916,6|0,1:2|1:2,0:0:0:0:
159,347,136689,1,8,0:0:0:0:
159,347,136851,2,0,P|129:364|80:366,1,73.4999977569581,0|8,1:2|0:0,0:0:0:0:
4,310,137176,1,0,1:2:0:0:
70,231,137338,1,10,0:0:0:0:
12,145,137500,6,0,P|4:102|-6:50,1,73.4999977569581,10|10,1:2|0:0,0:0:0:0:
77,7,137824,1,10,1:2:0:0:
77,7,137986,1,10,0:0:0:0:
148,81,138149,1,10,1:2:0:0:
235,26,138311,1,10,0:0:0:0:
292,110,138473,1,10,0:0:0:0:
209,170,138635,1,14,0:0:0:0:
502,370,141392,6,0,P|403:333|421:249,1,210,6|0,0:0|0:0,0:0:0:0:
506,215,142527,2,0,B|459:179|399:200|395:237|397:239|400:242|396:281|332:295|293:259,1,245,2|2,0:0|0:0,0:0:0:0:
155,383,143986,2,0,P|181:282|205:179,1,210,2|2,0:0|0:0,0:0:0:0:
146,115,145122,1,2,0:0:0:0:
146,115,145284,2,0,P|85:164|101:228,1,140,2|2,0:0|0:0,0:0:0:0:
3,376,146257,1,2,0:0:0:0:
184,365,146581,6,0,P|236:374|294:385,1,105,2|2,0:0|0:0,0:0:0:0:
417,223,147878,6,0,B|410:255|410:255|430:279,2,52.5,2|2|2,0:0|0:0|0:0,0:0:0:0:
490,168,148527,2,0,B|497:135|497:135|477:111,2,52.5,2|2|2,0:0|0:0|0:0,0:0:0:0:
391,130,149176,2,0,B|357:121|357:121|352:123|352:123|318:114,2,62.9999980773926,2|2|2,0:0|0:0|0:0,0:0:0:0:
452,47,149824,2,0,B|486:38|486:38|491:40|491:40|525:31,2,62.9999980773926,2|2|2,0:0|0:0|0:0,0:0:0:0:
348,7,150473,2,0,B|315:-10|281:6|277:35|278:36|281:37|282:65|242:81|207:62,1,167.999994873047,2|0,0:0|3:0,0:0:0:0:
58,169,151446,1,0,3:0:0:0:
156,267,151770,6,0,P|204:232|169:139,1,157.500006008148,6|0,0:0|0:0,0:0:0:0:
114,97,152419,1,2,0:0:0:0:
114,97,152581,2,0,P|121:65|127:29,1,52.5000020027161,2|2,0:0|0:0,0:0:0:0:
200,0,152905,1,2,0:0:0:0:
353,60,153230,2,0,P|307:69|240:84,1,105.000004005432,2|0,0:0|0:0,0:0:0:0:
415,296,154041,1,2,0:0:0:0:
259,383,154365,6,0,P|227:339|252:279,1,105.000004005432,2|0,0:0|0:0,0:0:0:0:
296,226,154851,1,0,0:0:0:0:
296,226,155014,2,0,P|322:231|365:238,1,52.5000020027161,2|2,0:0|0:0,0:0:0:0:
426,277,155338,1,2,0:0:0:0:
503,232,155500,6,0,P|496:202|488:162,1,52.5000020027161,2|0,0:0|0:0,0:0:0:0:
511,93,155824,2,0,P|460:52|412:68,1,105.000004005432,2|0,0:0|0:0,0:0:0:0:
352,111,156311,1,2,0:0:0:0:
210,2,156635,1,2,0:0:0:0:
31,34,156959,6,0,P|49:100|65:173,1,125.999996154785,6|0,1:2|1:2,0:0:0:0:
4,323,157608,1,2,1:2:0:0:
169,383,157932,1,2,1:2:0:0:
278,244,158257,6,0,P|271:212|261:165,1,62.9999980773926,2|0,1:2|0:0,0:0:0:0:
200,122,158581,2,0,P|207:90|217:43,1,62.9999980773926,2|0,1:2|0:0,0:0:0:0:
279,1,158905,2,0,P|307:-3|349:23,1,62.9999980773926,2|0,1:2|0:0,0:0:0:0:
426,0,159230,2,0,P|416:62|409:117,1,94.499997116089,2|0,1:2|0:0,0:0:0:0:
444,124,159554,6,0,P|478:116|517:106,1,70,2|0,1:2|1:2,0:0:0:0:
397,199,159878,2,0,P|363:190|329:182,1,70,2|0,1:2|1:2,0:0:0:0:
445,285,160203,2,0,P|478:276|512:268,1,70,2|0,1:2|1:2,0:0:0:0:
370,351,160527,2,0,P|322:375|259:349,1,105,10|8,0:0|0:0,0:0:0:0:
238,335,160851,5,10,0:0:0:0:
261,246,161014,1,10,0:0:0:0:
38,114,161500,5,14,0:0:0:0:
2,197,161662,2,0,P|11:237|22:284,1,70,10|0,0:0|0:0,0:0:0:0:
108,343,161986,6,0,B|169:345|182:302|167:298|193:254|246:262,1,167.999994873047,6|0,1:2|1:2,0:0:0:0:
325,329,162473,2,0,P|383:312|420:308,1,83.9999974365235,8|0,0:0|0:0,0:0:0:0:
482,242,162797,1,0,1:2:0:0:
482,242,162959,1,0,1:2:0:0:
435,154,163122,1,10,0:0:0:0:
330,217,163284,6,0,P|246:209|163:198,1,167.999994873047,6|0,1:2|1:2,0:0:0:0:
85,271,163770,2,0,P|56:241|52:198,1,83.9999974365235,8|0,0:0|0:0,0:0:0:0:
112,116,164095,1,0,1:2:0:0:
112,116,164257,1,0,1:2:0:0:
84,17,164419,2,0,P|42:10|1:0,1,83.9999974365235,10|0,0:0|0:0,0:0:0:0:
186,47,164743,6,0,P|253:2|330:29,1,167.999994873047,6|8,1:2|0:0,0:0:0:0:
402,105,165230,1,0,3:0:0:0:
402,105,165392,2,0,P|387:168|383:208,1,83.9999974365235,0|0,1:2|1:2,0:0:0:0:
455,263,165716,1,10,0:0:0:0:
391,358,165878,6,0,P|309:344|225:340,1,167.999994873047,6|2,1:2|1:2,0:0:0:0:
153,268,166365,2,0,P|110:299|58:292,1,83.9999974365235,10|0,0:0|0:0,0:0:0:0:
0,241,166689,1,2,1:2:0:0:
0,241,166851,1,2,1:2:0:0:
41,155,167014,2,0,P|84:124|136:131,1,83.9999974365235,10|0,0:0|0:0,0:0:0:0:
232,184,167338,6,0,B|294:179|316:226|293:239|308:273|392:278,1,167.999994873047,6|8,1:2|0:0,0:0:0:0:
466,247,167824,2,0,P|477:189|490:146,1,83.9999974365235,2|0,0:0|1:2,0:0:0:0:
512,63,168149,1,0,1:2:0:0:
433,4,168311,2,0,P|378:20|326:22,1,83.9999974365235,8|0,0:0|0:0,0:0:0:0:
255,90,168635,6,0,P|189:55|180:-5,2,125.999996154785,2|2|2,1:2|0:0|0:0,0:0:0:0:
354,127,169284,2,0,P|340:187|338:222,1,83.9999974365235,2|0,1:2|1:2,0:0:0:0:
321,221,169527,2,0,P|335:281|337:316,1,83.9999974365235,2|0,0:0|0:0,0:0:0:0:
331,326,169770,1,2,0:0:0:0:
221,330,169932,6,0,P|213:266|198:204,2,125.999996154785,6|2|2,1:2|0:0|0:0,0:0:0:0:
128,372,170581,2,0,P|74:364|60:335,1,83.9999974365235,2|0,1:2|1:2,0:0:0:0:
40,336,170824,2,0,P|19:285|38:258,1,83.9999974365235,2|0,0:0|0:0,0:0:0:0:
47,248,171068,1,2,0:0:0:0:
18,143,171230,6,0,B|104:125|104:125|124:130|124:130|184:118,1,167.999994873047,2|8,1:2|0:0,0:0:0:0:
230,38,171716,1,8,0:0:0:0:
250,44,171797,1,8,0:0:0:0:
269,51,171878,2,0,P|319:61|360:66,1,83.9999974365235,10|8,0:0|0:3,0:0:0:0:
417,0,172203,1,6,0:3:0:0:
417,0,172365,1,8,0:0:0:0:
485,72,172527,6,0,P|517:166|438:225,1,210,6|0,1:2|1:2,0:0:0:0:
346,270,173176,2,0,P|315:253|281:257,1,70,10|2,0:0|0:0,0:0:0:0:
224,340,173500,1,2,0:0:0:0:
125,320,173662,6,0,P|106:252|80:187,1,140,2|2,1:2|1:2,0:0:0:0:
152,125,174149,2,0,P|169:58|181:40,1,70,0|0,0:0|1:2,0:0:0:0:
160,42,174392,1,0,1:2:0:0:
148,28,174473,2,0,P|92:-11|28:10,1,140,8|2,0:0|1:2,0:0:0:0:
222,209,175122,6,0,B|296:211|312:159|293:154|325:100|389:110,1,210,6|0,1:2|1:2,0:0:0:0:
485,169,175770,2,0,P|474:220|472:250,1,70,10|2,0:0|1:2,0:0:0:0:
512,324,176095,1,10,0:0:0:0:
430,379,176257,6,0,P|363:371|331:312,1,140,2|10,1:2|0:0,0:0:0:0:
276,222,176743,2,0,P|235:199|196:203,1,70,0|0,0:0|1:2,0:0:0:0:
104,239,177067,2,0,P|96:206|94:191,3,35,10|8|0|0,0:0|0:0|1:2|1:2,0:0:0:0:
82,187,177392,2,0,P|90:156|95:115,1,70,14|0,0:0|0:0,0:0:0:0:
195,45,177716,6,0,P|251:57|308:66,1,115.50000352478,6|0,1:2|0:0,0:0:0:0:
315,87,178041,2,0,P|365:67|397:77,1,77.0000023498536,0|0,1:2|3:0,0:0:0:0:
472,23,178365,2,0,P|508:62|510:95,1,77.0000023498536,2|0,1:2|3:0,0:0:0:0:
447,168,178689,1,2,1:2:0:0:
447,168,178851,1,0,3:0:0:0:
495,255,179014,6,0,P|483:307|477:352,1,77.0000023498536,10|8,1:2|0:0,0:0:0:0:
387,384,179338,2,0,P|380:346|371:308,1,77.0000023498536,10|8,1:2|0:0,0:0:0:0:
291,249,179662,1,10,1:2:0:0:
291,249,179824,1,8,0:0:0:0:
220,318,179986,2,0,P|165:345|138:336,1,77.0000023498536,10|0,1:2|1:2,0:0:0:0:
48,384,180311,5,14,0:0:0:0:
0,290,180473,2,0,P|16:226|29:192,1,77.0000023498536,0|0,1:2|1:2,0:0:0:0:
114,167,180797,1,12,0:0:0:0:
215,194,180959,2,0,P|271:160|304:145,1,77.0000023498536,2|0,1:2|1:2,0:0:0:0:
360,221,181284,1,14,0:0:0:0:
440,173,181446,1,0,1:2:0:0:
456,182,181527,1,0,1:2:0:0:
473,190,181608,6,0,P|462:238|460:257,4,38.5000011749268,8|8|4|4|0,0:0|0:3|0:3|0:3|1:2,0:0:0:0:
512,99,182095,2,0,P|507:80|502:61,4,38.5000011749268,8|8|6|4|2,0:0|0:3|0:3|0:3|1:2,0:0:0:0:
410,112,182581,1,8,0:0:0:0:
329,32,182743,6,0,B|277:11|243:54|262:66|230:110|167:84,1,167.999994873047,6|0,1:2|1:2,0:0:0:0:
99,21,183230,1,10,0:0:0:0:
99,21,183392,1,2,0:0:0:0:
20,90,183554,2,0,P|-3:135|0:170,1,83.9999974365235,2|0,1:2|1:2,0:0:0:0:
56,257,183878,1,10,0:0:0:0:
180,209,184041,6,0,P|262:193|345:183,1,167.999994873047,6|2,1:2|1:2,0:0:0:0:
440,236,184527,1,8,0:0:0:0:
507,164,184689,2,0,P|493:121|485:74,1,83.9999974365235,2|0,0:0|1:2,0:0:0:0:
393,11,185014,2,0,P|385:52|371:92,1,83.9999974365235,2|8,1:2|0:0,0:0:0:0:
264,171,185338,6,0,B|282:242|282:242|302:258|302:258|319:334,1,167.999994873047,6|2,1:2|1:2,0:0:0:0:
231,384,185824,1,8,0:0:0:0:
126,368,185986,2,0,P|102:326|113:274,1,83.9999974365235,2|0,0:0|0:0,0:0:0:0:
165,206,186311,2,0,P|165:164|143:129,1,83.9999974365235,2|8,1:2|0:0,0:0:0:0:
45,77,186635,6,0,P|73:32|195:37,1,167.999994873047,6|0,1:2|1:2,0:0:0:0:
264,103,187122,2,0,P|312:94|368:90,1,83.9999974365235,10|0,0:0|0:0,0:0:0:0:
411,1,187446,1,0,1:2:0:0:
411,1,187608,1,2,1:2:0:0:
497,69,187770,2,0,P|515:112|508:161,1,83.9999974365235,12|2,0:0|0:0,0:0:0:0:
459,270,188095,6,0,P|387:255|293:247,1,167.999994873047,6|8,1:2|0:0,0:0:0:0:
221,329,188581,2,0,P|175:359|138:358,1,83.9999974365235,2|0,0:0|0:0,0:0:0:0:
50,335,188905,1,0,1:2:0:0:
23,240,189068,2,0,P|36:187|38:141,1,83.9999974365235,8|0,0:0|0:0,0:0:0:0:
132,80,189392,6,0,B|92:31|92:31|29:35,2,125.999996154785,2|2|2,1:2|0:0|1:2,0:0:0:0:
224,141,190041,2,0,P|208:197|204:240,1,83.9999974365235,10|8,0:3|0:0,0:0:0:0:
211,244,190284,1,10,0:0:0:0:
218,259,190365,1,8,0:0:0:0:
252,346,190527,1,0,1:2:0:0:
353,358,190689,6,0,P|393:350|419:318,1,83.9999974365235,14|0,0:0|1:2,0:0:0:0:
512,344,191014,2,0,P|525:305|510:266,1,83.9999974365235,8|2,0:0|1:2,0:0:0:0:
422,206,191338,1,14,0:0:0:0:
422,206,191500,1,0,1:2:0:0:
510,150,191662,2,0,P|492:89|475:56,1,83.9999974365235,8|2,0:0|1:2,0:0:0:0:
391,16,191986,6,0,P|347:24|321:54,1,83.9999974365235,14|0,0:0|1:2,0:0:0:0:
252,143,192311,2,0,P|208:135|182:105,1,83.9999974365235,8|0,0:0|1:2,0:0:0:0:
99,19,192635,2,0,P|124:8|151:0,2,55.9999982910157,10|8|10,0:0|0:0|0:0,0:0:0:0:
52,84,192959,2,0,P|26:73|0:64,2,55.9999982910157,8|6|4,0:3|0:3|0:3,0:0:0:0:
104,150,193284,6,0,P|85:231|71:307,1,140,6|0,1:2|0:0,0:0:0:0:
142,374,193770,1,0,1:2:0:0:
231,320,193932,2,0,B|312:327|277:371|359:378,1,140,14|0,0:0|1:2,0:0:0:0:
440,317,194419,2,0,P|448:279|466:241,1,70,2|0,1:2|0:0,0:0:0:0:
510,146,194743,2,0,P|502:95|406:65,1,140,10|0,0:0|1:2,0:0:0:0:
410,66,195149,1,0,1:2:0:0:
396,75,195230,1,8,0:0:0:0:
309,121,195392,1,0,1:2:0:0:
235,57,195554,2,0,P|200:50|167:39,1,70,0|0,0:0|1:2,0:0:0:0:
51,66,195878,6,0,P|32:133|22:202,1,140,6|0,1:2|0:0,0:0:0:0:
81,288,196365,1,0,1:2:0:0:
189,303,196527,2,0,P|197:336|200:371,2,70,10|2|10,0:0|0:0|0:0,0:0:0:0:
266,227,197014,2,0,P|296:206|338:207,1,70,2|0,1:2|0:0,0:0:0:0:
416,269,197338,2,0,P|445:290|487:289,2,70,10|0|0,0:0|0:0|1:2,0:0:0:0:
436,173,197824,1,8,0:0:0:0:
436,173,197986,1,8,0:3:0:0:
360,104,198148,2,0,P|365:69|378:36,1,70,6|0,0:3|1:2,0:0:0:0:
256,0,198473,5,6,1:2:0:0:
256,0,199770,1,2,0:0:0:0:
22,158,200419,2,0,P|30:191|36:226,1,70,6|0,0:3|0:0,0:0:0:0:
124,317,200743,2,0,P|129:282|138:248,1,70,2|0,0:0|0:0,0:0:0:0:
238,190,201068,6,0,B|291:208|291:208|300:227|300:227|379:253,1,140,6|10,1:2|0:0,0:0:0:0:
468,209,201554,2,0,P|489:157|504:130,1,70,2|0,0:0|1:2,0:0:0:0:
455,50,201878,1,2,1:2:0:0:
455,50,202041,1,8,0:0:0:0:
356,91,202203,6,0,P|290:104|235:63,1,140,6|0,1:2|1:2,0:0:0:0:
154,12,202689,2,0,P|136:41|136:76,1,70,10|0,0:0|0:0,0:0:0:0:
47,116,203014,2,0,P|63:146|94:163,1,70,2|0,1:2|1:2,0:0:0:0:
83,260,203338,2,0,P|117:260|147:242,1,70,10|0,0:0|0:0,0:0:0:0:
247,164,203662,6,0,P|316:171|385:184,1,140,6|10,1:2|0:0,0:0:0:0:
446,275,204149,1,2,0:0:0:0:
446,275,204311,2,0,P|390:285|346:297,1,70,0|2,1:2|1:2,0:0:0:0:
315,370,204635,1,8,0:0:0:0:
218,324,204797,6,0,B|159:360|159:360|91:342,1,140,6|0,1:2|1:2,0:0:0:0:
20,270,205284,2,0,P|27:235|32:201,1,70,10|0,0:0|0:0,0:0:0:0:
111,135,205608,2,0,P|103:100|98:66,1,70,2|8,1:2|0:0,0:0:0:0:
106,50,205851,1,8,0:0:0:0:
113,38,205932,1,10,0:0:0:0:
205,0,206095,1,8,0:0:0:0:
280,73,206257,6,0,P|315:130|293:194,1,140,6|10,1:2|0:0,0:0:0:0:
235,280,206743,1,2,0:0:0:0:
235,280,206905,2,0,P|283:291|316:302,1,70,0|2,1:2|1:2,0:0:0:0:
369,378,207230,1,8,0:0:0:0:
461,335,207392,6,0,P|473:287|506:186,1,140,6|0,1:2|1:2,0:0:0:0:
460,112,207878,2,0,P|428:88|385:93,1,70,10|0,0:0|0:0,0:0:0:0:
365,0,208203,2,0,P|328:15|311:55,1,70,2|0,1:2|1:2,0:0:0:0:
220,26,208527,2,0,P|215:65|241:100,1,70,10|0,0:0|0:0,0:0:0:0:
297,179,208851,6,0,P|270:239|201:237,1,140,6|10,1:2|0:0,0:0:0:0:
98,250,209338,1,2,0:0:0:0:
98,250,209500,2,0,P|93:215|85:181,1,70,0|2,1:2|1:2,0:0:0:0:
2,117,209824,1,8,0:0:0:0:
77,25,209986,6,0,B|129:41|129:41|139:60|139:60|226:89,1,140,6|10,1:2|0:0,0:0:0:0:
301,35,210473,1,10,0:0:0:0:
361,118,210635,1,2,1:2:0:0:
451,66,210797,2,0,P|463:31|475:12,2,35,8|8|8,0:0|0:0|0:3,0:0:0:0:
512,152,211122,1,12,0:0:0:0:
509,168,211203,1,8,0:0:0:0:
508,183,211284,1,8,0:0:0:0:
409,217,211446,5,6,0:0:0:0:
