osu file format v14

[General]
AudioFilename: audio.mp3
AudioLeadIn: 0
PreviewTime: 62197
Countdown: 0
SampleSet: Normal
StackLeniency: 0.7
Mode: 1
LetterboxInBreaks: 0
WidescreenStoryboard: 0

[Editor]
Bookmarks: 87712
DistanceSpacing: 0.1
BeatDivisor: 4
GridSize: 32
TimelineZoom: 1.4

[Metadata]
Title:Aruite Ikou! (TV Size)
TitleUnicode:歩いていこう!(TV Size)
Artist:Toyama Nao
ArtistUnicode:東山奈央
Creator:yuzu__rinrin
Version:Muzukashii
Source:恋する小惑星
Tags:japanese anime touyama koisuru koi suru asteroid in love op opening j-pop jpop pop 芳文社 きらら kirara houbunsha 川嶋あい kawashima ai 伊賀拓郎 iga takurou
BeatmapID:2350057
BeatmapSetID:1124664

[Difficulty]
HPDrainRate:7
CircleSize:5
OverallDifficulty:5
ApproachRate:5
SliderMultiplier:1.4
SliderTickRate:1

[Events]
//Background and Video events
0,0,"c9f0b6bd-64c2-45ff-9cef-bdc3ad2a3cfd.jpg",0,10
//Break Periods
//Storyboard Layer 0 (Background)
//Storyboard Layer 1 (Fail)
//Storyboard Layer 2 (Pass)
//Storyboard Layer 3 (Foreground)
//Storyboard Layer 4 (Overlay)
//Storyboard Sound Samples

[TimingPoints]
1115,618.556701030928,4,1,0,50,1,0
1115,-111.111111111111,4,1,0,50,0,0
12867,-105.263157894737,4,1,0,50,0,0
13408,-100,4,1,0,70,0,0
13486,-100,4,1,0,70,0,0
30805,-100,4,1,0,60,0,0
50754,-100,4,1,0,60,0,0
62893,-100,4,1,0,80,0,0
62970,-83.3333333333333,4,1,0,80,0,1
72558,-90.9090909090909,4,1,0,80,0,1
72867,-100,4,1,0,80,0,1
85238,-100,4,1,0,60,0,0
85857,-100,4,1,0,50,0,0
86475,-100,4,1,0,40,0,0
87094,-100,4,1,0,30,0,0

[HitObjects]
256,192,1115,5,8,0:0:0:0:
256,192,2352,1,8,0:0:0:0:
256,192,2970,1,8,0:0:0:0:
256,192,3589,1,8,0:0:0:0:
256,192,4826,1,8,0:0:0:0:
256,192,6063,1,8,0:0:0:0:
256,192,7300,1,8,0:0:0:0:
256,192,8537,1,8,0:0:0:0:
256,192,11011,1,8,0:0:0:0:
256,192,12249,1,8,0:0:0:0:
256,192,12867,1,0,0:0:0:0:
256,192,13486,1,12,0:0:0:0:
256,192,13950,1,8,0:0:0:0:
256,192,14413,1,0,0:0:0:0:
256,192,14877,1,8,0:0:0:0:
256,192,15032,1,0,0:0:0:0:
256,192,15341,1,8,0:0:0:0:
256,192,15960,1,0,0:0:0:0:
256,192,16424,1,8,0:0:0:0:
256,192,16888,1,0,0:0:0:0:
256,192,17197,1,0,0:0:0:0:
256,192,17352,1,0,0:0:0:0:
256,192,17506,1,0,0:0:0:0:
256,192,17816,1,8,0:0:0:0:
256,192,18434,1,4,0:0:0:0:
256,192,18898,1,8,0:0:0:0:
256,192,19362,1,8,0:0:0:0:
256,192,19671,1,0,0:0:0:0:
256,192,19980,1,0,0:0:0:0:
256,192,20290,1,8,0:0:0:0:
256,192,20908,1,12,0:0:0:0:
256,192,21372,1,8,0:0:0:0:
256,192,21682,1,0,0:0:0:0:
256,192,21836,1,0,0:0:0:0:
256,192,22145,1,8,0:0:0:0:
256,192,22764,1,8,0:0:0:0:
256,192,23073,1,0,0:0:0:0:
256,192,23383,1,12,0:0:0:0:
256,192,24001,1,8,0:0:0:0:
256,192,24310,1,0,0:0:0:0:
256,192,24620,1,8,0:0:0:0:
256,192,24774,1,8,0:0:0:0:
256,192,24929,1,8,0:0:0:0:
256,192,25238,1,0,0:0:0:0:
256,192,26166,1,8,0:0:0:0:
256,192,26475,1,0,0:0:0:0:
256,192,26630,1,0,0:0:0:0:
256,192,26785,1,0,0:0:0:0:
256,192,27094,1,12,0:0:0:0:
256,192,27403,1,12,0:0:0:0:
256,192,28331,1,8,0:0:0:0:
256,192,30805,1,0,0:0:0:0:
256,192,31424,1,0,0:0:0:0:
256,192,31733,1,0,0:0:0:0:
256,192,31888,1,8,0:0:0:0:
256,192,32352,1,0,0:0:0:0:
256,192,32661,1,8,0:0:0:0:
256,192,32970,1,0,0:0:0:0:
256,192,33279,1,8,0:0:0:0:
256,192,33898,1,8,0:0:0:0:
256,192,34362,1,0,0:0:0:0:
256,192,35135,1,8,0:0:0:0:
256,192,35754,1,0,0:0:0:0:
256,192,36373,1,0,0:0:0:0:
256,192,36682,1,0,0:0:0:0:
256,192,36837,1,8,0:0:0:0:
256,192,37301,1,0,0:0:0:0:
256,192,37610,1,8,0:0:0:0:
256,192,37919,1,0,0:0:0:0:
256,192,38228,1,8,0:0:0:0:
256,192,38847,1,8,0:0:0:0:
256,192,39310,1,0,0:0:0:0:
256,192,40084,1,8,0:0:0:0:
256,192,40393,1,8,0:0:0:0:
256,192,40702,1,0,0:0:0:0:
256,192,41321,1,0,0:0:0:0:
256,192,41630,1,8,0:0:0:0:
256,192,41785,1,0,0:0:0:0:
256,192,42558,1,8,0:0:0:0:
256,192,42867,1,0,0:0:0:0:
256,192,43176,1,8,0:0:0:0:
256,192,43795,1,8,0:0:0:0:
256,192,44104,1,0,0:0:0:0:
256,192,44259,1,8,0:0:0:0:
256,192,44723,1,8,0:0:0:0:
256,192,45341,1,0,0:0:0:0:
256,192,45651,1,8,0:0:0:0:
256,192,46269,1,8,0:0:0:0:
256,192,46888,1,8,0:0:0:0:
256,192,47506,1,8,0:0:0:0:
256,192,47816,1,0,0:0:0:0:
256,192,47970,1,0,0:0:0:0:
256,192,48125,1,0,0:0:0:0:
256,192,49053,1,8,0:0:0:0:
256,192,49207,1,8,0:0:0:0:
256,192,49362,1,8,0:0:0:0:
256,192,49671,1,8,0:0:0:0:
256,192,49980,1,8,0:0:0:0:
256,192,50599,1,4,0:0:0:0:
256,192,51836,1,8,0:0:0:0:
256,192,53073,1,8,0:0:0:0:
256,192,53692,1,8,0:0:0:0:
256,192,54001,1,8,0:0:0:0:
256,192,54156,1,8,0:0:0:0:
256,192,54310,1,8,0:0:0:0:
256,192,54929,1,8,0:0:0:0:
256,192,55547,1,12,0:0:0:0:
256,192,56475,1,0,0:0:0:0:
256,192,56785,1,8,0:0:0:0:
256,192,57403,1,8,0:0:0:0:
256,192,57712,1,0,0:0:0:0:
256,192,58022,1,8,0:0:0:0:
256,192,58640,1,8,0:0:0:0:
256,192,58950,1,8,0:0:0:0:
256,192,59104,1,8,0:0:0:0:
256,192,59259,1,8,0:0:0:0:
256,192,59877,1,8,0:0:0:0:
256,192,60187,1,0,0:0:0:0:
256,192,60496,1,0,0:0:0:0:
256,192,60960,1,0,0:0:0:0:
256,192,61424,1,0,0:0:0:0:
256,192,61733,1,12,0:0:0:0:
288,192,62970,5,4,0:0:0:0:
288,192,63279,1,8,0:0:0:0:
288,192,63434,1,0,0:0:0:0:
288,192,63743,1,0,0:0:0:0:
288,192,63898,1,8,0:0:0:0:
288,192,64207,1,0,0:0:0:0:
288,192,64826,1,8,0:0:0:0:
288,192,64980,1,8,0:0:0:0:
288,192,65135,1,8,0:0:0:0:
288,192,65444,1,0,0:0:0:0:
288,192,65754,1,8,0:0:0:0:
288,192,65908,1,0,0:0:0:0:
288,192,66218,1,0,0:0:0:0:
288,192,66372,1,8,0:0:0:0:
288,192,66682,1,0,0:0:0:0:
288,192,67609,1,8,0:0:0:0:
288,192,67919,1,8,0:0:0:0:
288,192,68228,1,0,0:0:0:0:
288,192,68383,1,0,0:0:0:0:
288,192,68537,1,0,0:0:0:0:
288,192,68846,1,8,0:0:0:0:
288,192,69156,1,0,0:0:0:0:
288,192,69465,1,8,0:0:0:0:
288,192,69620,1,0,0:0:0:0:
288,192,70084,1,8,0:0:0:0:
288,192,70238,1,8,0:0:0:0:
288,192,70393,1,8,0:0:0:0:
288,192,70857,1,0,0:0:0:0:
288,192,71321,1,8,0:0:0:0:
288,192,71475,1,8,0:0:0:0:
288,192,72249,1,0,0:0:0:0:
288,192,72558,1,8,0:0:0:0:
288,192,72867,1,4,0:0:0:0:
288,192,73331,1,0,0:0:0:0:
288,192,73795,1,0,0:0:0:0:
288,192,73950,1,8,0:0:0:0:
288,192,74723,1,8,0:0:0:0:
282,184,75032,1,8,0:0:0:0:
288,192,75341,1,0,0:0:0:0:
288,192,75805,1,0,0:0:0:0:
288,192,76269,1,8,0:0:0:0:
288,192,76424,1,8,0:0:0:0:
288,192,76578,1,8,0:0:0:0:
288,192,77042,1,0,0:0:0:0:
288,192,77352,1,8,0:0:0:0:
288,192,77506,1,0,0:0:0:0:
288,192,77816,1,4,0:0:0:0:
256,192,79053,1,12,0:0:0:0:
256,192,79980,1,8,0:0:0:0:
256,192,80290,1,4,0:0:0:0:
256,192,81218,1,4,0:0:0:0:
256,192,82764,1,12,0:0:0:0:
256,192,84001,1,8,0:0:0:0:
256,192,84620,1,8,0:0:0:0:
256,192,85238,12,8,87712,0:0:0:0:
