osu file format v14

[General]
AudioFilename: audio.mp3
AudioLeadIn: 0
PreviewTime: 62197
Countdown: 0
SampleSet: Normal
StackLeniency: 0.7
Mode: 1
LetterboxInBreaks: 0
WidescreenStoryboard: 0

[Editor]
Bookmarks: 87712
DistanceSpacing: 0.1
BeatDivisor: 2
GridSize: 32
TimelineZoom: 0.4999999

[Metadata]
Title:Aruite Ikou! (TV Size)
TitleUnicode:歩いていこう!(TV Size)
Artist:Toyama Nao
ArtistUnicode:東山奈央
Creator:yuzu__rinrin
Version:Kantan
Source:恋する小惑星
Tags:japanese anime touyama koisuru koi suru asteroid in love op opening j-pop jpop pop 芳文社 きらら kirara houbunsha 川嶋あい kawashima ai 伊賀拓郎 iga takurou
BeatmapID:2350065
BeatmapSetID:1124664

[Difficulty]
HPDrainRate:9
CircleSize:5
OverallDifficulty:3
ApproachRate:5
SliderMultiplier:1.4
SliderTickRate:1

[Events]
//Background and Video events
0,0,"EWXjtpdUwAI_8Sz.jpg",0,100
//Break Periods
//Storyboard Layer 0 (Background)
//Storyboard Layer 1 (Fail)
//Storyboard Layer 2 (Pass)
//Storyboard Layer 3 (Foreground)
//Storyboard Layer 4 (Overlay)
//Storyboard Sound Samples

[TimingPoints]
1115,618.556701030928,4,1,0,50,1,0
1115,-100,4,1,0,50,0,0
12867,-100,4,1,0,50,0,0
13408,-100,4,1,0,70,0,0
13486,-100,4,1,0,70,0,0
30805,-100,4,1,0,60,0,0
50754,-100,4,1,0,60,0,0
62893,-100,4,1,0,80,0,0
62970,-100,4,1,0,80,0,1
85238,-100,4,1,0,60,0,0
85857,-100,4,1,0,50,0,0
86475,-100,4,1,0,40,0,0
87094,-100,4,1,0,30,0,0

[HitObjects]
256,192,1115,5,8,0:0:0:0:
256,192,3589,1,8,0:0:0:0:
256,192,6063,1,8,0:0:0:0:
256,192,7300,1,8,0:0:0:0:
256,192,8537,1,8,0:0:0:0:
256,192,11011,1,8,0:0:0:0:
256,192,13486,1,12,0:0:0:0:
256,192,14723,1,0,0:0:0:0:
256,192,15341,1,8,0:0:0:0:
256,192,15960,1,0,0:0:0:0:
256,192,18434,1,4,0:0:0:0:
256,192,19671,1,0,0:0:0:0:
256,192,20290,1,8,0:0:0:0:
256,192,20908,1,12,0:0:0:0:
256,192,22145,1,8,0:0:0:0:
256,192,22764,1,0,0:0:0:0:
256,192,23383,1,12,0:0:0:0:
256,192,24310,1,0,0:0:0:0:
256,192,25238,1,0,0:0:0:0:
256,192,27094,1,8,0:0:0:0:
256,192,27403,1,8,0:0:0:0:
256,192,30805,1,0,0:0:0:0:
256,192,32042,1,0,0:0:0:0:
256,192,32661,1,8,0:0:0:0:
256,192,33279,1,8,0:0:0:0:
256,192,35135,1,8,0:0:0:0:
256,192,35754,1,0,0:0:0:0:
256,192,36991,1,0,0:0:0:0:
256,192,37610,1,8,0:0:0:0:
256,192,38228,1,8,0:0:0:0:
256,192,40084,1,8,0:0:0:0:
256,192,40702,1,0,0:0:0:0:
256,192,41939,1,0,0:0:0:0:
256,192,43176,1,8,0:0:0:0:
256,192,44413,1,0,0:0:0:0:
256,192,45032,1,8,0:0:0:0:
256,192,45651,1,8,0:0:0:0:
256,192,46888,1,8,0:0:0:0:
256,192,48125,1,0,0:0:0:0:
256,192,50599,1,4,0:0:0:0:
256,192,51836,1,8,0:0:0:0:
256,192,53073,1,8,0:0:0:0:
256,192,55547,1,12,0:0:0:0:
256,192,56785,1,8,0:0:0:0:
256,192,57403,1,8,0:0:0:0:
256,192,58022,1,8,0:0:0:0:
256,192,60496,1,0,0:0:0:0:
256,192,61733,1,12,0:0:0:0:
288,192,62970,5,4,0:0:0:0:
288,192,64207,1,0,0:0:0:0:
288,192,64826,1,8,0:0:0:0:
288,192,65444,1,0,0:0:0:0:
288,192,66682,1,0,0:0:0:0:
288,192,67919,1,8,0:0:0:0:
288,192,68537,1,0,0:0:0:0:
288,192,69156,1,8,0:0:0:0:
288,192,70393,1,0,0:0:0:0:
288,192,71011,1,0,0:0:0:0:
288,192,71630,1,8,0:0:0:0:
288,192,72867,1,4,0:0:0:0:
288,192,74104,1,0,0:0:0:0:
288,192,74723,1,8,0:0:0:0:
288,192,75341,1,0,0:0:0:0:
288,192,76578,1,8,0:0:0:0:
288,192,77197,1,8,0:0:0:0:
288,192,77816,1,4,0:0:0:0:
256,192,79053,1,12,0:0:0:0:
256,192,80290,1,4,0:0:0:0:
256,192,82764,1,12,0:0:0:0:
256,192,84001,1,8,0:0:0:0:
256,192,85238,12,8,87712,0:0:0:0:
