osu file format v14

[General]
AudioFilename: Honmei Answer.mp3
AudioLeadIn: 0
PreviewTime: 55901
Countdown: 0
SampleSet: None
StackLeniency: 0.7
Mode: 0
LetterboxInBreaks: 0
WidescreenStoryboard: 1

[Editor]
Bookmarks: 61345
DistanceSpacing: 0.5
BeatDivisor: 4
GridSize: 4
TimelineZoom: 2.1

[Metadata]
Title:Honmei Answer (Short Ver.)
TitleUnicode:Honmei Answer (Short Ver.)
Artist:Toyama Nao & Hanazawa Kana
ArtistUnicode:Toyama Nao & Hanazawa Kana
Creator:Arua
Version:Jumpin
Source:Nisekoi
Tags:
BeatmapID:1750525
BeatmapSetID:827771

[Difficulty]
HPDrainRate:2
CircleSize:3.3
OverallDifficulty:7
ApproachRate:9.2
SliderMultiplier:1.6
SliderTickRate:2

[Events]
//Background and Video events
0,0,"BG.png",0,0
//Break Periods
//Storyboard Layer 0 (Background)
//Storyboard Layer 1 (Fail)
//Storyboard Layer 2 (Pass)
//Storyboard Layer 3 (Foreground)
//Storyboard Sound Samples

[TimingPoints]
984,361.44578313253,4,2,1,60,1,0
984,-133.333333333333,4,2,1,40,0,0
5317,-100,4,2,1,30,0,0
6763,-83.3333333333333,4,2,1,70,0,0
6853,-100,4,2,1,60,0,0
8483,-100,4,2,1,5,0,0
8574,-100,4,2,1,60,0,0
8845,-100,4,2,1,5,0,0
8935,-100,4,2,1,60,0,0
17606,-100,4,2,1,40,0,0
17967,-100,4,2,1,60,0,0
20859,-100,4,3,1,50,0,0
20949,-100,4,2,1,60,0,0
23751,-100,4,2,1,50,0,0
23931,-100,4,2,1,40,0,0
24112,-100,4,2,1,60,0,0
26100,-100,4,1,1,50,0,0
26190,-100,4,2,1,60,0,0
32425,-100,4,3,1,50,0,0
32516,-100,4,2,1,60,0,0
40016,-117.647058823529,4,2,1,40,0,0
41461,-117.647058823529,4,2,1,50,0,0
50136,-100,4,2,1,60,0,0
54477,-181.818181818182,4,2,1,60,0,0
54658,-100,4,2,1,60,0,0
55919,-100,4,2,1,70,0,1
58261,-100,4,1,1,60,0,1
58351,-100,4,2,1,70,0,1
66947,-100,4,2,1,70,0,1
67124,-79.9999999999999,4,2,1,70,0,0
67305,-100,4,1,1,60,0,0
67395,-100,4,2,1,70,0,0
74895,-100,4,2,1,50,0,0
75073,-100,4,2,1,70,0,0
75983,-100,4,2,1,70,0,1
76160,-200,4,2,1,70,0,1
76522,-100,4,2,1,70,0,1
76883,-166.666666666667,4,2,1,70,0,1
77245,-100,4,2,1,70,0,1
77606,-142.857142857143,4,2,1,70,0,1
77967,-100,4,2,1,70,0,1
78329,-125,4,2,1,70,0,1
78871,-125,4,2,1,40,0,1
79052,-100,4,2,1,70,0,0
80498,-100,4,2,1,60,0,0
81220,-200,4,2,1,60,0,0
81857,-200,4,2,1,5,0,0
81947,-200,4,2,1,60,0,0

[Colours]
Combo1 : 234,234,0
Combo2 : 255,128,128
Combo3 : 255,255,255

[HitObjects]
90,220,984,6,0,P|127:175|151:160,1,60.0000022888184
230,79,1345,2,0,P|258:106|272:136,1,60.0000022888184
310,295,1706,5,0,0:0:0:0:
253,190,1887,1,0,0:0:0:0:
362,239,2068,5,0,0:0:0:0:
200,187,2249,1,0,0:0:0:0:
328,72,2429,2,0,P|378:88|407:102,1,60.0000022888184
485,269,2791,5,2,0:0:0:0:
432,186,3152,1,0,0:0:0:0:
358,304,3333,1,2,0:0:0:0:
358,304,3423,1,0,0:0:0:0:
358,304,3514,1,2,0:0:0:0:
307,178,3694,5,0,0:0:0:0:
307,178,3785,1,0,0:0:0:0:
307,178,3875,2,0,P|305:119|346:55,1,120.000004577637
406,40,4598,5,0,0:0:0:0:
488,206,4779,1,0,0:0:0:0:
498,71,4959,5,0,0:0:0:0:
423,277,5140,1,0,0:0:0:0:
347,66,5321,6,0,P|324:114|317:159,1,80
288,277,5682,1,0,0:3:0:0:
157,134,5863,1,0,0:0:0:0:
157,134,5953,1,0,0:0:0:0:
157,134,6044,1,0,0:0:0:0:
404,150,6224,5,0,0:0:0:0:
404,150,6315,1,0,0:0:0:0:
404,150,6405,2,0,P|402:176|383:209,1,40
291,222,6586,2,0,B|286:248|307:292,1,40
413,327,6767,2,0,P|367:352|269:359,1,143.999995605469
202,260,7128,6,0,P|185:308|186:356,1,80
108,224,7490,6,0,P|104:184|89:147,1,80
32,35,7851,1,0,0:0:0:0:
19,208,8032,1,0,0:0:0:0:
139,42,8212,6,0,L|265:50,1,120
287,49,8574,2,0,P|350:41|408:97,1,120
412,109,8935,2,0,P|389:156|395:207,1,80
472,168,9297,1,0,0:0:0:0:
364,325,9477,1,0,0:0:0:0:
300,131,9658,5,0,0:0:0:0:
300,131,9749,1,0,0:0:0:0:
300,131,9839,2,0,P|303:165|290:191,1,40
203,215,10020,1,0,0:0:0:0:
203,215,10110,1,0,0:0:0:0:
203,215,10200,2,0,P|194:244|211:271,1,40
359,317,10381,5,0,0:0:0:0:
359,317,10472,1,0,0:0:0:0:
359,317,10562,2,0,P|362:351|349:377,1,40
475,228,10743,5,0,0:0:0:0:
475,228,10834,1,0,0:0:0:0:
475,228,10924,2,0,P|472:194|485:168,1,40
438,66,11104,5,0,1:0:0:0:
381,263,11285,1,8,0:0:0:0:
346,81,11465,5,0,1:0:0:0:
470,309,11646,1,0,0:0:0:0:
512,81,11827,5,0,0:0:0:0:
321,357,12008,1,0,0:0:0:0:
369,68,12188,2,0,P|409:114|427:196,1,120
431,204,12550,6,0,L|343:244,1,80
249,246,12911,1,0,0:0:0:0:
193,358,13092,1,0,0:0:0:0:
133,198,13273,6,0,P|115:245|116:302,1,80
45,149,13634,6,0,P|60:112|65:72,1,80
4,19,13996,5,0,0:0:0:0:
95,209,14176,1,0,0:0:0:0:
112,49,14357,5,0,0:0:0:0:
24,265,14538,1,0,0:0:0:0:
46,91,14718,5,0,0:0:0:0:
126,328,14899,1,0,0:0:0:0:
139,144,15080,5,0,0:0:0:0:
54,383,15261,1,0,0:0:0:0:
49,151,15441,5,0,0:0:0:0:
241,366,15622,1,0,0:0:0:0:
211,98,15803,5,0,0:0:0:0:
112,376,15983,1,0,0:0:0:0:
357,233,16164,5,0,0:0:0:0:
0,294,16345,1,0,0:0:0:0:
165,8,16526,1,0,0:0:0:0:
280,328,16706,5,2,0:0:0:0:
280,328,16797,1,0,0:0:0:0:
280,328,16887,2,0,P|318:265|327:212,1,120
290,195,17249,2,0,P|246:207|189:196,1,80,0|4,1:0|1:2,0:0:0:0:
116,116,17610,1,8,0:3:0:0:
116,116,17700,1,8,0:3:0:0:
116,116,17791,2,0,P|124:144|119:177,1,40
140,261,17971,2,0,P|120:267|101:268,2,40
250,183,18333,6,0,B|258:233|242:328|242:324,1,120
223,344,18694,6,0,P|178:332|133:358,1,80
71,382,19056,1,10,0:0:0:0:
309,239,19417,1,0,1:0:0:0:
120,84,19779,6,0,P|104:152|111:245,1,160
137,343,20321,1,10,0:0:0:0:
13,183,20502,1,8,0:0:0:0:
204,179,20682,2,0,P|286:176|359:148,1,160
447,76,21224,6,0,P|370:59|262:72,1,160
187,100,21767,1,8,0:0:0:0:
275,178,21947,1,8,0:0:0:0:
361,27,22309,6,0,P|379:90|373:139,1,80
463,124,22670,6,0,B|442:214|467:295,1,160
486,369,23212,1,0,0:0:0:0:
364,192,23393,1,0,0:0:0:0:
296,383,23574,1,0,0:0:0:0:
476,275,23755,5,0,0:0:0:0:
476,275,23845,1,0,0:0:0:0:
476,275,23935,1,8,0:0:0:0:
476,275,24026,1,0,0:0:0:0:
476,275,24116,2,0,P|435:300|393:307,1,80
274,285,24477,5,0,0:0:0:0:
479,166,24658,1,0,0:0:0:0:
198,134,24839,5,0,0:0:0:0:
433,212,25020,1,0,0:0:0:0:
121,307,25200,5,0,0:0:0:0:
373,232,25381,1,0,0:0:0:0:
184,68,25562,2,0,P|151:104|129:163,1,80
222,201,25923,2,0,P|202:247|167:283,1,80
104,358,26285,5,0,0:0:0:0:
148,151,26465,1,0,0:0:0:0:
198,332,26646,5,0,0:0:0:0:
42,72,26827,1,0,0:0:0:0:
7,363,27008,2,0,P|51:345|78:305,1,80
133,201,27369,1,0,1:0:0:0:
203,322,27550,6,0,P|277:338|394:333,1,160
447,144,28092,1,0,1:0:0:0:
447,144,28273,2,0,P|427:225|438:311,1,160
506,243,28815,5,10,0:0:0:0:
306,181,28996,1,8,0:0:0:0:
371,363,29176,1,0,0:0:0:0:
402,341,29267,1,0,0:0:0:0:
427,314,29357,1,0,0:0:0:0:
443,285,29447,1,0,0:0:0:0:
454,255,29538,2,0,P|462:201|452:150,1,80
382,23,29899,6,0,P|362:93|353:199,1,160
387,293,30441,1,8,0:3:0:0:
242,235,30622,2,0,P|245:305|264:364,1,120
272,371,30983,1,0,1:3:0:0:
389,269,31345,5,10,0:0:0:0:
383,101,31706,2,0,P|328:128|301:158,1,80
227,257,32068,1,10,0:0:0:0:
328,361,32249,2,0,P|377:310|426:221,1,160
415,191,32791,6,0,P|335:196|256:176,1,160
310,75,33333,1,8,0:0:0:0:
203,6,33514,2,0,P|170:85|165:171,1,160
274,192,34237,6,0,P|269:258|232:351,1,160
179,239,34779,1,0,0:0:0:0:
134,364,34959,1,0,0:0:0:0:
70,162,35140,1,0,0:0:0:0:
70,162,35230,1,0,0:0:0:0:
70,162,35321,2,0,P|118:128|168:117,1,80
253,71,35682,5,0,0:0:0:0:
273,186,35863,1,0,0:0:0:0:
362,61,36044,5,0,0:0:0:0:
174,233,36224,1,0,0:0:0:0:
444,119,36405,5,0,0:0:0:0:
77,170,36586,1,0,0:0:0:0:
416,221,36767,6,0,P|416:270|389:342,1,120
363,370,37128,2,0,P|266:342|194:348,1,160
101,372,37670,2,0,L|149:207,1,160
288,147,38212,1,0,1:0:0:0:
348,313,38574,5,12,0:0:0:0:
270,252,38935,1,12,0:0:0:0:
261,345,39297,1,8,0:0:0:0:
352,286,39477,6,0,P|389:252|407:208,1,80
236,289,40020,5,10,0:0:0:0:
276,180,40200,1,0,1:0:0:0:
295,337,40381,5,2,1:2:0:0:
197,141,40562,1,0,0:0:0:0:
196,325,40743,5,10,0:0:0:0:
304,95,40923,1,0,0:0:0:0:
326,328,41104,5,2,0:0:0:0:
208,43,41285,1,4,0:3:0:0:
120,334,41465,5,0,0:0:0:0:
120,334,41646,2,0,P|181:294|223:234,1,136.000002593994
97,209,42188,1,0,1:0:0:0:
177,51,42550,1,0,0:0:0:0:
177,51,42730,2,0,P|186:93|178:143,1,68.0000012969971
139,218,43092,1,0,0:0:0:0:
267,106,43273,1,0,0:0:0:0:
299,273,43453,1,0,0:0:0:0:
160,161,43634,6,0,P|171:127|205:91,1,68.0000012969971
76,145,43996,2,0,P|65:177|45:204,1,68.0000012969971
0,268,44357,5,12,0:0:0:0:
0,268,44718,1,0,0:0:0:0:
197,180,44899,1,0,0:0:0:0:
148,384,45080,1,0,0:0:0:0:
262,223,45441,6,0,P|236:294|198:349,1,136.000002593994,4|8,0:3|0:0,0:0:0:0:
158,237,45983,1,0,1:0:0:0:
54,338,46164,1,0,0:0:0:0:
25,195,46345,1,8,0:0:0:0:
104,315,46526,6,0,P|172:339|222:334,1,102.000001945496
227,332,46887,2,0,P|240:290|262:260,1,68.0000012969971
363,116,47249,5,0,0:0:0:0:
363,116,47429,2,0,P|365:170|358:199,1,68.0000012969971
444,224,47791,5,0,0:0:0:0:
444,224,47971,2,0,P|440:257|444:291,1,68.0000012969971
478,374,48333,1,0,0:0:0:0:
380,181,48514,5,0,0:0:0:0:
321,377,48694,1,0,0:0:0:0:
260,135,48875,6,0,P|243:229|249:284,1,136.000002593994
264,357,49417,5,0,0:0:0:0:
414,203,49598,1,0,0:0:0:0:
138,197,49779,5,0,0:0:0:0:
348,266,49959,1,0,0:0:0:0:
305,51,50140,2,0,P|225:37|139:78,1,160,12|0,0:0|1:0,0:0:0:0:
145,100,50682,2,0,P|223:102|289:145,1,160,12|0,0:0|1:0,0:0:0:0:
317,246,51224,5,0,1:0:0:0:
416,88,51405,1,8,0:0:0:0:
464,215,51586,6,0,P|434:278|366:353,1,160
249,373,52128,2,0,P|252:318|224:195,1,160
178,63,52670,1,0,1:0:0:0:
207,289,53032,5,0,1:0:0:0:
322,72,53212,1,0,1:0:0:0:
366,363,53393,5,0,1:0:0:0:
164,23,53574,1,0,1:0:0:0:
269,221,53935,5,0,0:0:0:0:
269,221,54116,2,0,P|262:281|224:336,1,120
191,353,54477,2,0,L|147:312,1,44.0000013427735
238,79,55020,5,0,0:0:0:0:
238,79,55110,1,0,0:0:0:0:
238,79,55200,2,0,L|227:127,3,40
127,216,55562,2,0,L|137:254,3,40,2|0|2|0,1:2|0:0|0:0|0:0,0:0:0:0:
66,42,55923,6,0,P|111:79|153:96,1,80
216,184,56285,5,0,0:0:0:0:
268,24,56465,1,0,0:0:0:0:
291,267,56646,5,0,0:0:0:0:
248,66,56827,1,0,0:0:0:0:
199,337,57008,5,0,0:0:0:0:
271,99,57188,1,0,0:0:0:0:
331,328,57369,5,0,0:0:0:0:
163,113,57550,1,0,0:0:0:0:
395,213,57730,5,0,0:0:0:0:
98,218,57911,1,0,0:0:0:0:
388,88,58092,5,0,0:0:0:0:
133,218,58273,1,0,0:0:0:0:
475,250,58453,5,0,0:0:0:0:
174,217,58634,1,0,0:0:0:0:
497,103,58815,5,0,0:0:0:0:
218,215,58996,1,0,0:0:0:0:
487,285,59176,5,0,0:0:0:0:
246,123,59357,1,0,0:0:0:0:
395,369,59538,5,0,0:0:0:0:
319,48,59718,1,0,0:0:0:0:
281,360,59899,5,0,0:0:0:0:
433,51,60080,1,0,0:0:0:0:
172,263,60261,5,0,0:0:0:0:
510,139,60441,1,0,0:0:0:0:
272,27,60622,5,0,0:0:0:0:
411,309,60803,1,0,0:0:0:0:
166,45,60983,5,0,0:0:0:0:
305,327,61164,1,0,0:0:0:0:
67,69,61345,5,0,0:0:0:0:
206,351,61526,1,0,0:0:0:0:
225,123,61706,5,0,0:0:0:0:
117,341,61887,1,0,0:0:0:0:
110,92,62068,5,0,0:0:0:0:
228,300,62249,1,0,0:0:0:0:
248,0,62429,5,0,0:0:0:0:
176,238,62610,1,0,0:0:0:0:
143,6,62791,5,0,0:0:0:0:
271,271,62971,1,0,0:0:0:0:
281,26,63152,5,0,0:0:0:0:
133,267,63333,1,0,0:0:0:0:
373,102,63514,5,0,0:0:0:0:
57,163,63694,1,0,0:0:0:0:
385,224,63875,5,0,0:0:0:0:
111,164,64056,1,0,0:0:0:0:
425,70,64237,5,0,0:0:0:0:
157,164,64417,1,0,0:0:0:0:
512,246,64598,5,0,0:0:0:0:
205,163,64779,1,0,0:0:0:0:
512,56,64959,5,0,0:0:0:0:
230,238,65140,1,0,0:0:0:0:
419,2,65321,5,0,0:0:0:0:
346,307,65502,1,0,0:0:0:0:
294,24,65682,5,0,0:0:0:0:
472,324,65863,1,0,0:0:0:0:
465,33,66044,5,0,0:0:0:0:
412,250,66224,1,0,0:0:0:0:
315,25,66405,1,0,0:0:0:0:
272,211,66586,1,0,0:0:0:0:
378,116,66767,6,0,P|320:64|295:61,1,80
212,40,67128,1,0,0:0:0:0:
178,56,67218,1,0,0:0:0:0:
153,85,67309,1,0,0:0:0:0:
138,119,67399,1,0,0:0:0:0:
131,154,67490,2,0,B|117:243|63:307,1,160
241,245,68032,6,0,P|262:155|304:63,1,160
418,52,68574,1,0,0:0:0:0:
359,218,68935,5,0,0:0:0:0:
418,52,69116,1,0,0:0:0:0:
442,296,69297,5,0,0:0:0:0:
403,108,69477,1,0,0:0:0:0:
354,352,69658,5,0,0:0:0:0:
419,158,69839,1,0,0:0:0:0:
467,366,70020,5,0,0:0:0:0:
337,167,70200,1,0,0:0:0:0:
509,273,70381,5,0,0:0:0:0:
248,249,70562,1,0,0:0:0:0:
493,104,70743,5,0,0:0:0:0:
310,354,70923,1,0,0:0:0:0:
374,72,71104,5,0,0:0:0:0:
441,329,71285,1,0,0:0:0:0:
222,99,71465,5,0,0:0:0:0:
512,226,71646,1,0,0:0:0:0:
174,282,71827,5,0,0:0:0:0:
445,193,72008,1,0,0:0:0:0:
80,164,72188,5,0,0:0:0:0:
386,219,72369,1,0,0:0:0:0:
111,311,72550,5,0,0:0:0:0:
336,87,72730,1,0,0:0:0:0:
337,355,72911,5,0,0:0:0:0:
195,19,73092,1,0,0:0:0:0:
202,371,73273,6,0,L|40:354,1,160
218,261,73815,2,0,L|387:275,1,160
505,215,74357,1,0,0:0:0:0:
505,215,74718,5,0,0:0:0:0:
444,104,74899,1,0,0:0:0:0:
390,218,75080,1,0,0:0:0:0:
329,101,75261,1,0,0:0:0:0:
279,217,75441,5,0,0:0:0:0:
385,102,75622,1,0,0:0:0:0:
229,144,75803,5,0,0:0:0:0:
386,181,75983,1,0,0:0:0:0:
290,47,76164,5,0,0:0:0:0:
337,173,76345,1,0,0:0:0:0:
361,27,76526,5,0,0:0:0:0:
319,225,76706,1,0,0:0:0:0:
435,46,76887,5,0,0:0:0:0:
230,158,77068,1,0,0:0:0:0:
451,177,77249,5,0,0:0:0:0:
179,21,77429,1,0,0:0:0:0:
460,36,77610,5,0,0:0:0:0:
169,199,77791,1,0,0:0:0:0:
445,242,77971,5,0,0:0:0:0:
125,106,78152,1,0,0:0:0:0:
425,98,78333,5,0,0:0:0:0:
73,193,78514,1,0,0:0:0:0:
404,310,78694,5,0,0:0:0:0:
21,113,78875,1,0,0:0:0:0:
434,0,79056,1,0,0:0:0:0:
310,235,79417,5,0,0:0:0:0:
232,159,79779,1,0,0:0:0:0:
338,132,80140,1,0,0:0:0:0:
249,265,80502,1,0,0:0:0:0:
471,135,81224,2,0,P|460:191|416:269,1,140
389,292,81947,5,0,0:0:0:0:
313,122,82490,1,0,0:0:0:0:
313,122,82580,1,0,0:0:0:0:
313,122,82670,2,0,L|302:154,1,20
268,283,82851,2,0,L|255:260,1,20
170,108,83032,2,0,L|157:139,1,20
120,266,83212,2,0,L|130:284,2,20
255,191,84026,5,4,0:0:0:0:
