osu file format v14

[General]
AudioFilename: audio.mp3
AudioLeadIn: 0
PreviewTime: 61106
Countdown: 0
SampleSet: Soft
StackLeniency: 0.7
Mode: 0
LetterboxInBreaks: 0
WidescreenStoryboard: 0

[Editor]
DistanceSpacing: 1.1
BeatDivisor: 4
GridSize: 4
TimelineZoom: 2.2

[Metadata]
Title:Dokidoki SING OUT!
TitleUnicode:どきどきSING OUT!
Artist:Toyama Kasumi (CV.Aimi)
ArtistUnicode:戸山香澄(CV.愛美)
Creator:Underdogs
Version:Insane
Source:BanG Dream! ガールズバンドパーティ!
Tags:Poppin'Party Hikan walaowey Yamicchi bang dream girls band party
BeatmapID:1314208
BeatmapSetID:623515

[Difficulty]
HPDrainRate:6
CircleSize:4
OverallDifficulty:7
ApproachRate:9.2
SliderMultiplier:1.6
SliderTickRate:1

[Events]
//Background and Video events
0,0,"background.jpg",0,0
//Break Periods
//Storyboard Layer 0 (Background)
//Storyboard Layer 1 (Fail)
//Storyboard Layer 2 (Pass)
//Storyboard Layer 3 (Foreground)
//Storyboard Sound Samples

[TimingPoints]
565,309.278350515464,4,2,1,75,1,0
565,-133.333333333333,4,2,1,75,0,0
10307,-100,4,2,1,60,0,0
11699,-100,4,2,1,85,0,0
16647,-133.333333333333,4,2,1,85,0,0
24070,-133.333333333333,4,2,1,70,0,0
31492,-133.333333333333,4,2,1,20,0,0
31802,-133.333333333333,4,2,1,40,0,0
32111,-133.333333333333,4,2,1,60,0,0
32729,-133.333333333333,4,2,1,70,0,0
33348,-133.333333333333,4,2,1,70,0,0
33967,-100,4,2,1,85,0,0
43863,-133.333333333333,4,2,1,85,0,0
46338,-100,4,2,1,85,0,0
51286,-133.333333333333,4,2,1,85,0,0
54070,-83.3333333333333,4,2,1,85,0,0
56235,-100,4,2,1,85,0,0
58090,-100,4,2,1,60,0,0
61183,-100,4,2,1,85,0,1
77266,-125,4,2,1,85,0,1
78503,-100,4,2,1,85,0,1
80049,-100,4,2,1,65,0,1
80204,-100,4,2,1,70,0,1
80358,-100,4,2,1,75,0,1
80513,-100,4,2,1,80,0,1
80668,-100,4,2,1,85,0,1
80977,-100,4,2,1,85,0,0
90874,-100,4,2,1,85,0,1
108039,-100,4,2,1,85,0,0

[Colours]
Combo1 : 255,128,255
Combo2 : 255,21,39
Combo3 : 0,163,240
Combo4 : 255,255,0

[HitObjects]
128,64,565,5,2,0:0:0:0:
304,196,874,1,0,0:0:0:0:
304,196,1028,1,2,0:0:0:0:
88,188,1338,1,0,0:0:0:0:
88,188,1492,1,2,0:0:0:0:
256,64,1647,1,0,0:0:0:0:
256,64,1724,1,0,0:0:0:0:
256,64,1802,6,0,P|300:88|384:52,1,120.000004577637,2|0,0:0|0:0,0:0:0:0:
452,16,2266,1,0,0:0:0:0:
500,108,2420,2,0,P|492:136|500:176,1,60.0000022888184,2|0,0:0|0:0,0:0:0:0:
400,208,2729,2,0,P|408:180|400:140,1,60.0000022888184
328,288,3039,6,0,L|476:296,1,120.000004577637,2|0,0:0|0:0,0:0:0:0:
372,368,3503,2,0,L|224:360,1,120.000004577637,2|0,0:0|0:0,0:0:0:0:
128,272,3967,1,2,0:0:0:0:
160,372,4121,1,0,0:0:0:0:
256,260,4276,6,0,B|268:216|268:216|256:180|256:180|272:120,1,120.000004577637,2|0,0:0|0:0,0:0:0:0:
248,40,4740,1,0,0:0:0:0:
160,96,4894,2,0,L|88:88,1,60.0000022888184,2|0,0:0|0:0,0:0:0:0:
43,176,5204,2,0,L|115:184,1,60.0000022888184
184,288,5513,6,0,P|176:332|92:352,1,120.000004577637,2|0,0:0|0:0,0:0:0:0:
32,296,5977,2,0,L|44:176,1,120.000004577637,2|0,0:0|0:0,0:0:0:0:
104,88,6441,1,0,0:0:0:0:
208,184,6595,1,0,0:0:0:0:
208,184,6673,1,0,0:0:0:0:
208,184,6750,6,0,P|244:176|252:96,1,120.000004577637,2|0,0:1|0:0,0:0:0:0:
152,284,7369,2,0,L|300:280,1,120.000004577637,2|0,0:1|0:0,0:0:0:0:
464,208,7987,2,0,L|480:132,1,60.0000022888184,8|2,0:0|0:1,0:0:0:0:
420,60,8296,1,2,0:1:0:0:
344,128,8451,2,0,L|352:256,1,120.000004577637,4|0,0:0|0:0,0:0:0:0:
296,336,8915,1,8,0:0:0:0:
140,252,9070,1,0,0:0:0:0:
204,356,9224,5,8,0:0:0:0:
272,236,9379,1,0,0:0:0:0:
384,320,9534,1,0,0:0:0:0:
384,320,9843,2,0,L|464:328,2,60.0000022888184,8|0|0,0:0|0:0|0:0,0:0:0:0:
336,216,10307,6,0,P|328:156|244:108,1,160,4|2,1:0|1:0,0:0:0:0:
72,216,10771,1,8,0:0:0:0:
172,68,10925,1,8,0:0:0:0:
256,196,11080,1,8,0:0:0:0:
56,112,11235,1,8,0:0:0:0:
172,280,11389,1,8,0:0:0:0:
56,360,11544,1,0,0:0:0:0:
56,360,11621,1,0,0:0:0:0:
56,360,11699,6,0,B|100:352|100:352|144:360,1,80,4|2,0:0|0:1,0:0:0:0:
250,278,12008,2,0,B|206:286|206:286|162:278,1,80,8|2,0:0|0:1,0:0:0:0:
44,232,12317,2,0,P|40:184|52:144,1,80,8|2,0:0|0:1,0:0:0:0:
140,48,12626,1,8,0:0:0:0:
223,165,12781,1,2,0:1:0:0:
312,52,12936,6,0,B|352:60|352:60|408:48,1,80,8|2,0:0|0:1,0:0:0:0:
468,172,13245,2,0,B|460:212|460:212|472:268,1,80,8|2,0:0|0:1,0:0:0:0:
384,360,13554,2,0,B|344:352|344:352|288:364,1,80,8|2,0:0|0:1,0:0:0:0:
224,244,13863,2,0,B|232:204|232:204|220:148,1,80,8|2,0:0|0:1,0:0:0:0:
60,44,14173,6,0,P|96:52|148:44,1,80,8|2,0:0|0:1,0:0:0:0:
276,24,14482,2,0,P|315:19|354:27,1,80,8|2,0:0|0:1,0:0:0:0:
448,128,14791,2,8,L|432:300,1,160
316,360,15255,1,2,0:1:0:0:
200,280,15410,6,0,L|96:288,1,80,8|2,0:0|0:1,0:0:0:0:
48,168,15719,2,0,L|152:176,1,80,8|2,0:0|0:1,0:0:0:0:
276,128,16028,1,8,0:0:0:0:
168,48,16183,1,2,0:1:0:0:
168,48,16260,1,2,0:1:0:0:
168,48,16338,1,8,0:0:0:0:
216,204,16492,1,2,0:1:0:0:
316,44,16647,6,0,P|384:24|444:108,1,180.000006866455,4|2,0:0|0:1,0:0:0:0:
416,200,17266,2,0,L|428:340,1,120.000004577637,8|0,0:0|0:0,0:0:0:0:
340,376,17729,1,2,0:1:0:0:
216,252,17884,1,0,0:0:0:0:
244,352,18039,1,8,0:0:0:0:
328,244,18193,2,0,L|324:172,1,60.0000022888184,2|2,0:1|0:1,0:0:0:0:
272,96,18503,2,0,P|240:104|156:64,1,120.000004577637,8|0,0:0|0:0,0:0:0:0:
48,24,18967,1,0,0:0:0:0:
48,24,19044,1,0,0:0:0:0:
48,24,19121,6,0,L|40:144,1,120.000004577637,4|0,0:0|0:0,0:0:0:0:
72,244,19585,1,2,0:1:0:0:
184,196,19740,2,0,P|216:188|304:220,1,120.000004577637,8|0,0:0|0:0,0:0:0:0:
224,296,20204,1,2,0:1:0:0:
136,128,20358,6,0,P|140:100|136:52,1,60.0000022888184,8|0,0:0|0:0,0:0:0:0:
252,8,20668,2,0,P|248:36|252:84,1,60.0000022888184,8|0,0:0|0:0,0:0:0:0:
348,144,20977,2,0,P|352:114|350:84,1,60.0000022888184,8|0,0:0|0:0,0:0:0:0:
452,12,21286,2,0,P|448:40|452:88,1,60.0000022888184,8|0,0:0|0:0,0:0:0:0:
488,204,21595,5,8,0:0:0:0:
368,324,21750,1,8,0:0:0:0:
368,324,22059,1,8,0:0:0:0:
256,200,22214,1,8,0:0:0:0:
256,200,22523,1,8,0:0:0:0:
140,324,22678,1,8,0:0:0:0:
140,324,22987,1,8,0:0:0:0:
16,208,23142,1,8,0:0:0:0:
232,80,23451,5,8,0:0:0:0:
100,84,23606,1,2,0:1:0:0:
100,84,23683,1,2,0:1:0:0:
100,84,23760,1,8,0:0:0:0:
80,318,24070,6,0,L|160:326,1,60.0000022888184,4|0,0:0|0:0,0:0:0:0:
240,352,24379,2,0,L|299:346,1,60.0000022888184,2|0,0:1|0:0,0:0:0:0:
396,280,24688,2,0,P|368:248|288:232,1,120.000004577637,2|2,0:1|0:1,0:0:0:0:
196,260,25152,1,0,0:0:0:0:
96,224,25307,2,0,P|84:184|88:152,1,60.0000022888184,2|0,0:1|0:0,0:0:0:0:
164,100,25616,2,0,P|176:140|172:172,1,60.0000022888184,2|0,0:1|0:0,0:0:0:0:
76,88,25925,2,0,L|12:88,1,60.0000022888184,2|0,0:1|0:0,0:0:0:0:
128,20,26235,1,2,0:1:0:0:
164,100,26389,1,0,0:0:0:0:
260,32,26544,6,0,P|312:48|380:24,1,120.000004577637,2|2,0:1|0:1,0:0:0:0:
484,24,27008,1,0,0:0:0:0:
464,128,27162,2,0,P|456:168|472:208,1,60.0000022888184,2|0,0:1|0:0,0:0:0:0:
488,288,27472,2,0,P|491:317|483:346,1,60.0000022888184,2|0,0:1|0:0,0:0:0:0:
384,368,27781,2,0,L|264:364,1,120.000004577637,2|2,0:1|0:1,0:0:0:0:
188,296,28245,1,0,0:1:0:0:
88,324,28400,2,0,L|80:392,2,60.0000022888184,2|0|2,0:1|0:0|0:1,0:0:0:0:
64,208,28863,1,0,0:0:0:0:
64,208,28941,1,0,0:0:0:0:
64,208,29018,6,0,P|100:200|124:128,1,120.000004577637,2|2,0:1|0:1,0:0:0:0:
80,52,29482,1,0,0:0:0:0:
168,48,29637,2,0,L|288:48,1,120.000004577637,2|2,0:1|0:1,0:0:0:0:
336,140,30101,1,0,0:0:0:0:
288,232,30255,2,0,P|280:252|292:300,1,60.0000022888184,2|0,0:1|0:0,0:0:0:0:
376,340,30565,2,0,P|384:320|372:272,1,60.0000022888184,2|0,0:1|0:0,0:0:0:0:
424,192,30874,2,0,L|496:200,2,60.0000022888184,2|0|2,0:1|0:0|0:1,0:0:0:0:
240,160,31338,1,0,0:0:0:0:
240,160,31415,1,0,0:0:0:0:
240,160,31492,6,0,L|112:168,1,120.000004577637,8|8,0:0|0:0,0:0:0:0:
52,244,31956,1,0,0:0:0:0:
145,296,32111,2,0,L|217:302,1,60.0000022888184,8|0,0:0|0:0,0:0:0:0:
361,248,32420,1,8,0:0:0:0:
286,346,32575,1,0,0:0:0:0:
333,148,32729,5,8,0:0:0:0:
501,211,32884,1,2,0:1:0:0:
414,324,33039,5,8,0:0:0:0:
470,109,33193,1,2,0:1:0:0:
260,192,33348,5,8,0:0:0:0:
316,64,33503,1,2,0:1:0:0:
316,64,33580,1,0,0:0:0:0:
316,64,33657,1,8,0:0:0:0:
392,172,33812,1,0,0:0:0:0:
201,111,33967,6,0,P|178:71|188:6,1,80,4|0,0:0|0:0,0:0:0:0:
119,169,34276,2,0,P|142:209|132:274,1,80,8|0,0:0|0:0,0:0:0:0:
230,343,34585,2,0,B|290:331|290:331|324:351|324:351|416:338,1,160,2|8,0:1|0:0,0:0:0:0:
484,261,35049,1,0,0:0:0:0:
332,171,35204,6,0,L|344:259,1,80,2|0,0:1|0:0,0:0:0:0:
432,156,35513,2,0,L|420:68,1,80,8|2,0:0|0:1,0:0:0:0:
304,24,35822,1,0,0:0:0:0:
208,116,35977,1,2,0:1:0:0:
96,44,36132,1,8,0:0:0:0:
64,228,36286,1,0,0:0:0:0:
64,228,36363,1,0,0:0:0:0:
64,228,36441,6,0,P|120:216|208:272,1,160,2|8,0:1|0:0,0:0:0:0:
296,356,36905,1,0,0:0:0:0:
368,248,37059,2,0,L|379:168,1,80,2|2,0:1|0:1,0:0:0:0:
272,96,37369,2,0,L|283:175,1,80,8|0,0:0|0:0,0:0:0:0:
392,344,37678,6,0,P|440:320|460:212,1,160,2|8,0:1|0:0,0:0:0:0:
464,92,38142,1,2,0:1:0:0:
368,248,38296,5,8,0:0:0:0:
204,24,38606,1,8,0:0:0:0:
56,224,38915,6,0,P|36:268|100:364,1,160,4|8,0:0|0:0,0:0:0:0:
208,320,39379,2,0,B|304:316|260:352|392:344,1,160,2|2,0:1|0:1,0:0:0:0:
480,288,39843,1,8,0:0:0:0:
372,208,39997,1,0,0:0:0:0:
200,228,40152,6,0,B|192:124|192:124|216:60,1,160,2|8,0:1|0:0,0:0:0:0:
340,16,40616,1,2,0:1:0:0:
456,100,40771,2,0,P|460:144|444:196,1,80,0|2,0:0|0:1,0:0:0:0:
360,284,41080,2,0,L|252:280,1,80,8|0,0:0|0:0,0:0:0:0:
84,336,41389,6,0,P|104:280|56:192,1,160,2|8,0:1|0:0,0:0:0:0:
8,68,41853,2,0,L|196:76,1,160,4|2,0:0|0:1,0:0:0:0:
264,176,42317,2,0,L|164:172,1,80,8|0,0:0|0:0,0:0:0:0:
296,56,42626,5,8,0:0:0:0:
296,56,42781,1,2,0:1:0:0:
420,184,42936,1,8,0:0:0:0:
420,184,43090,1,2,0:1:0:0:
404,48,43245,1,8,0:0:0:0:
328,252,43400,1,2,0:1:0:0:
328,252,43477,1,2,0:1:0:0:
328,252,43554,1,8,0:0:0:0:
496,252,43709,1,0,0:0:0:0:
288,336,43863,6,0,P|252:304|244:228,1,120.000004577637,4|8,0:0|0:0,0:0:0:0:
391,161,44327,1,2,0:1:0:0:
391,161,44482,2,0,P|381:208|319:253,1,120.000004577637,2|8,0:1|0:0,0:0:0:0:
240,152,44946,2,0,L|324:164,1,60.0000022888184,4|0,0:0|0:0,0:0:0:0:
352,72,45255,1,8,0:0:0:0:
352,72,45565,1,8,0:0:0:0:
196,60,45719,2,0,L|144:72,3,30.0000011444092,2|2|2|2,0:1|0:1|0:1|0:1,0:0:0:0:
116,48,46028,2,0,P|132:88|116:152,1,90.0000034332277,8|0,0:0|0:0,0:0:0:0:
64,184,46338,5,4,0:0:0:0:
64,184,46492,2,8,B|180:184|180:184|144:224,1,160
96,296,46956,2,8,B|66:328|66:328|182:328,1,160
296,336,47420,6,8,B|288:272|288:272|300:240|300:240|292:168,1,160
208,100,47884,2,0,P|196:52|208:16,1,80,4|0,0:0|0:0,0:0:0:0:
392,40,48193,1,2,0:1:0:0:
293,179,48348,1,2,0:1:0:0:
276,60,48503,1,8,0:0:0:0:
468,284,48812,5,4,0:0:0:0:
376,348,48967,2,8,B|308:332|308:332|184:344,1,160
68,220,49430,2,8,B|136:236|136:236|260:224,1,160
327,129,49894,6,0,P|400:104|468:148,1,160,4|0,0:0|0:0,0:0:0:0:
396,272,50358,2,0,L|392:192,1,80,8|0,0:0|0:0,0:0:0:0:
232,136,50668,1,2,0:1:0:0:
304,256,50822,1,2,0:1:0:0:
304,256,50900,1,2,0:1:0:0:
304,256,50977,1,8,0:0:0:0:
292,52,51132,1,2,0:1:0:0:
292,52,51209,1,0,0:0:0:0:
292,52,51286,6,0,L|152:56,1,120.000004577637,4|0,0:0|0:0,0:0:0:0:
68,124,51750,1,2,0:1:0:0:
148,220,51905,2,0,P|156:260|148:288,1,60.0000022888184,8|0,0:0|0:0,0:0:0:0:
244,196,52214,2,0,P|236:156|244:128,1,60.0000022888184,2|8,0:1|0:0,0:0:0:0:
352,264,52523,5,2,0:1:0:0:
244,312,52678,1,8,0:0:0:0:
312,164,52833,1,2,0:1:0:0:
440,216,52987,1,2,0:1:0:0:
396,356,53142,2,0,L|464:348,1,60.0000022888184,8|2,0:0|0:1,0:0:0:0:
499,223,53451,2,0,L|431:215,1,60.0000022888184,8|2,0:0|0:1,0:0:0:0:
128,352,53760,5,2,0:1:0:0:
128,352,54070,2,0,P|176:316|136:196,1,191.999994140625,8|2,0:0|0:1,0:0:0:0:
148,202,54688,2,0,L|344:194,1,191.999994140625,8|2,0:0|0:1,0:0:0:0:
280,316,55152,1,2,0:1:0:0:
476,224,55307,1,8,0:0:0:0:
372,344,55461,1,0,0:0:0:0:
416,144,55616,2,0,P|428:88|408:32,1,95.9999970703126,2|2,0:1|0:1,0:0:0:0:
260,24,55925,2,0,P|248:80|268:136,1,95.9999970703126,8|0,0:0|0:0,0:0:0:0:
168,224,56235,6,0,B|48:220|48:220|16:180,1,160,4|8,0:0|0:0,0:0:0:0:
136,108,56699,1,0,0:0:0:0:
260,176,56853,2,0,P|272:232|264:264,1,80,2|2,0:1|0:1,0:0:0:0:
208,376,57162,2,0,P|196:320|204:288,1,80,8|2,0:0|0:1,0:0:0:0:
352,192,57472,6,0,L|524:204,1,160,2|8,0:1|0:0,0:0:0:0:
408,296,57936,1,0,0:0:0:0:
272,216,58090,1,8,0:0:0:0:
269,176,58167,1,8,0:0:0:0:
285,140,58244,1,8,0:0:0:0:
316,115,58321,1,8,0:0:0:0:
355,107,58400,2,8,L|408:100,1,40
512,72,58554,2,8,L|459:65,1,40
388,12,58709,1,0,0:0:0:0:
394,101,59946,6,0,L|410:13,2,80,4|0|0,0:0|0:0|0:0,0:0:0:0:
512,200,60410,1,4,0:0:0:0:
284,352,60719,1,0,0:0:0:0:
284,352,60796,1,0,0:0:0:0:
284,352,60874,2,0,P|292:296|240:240,1,120,4|0,0:0|0:0,0:0:0:0:
216,224,61183,6,0,L|124:232,1,80,4|0,0:0|0:0,0:0:0:0:
64,112,61492,2,0,L|156:120,1,80,8|0,0:0|0:0,0:0:0:0:
280,104,61802,2,0,P|288:52|272:8,2,80,2|2|8,0:1|0:1|0:0,0:0:0:0:
216,224,62266,6,0,L|396:224,1,160,2|2,0:1|0:1,0:0:0:0:
488,140,62729,1,8,0:0:0:0:
468,280,62884,1,0,0:0:0:0:
364,128,63039,2,0,L|284:125,1,80,2|2,0:1|0:1,0:0:0:0:
172,40,63348,1,8,0:0:0:0:
60,176,63503,6,0,P|44:212|92:316,1,160,4|2,0:0|0:1,0:0:0:0:
224,272,63967,1,8,0:0:0:0:
168,372,64121,1,0,0:0:0:0:
132,232,64276,2,0,L|176:152,2,80,2|2|8,0:1|0:1|0:0,0:0:0:0:
124,72,64740,6,0,B|184:68|184:68|228:88|228:88|296:84,1,160,2|2,0:1|0:1,0:0:0:0:
416,56,65204,2,0,P|428:100|424:144,1,80,8|0,0:0|0:0,0:0:0:0:
328,236,65513,2,0,P|316:192|320:148,1,80,2|2,0:1|0:1,0:0:0:0:
440,224,65822,1,12,0:0:0:0:
308,344,65977,1,0,0:0:0:0:
308,344,66054,1,0,0:0:0:0:
308,344,66132,6,0,L|144:332,1,160,4|8,0:0|0:0,0:0:0:0:
40,244,66595,1,0,0:0:0:0:
172,196,66750,2,0,P|192:136|116:72,1,160,2|8,0:1|0:0,0:0:0:0:
272,80,67214,6,0,L|452:88,1,160,2|2,0:1|0:1,0:0:0:0:
464,220,67678,2,0,L|364:224,1,80,8|0,0:0|0:0,0:0:0:0:
252,272,67987,1,2,0:1:0:0:
384,328,68142,1,2,0:1:0:0:
312,168,68296,1,8,0:0:0:0:
280,372,68451,6,0,P|208:368|148:288,1,160,4|2,0:0|0:1,0:0:0:0:
144,168,68915,2,0,L|152:84,1,80,8|0,0:0|0:0,0:0:0:0:
276,16,69224,2,0,L|268:100,1,80,2|2,0:1|0:1,0:0:0:0:
284,232,69534,1,8,0:0:0:0:
440,280,69688,6,0,P|460:220|408:136,1,160,4|2,0:0|0:1,0:0:0:0:
280,120,70152,2,0,L|192:128,1,80,8|0,0:0|0:0,0:0:0:0:
96,32,70461,2,0,L|184:40,1,80,2|2,0:1|0:1,0:0:0:0:
76,156,70771,1,8,0:0:0:0:
200,128,70925,1,0,0:0:0:0:
148,292,71080,6,0,P|228:288|264:364,1,160,4|8,0:0|0:0,0:0:0:0:
404,368,71544,2,0,L|416:200,1,160,2|2,0:1|0:1,0:0:0:0:
352,80,72008,1,8,0:0:0:0:
276,256,72162,1,0,0:0:0:0:
160,68,72317,6,0,P|112:48|4:96,1,160,2|8,0:1|0:0,0:0:0:0:
104,296,72781,2,0,B|112:248|112:248|96:136,1,160,2|2,0:1|0:1,0:0:0:0:
200,44,73245,2,0,L|196:140,1,80,8|0,0:0|0:0,0:0:0:0:
216,172,73477,1,0,0:0:0:0:
216,172,73554,6,0,P|272:160|372:216,1,160,2|8,0:1|0:0,0:0:0:0:
332,336,74018,2,0,P|276:348|176:292,1,160,2|2,0:1|0:1,0:0:0:0:
88,208,74482,1,8,0:0:0:0:
244,116,74637,6,0,P|264:76|168:60,1,160,4|2,0:0|0:1,0:0:0:0:
20,120,75101,2,0,L|104:116,1,80,8|0,0:0|0:0,0:0:0:0:
160,244,75410,2,0,L|216:181,1,80,2|2,0:1|0:1,0:0:0:0:
352,204,75719,2,0,L|348:120,1,80,8|0,0:0|0:0,0:0:0:0:
440,40,75951,1,0,0:0:0:0:
440,40,76028,6,0,L|448:208,1,160,4|8,0:0|0:0,0:0:0:0:
368,304,76492,2,0,P|316:340|212:316,1,160,4|2,0:0|0:1,0:0:0:0:
120,156,76956,1,8,0:0:0:0:
96,296,77111,1,0,0:0:0:0:
286,250,77266,6,4,B|306:74|306:74|238:146,1,256
252,132,78503,6,0,L|440:104,1,160,4|8,0:0|0:0,0:0:0:0:
492,220,78967,1,0,0:0:0:0:
408,328,79121,2,0,L|220:300,1,160,2|8,0:1|0:0,0:0:0:0:
92,344,79585,6,0,B|104:296|104:296|80:240|80:240|104:164,1,160,4|2,0:0|0:1,0:0:0:0:
172,100,80049,1,8,0:0:0:0:
320,120,80204,1,8,0:0:0:0:
188,190,80358,1,8,0:0:0:0:
253,55,80513,1,8,0:0:0:0:
279,202,80668,1,8,0:0:0:0:
279,202,80822,1,8,0:0:0:0:
440,260,80977,6,0,P|424:300|432:348,1,80,4|0,0:0|0:0,0:0:0:0:
338,250,81286,2,0,P|311:216|265:199,1,80,8|0,0:0|0:0,0:0:0:0:
384,168,81595,2,0,P|426:161|464:130,1,80,8|0,0:0|0:0,0:0:0:0:
344,12,81905,1,8,0:0:0:0:
448,56,82059,1,0,0:0:0:0:
272,88,82214,6,0,L|168:80,1,80,8|0,0:0|0:0,0:0:0:0:
84,168,82523,2,0,L|188:160,1,80,8|0,0:0|0:0,0:0:0:0:
252,272,82833,2,0,L|148:264,1,80,8|0,0:0|0:0,0:0:0:0:
12,248,83142,1,8,0:0:0:0:
96,348,83296,1,0,0:0:0:0:
308,352,83451,5,8,0:0:0:0:
308,352,83606,1,0,0:0:0:0:
344,216,83760,1,8,0:0:0:0:
344,216,83915,1,0,0:0:0:0:
488,240,84070,1,8,0:0:0:0:
488,240,84225,1,0,0:0:0:0:
452,380,84379,1,8,0:0:0:0:
452,380,84534,1,0,0:0:0:0:
228,248,84688,6,0,L|252:160,1,80,4|0,0:0|0:0,0:0:0:0:
184,68,84997,1,8,0:0:0:0:
140,276,85152,2,0,P|172:320|284:316,1,160,4|0,0:0|0:0,0:0:0:0:
249,170,85616,1,8,0:0:0:0:
280,336,85771,5,0,0:0:0:0:
280,336,85848,1,0,0:0:0:0:
280,336,85925,2,0,L|360:332,1,80,4|0,0:0|0:0,0:0:0:0:
484,264,86235,2,0,L|404:260,1,80,8|0,0:0|0:0,0:0:0:0:
292,180,86544,2,0,L|372:176,1,80,8|0,0:0|0:0,0:0:0:0:
508,96,86853,2,0,L|428:92,1,80,8|0,0:0|0:0,0:0:0:0:
192,24,87162,5,4,0:0:0:0:
108,140,87317,1,2,0:1:0:0:
96,32,87472,1,2,0:1:0:0:
212,144,87626,2,0,P|196:204|96:248,1,160,4|2,0:0|0:1,0:0:0:0:
20,352,88090,1,8,0:0:0:0:
244,300,88245,1,0,0:0:0:0:
244,300,88322,1,0,0:0:0:0:
244,300,88400,5,8,0:0:0:0:
108,140,88554,1,0,0:0:0:0:
140,348,88709,1,0,0:0:0:0:
140,348,89018,2,0,L|152:248,2,80,4|0|0,0:0|0:0|0:0,0:0:0:0:
284,376,89482,6,0,P|328:332|312:212,1,160,4|0,0:0|0:0,0:0:0:0:
272,112,89946,2,0,L|176:124,1,80,8|0,0:0|0:0,0:0:0:0:
60,76,90255,1,2,0:1:0:0:
136,200,90410,1,0,0:0:0:0:
136,200,90487,1,0,0:0:0:0:
136,200,90565,1,8,0:0:0:0:
216,32,90719,1,0,0:0:0:0:
216,32,90796,1,0,0:0:0:0:
216,32,90874,6,0,L|324:36,1,80,4|0,0:0|0:0,0:0:0:0:
416,112,91183,2,0,P|420:144|404:200,1,80,8|0,0:0|0:0,0:0:0:0:
272,228,91492,1,2,0:1:0:0:
336,144,91647,1,0,0:0:0:0:
356,304,91802,1,8,0:0:0:0:
336,144,91956,6,0,L|168:144,1,160,2|2,0:1|0:1,0:0:0:0:
56,216,92420,1,8,0:0:0:0:
136,312,92575,1,0,0:0:0:0:
236,252,92729,2,0,L|332:248,2,80,2|2|8,0:1|0:1|0:0,0:0:0:0:
325,327,93193,6,0,P|388:284|384:208,1,160,4|2,0:0|0:1,0:0:0:0:
208,256,93657,1,8,0:0:0:0:
260,88,93812,1,0,0:0:0:0:
144,148,93967,2,0,L|48:140,1,80,2|2,0:1|0:1,0:0:0:0:
128,280,94276,1,8,0:0:0:0:
312,172,94430,6,0,L|488:160,1,160,2|2,0:1|0:1,0:0:0:0:
484,288,94894,2,0,L|372:276,1,80,8|0,0:0|0:0,0:0:0:0:
264,300,95204,1,2,0:1:0:0:
360,368,95358,1,2,0:1:0:0:
360,368,95513,1,8,0:0:0:0:
216,216,95668,6,0,P|192:164|248:84,1,160,4|2,0:0|0:1,0:0:0:0:
384,72,96132,2,0,L|468:80,1,80,8|0,0:0|0:0,0:0:0:0:
356,172,96441,1,2,0:1:0:0:
308,16,96595,1,2,0:1:0:0:
308,16,96750,1,8,0:0:0:0:
448,180,96905,6,0,P|432:228|320:260,1,160,2|2,0:1|0:1,0:0:0:0:
200,288,97369,2,0,L|112:288,1,80,8|0,0:0|0:0,0:0:0:0:
40,172,97678,1,2,0:1:0:0:
96,40,97833,1,2,0:1:0:0:
152,156,97987,1,8,0:0:0:0:
96,40,98142,6,0,L|272:48,1,160,4|8,0:0|0:0,0:0:0:0:
380,152,98606,1,2,0:1:0:0:
276,204,98760,1,2,0:1:0:0:
348,40,98915,1,8,0:0:0:0:
480,188,99070,1,8,0:0:0:0:
344,280,99224,1,8,0:0:0:0:
456,300,99379,1,8,0:0:0:0:
300,124,99534,6,0,B|280:128|248:108|248:108|208:120|208:120|184:96|128:72|76:132,1,240,4|0,0:0|0:0,0:0:0:0:
148,176,100152,2,0,P|168:120|36:56,1,240,4|0,0:0|0:0,0:0:0:0:
88,236,100771,5,8,0:0:0:0:
88,236,100925,1,8,0:0:0:0:
392,272,101235,1,8,0:0:0:0:
392,272,101389,1,8,0:0:0:0:
124,344,101699,1,8,0:0:0:0:
124,344,101853,1,8,0:0:0:0:
260,104,102162,1,8,0:0:0:0:
260,104,102317,1,8,0:0:0:0:
288,352,102626,2,0,L|388:364,1,80,8|2,0:0|0:1,0:0:0:0:
367,361,102859,1,2,0:1:0:0:
367,361,102936,1,8,0:0:0:0:
456,72,103245,5,4,0:0:0:0:
456,72,103400,1,8,0:0:0:0:
464,352,103709,1,8,0:0:0:0:
464,352,103863,1,8,0:0:0:0:
248,156,104173,1,8,0:0:0:0:
248,156,104327,1,8,0:0:0:0:
512,256,104637,1,8,0:0:0:0:
512,256,104791,1,8,0:0:0:0:
220,300,105101,2,8,P|200:296|128:304,2,80
140,299,105565,6,0,B|136:235|136:235|116:207|116:207|112:123,1,160,4|2,0:0|0:1,0:0:0:0:
216,52,106028,2,0,L|208:144,1,80,8|0,0:0|0:0,0:0:0:0:
308,248,106338,1,2,0:1:0:0:
308,248,106492,1,2,0:1:0:0:
352,128,106647,1,8,0:0:0:0:
352,324,106802,6,0,P|296:336|224:264,1,160,4|8,0:0|0:0,0:0:0:0:
224,148,107266,1,2,0:1:0:0:
120,236,107420,1,2,0:1:0:0:
80,92,107575,2,8,L|-12:88,2,80
248,24,108039,1,4,0:0:0:0:
