osu file format v14

[General]
AudioFilename: audio.mp3
AudioLeadIn: 0
PreviewTime: 61106
Countdown: 0
SampleSet: Soft
StackLeniency: 0.7
Mode: 0
LetterboxInBreaks: 0
WidescreenStoryboard: 1

[Editor]
DistanceSpacing: 0.9
BeatDivisor: 4
GridSize: 4
TimelineZoom: 2.2

[Metadata]
Title:Dokidoki SING OUT!
TitleUnicode:どきどきSING OUT!
Artist:Toyama Kasumi (CV.Aimi)
ArtistUnicode:戸山香澄(CV.愛美)
Creator:Underdogs
Version:Hard
Source:BanG Dream! ガールズバンドパーティ!
Tags:Poppin'Party Hikan walaowey Yamicchi bang dream girls band party
BeatmapID:1322270
BeatmapSetID:623515

[Difficulty]
HPDrainRate:5
CircleSize:3.7
OverallDifficulty:5
ApproachRate:8
SliderMultiplier:1.5
SliderTickRate:1

[Events]
//Background and Video events
0,0,"background.jpg",0,0
//Break Periods
//Storyboard Layer 0 (Background)
//Storyboard Layer 1 (Fail)
//Storyboard Layer 2 (Pass)
//Storyboard Layer 3 (Foreground)
//Storyboard Sound Samples

[TimingPoints]
565,309.278350515464,4,2,1,75,1,0
565,-133.333333333333,4,2,1,75,0,0
7987,-111.111111111111,4,2,1,75,0,0
10307,-100,4,2,1,60,0,0
11699,-100,4,2,1,85,0,0
16647,-133.333333333333,4,2,1,85,0,0
20358,-100,4,2,1,85,0,0
24070,-133.333333333333,4,2,1,70,0,0
31492,-133.333333333333,4,2,1,20,0,0
31802,-133.333333333333,4,2,1,40,0,0
32111,-133.333333333333,4,2,1,60,0,0
32729,-133.333333333333,4,2,1,70,0,0
33967,-100,4,2,1,85,0,0
43863,-133.333333333333,4,2,1,85,0,0
46338,-100,4,2,1,85,0,0
51286,-133.333333333333,4,2,1,85,0,0
54070,-83.3333333333333,4,2,1,85,0,0
56235,-100,4,2,1,85,0,0
58090,-100,4,2,1,60,0,0
61183,-100,4,2,1,85,0,1
77266,-166.666666666667,4,2,1,85,0,1
78503,-100,4,2,1,85,0,1
80049,-100,4,2,1,65,0,1
80204,-100,4,2,1,70,0,1
80358,-100,4,2,1,75,0,1
80513,-100,4,2,1,80,0,1
80668,-100,4,2,1,85,0,1
80977,-100,4,2,1,85,0,0
90874,-100,4,2,1,85,0,1
108039,-100,4,2,1,85,0,0

[Colours]
Combo1 : 255,128,255
Combo2 : 255,21,39
Combo3 : 0,163,240
Combo4 : 255,255,0

[HitObjects]
488,112,565,6,0,P|436:132|368:108,1,112.500004291535,2|0,0:0|0:0,0:0:0:0:
324,60,1028,2,0,L|196:60,1,112.500004291535,2|0,0:0|0:0,0:0:0:0:
136,24,1492,1,2,0:0:0:0:
48,160,1802,6,0,P|28:216|44:276,1,112.500004291535,2|0,0:0|0:0,0:0:0:0:
176,352,2420,2,0,P|196:296|180:236,1,112.500004291535,2|0,0:0|0:0,0:0:0:0:
176,88,3039,2,0,B|116:88|116:88|88:76|88:76|4:76,2,168.750006437302,2|2|2,0:0|0:0|0:0,0:0:0:0:
244,136,4121,1,0,0:0:0:0:
344,68,4276,6,0,B|352:160|352:160|336:192,1,112.500004291535,2|0,0:0|0:0,0:0:0:0:
192,224,4894,2,0,B|184:316|184:316|200:348,1,112.500004291535,2|0,0:0|0:0,0:0:0:0:
352,352,5513,2,0,P|412:328|508:372,2,168.750006437302,2|2|0,0:0|0:0|0:0,0:0:0:0:
192,332,6750,6,0,P|144:324|76:344,1,112.500004291535,2|0,0:1|0:0,0:0:0:0:
8,304,7214,1,0,0:0:0:0:
48,232,7369,2,0,L|40:116,1,112.500004291535,2|0,0:1|0:0,0:0:0:0:
228,80,7987,2,0,L|232:8,2,67.4999979400635,8|2|2,0:0|0:1|0:1,0:0:0:0:
188,164,8451,2,0,P|244:172|312:124,1,134.999995880127,4|0,0:0|0:0,0:0:0:0:
328,32,8915,1,8,0:0:0:0:
352,232,9224,5,8,0:0:0:0:
352,232,9843,2,0,L|432:208,2,67.4999979400635,8|0|0,0:0|0:0|0:0,0:0:0:0:
288,316,10307,2,0,L|128:304,1,150,4|2,1:0|1:0,0:0:0:0:
44,256,10771,1,8,0:0:0:0:
44,256,10925,1,8,0:0:0:0:
112,176,11080,1,8,0:0:0:0:
112,176,11235,1,8,0:0:0:0:
80,72,11389,2,0,P|128:68|168:80,1,75,8|0,0:0|0:0,0:0:0:0:
192,108,11621,1,0,0:0:0:0:
192,108,11699,6,0,L|208:24,1,75,4|2,0:0|0:1,0:0:0:0:
288,108,12008,2,0,L|272:192,1,75,8|2,0:0|0:1,0:0:0:0:
192,248,12317,2,0,P|144:244|108:224,1,75,8|2,0:0|0:1,0:0:0:0:
48,316,12626,2,0,P|96:320|132:340,1,75,8|2,0:0|0:1,0:0:0:0:
228,360,12936,2,0,L|384:348,1,150,8|8,0:0|0:0,0:0:0:0:
484,316,13400,1,2,0:1:0:0:
412,240,13554,2,0,L|320:248,1,75,8|2,0:0|0:1,0:0:0:0:
296,144,13863,2,0,L|376:148,1,75,8|0,0:0|0:0,0:0:0:0:
472,108,14173,6,0,P|480:56|468:28,1,75,8|2,0:0|0:1,0:0:0:0:
364,32,14482,2,0,L|280:36,1,75,8|2,0:0|0:1,0:0:0:0:
200,96,14791,2,0,L|125:92,1,75,8|0,0:0|0:0,0:0:0:0:
48,168,15101,1,8,0:0:0:0:
108,260,15255,1,2,0:1:0:0:
56,352,15410,2,0,L|208:356,1,150,8|8,0:0|0:0,0:0:0:0:
292,296,15874,1,2,0:1:0:0:
388,348,16028,1,8,0:0:0:0:
440,252,16183,2,0,L|492:252,2,37.5,2|2|8,0:1|0:1|0:0,0:0:0:0:
352,200,16492,1,2,0:1:0:0:
444,168,16647,6,0,P|468:136|424:24,1,168.750006437302,4|2,0:0|0:1,0:0:0:0:
340,36,17266,2,0,B|280:28|304:60|212:36,1,112.500004291535,8|0,0:0|0:0,0:0:0:0:
124,108,17729,2,0,L|184:116,1,56.2500021457673,2|0,0:1|0:0,0:0:0:0:
268,124,18039,1,8,0:0:0:0:
228,40,18193,1,2,0:1:0:0:
179,115,18348,1,2,0:1:0:0:
212,204,18503,2,0,L|84:188,1,112.500004291535,8|0,0:0|0:0,0:0:0:0:
56,260,18967,1,0,0:0:0:0:
148,288,19121,6,0,B|184:308|200:352|200:352|232:332|292:344,1,168.750006437302,4|2,0:0|0:1,0:0:0:0:
364,352,19740,2,0,P|396:340|328:272,1,168.750006437302,8|2,0:0|0:1,0:0:0:0:
248,224,20358,6,0,P|264:192|264:144,1,75,8|0,0:0|0:0,0:0:0:0:
160,120,20668,2,0,P|144:152|144:200,1,75,8|0,0:0|0:0,0:0:0:0:
256,224,20977,2,0,P|272:192|272:144,1,75,8|0,0:0|0:0,0:0:0:0:
152,120,21286,2,0,P|136:152|136:200,1,75,8|0,0:0|0:0,0:0:0:0:
176,312,21595,5,8,0:0:0:0:
176,312,21750,1,8,0:0:0:0:
336,336,22059,1,8,0:0:0:0:
336,336,22214,1,8,0:0:0:0:
364,184,22523,1,8,0:0:0:0:
364,184,22678,1,8,0:0:0:0:
204,160,22987,1,8,0:0:0:0:
204,160,23142,1,8,0:0:0:0:
64,236,23451,5,8,0:0:0:0:
28,136,23606,1,2,0:1:0:0:
28,136,23683,1,2,0:1:0:0:
28,136,23760,2,0,P|16:96|24:60,1,75,8|0,0:0|0:0,0:0:0:0:
112,92,24070,6,0,L|248:92,1,112.500004291535,4|2,0:0|0:1,0:0:0:0:
300,68,24534,1,0,0:0:0:0:
360,124,24688,2,0,P|376:164|348:224,1,112.500004291535,2|2,0:1|0:1,0:0:0:0:
272,256,25152,1,0,0:0:0:0:
200,208,25307,2,0,P|184:256|216:324,2,112.500004291535,2|2|2,0:1|0:1|0:1,0:0:0:0:
256,148,26080,1,0,0:0:0:0:
224,72,26235,2,0,L|156:72,1,56.2500021457673,2|0,0:1|0:0,0:0:0:0:
84,140,26544,6,0,P|100:188|68:256,1,112.500004291535,2|2,0:1|0:1,0:0:0:0:
24,304,27008,1,0,0:0:0:0:
84,360,27162,2,0,L|160:356,1,56.2500021457673,2|0,0:1|0:0,0:0:0:0:
208,312,27472,2,0,L|264:314,1,56.2500021457673,2|0,0:1|0:0,0:0:0:0:
344,304,27781,2,0,P|336:248|352:176,1,112.500004291535,2|2,0:1|0:1,0:0:0:0:
428,192,28245,1,0,0:1:0:0:
428,192,28400,2,0,P|436:248|420:320,1,112.500004291535,2|2,0:1|0:1,0:0:0:0:
232,348,29018,6,0,P|192:336|104:352,1,112.500004291535,2|2,0:1|0:1,0:0:0:0:
40,360,29482,1,0,0:0:0:0:
4,288,29637,2,0,L|16:160,1,112.500004291535,2|2,0:1|0:1,0:0:0:0:
76,120,30101,1,0,0:0:0:0:
104,196,30255,2,0,L|176:200,1,56.2500021457673,2|0,0:1|0:0,0:0:0:0:
204,128,30565,2,0,L|260:124,1,56.2500021457673,2|0,0:1|0:0,0:0:0:0:
320,184,30874,2,0,L|330:296,1,112.500004291535,2|2,0:1|0:1,0:0:0:0:
392,352,31338,1,0,0:0:0:0:
424,260,31492,6,0,L|412:140,1,112.500004291535,8|8,0:0|0:0,0:0:0:0:
356,80,31956,1,0,0:0:0:0:
280,112,32111,2,0,P|244:128|168:108,1,112.500004291535,8|8,0:0|0:0,0:0:0:0:
120,52,32575,1,0,0:0:0:0:
36,148,32729,6,0,L|112:156,1,56.2500021457673,8|2,0:0|0:1,0:0:0:0:
144,240,33039,2,0,L|68:248,1,56.2500021457673,8|2,0:0|0:1,0:0:0:0:
36,332,33348,2,0,L|112:340,1,56.2500021457673,8|2,0:0|0:1,0:0:0:0:
176,320,33657,1,8,0:0:0:0:
176,320,33967,6,0,P|240:312|328:332,1,150,4|8,0:0|0:0,0:0:0:0:
424,360,34430,1,0,0:0:0:0:
484,268,34585,2,0,L|488:116,1,150,2|8,0:1|0:0,0:0:0:0:
408,48,35049,1,0,0:0:0:0:
340,128,35204,2,0,L|344:216,2,75,2|0|8,0:1|0:0|0:0,0:0:0:0:
260,56,35668,2,0,P|208:32|116:60,1,150,2|2,0:1|0:1,0:0:0:0:
68,148,36132,1,8,0:0:0:0:
48,348,36441,6,0,L|40:264,1,75,2|0,0:1|0:0,0:0:0:0:
136,232,36750,2,0,L|144:316,1,75,8|0,0:0|0:0,0:0:0:0:
244,336,37059,2,0,L|236:252,1,75,2|2,0:1|0:1,0:0:0:0:
328,216,37369,2,0,L|336:300,1,75,8|0,0:0|0:0,0:0:0:0:
416,356,37678,2,0,P|464:356|512:248,1,150,2|8,0:1|0:0,0:0:0:0:
444,128,38296,2,0,L|440:280,1,150,8|8,0:0|0:0,0:0:0:0:
440,277,38915,6,0,L|356:269,1,75,4|0,0:0|0:0,0:0:0:0:
280,332,39224,1,8,0:0:0:0:
196,260,39379,2,0,P|176:216|224:128,1,150,2|2,0:1|0:1,0:0:0:0:
328,136,39843,1,8,0:0:0:0:
144,32,40152,2,0,L|56:40,1,75,2|0,0:1|0:0,0:0:0:0:
29,138,40461,2,0,L|117:130,1,75,8|2,0:0|0:1,0:0:0:0:
176,204,40771,2,0,P|188:240|136:336,1,150,0|8,0:0|0:0,0:0:0:0:
88,248,41235,1,0,0:0:0:0:
104,132,41389,6,0,P|152:108|256:144,1,150,2|8,0:1|0:0,0:0:0:0:
340,176,41853,2,0,B|352:120|352:120|336:84|336:84|348:24,1,150,4|2,0:0|0:1,0:0:0:0:
452,68,42317,1,8,0:0:0:0:
356,264,42626,2,0,P|300:256|260:228,1,75,8|2,0:0|0:1,0:0:0:0:
164,312,42936,2,0,P|220:320|260:348,1,75,8|2,0:0|0:1,0:0:0:0:
356,272,43245,2,0,P|300:264|260:236,1,75,8|2,0:0|0:1,0:0:0:0:
168,304,43554,2,0,P|224:312|264:340,1,75,8|0,0:0|0:0,0:0:0:0:
104,356,43863,6,0,P|88:316|112:244,1,112.500004291535,4|8,0:0|0:0,0:0:0:0:
164,192,44327,1,2,0:1:0:0:
164,192,44482,2,0,P|180:139|163:86,1,112.500004291535,2|8,0:1|0:0,0:0:0:0:
88,44,44946,2,0,L|-28:36,2,112.500004291535,4|8|8,0:0|0:0|0:0,0:0:0:0:
163,86,45719,2,0,L|239:82,1,56.2500021457673,2|2,0:1|0:1,0:0:0:0:
292,44,46028,1,8,0:0:0:0:
448,200,46338,6,0,L|364:192,1,75,4|8,0:0|0:0,0:0:0:0:
180,280,46802,2,0,L|264:272,1,75,8|8,0:0|0:0,0:0:0:0:
408,116,47266,2,0,L|316:112,1,75,8|8,0:0|0:0,0:0:0:0:
120,68,47729,1,8,0:0:0:0:
120,68,47884,2,0,P|84:108|112:204,1,150,4|2,0:0|0:1,0:0:0:0:
216,212,48348,1,2,0:1:0:0:
232,92,48503,1,8,0:0:0:0:
408,208,48812,6,0,L|392:296,1,75,4|8,0:0|0:0,0:0:0:0:
184,356,49276,2,0,L|170:282,1,75,8|8,0:0|0:0,0:0:0:0:
272,116,49740,1,8,0:0:0:0:
272,116,49894,2,0,P|252:160|152:184,1,150,4|0,0:0|0:0,0:0:0:0:
80,136,50358,2,0,L|88:48,1,75,8|0,0:0|0:0,0:0:0:0:
184,24,50668,1,2,0:1:0:0:
292,32,50822,2,0,L|352:28,2,37.5,2|2|8,0:1|0:1|0:0,0:0:0:0:
192,104,51132,1,2,0:1:0:0:
192,104,51209,1,0,0:0:0:0:
192,104,51286,6,0,L|176:228,1,112.500004291535,4|0,0:0|0:0,0:0:0:0:
236,276,51750,1,2,0:1:0:0:
280,208,51905,2,0,P|312:200|396:248,1,112.500004291535,8|2,0:0|0:1,0:0:0:0:
428,304,52369,2,0,L|416:368,2,56.2500021457673,8|2|8,0:0|0:1|0:0,0:0:0:0:
480,240,52833,1,2,0:1:0:0:
436,168,52987,1,2,0:1:0:0:
436,168,53142,2,0,L|448:48,1,112.500004291535,8|8,0:0|0:0,0:0:0:0:
280,148,53760,6,0,L|272:212,1,56.2500021457673,2|0,0:1|0:0,0:0:0:0:
300,308,54070,2,0,B|236:304|236:304|192:272|192:272|112:268,1,179.999994506836,8|2,0:0|0:1,0:0:0:0:
40,112,54688,2,0,B|104:108|104:108|148:76|148:76|228:72,1,179.999994506836,8|2,0:0|0:1,0:0:0:0:
336,32,55152,1,2,0:1:0:0:
424,124,55307,2,0,P|436:180|424:224,1,89.9999972534181,8|0,0:0|0:0,0:0:0:0:
336,300,55616,2,0,L|152:292,1,179.999994506836,2|8,0:1|0:0,0:0:0:0:
156,292,56235,6,0,P|184:248|160:144,1,150,4|8,0:0|0:0,0:0:0:0:
84,88,56699,1,0,0:0:0:0:
180,32,56853,2,0,L|336:32,1,150,2|8,0:1|0:0,0:0:0:0:
436,68,57317,1,2,0:1:0:0:
424,176,57472,2,0,P|404:246|437:312,1,150,2|8,0:1|0:0,0:0:0:0:
344,368,57936,1,0,0:0:0:0:
260,296,58090,2,0,L|268:208,1,75,8|8,0:0|0:0,0:0:0:0:
266,221,58322,1,8,0:0:0:0:
266,221,58400,1,8,0:0:0:0:
200,132,58554,2,0,L|136:128,2,37.5,8|8|8,0:0|0:0|0:0,0:0:0:0:
292,48,59946,6,0,L|392:40,2,75,4|0|0,0:0|0:0|0:0,0:0:0:0:
184,36,60410,2,0,P|148:24|56:80,1,150,4|0,0:0|0:0,0:0:0:0:
140,116,60874,1,4,0:0:0:0:
140,116,61183,6,0,B|136:168|136:168|148:204|148:204|140:272,1,150,4|8,0:0|0:0,0:0:0:0:
196,348,61647,1,0,0:0:0:0:
260,276,61802,2,0,P|308:268|356:280,1,75,2|2,0:1|0:1,0:0:0:0:
424,332,62111,1,8,0:0:0:0:
500,256,62266,2,0,L|504:104,1,150,2|2,0:1|0:1,0:0:0:0:
420,44,62729,2,0,P|380:36|332:48,1,75,8|0,0:0|0:0,0:0:0:0:
284,128,63039,1,2,0:1:0:0:
184,84,63193,2,0,L|192:4,1,75,2|8,0:1|0:0,0:0:0:0:
76,108,63503,6,0,L|84:284,1,150,4|2,0:0|0:1,0:0:0:0:
168,328,63967,2,0,P|192:336|264:320,1,75,8|0,0:0|0:0,0:0:0:0:
324,264,64276,2,0,L|496:276,1,150,2|8,0:1|0:0,0:0:0:0:
512,168,64740,2,0,L|344:156,1,150,2|2,0:1|0:1,0:0:0:0:
272,104,65204,2,0,P|256:156|260:184,1,75,8|0,0:0|0:0,0:0:0:0:
362,157,65513,2,0,P|378:105|374:77,1,75,2|2,0:1|0:1,0:0:0:0:
308,0,65822,1,12,0:0:0:0:
308,0,66132,6,0,P|264:28|164:12,1,150,4|8,0:0|0:0,0:0:0:0:
68,48,66595,1,0,0:0:0:0:
132,136,66750,2,0,L|124:292,1,150,2|8,0:1|0:0,0:0:0:0:
216,348,67214,2,0,P|268:332|372:360,1,150,2|2,0:1|0:1,0:0:0:0:
460,316,67678,2,0,L|472:236,1,75,8|0,0:0|0:0,0:0:0:0:
424,148,67987,2,0,L|440:56,2,75,2|2|8,0:1|0:1|0:0,0:0:0:0:
352,232,68451,6,0,P|300:248|196:220,1,150,4|2,0:0|0:1,0:0:0:0:
152,144,68915,2,0,P|148:128|160:56,1,75,8|0,0:0|0:0,0:0:0:0:
264,72,69224,2,0,P|268:88|256:160,1,75,2|2,0:1|0:1,0:0:0:0:
208,228,69534,1,8,0:0:0:0:
80,180,69688,6,0,P|68:128|92:16,1,150,4|2,0:0|0:1,0:0:0:0:
192,24,70152,2,0,L|276:32,1,75,8|0,0:0|0:0,0:0:0:0:
316,128,70461,2,0,L|232:136,1,75,2|2,0:1|0:1,0:0:0:0:
184,224,70771,1,8,0:0:0:0:
224,324,70925,1,0,0:0:0:0:
332,296,71080,6,0,L|496:264,1,150,4|8,0:0|0:0,0:0:0:0:
404,344,71544,2,0,P|376:288|400:200,1,150,2|2,0:1|0:1,0:0:0:0:
488,148,72008,2,0,L|500:64,1,75,8|0,0:0|0:0,0:0:0:0:
388,56,72317,2,0,L|396:228,1,150,2|8,0:1|0:0,0:0:0:0:
296,252,72781,2,0,B|240:256|240:256|212:244|212:244|128:248,1,150,2|2,0:1|0:1,0:0:0:0:
56,304,73245,1,8,0:0:0:0:
156,344,73400,1,0,0:0:0:0:
136,224,73554,6,0,L|120:144,1,75,2|0,0:1|0:0,0:0:0:0:
176,56,73863,1,8,0:0:0:0:
264,124,74018,2,0,P|320:140|400:88,1,150,2|2,0:1|0:1,0:0:0:0:
316,48,74482,1,8,0:0:0:0:
316,48,74637,2,0,L|344:208,1,150,4|2,0:0|0:1,0:0:0:0:
392,292,75101,2,0,B|356:284|296:296,1,75,8|0,0:0|0:0,0:0:0:0:
216,328,75410,2,0,B|177:336|141:328,1,75,2|2,0:1|0:1,0:0:0:0:
56,264,75719,1,8,0:0:0:0:
40,248,76028,6,0,P|20:176|60:104,1,150,4|8,0:0|0:0,0:0:0:0:
136,52,76492,2,0,P|156:124|116:196,1,150,4|2,0:0|0:1,0:0:0:0:
140,296,76956,2,0,L|240:292,1,75,8|0,0:0|0:0,0:0:0:0:
304,340,77266,5,4,0:0:0:0:
304,340,77884,1,4,0:0:0:0:
304,340,78503,6,0,P|356:348|444:284,1,150,4|8,0:0|0:0,0:0:0:0:
348,240,78967,1,0,0:0:0:0:
392,140,79121,2,0,P|340:132|252:196,1,150,2|8,0:1|0:0,0:0:0:0:
188,264,79585,2,0,L|24:248,1,150,4|2,0:0|0:1,0:0:0:0:
20,144,80049,2,0,L|116:140,1,75,8|8,0:0|0:0,0:0:0:0:
184,52,80358,2,0,L|88:44,1,75,8|8,0:0|0:0,0:0:0:0:
192,160,80668,1,8,0:0:0:0:
192,160,80822,1,8,0:0:0:0:
280,92,80977,6,0,B|316:88|316:88|384:100,1,75,4|0,0:0|0:0,0:0:0:0:
432,188,81286,2,0,B|396:192|396:192|328:180,1,75,8|0,0:0|0:0,0:0:0:0:
244,240,81595,2,0,L|240:328,1,75,8|0,0:0|0:0,0:0:0:0:
356,356,81905,2,0,L|352:281,1,75,8|0,0:0|0:0,0:0:0:0:
357,185,82214,2,0,P|321:149|217:145,1,150,8|8,0:0|0:0,0:0:0:0:
144,200,82678,1,0,0:0:0:0:
144,200,82833,2,0,B|128:152|128:152|144:40,1,150,8|8,0:0|0:0,0:0:0:0:
256,16,83296,1,0,0:0:0:0:
369,53,83451,6,0,L|384:136,1,75,8|0,0:0|0:0,0:0:0:0:
480,172,83760,2,0,L|431:240,1,75,8|0,0:0|0:0,0:0:0:0:
412,324,84070,2,0,P|368:296|352:196,1,150,8|8,0:0|0:0,0:0:0:0:
280,104,84534,1,0,0:0:0:0:
280,104,84688,2,0,L|104:104,1,150,4|8,0:0|0:0,0:0:0:0:
40,152,85152,1,4,0:0:0:0:
136,232,85307,2,0,B|140:272|140:272|128:320,1,75,0|0,0:0|0:0,0:0:0:0:
12,340,85616,2,0,B|8:300|8:300|20:252,1,75,8|0,0:0|0:0,0:0:0:0:
164,212,85925,6,0,P|200:224|256:216,1,75,4|0,0:0|0:0,0:0:0:0:
348,276,86235,2,0,P|360:240|352:184,1,75,8|0,0:0|0:0,0:0:0:0:
416,96,86544,2,0,P|380:84|324:92,1,75,8|0,0:0|0:0,0:0:0:0:
228,44,86853,2,0,P|216:80|224:136,1,75,8|0,0:0|0:0,0:0:0:0:
236,222,87162,2,0,P|237:259|225:294,2,75,4|2|2,0:0|0:1|0:1,0:0:0:0:
156,328,87626,2,0,L|336:328,1,150,4|2,0:0|0:1,0:0:0:0:
432,320,88090,1,8,0:0:0:0:
296,148,88400,5,8,0:0:0:0:
152,320,89018,2,0,L|56:312,2,75,4|0|0,0:0|0:0|0:0,0:0:0:0:
124,200,89482,2,0,P|100:164|140:64,1,150,4|0,0:0|0:0,0:0:0:0:
240,56,89946,2,0,L|332:64,1,75,8|0,0:0|0:0,0:0:0:0:
356,160,90255,2,0,L|264:168,1,75,2|0,0:1|0:0,0:0:0:0:
281,166,90487,1,0,0:0:0:0:
281,166,90565,1,8,0:0:0:0:
216,264,90719,1,0,0:0:0:0:
384,248,90874,6,0,P|432:212|432:112,1,150,4|8,0:0|0:0,0:0:0:0:
360,56,91338,1,0,0:0:0:0:
256,92,91492,2,0,L|164:80,2,75,2|0|8,0:1|0:0|0:0,0:0:0:0:
252,200,91956,2,0,L|96:180,1,150,2|2,0:1|0:1,0:0:0:0:
28,260,92420,2,0,P|16:304|24:340,1,75,8|0,0:0|0:0,0:0:0:0:
124,364,92729,2,0,L|228:376,1,75,2|2,0:1|0:1,0:0:0:0:
288,304,93039,1,8,0:0:0:0:
408,352,93193,6,0,B|420:300|420:300|404:260|404:260|420:200,1,150,4|2,0:0|0:1,0:0:0:0:
492,128,93657,2,0,P|512:76|504:44,1,75,8|0,0:0|0:0,0:0:0:0:
400,36,93967,2,0,P|380:88|388:120,1,75,2|2,0:1|0:1,0:0:0:0:
417,208,94276,1,8,0:0:0:0:
316,252,94430,2,0,L|156:248,1,150,2|2,0:1|0:1,0:0:0:0:
76,304,94894,2,0,P|60:256|64:216,1,75,8|0,0:0|0:0,0:0:0:0:
150,176,95204,2,0,P|166:224|162:264,1,75,2|2,0:1|0:1,0:0:0:0:
144,356,95513,1,8,0:0:0:0:
236,304,95668,6,0,L|396:304,1,150,4|2,0:0|0:1,0:0:0:0:
488,276,96132,2,0,P|496:236|488:200,1,75,8|0,0:0|0:0,0:0:0:0:
416,120,96441,2,0,L|424:28,2,75,2|2|8,0:1|0:1|0:0,0:0:0:0:
320,176,96905,2,0,L|336:24,1,150,2|2,0:1|0:1,0:0:0:0:
240,68,97369,2,0,L|232:156,1,75,8|0,0:0|0:0,0:0:0:0:
164,224,97678,2,0,P|112:216|80:196,2,75,2|2|8,0:1|0:1|0:0,0:0:0:0:
272,256,98142,6,0,P|344:260|396:336,1,150,4|8,0:0|0:0,0:0:0:0:
304,336,98606,1,2,0:1:0:0:
200,316,98760,1,2,0:1:0:0:
96,340,98915,2,0,L|8:336,2,75,8|8|8,0:0|0:0|0:0,0:0:0:0:
136,240,99379,1,8,0:0:0:0:
260,188,99534,6,0,P|276:148|140:92,1,225,4|0,0:0|0:0,0:0:0:0:
200,140,100152,2,0,L|432:120,1,225,4|0,0:0|0:0,0:0:0:0:
456,256,100771,6,0,L|356:244,1,75,8|8,0:0|0:0,0:0:0:0:
184,328,101235,2,0,L|284:316,1,75,8|8,0:0|0:0,0:0:0:0:
372,136,101699,2,0,L|292:198,1,75,8|8,0:0|0:0,0:0:0:0:
328,384,102162,2,0,L|407:321,1,75,8|8,0:0|0:0,0:0:0:0:
208,220,102626,5,8,0:0:0:0:
112,300,102781,1,2,0:1:0:0:
112,300,102858,1,2,0:1:0:0:
112,300,102936,1,8,0:0:0:0:
52,96,103245,6,0,B|88:100|88:100|144:92,1,75,4|8,0:0|0:0,0:0:0:0:
340,88,103709,2,0,B|304:84|304:84|248:92,1,75,8|8,0:0|0:0,0:0:0:0:
84,196,104173,2,0,B|120:200|120:200|176:192,1,75,8|8,0:0|0:0,0:0:0:0:
372,196,104637,2,0,B|336:188|336:188|280:196,1,75,8|8,0:0|0:0,0:0:0:0:
128,332,105101,1,8,0:0:0:0:
232,296,105255,1,8,0:0:0:0:
328,344,105410,1,0,0:0:0:0:
456,328,105565,6,0,L|456:160,1,150,4|2,0:0|0:1,0:0:0:0:
480,76,106028,2,0,P|420:76|392:88,1,75,8|0,0:0|0:0,0:0:0:0:
336,164,106338,2,0,P|299:172|262:168,1,75,2|2,0:1|0:1,0:0:0:0:
196,84,106647,1,8,0:0:0:0:
100,136,106802,2,0,P|48:160|24:264,1,150,4|8,0:0|0:0,0:0:0:0:
92,324,107266,1,2,0:1:0:0:
92,324,107420,1,2,0:1:0:0:
186,287,107575,2,0,L|174:367,2,75,8|8|8,0:0|0:0|0:0,0:0:0:0:
108,224,108039,1,4,0:0:0:0:
