osu file format v14

[General]
AudioFilename: audio.mp3
AudioLeadIn: 0
PreviewTime: 63073
Countdown: 0
SampleSet: None
StackLeniency: 0.3
Mode: 0
LetterboxInBreaks: 0
WidescreenStoryboard: 1

[Editor]
DistanceSpacing: 1.4
BeatDivisor: 4
GridSize: 32
TimelineZoom: 2.6

[Metadata]
Title:Dokidoki SING OUT!
TitleUnicode:どきどき SING OUT!
Artist:Toyama Kasumi (CV.Aimi)
ArtistUnicode:戸山香澄 (CV.愛美)
Creator:Shizuku-
Version:1-2 SING OUT!
Source:バンドリ! ガールズバンドパーティ!
Tags:
BeatmapID:1857033
BeatmapSetID:888450

[Difficulty]
HPDrainRate:5
CircleSize:3.8
OverallDifficulty:9.6
ApproachRate:9.8
SliderMultiplier:2
SliderTickRate:1

[Events]
//Background and Video events
0,0,"kasumeme.jpg",0,0
//Break Periods
//Storyboard Layer 0 (Background)
//Storyboard Layer 1 (Fail)
//Storyboard Layer 2 (Pass)
//Storyboard Layer 3 (Foreground)
//Storyboard Sound Samples

[TimingPoints]
2454,309.278350515464,4,2,22,70,1,0
2454,-133.333333333333,4,2,22,70,0,0
3692,309.278350515464,4,2,22,70,1,0
3692,-133.333333333333,4,2,22,70,0,0
11114,-100,4,2,22,70,0,0
26269,-133.333333333333,4,2,22,70,0,0
35856,-100,4,2,22,70,0,0
53485,-133.333333333333,4,2,22,70,0,0
55650,-133.333333333333,4,2,22,70,0,0
55960,-83.3333333333333,4,2,22,70,0,0
56269,-133.333333333333,4,2,22,70,0,0
56578,-83.3333333333333,4,2,22,70,0,0
56887,-133.333333333333,4,2,22,70,0,0
63073,-83.3333333333333,4,2,22,70,0,1
79155,-100,4,2,22,70,0,1
79774,-133.333333333333,4,2,22,70,0,1
80393,-83.3333333333333,4,2,22,70,0,0
82867,-83.3333333333333,4,2,22,70,0,1
95238,-100,4,2,22,70,0,0
95393,-83.3333333333333,4,2,22,70,0,0
100186,-100,4,2,22,70,0,0
112403,-133.333333333333,4,2,22,70,0,0
112867,-100,4,2,22,5,0,0

[HitObjects]
443,136,2454,6,0,P|410:115|296:95,1,150.000005722046,2|0,0:0|0:0,0:0:0:0:
226,157,2917,2,0,P|244:72|248:-6,1,150.000005722046,2|0,0:0|0:0,0:0:0:0:
150,216,3381,2,0,P|154:257|163:298,1,75.0000028610231,2|0,0:0|0:0,0:0:0:0:
331,361,3692,6,0,L|253:354,1,75.0000028610231,2|0,0:0|0:0,0:0:0:0:
256,251,4001,2,0,L|184:283,1,75.0000028610231
337,373,4310,6,0,L|259:366,1,75.0000028610231,0|0,0:0|0:0,0:0:0:0:
260,238,4619,2,0,L|188:270,1,75.0000028610231,0|0,0:0|0:0,0:0:0:0:
3,149,4929,6,0,B|74:138|59:194|149:200,1,150.000005722046,2|0,0:0|0:0,0:0:0:0:
272,45,5393,2,0,B|201:34|216:90|126:96,1,150.000005722046,0|0,0:0|0:0,0:0:0:0:
247,208,5856,2,0,P|264:177|260:134,1,75.0000028610231,0|0,0:0|0:0,0:0:0:0:
159,277,6166,6,0,P|164:317|166:359,1,75.0000028610231,2|0,0:0|0:0,0:0:0:0:
251,237,6475,2,0,P|256:197|258:155,1,75.0000028610231,0|0,0:0|0:0,0:0:0:0:
339,296,6784,2,0,P|344:336|346:378,1,75.0000028610231,0|0,0:0|0:0,0:0:0:0:
431,256,7093,2,0,P|436:216|438:174,1,75.0000028610231,0|0,0:0|0:0,0:0:0:0:
425,40,7403,6,0,P|368:78|268:96,1,150.000005722046,2|0,0:0|0:0,0:0:0:0:
187,159,7867,2,0,P|209:87|205:13,1,150.000005722046
105,233,8331,5,2,0:0:0:0:
224,164,8485,2,0,L|182:158,1,37.5000014305115,0|0,0:0|0:0,0:0:0:0:
105,233,8640,5,8,0:0:0:0:
281,98,8949,1,0,0:0:0:0:
330,171,9104,2,0,L|371:167,2,37.5000014305115,0|0|8,0:0|0:0|0:0,0:0:0:0:
205,13,9568,1,0,0:0:0:0:
156,86,9723,2,0,L|115:82,2,37.5000014305115,0|0|8,0:0|0:0|0:0,0:0:0:0:
255,150,10032,1,8,0:0:0:0:
84,188,10186,1,2,0:0:0:0:
222,249,10341,6,0,B|297:243|275:302|356:317,1,150.000005722046,8|0,0:0|0:0,0:0:0:0:
445,209,10805,2,0,L|369:217,1,75.0000028610231,8|0,0:0|0:0,0:0:0:0:
187,63,11114,5,8,0:0:0:0:
156,323,11269,1,8,0:0:0:0:
156,323,11733,6,0,B|272:329|219:252|349:271,1,200,4|8,0:0|0:0,0:0:0:0:
226,38,12197,2,0,P|163:97|182:212,1,200,4|0,0:0|0:0,0:0:0:0:
332,62,12661,5,8,0:0:0:0:
132,105,12815,1,0,0:0:0:0:
374,187,12970,1,8,0:0:0:0:
94,233,13124,1,0,0:0:0:0:
387,322,13279,6,8,L|384:383,1,50
246,169,13434,2,0,L|243:108,1,50
403,131,13588,5,12,0:0:0:0:
215,228,13743,2,0,L|222:126,1,100,2|8,0:0|0:0,0:0:0:0:
384,371,14052,5,2,0:0:0:0:
299,144,14207,1,8,0:0:0:0:
190,327,14362,6,0,L|290:316,1,100,2|8,0:0|0:0,0:0:0:0:
237,36,14671,2,0,L|221:110,1,50,2|0,0:0|0:0,0:0:0:0:
384,83,14826,5,8,0:0:0:0:
104,153,14980,1,2,0:0:0:0:
310,266,15135,5,10,0:0:0:0:
190,22,15289,1,2,0:0:0:0:
156,308,15444,5,10,0:0:0:0:
275,99,15599,1,2,0:0:0:0:
279,384,15753,5,10,0:0:0:0:
126,128,15908,1,2,0:0:0:0:
70,369,16063,5,10,0:0:0:0:
222,236,16217,2,0,L|108:222,1,100,2|8,0:0|0:0,0:0:0:0:
221,104,16527,5,2,0:0:0:0:
275,353,16681,1,8,0:0:0:0:
401,188,16836,6,0,L|299:175,1,100,2|8,0:0|0:0,0:0:0:0:
153,330,17145,2,0,L|211:319,1,50,0|0,0:0|0:0,0:0:0:0:
44,160,17300,5,8,0:0:0:0:
302,249,17454,1,2,0:0:0:0:
161,49,17609,5,10,0:0:0:0:
119,304,17764,1,2,0:0:0:0:
276,33,17918,5,10,0:0:0:0:
327,376,18073,1,2,0:0:0:0:
405,46,18228,5,10,0:0:0:0:
83,159,18382,1,8,0:0:0:0:
441,251,18537,6,0,B|360:242|388:302|292:309,1,150,4|0,0:0|0:0,0:0:0:0:
251,237,18846,2,0,P|207:215|155:222,1,100,2|0,0:0|0:0,0:0:0:0:
334,119,19155,5,8,0:0:0:0:
145,244,19310,2,0,P|101:266|49:259,1,100,2|0,0:0|0:0,0:0:0:0:
161,35,19619,2,0,L|182:139,1,100,10|0,0:0|0:0,0:0:0:0:
308,356,19929,2,0,L|329:252,1,100,10|0,0:0|0:0,0:0:0:0:
356,75,20238,2,0,L|306:80,1,50,0|0,0:0|0:0,0:0:0:0:
115,43,20393,5,8,0:0:0:0:
348,124,20547,1,8,0:0:0:0:
86,191,20702,1,2,0:0:0:0:
372,274,20856,1,0,0:0:0:0:
42,348,21011,5,12,0:0:0:0:
278,146,21320,5,2,0:0:0:0:
237,324,21475,1,0,0:0:0:0:
115,43,21630,5,4,0:0:0:0:
237,324,21939,5,2,0:0:0:0:
199,91,22094,1,0,0:0:0:0:
96,337,22248,5,4,0:0:0:0:
349,285,22403,1,0,0:0:0:0:
96,210,22557,5,8,0:0:0:0:
349,262,22712,1,0,0:0:0:0:
96,196,22867,5,8,0:0:0:0:
349,144,23022,1,0,0:0:0:0:
96,69,23176,5,8,0:0:0:0:
349,121,23331,1,0,0:0:0:0:
108,329,23485,5,8,0:0:0:0:
158,70,23640,1,0,0:0:0:0:
269,360,23949,5,8,0:0:0:0:
257,69,24104,1,0,0:0:0:0:
95,331,24413,5,8,0:0:0:0:
152,60,24568,1,0,0:0:0:0:
282,371,24877,5,8,0:0:0:0:
268,57,25032,1,0,0:0:0:0:
191,223,25186,2,0,P|199:281|203:288,1,50,0|0,0:0|0:0,0:0:0:0:
316,122,25341,5,8,0:0:0:0:
106,201,25496,1,2,0:0:0:0:
349,217,25650,5,8,0:0:0:0:
81,120,25805,1,0,0:0:0:0:
429,24,25960,5,4,0:0:0:0:
205,106,26114,1,2,0:0:0:0:
437,171,26269,2,0,P|447:209|413:295,1,75.0000028610231,2|0,0:0|0:0,0:0:0:0:
327,373,26578,2,0,P|326:333|271:259,1,75.0000028610231,2|0,0:0|0:0,0:0:0:0:
106,201,26887,1,2,0:0:0:0:
201,336,27042,1,0,0:0:0:0:
215,164,27197,5,2,0:0:0:0:
119,295,27351,2,2,P|94:296|43:273,1,75.0000028610231
93,120,27661,2,0,P|99:155|103:197,1,75.0000028610231,2|0,0:0|0:0,0:0:0:0:
210,261,27970,2,0,P|204:296|200:338,1,75.0000028610231,2|0,0:0|0:0,0:0:0:0:
193,160,28279,1,0,0:0:0:0:
193,160,28356,1,0,0:0:0:0:
193,160,28434,6,0,B|273:164|253:118|330:102,1,150.000005722046,2|0,0:0|0:0,0:0:0:0:
442,125,28898,1,0,0:0:0:0:
357,281,29052,2,0,P|352:273|346:181,1,75.0000028610231,2|0,0:0|0:0,0:0:0:0:
197,282,29362,2,0,P|194:319|178:353,1,75.0000028610231,0|0,0:0|0:0,0:0:0:0:
34,237,29671,6,0,L|119:224,1,75.0000028610231,2|0,0:0|0:0,0:0:0:0:
252,364,29980,2,0,L|167:351,1,75.0000028610231,2|0,0:0|0:0,0:0:0:0:
206,129,30289,2,0,P|220:144|234:206,1,75.0000028610231,2|0,0:0|0:0,0:0:0:0:
357,281,30599,2,0,P|363:244|386:214,1,75.0000028610231,2|0,0:0|0:0,0:0:0:0:
311,13,30908,6,0,B|296:112|339:66|320:160,1,150.000005722046,2|2,0:0|0:0,0:0:0:0:
246,265,31372,1,2,0:0:0:0:
165,85,31527,2,0,P|128:72|85:68,1,75.0000028610231,2|0,0:0|0:0,0:0:0:0:
180,271,31836,2,0,P|217:258|260:254,1,75.0000028610231,2|0,0:0|0:0,0:0:0:0:
81,187,32145,6,0,L|72:268,1,75.0000028610231,2|0,0:0|0:0,0:0:0:0:
210,185,32454,2,0,L|219:266,1,75.0000028610231,2|0,0:0|0:0,0:0:0:0:
352,159,32764,2,0,L|343:240,1,75.0000028610231,2|0,0:0|0:0,0:0:0:0:
481,157,33073,2,0,L|490:238,1,75.0000028610231,2|0,0:0|0:0,0:0:0:0:
419,43,33382,6,0,B|331:42|358:89|283:95,1,150.000005722046,2|2,0:0|0:0,0:0:0:0:
132,60,33846,1,0,0:0:0:0:
208,196,34001,5,2,0:0:0:0:
222,24,34155,1,0,0:0:0:0:
106,213,34310,2,0,L|125:297,1,75.0000028610231,2|0,0:0|0:0,0:0:0:0:
377,117,34619,5,10,0:0:0:0:
102,94,34774,1,2,0:0:0:0:
318,269,34929,5,8,0:0:0:0:
185,34,35083,1,2,0:0:0:0:
184,298,35238,5,8,0:0:0:0:
290,13,35393,1,2,0:0:0:0:
314,369,35547,5,8,0:0:0:0:
213,73,35702,1,2,0:0:0:0:
176,373,35856,5,4,0:0:0:0:
313,99,36011,1,2,0:0:0:0:
366,352,36166,2,0,P|417:348|466:315,1,100,10|0,0:0|0:0,0:0:0:0:
313,99,36475,2,2,L|291:201,1,100
410,86,36784,1,8,0:0:0:0:
178,160,36939,1,2,0:0:0:0:
392,259,37094,5,2,0:0:0:0:
328,26,37248,2,0,L|226:15,1,100,2|8,0:0|0:0,0:0:0:0:
78,170,37557,2,0,L|180:159,1,100,2|0,0:0|0:0,0:0:0:0:
296,229,37867,1,2,0:0:0:0:
128,363,38021,2,0,L|139:261,1,100,8|0,0:0|0:0,0:0:0:0:
319,46,38331,6,0,P|335:78|328:164,1,100,2|0,0:0|0:0,0:0:0:0:
182,180,38640,2,0,P|166:212|173:298,1,100,8|0,0:0|0:0,0:0:0:0:
317,330,38949,1,2,0:0:0:0:
243,109,39104,1,0,0:0:0:0:
181,361,39259,2,0,L|67:373,1,100,8|0,0:0|0:0,0:0:0:0:
79,122,39568,5,2,0:0:0:0:
333,202,39722,1,2,0:0:0:0:
78,216,39877,5,8,0:0:0:0:
395,113,40032,1,2,0:0:0:0:
44,90,40186,5,8,0:0:0:0:
392,193,40341,1,0,0:0:0:0:
24,268,40496,1,8,0:0:0:0:
24,268,40805,6,0,B|121:257|97:356|215:361,1,200,6|8,0:0|0:0,0:0:0:0:
373,147,41269,2,0,B|276:136|300:235|182:240,1,200,2|0,0:0|0:0,0:0:0:0:
154,34,41733,2,0,P|187:83|196:157,1,100,10|0,0:0|0:0,0:0:0:0:
373,328,42042,6,0,B|276:339|300:240|182:235,1,200,2|10,0:0|0:0,0:0:0:0:
27,212,42506,2,0,B|124:223|100:124|218:119,1,200,2|0,0:0|0:0,0:0:0:0:
25,77,42970,1,8,0:0:0:0:
209,231,43124,1,2,0:0:0:0:
4,377,43279,6,0,P|77:313|198:333,1,200,2|8,0:0|0:0,0:0:0:0:
297,263,43743,2,0,P|249:260|205:226,1,100,6|0,0:0|0:0,0:0:0:0:
350,157,44052,1,0,0:0:0:0:
354,338,44207,2,0,P|310:359|255:351,1,100,8|0,0:0|0:0,0:0:0:0:
105,175,44516,5,8,0:0:0:0:
346,242,44671,1,0,0:0:0:0:
84,285,44826,5,8,0:0:0:0:
382,171,44980,1,0,0:0:0:0:
8,109,45135,5,8,0:0:0:0:
336,237,45289,1,0,0:0:0:0:
2,315,45444,5,8,0:0:0:0:
375,200,45599,1,0,0:0:0:0:
375,200,45676,1,0,0:0:0:0:
375,200,45753,6,0,B|271:185|304:289|161:279,1,200,4|2,0:0|0:0,0:0:0:0:
60,157,46217,1,0,0:0:0:0:
155,366,46372,6,0,L|372:357,1,200,8|8,0:0|0:0,0:0:0:0:
284,146,46836,2,0,L|277:200,1,50,0|0,0:0|0:0,0:0:0:0:
115,26,46990,5,4,0:0:0:0:
244,270,47145,2,0,P|288:276|356:239,1,100,8|0,0:0|0:0,0:0:0:0:
146,160,47454,1,2,0:0:0:0:
443,257,47609,5,8,0:0:0:0:
107,151,47764,1,2,0:0:0:0:
494,57,47918,1,8,0:0:0:0:
494,57,48228,5,8,0:0:0:0:
469,225,48382,1,8,0:0:0:0:
292,68,48692,5,8,0:0:0:0:
359,275,48846,1,8,0:0:0:0:
512,38,49156,5,8,0:0:0:0:
289,153,49310,2,8,B|163:166|232:64|47:96,1,200,8|2,0:0|0:0,0:0:0:0:
30,242,49773,2,8,P|72:215|154:215,1,100,12|0,0:0|0:0,0:0:0:0:
301,302,50083,5,8,0:0:0:0:
254,187,50238,1,2,0:0:0:0:
220,357,50393,5,8,0:0:0:0:
248,211,50547,1,2,0:0:0:0:
363,328,50702,5,8,0:0:0:0:
131,303,50856,1,8,0:0:0:0:
411,270,51165,5,8,0:0:0:0:
109,308,51320,1,8,0:0:0:0:
436,265,51629,5,8,0:0:0:0:
131,106,51784,2,8,B|162:246|90:154|141:346,1,200,4|8,0:0|0:0,0:0:0:0:
318,57,52248,5,8,0:0:0:0:
223,299,52403,2,8,L|215:248,1,50,8|8,0:0|0:0,0:0:0:0:
396,107,52557,5,8,0:0:0:0:
143,158,52712,1,8,0:0:0:0:
378,239,52867,5,8,0:0:0:0:
133,156,53022,1,8,0:0:0:0:
423,97,53176,1,4,0:0:0:0:
423,97,53485,6,0,L|410:19,1,75.0000028610231,2|0,0:0|0:0,0:0:0:0:
305,157,53795,2,0,L|292:235,1,75.0000028610231,10|0,0:0|0:0,0:0:0:0:
198,103,54104,2,0,L|185:25,1,75.0000028610231,2|8,0:0|0:0,0:0:0:0:
129,208,54413,6,0,P|117:224|64:249,1,75.0000028610231,2|0,0:0|0:0,0:0:0:0:
198,103,54722,2,0,P|210:119|263:144,1,75.0000028610231,2|0,0:0|0:0,0:0:0:0:
83,62,55032,2,0,L|74:151,1,75.0000028610231,8|0,0:0|0:0,0:0:0:0:
219,235,55341,2,0,L|228:324,1,75.0000028610231,2|0,0:0|0:0,0:0:0:0:
68,248,55650,6,0,P|130:235|183:274,1,112.500004291535,2|0,0:0|0:0,0:0:0:0:
114,314,55960,2,0,L|89:129,1,179.999994506836,4|0,0:0|0:0,0:0:0:0:
149,189,56269,6,0,P|116:239|57:245,1,112.500004291535,2|0,0:0|0:0,0:0:0:0:
114,106,56578,2,0,B|222:77|184:169|323:120,1,179.999994506836,4|0,0:0|0:0,0:0:0:0:
149,189,56887,5,8,0:0:0:0:
403,90,57042,1,2,0:0:0:0:
90,141,57197,1,8,0:0:0:0:
374,265,57351,1,2,0:0:0:0:
149,370,57506,5,8,0:0:0:0:
232,0,57815,1,8,0:0:0:0:
116,287,58124,6,0,B|202:260|181:323|265:303,1,150.000005722046,4|8,0:0|0:0,0:0:0:0:
368,233,58588,1,0,0:0:0:0:
245,137,58743,2,0,L|233:236,1,75.0000028610231,2|0,0:0|0:0,0:0:0:0:
372,78,59052,2,0,L|384:177,1,75.0000028610231,10|0,0:0|0:0,0:0:0:0:
94,77,59362,5,8,0:0:0:0:
315,226,59516,1,2,0:0:0:0:
99,262,59671,5,8,0:0:0:0:
253,111,59826,1,2,0:0:0:0:
214,340,59980,6,8,L|203:298,1,37.5000014305115
175,165,60135,2,8,L|164:207,1,37.5000014305115
201,352,60289,6,8,L|190:310,1,37.5000014305115
202,163,60444,2,8,L|191:205,1,37.5000014305115
119,55,60599,5,4,0:0:0:0:
139,45,61836,5,2,0:0:0:0:
206,349,61990,1,2,0:0:0:0:
266,38,62145,1,8,0:0:0:0:
108,233,62300,6,0,P|162:230|204:266,1,112.500004291535,0|0,0:0|0:0,0:0:0:0:
123,106,62609,2,8,B|224:121|160:62|294:79,1,150.000005722046
340,120,62996,1,8,0:0:0:0:
340,120,63073,6,0,P|405:118|465:86,1,119.999996337891,4|0,0:0|0:0,0:0:0:0:
237,0,63382,2,0,B|204:95|275:88|255:217,1,179.999994506836,10|0,0:0|0:0,0:0:0:0:
212,246,63692,2,0,P|178:294|168:362,1,119.999996337891,2|0,0:0|0:0,0:0:0:0:
333,257,64001,5,10,0:0:0:0:
231,83,64155,2,0,P|265:131|275:199,1,119.999996337891,2|0,0:0|0:0,0:0:0:0:
128,186,64465,5,2,0:0:0:0:
372,123,64619,1,10,0:0:0:0:
73,66,64774,1,2,0:0:0:0:
272,315,64929,1,2,0:0:0:0:
181,15,65083,1,2,0:0:0:0:
134,349,65238,1,8,0:0:0:0:
275,190,65393,6,0,B|125:147|196:270|1:219,1,239.999992675781,6|0,0:0|0:0,0:0:0:0:
190,382,65856,2,0,P|197:321|221:267,1,119.999996337891,8|0,0:0|0:0,0:0:0:0:
331,42,66166,5,2,0:0:0:0:
82,142,66320,1,0,0:0:0:0:
312,270,66475,1,8,0:0:0:0:
244,39,66630,6,0,B|107:19|165:114|20:92,1,239.999992675781,2|0,0:0|0:0,0:0:0:0:
208,138,67094,5,8,0:0:0:0:
17,193,67248,1,0,0:0:0:0:
238,244,67403,1,0,0:0:0:0:
0,321,67557,1,0,0:0:0:0:
87,74,67712,1,8,0:0:0:0:
86,75,68021,6,0,B|252:29|191:148|372:93,1,239.999992675781,4|10,0:0|0:0,0:0:0:0:
435,62,68485,1,2,0:0:0:0:
415,268,68640,2,0,L|395:144,1,119.999996337891,2|0,0:0|0:0,0:0:0:0:
245,106,68949,5,8,0:0:0:0:
277,344,69104,2,0,L|297:220,1,119.999996337891,2|0,0:0|0:0,0:0:0:0:
132,52,69413,5,2,0:0:0:0:
218,252,69568,1,8,0:0:0:0:
150,28,69722,1,0,0:0:0:0:
96,277,69877,1,2,0:0:0:0:
313,180,70032,1,2,0:0:0:0:
39,92,70186,1,8,0:0:0:0:
81,371,70341,6,0,B|191:382|138:286|332:327,1,239.999992675781,4|0,0:0|0:0,0:0:0:0:
132,158,70805,2,0,L|108:282,1,119.999996337891,8|0,0:0|0:0,0:0:0:0:
272,23,71114,5,2,0:0:0:0:
17,121,71269,1,0,0:0:0:0:
254,205,71423,1,8,0:0:0:0:
101,34,71578,6,0,L|69:286,1,239.999992675781,4|0,0:0|0:0,0:0:0:0:
205,53,72042,5,10,0:0:0:0:
249,337,72197,1,0,0:0:0:0:
377,104,72351,5,2,0:0:0:0:
228,349,72506,1,0,0:0:0:0:
482,265,72661,5,10,0:0:0:0:
210,356,72816,1,0,0:0:0:0:
147,44,72970,6,0,B|259:26|223:133|383:157,1,239.999992675781,4|8,0:0|0:0,0:0:0:0:
204,189,73434,2,0,B|92:171|128:278|-32:302,1,239.999992675781,2|2,0:0|0:0,0:0:0:0:
182,286,73898,1,10,0:0:0:0:
37,91,74052,1,2,0:0:0:0:
15,355,74207,6,0,P|75:326|137:333,1,119.999996337891,2|0,0:0|0:0,0:0:0:0:
210,140,74516,5,8,0:0:0:0:
249,300,74671,2,0,P|309:329|371:322,1,119.999996337891,2|0,0:0|0:0,0:0:0:0:
261,41,74980,5,0,0:0:0:0:
299,309,75135,1,8,0:0:0:0:
299,309,75444,6,0,B|166:284|235:387|64:361,1,239.999992675781,2|8,0:0|0:0,0:0:0:0:
52,96,75908,1,2,0:0:0:0:
268,201,76063,5,2,0:0:0:0:
31,116,76217,1,0,0:0:0:0:
263,26,76372,5,8,0:0:0:0:
184,301,76527,2,0,B|259:345|259:345|359:333|418:281,1,239.999992675781,4|0,0:0|0:0,0:0:0:0:
312,126,76990,2,0,P|285:171|272:252,1,119.999996337891,8|0,0:0|0:0,0:0:0:0:
178,39,77300,5,2,0:0:0:0:
460,146,77454,1,0,0:0:0:0:
30,233,77609,1,8,0:0:0:0:
30,233,77918,6,0,B|112:212|112:212|183:231|183:231|285:209,1,239.999992675781,4|8,0:0|0:0,0:0:0:0:
390,50,78382,2,0,B|320:29|320:29|275:91|185:130,1,239.999992675781,6|8,0:0|0:0,0:0:0:0:
1,75,78846,2,0,B|72:80|119:128,1,119.999996337891,0|0,0:0|0:0,0:0:0:0:
131,258,79155,5,4,0:0:0:0:
368,182,79465,1,0,0:0:0:0:
86,146,79774,1,4,0:0:0:0:
424,301,80083,1,0,0:0:0:0:
71,364,80393,6,0,B|33:229|132:257|84:131,1,239.999992675781,4|8,0:0|0:0,0:0:0:0:
44,37,80856,1,0,0:0:0:0:
155,194,81011,2,0,P|205:210|283:182,1,119.999996337891,0|0,0:0|0:0,0:0:0:0:
152,66,81320,5,8,0:0:0:0:
189,322,81475,6,0,B|292:382|314:257|419:328,1,239.999992675781,4|0,0:0|0:0,0:0:0:0:
143,219,81939,5,8,0:0:0:0:
394,137,82094,1,0,0:0:0:0:
126,224,82248,5,8,0:0:0:0:
419,328,82403,1,0,0:0:0:0:
419,328,82480,1,0,0:0:0:0:
419,328,82557,1,8,0:0:0:0:
148,42,82867,5,12,0:0:0:0:
210,319,83021,1,0,0:0:0:0:
329,63,83176,5,8,0:0:0:0:
287,280,83330,1,0,0:0:0:0:
162,16,83485,5,8,0:0:0:0:
224,293,83639,1,0,0:0:0:0:
408,31,83795,5,8,0:0:0:0:
323,301,83949,1,0,0:0:0:0:
110,116,84104,5,8,0:0:0:0:
381,187,84259,1,0,0:0:0:0:
76,208,84413,5,8,0:0:0:0:
428,115,84568,1,0,0:0:0:0:
9,70,84722,5,8,0:0:0:0:
466,190,84877,1,0,0:0:0:0:
22,313,85032,5,8,0:0:0:0:
493,94,85187,1,0,0:0:0:0:
41,38,85341,5,8,0:0:0:0:
149,378,85496,1,0,0:0:0:0:
263,50,85650,5,8,0:0:0:0:
22,313,85805,1,0,0:0:0:0:
41,38,85960,5,8,0:0:0:0:
455,129,86115,1,0,0:0:0:0:
123,377,86269,5,8,0:0:0:0:
343,13,86423,1,0,0:0:0:0:
367,378,86578,5,8,0:0:0:0:
61,146,86733,1,0,0:0:0:0:
387,17,86887,5,8,0:0:0:0:
273,383,87042,1,0,0:0:0:0:
98,18,87197,5,8,0:0:0:0:
412,205,87351,1,0,0:0:0:0:
38,133,87506,5,8,0:0:0:0:
479,48,87661,2,0,L|471:109,1,59.9999981689454,0|0,0:0|0:0,0:0:0:0:
432,375,87815,5,12,0:0:0:0:
110,198,87970,1,0,0:0:0:0:
471,107,88124,5,8,0:0:0:0:
61,275,88279,1,0,0:0:0:0:
498,353,88434,5,8,0:0:0:0:
38,133,88588,1,0,0:0:0:0:
501,31,88743,5,8,0:0:0:0:
24,290,88898,1,0,0:0:0:0:
502,193,89052,5,8,0:0:0:0:
86,68,89207,1,8,0:0:0:0:
372,377,89362,1,0,0:0:0:0:
203,3,89516,6,0,B|30:37|30:37|88:69,1,239.999992675781,12|0,0:0|0:0,0:0:0:0:
278,176,89980,1,8,0:0:0:0:
11,242,90135,1,0,0:0:0:0:
148,384,90289,5,12,0:0:0:0:
203,3,90444,1,8,0:0:0:0:
203,3,90908,6,0,B|346:25|242:94|426:128,1,239.999992675781,12|8,0:0|0:0,0:0:0:0:
197,115,91372,2,0,B|54:137|158:206|-26:240,1,239.999992675781,4|0,0:0|0:0,0:0:0:0:
195,249,91836,1,8,0:0:0:0:
20,52,91990,5,0,0:0:0:0:
154,367,92145,1,0,0:0:0:0:
195,29,92300,1,0,0:0:0:0:
41,318,92454,1,8,0:0:0:0:
345,167,92609,1,0,0:0:0:0:
5,136,92764,5,12,0:0:0:0:
332,300,92918,1,8,0:0:0:0:
332,300,93382,6,0,B|372:187|254:211|313:46,1,239.999992675781,4|8,0:0|0:0,0:0:0:0:
13,259,93846,6,0,B|104:245|104:245|180:270|180:270|288:248,1,239.999992675781,4|0,0:0|0:0,0:0:0:0:
403,118,94310,1,8,0:0:0:0:
183,179,94465,1,0,0:0:0:0:
422,216,94619,1,8,0:0:0:0:
239,54,94774,1,0,0:0:0:0:
256,340,94929,2,0,P|325:290|279:184,1,179.999994506836,8|0,0:0|0:0,0:0:0:0:
209,138,95238,5,12,0:0:0:0:
250,260,95393,2,0,P|320:270|370:293,1,119.999996337891,0|8,0:0|0:0,0:0:0:0:
157,255,95702,5,0,0:0:0:0:
346,171,95856,1,8,0:0:0:0:
132,80,96011,6,0,P|62:90|12:113,1,119.999996337891,0|8,0:0|0:0,0:0:0:0:
250,260,96320,1,0,0:0:0:0:
200,16,96475,5,12,0:0:0:0:
150,280,96630,1,0,0:0:0:0:
361,158,96784,5,8,0:0:0:0:
83,39,96939,1,0,0:0:0:0:
212,338,97094,5,8,0:0:0:0:
303,47,97248,1,0,0:0:0:0:
74,216,97403,5,8,0:0:0:0:
388,168,97557,1,0,0:0:0:0:
107,13,97712,5,12,0:0:0:0:
212,338,97867,2,0,P|222:272|261:223,1,119.999996337891,0|8,0:0|0:0,0:0:0:0:
351,106,98176,5,0,0:0:0:0:
74,204,98331,1,8,0:0:0:0:
314,317,98485,6,0,P|360:284|454:280,1,119.999996337891,0|8,0:0|0:0,0:0:0:0:
221,239,98795,1,0,0:0:0:0:
425,126,98949,5,12,0:0:0:0:
199,250,99104,1,0,0:0:0:0:
497,205,99259,5,8,0:0:0:0:
233,47,99413,1,0,0:0:0:0:
319,360,99568,5,8,0:0:0:0:
354,32,99722,1,0,0:0:0:0:
132,200,99877,6,0,P|195:219|201:230,1,59.9999981689454,8|0,0:0|0:0,0:0:0:0:
279,107,100032,2,0,P|253:167|257:179,1,59.9999981689454,0|0,0:0|0:0,0:0:0:0:
282,252,100186,6,0,B|335:285|428:232|403:140,1,200,4|2,0:1|0:0,0:0:0:0:
208,291,100650,1,0,0:0:0:0:
425,153,100805,5,8,0:0:0:0:
197,40,100960,2,0,P|195:98|217:152,1,100,0|0,0:0|0:0,0:0:0:0:
298,266,101269,5,2,0:0:0:0:
323,60,101423,1,0,0:0:0:0:
186,246,101578,6,0,B|82:258|143:181|0:198,1,200,0|0,0:0|0:0,0:0:0:0:
219,144,102042,5,8,0:0:0:0:
165,331,102197,2,0,B|278:340|231:268|343:243,1,200,0|0,0:0|0:0,0:0:0:0:
483,276,102661,5,4,0:1:0:0:
404,75,102970,5,2,0:0:0:0:
366,324,103124,1,0,0:0:0:0:
308,116,103279,1,4,0:1:0:0:
185,278,103588,5,2,0:0:0:0:
407,228,103743,1,0,0:0:0:0:
163,175,103898,5,4,0:1:0:0:
435,235,104052,1,0,0:0:0:0:
210,369,104207,5,8,0:0:0:0:
259,78,104362,1,0,0:0:0:0:
335,374,104516,5,8,0:0:0:0:
248,41,104671,1,0,0:0:0:0:
120,378,104826,5,8,0:0:0:0:
465,241,104980,1,0,0:0:0:0:
134,144,105135,5,8,0:0:0:0:
263,319,105289,1,0,0:0:0:0:
181,71,105599,5,8,0:0:0:0:
182,301,105753,1,0,0:0:0:0:
271,31,106063,5,8,0:0:0:0:
125,228,106217,1,0,0:0:0:0:
416,162,106527,5,8,0:0:0:0:
109,118,106681,1,0,0:0:0:0:
301,315,106836,2,0,P|317:296|318:271,1,50,0|0,0:0|0:0,0:0:0:0:
258,103,106990,5,8,0:0:0:0:
199,362,107145,1,0,0:0:0:0:
178,43,107300,5,8,0:0:0:0:
273,319,107454,1,0,0:0:0:0:
328,44,107609,5,8,0:0:0:0:
190,253,107764,1,0,0:0:0:0:
413,97,108073,5,8,0:0:0:0:
105,197,108228,1,0,0:0:0:0:
436,198,108537,5,8,0:0:0:0:
108,109,108691,1,0,0:0:0:0:
374,283,109001,5,8,0:0:0:0:
170,36,109156,1,0,0:0:0:0:
234,311,109465,5,8,0:0:0:0:
307,54,109619,1,0,0:0:0:0:
315,359,109774,1,8,0:0:0:0:
160,27,109929,6,0,B|109:10|38:79|74:196,1,200,4|0,0:0|0:0,0:0:0:0:
251,134,110393,2,0,P|164:107|119:108,1,100,8|0,0:0|0:0,0:0:0:0:
356,78,110702,5,0,0:0:0:0:
150,188,110856,1,0,0:0:0:0:
382,240,111011,1,8,0:0:0:0:
254,31,111166,5,0,0:0:0:0:
254,31,111243,1,0,0:0:0:0:
254,31,111320,1,4,0:0:0:0:
300,349,111475,1,8,0:0:0:0:
356,78,111630,1,0,0:0:0:0:
356,78,111939,5,8,0:0:0:0:
112,207,112094,1,0,0:0:0:0:
342,251,112248,1,8,0:0:0:0:
200,41,112403,2,0,P|118:41|181:131,1,225.000008583069,4|0,0:0|0:0,0:0:0:0:
