osu file format v14

[General]
AudioFilename: audio.mp3
AudioLeadIn: 0
PreviewTime: 46859
Countdown: 1
SampleSet: Soft
StackLeniency: 0.7
Mode: 0
LetterboxInBreaks: 0
WidescreenStoryboard: 1

[Editor]
Bookmarks: 44132
DistanceSpacing: 1.2
BeatDivisor: 4
GridSize: 8
TimelineZoom: 1.6

[Metadata]
Title:Kira Kira Boshi ~Hajimari no Stage Ver.~
TitleUnicode:きらきら星 ~はじまりのステージVer.~
Artist:Toyama Kasumi (CV: Aimi)
ArtistUnicode:戸山香澄 (CV: 愛美)
Creator:Nitrous
Version:Hard
Source:BanG Dream!
Tags:バンドリ!aimi terakawa bandori twinkle little star insert song Evanescent- blissfulyoshi バンドリ! bandori twinkle little star insert song Evanescent- blissfulyoshi anime japanese バンドリ!ガールズバンドパーティ!Girls Band Party! Poppin'Party popipa ポピパ ポッピン パーティー 山吹 沙綾 Yamabuki Saaya 大橋彩香 Ohashi Ayaka 牛込 りみ Ushigome Rimi 西本 りみ Nishimoto 花園 たえ Hanazono Tae 大塚紗英 Otsuka Sae 大塚紗英 Ichigaya Arisa 伊藤 彩沙 Itou Ayasa
BeatmapID:1438588
BeatmapSetID:673949

[Difficulty]
HPDrainRate:5
CircleSize:4
OverallDifficulty:7
ApproachRate:8
SliderMultiplier:1.4
SliderTickRate:1

[Events]
//Background and Video events
0,0,"kasumeme.jpg",0,0
//Break Periods
//Storyboard Layer 0 (Background)
//Storyboard Layer 1 (Fail)
//Storyboard Layer 2 (Pass)
//Storyboard Layer 3 (Foreground)
//Storyboard Layer 4 (Overlay)
//Storyboard Sound Samples

[TimingPoints]
496,340.909090909091,4,2,1,50,1,0
496,-100,4,2,1,50,0,0
3223,-100,4,2,1,60,0,0
14132,-100,4,2,1,75,0,0
25041,-100,4,2,1,60,0,0
27768,-100,4,2,1,60,0,0
30496,-100,4,2,1,60,0,0
33223,-100,4,2,1,60,0,0
34586,-100,4,2,1,60,0,0
35950,-100,4,2,1,60,0,0
46859,-100,4,2,1,80,0,1
57768,-100,4,2,1,60,0,0
68336,-100,4,2,1,5,0,0

[Colours]
Combo1 : 0,128,255
Combo2 : 255,157,255
Combo3 : 255,128,64
Combo4 : 255,255,128
Combo5 : 255,108,182

[HitObjects]
254,47,496,6,0,P|338:78|329:130,1,140,12|8,0:0|0:1,0:0:0:0:
284,180,1007,2,0,L|280:231,2,35,0|0|8,0:0|0:0|0:0,0:0:0:0:
210,138,1348,1,8,0:0:0:0:
134,173,1518,2,0,L|138:260,1,70,8|0,0:1|0:0,0:0:0:0:
183,313,1859,6,0,B|239:308|239:308|265:292|265:292|319:288,1,140,8|8,0:0|0:1,0:0:0:0:
399,313,2371,2,0,L|403:364,2,35,0|0|8,0:0|0:0|0:0,0:0:0:0:
453,249,2711,1,8,0:0:0:0:
381,204,2882,2,0,L|377:127,1,70,8|0,0:1|0:0,0:0:0:0:
259,89,3223,6,0,L|251:228,1,140,12|8,0:0|0:1,0:0:0:0:
180,273,3734,2,0,L|185:330,2,35,0|0|8,0:0|0:0|0:0,0:0:0:0:
100,300,4075,1,8,0:0:0:0:
22,266,4246,2,0,P|17:227|25:187,1,70,8|0,0:1|0:0,0:0:0:0:
65,125,4586,6,0,B|101:138|131:120|131:120|165:102|206:115,1,140,8|8,0:0|0:1,0:0:0:0:
282,133,5098,2,0,L|278:184,2,35,0|0|8,0:0|0:0|0:0,0:0:0:0:
353,88,5439,2,0,P|378:159|342:219,1,140,8|0,0:0|0:0,0:0:0:0:
285,267,5950,6,0,P|223:284|193:209,1,140,8|8,0:0|0:1,0:0:0:0:
241,162,6461,2,0,L|281:154,2,35,0|0|8,0:0|0:0|0:0,0:0:0:0:
170,115,6802,1,8,0:0:0:0:
111,176,6973,2,0,P|99:211|100:246,1,70,8|0,0:1|0:0,0:0:0:0:
147,312,7314,6,0,B|259:323|259:323|291:345,1,140,8|8,0:0|0:1,0:0:0:0:
365,349,7825,2,0,L|369:400,2,35,0|0|8,0:0|0:0|0:0,0:0:0:0:
440,312,8166,2,0,P|463:265|433:181,1,140,8|0,0:0|0:0,0:0:0:0:
398,110,8677,6,0,L|386:262,1,140,8|8,0:0|0:1,0:0:0:0:
310,285,9189,2,0,L|312:335,2,35,0|0|8,0:0|0:0|0:0,0:0:0:0:
232,251,9530,1,8,0:0:0:0:
153,280,9700,2,0,L|71:275,1,70,8|0,0:1|0:0,0:0:0:0:
25,214,10041,6,0,P|35:146|110:135,1,140,8|8,0:0|0:1,0:0:0:0:
171,167,10552,2,0,L|167:218,2,35,0|0|8,0:0|0:0|0:0,0:0:0:0:
238,115,10893,2,0,B|253:165|253:165|244:201|244:201|254:256,1,140,8|0,0:0|0:0,0:0:0:0:
210,324,11405,6,0,B|143:305|143:305|71:312,1,140,8|8,0:0|0:1,0:0:0:0:
40,234,11916,2,0,L|-10:239,2,35,0|0|8,0:0|0:0|0:0,0:0:0:0:
95,170,12257,1,8,0:0:0:0:
158,223,12427,2,0,L|238:215,1,70,8|0,0:1|0:0,0:0:0:0:
285,152,12768,5,8,0:0:0:0:
285,152,12939,1,0,0:0:0:0:
359,189,13109,2,0,B|356:226|356:226|363:261,1,70,8|0,0:1|0:0,0:0:0:0:
440,289,13450,2,0,L|512:282,1,70,8|8,0:0|0:0,0:0:0:0:
478,360,13791,2,0,L|406:367,1,70,12|0,0:1|0:0,0:0:0:0:
294,275,14132,6,0,P|289:216|369:193,1,140,12|8,0:0|0:1,0:0:0:0:
434,214,14643,1,0,0:0:0:0:
501,163,14814,2,0,B|505:127|505:127|498:87,1,70,8|0,0:0|0:0,0:0:0:0:
426,51,15155,2,0,B|422:87|422:87|429:127,1,70,8|0,0:1|0:0,0:0:0:0:
360,171,15496,6,0,B|300:164|300:164|269:170|269:170|216:161,1,140,8|8,0:0|0:1,0:0:0:0:
141,135,16007,1,0,0:0:0:0:
59,154,16177,2,0,L|60:233,1,70,8|0,0:0|0:0,0:0:0:0:
141,245,16518,2,0,L|140:324,1,70,8|0,0:1|0:0,0:0:0:0:
212,358,16859,6,0,B|248:368|280:353|280:353|314:335|355:344,1,140,8|8,0:0|0:1,0:0:0:0:
432,355,17371,1,0,0:0:0:0:
499,304,17541,2,0,P|504:267|499:229,1,70,8|0,0:0|0:0,0:0:0:0:
417,221,17882,2,0,P|412:186|415:151,1,70,8|0,0:1|0:0,0:0:0:0:
478,96,18223,6,0,P|409:67|342:106,1,140,8|8,0:0|0:1,0:0:0:0:
288,145,18734,1,0,0:0:0:0:
288,145,18905,1,8,0:0:0:0:
222,197,19075,2,0,L|141:195,1,70,0|8,0:0|0:1,0:0:0:0:
75,230,19416,1,0,0:0:0:0:
75,230,19501,1,0,0:0:0:0:
75,230,19586,6,0,B|61:194|75:164|75:164|91:130|75:82,1,140,8|8,0:0|0:1,0:0:0:0:
131,27,20098,1,0,0:0:0:0:
206,63,20268,2,0,L|276:58,1,70,8|0,0:0|0:0,0:0:0:0:
319,130,20609,2,0,L|249:135,1,70,8|0,0:1|0:0,0:0:0:0:
164,131,20950,6,0,B|154:189|154:189|164:216|164:216|155:276,1,140,8|8,0:0|0:1,0:0:0:0:
211,331,21461,1,0,0:0:0:0:
249,256,21632,2,0,P|288:251|319:254,1,70,8|0,0:0|0:0,0:0:0:0:
346,333,21973,2,0,P|380:335|415:330,1,70,8|0,0:1|0:0,0:0:0:0:
480,276,22314,6,0,P|463:216|384:229,1,140,8|8,0:0|0:1,0:0:0:0:
318,253,22825,1,0,0:0:0:0:
248,204,22996,2,0,P|254:167|249:135,1,70,8|0,0:0|0:0,0:0:0:0:
173,99,23336,2,0,P|167:136|172:168,1,70,8|0,0:1|0:0,0:0:0:0:
248,204,23677,6,0,L|337:192,1,70,8|0,0:0|0:0,0:0:0:0:
395,216,24018,1,8,0:1:0:0:
463,166,24189,1,8,0:0:0:0:
463,166,24274,1,8,0:0:0:0:
463,166,24359,1,8,0:1:0:0:
401,108,24530,1,8,0:0:0:0:
439,33,24700,2,0,L|510:27,1,70,8|0,0:1|0:0,0:0:0:0:
401,108,25041,6,0,B|355:62|291:66|255:115|252:149|252:149|207:138|207:138|157:154,1,280,6|2,0:0|0:0,0:0:0:0:
335,163,26064,2,0,B|329:201|329:201|342:247,1,70,2|0,0:3|0:0,0:0:0:0:
415,263,26405,2,0,P|349:317|286:301,1,140,2|2,0:0|0:3,0:0:0:0:
231,261,26916,1,0,0:0:0:0:
153,292,27086,2,0,B|148:329|148:329|154:367,1,70,2|0,0:0|0:0,0:0:0:0:
231,261,27427,1,10,0:3:0:0:
98,157,27768,6,0,B|168:139|168:139|239:143,1,140,12|2,0:0|0:3,0:0:0:0:
310,183,28280,2,0,P|319:148|308:107,1,70,0|2,0:0|0:0,0:0:0:0:
237,75,28621,2,0,P|228:110|239:151,1,70,0|2,0:0|0:3,0:0:0:0:
310,183,28961,1,0,0:0:0:0:
383,142,29132,6,0,B|401:176|387:217|387:217|377:249|396:294,1,140,2|2,0:0|0:3,0:0:0:0:
332,340,29643,1,0,0:0:0:0:
332,340,29814,2,0,L|256:336,1,70,2|0,0:0|0:0,0:0:0:0:
239,255,30155,2,0,L|315:259,1,70,10|0,0:3|0:0,0:0:0:0:
390,278,30496,6,0,P|448:279|475:197,1,140,12|2,0:0|0:3,0:0:0:0:
423,149,31007,1,0,0:0:0:0:
353,102,31177,2,0,L|355:22,1,70,2|0,0:0|0:0,0:0:0:0:
278,68,31518,2,0,L|276:148,1,70,2|0,0:3|0:0,0:0:0:0:
194,156,31859,6,0,B|186:218|186:218|195:241|195:241|187:300,1,140,2|2,0:0|0:3,0:0:0:0:
258,340,32371,1,0,0:0:0:0:
339,319,32541,2,0,P|344:284|339:248,1,70,2|0,0:0|0:0,0:0:0:0:
273,197,32882,2,0,P|268:162|273:127,1,70,10|0,0:3|0:0,0:0:0:0:
342,79,33223,6,0,L|196:68,1,140,12|2,0:0|0:3,0:0:0:0:
185,236,33905,2,0,L|331:247,1,140,2|2,0:0|0:3,0:0:0:0:
171,162,34586,6,0,P|111:216|127:284,1,140,12|2,0:0|0:3,0:0:0:0:
262,361,35268,2,0,B|296:344|296:344|324:246,1,140,2|10,0:0|0:3,0:0:0:0:
268,86,35950,6,0,P|230:80|195:86,1,70,14|0,0:0|0:0,0:0:0:0:
199,169,36291,2,0,P|237:175|272:169,1,70,10|0,0:0|0:0,0:0:0:0:
341,129,36632,2,0,B|357:171|344:202|344:202|331:235|346:276,1,140,10|10,0:0|0:0,0:0:0:0:
383,338,37143,1,0,0:0:0:0:
303,364,37314,2,0,B|265:370|265:370|228:363,1,70,10|0,0:0|0:0,0:0:0:0:
190,292,37655,5,8,0:0:0:0:
271,273,37825,2,0,P|279:209|215:189,1,140,2|0,0:0|0:0,0:0:0:0:
140,221,38336,2,0,B|133:184|133:184|141:148,1,70,10|0,0:0|0:0,0:0:0:0:
206,100,38677,6,0,P|247:108|285:100,1,70,10|0,0:0|0:0,0:0:0:0:
313,29,39018,2,0,P|272:21|234:29,1,70,10|0,0:0|0:0,0:0:0:0:
161,40,39359,2,0,B|165:100|165:100|181:126|181:126|185:177,1,140,10|10,0:0|0:0,0:0:0:0:
260,213,39871,1,0,0:0:0:0:
334,174,40041,5,10,0:0:0:0:
402,221,40211,2,0,L|246:229,1,140,2|0,0:0|0:0,0:0:0:0:
195,176,40723,1,8,0:0:0:0:
240,105,40893,2,0,B|205:94|205:94|164:99,2,70,10|0|0,0:0|0:0|0:0,0:0:0:0:
295,168,41405,6,0,B|275:313,1,140,14|10,0:0|0:0,0:0:0:0:
202,348,41916,1,0,0:0:0:0:
154,279,42086,2,0,P|160:242|151:207,1,70,10|0,0:0|0:0,0:0:0:0:
78,170,42427,2,0,P|70:205|76:239,1,70,10|0,0:0|0:0,0:0:0:0:
154,279,42768,6,0,L|309:263,1,140,10|10,0:0|0:0,0:0:0:0:
346,198,43280,1,0,0:0:0:0:
412,249,43450,2,0,B|406:284|406:284|411:332,1,70,10|0,0:0|0:0,0:0:0:0:
487,287,43791,2,0,B|493:252|493:252|490:218,1,70,10|0,0:0|0:0,0:0:0:0:
461,138,44132,6,0,P|440:107|333:118,1,140,10|10,0:0|0:0,0:0:0:0:
298,174,44643,1,0,0:0:0:0:
219,143,44814,2,0,L|214:68,1,70,10|0,0:0|0:0,0:0:0:0:
138,35,45155,1,10,0:0:0:0:
83,98,45325,1,8,0:0:0:0:
83,98,45410,1,8,0:0:0:0:
83,98,45496,5,8,0:0:0:0:
191,175,45666,1,14,0:0:0:0:
196,203,46007,1,10,0:0:0:0:
201,230,46348,1,10,0:0:0:0:
251,296,46518,2,0,L|328:293,1,70,8|8,0:1|0:1,0:0:0:0:
433,287,46859,6,0,P|493:257|503:190,1,140,14|8,0:0|0:1,0:0:0:0:
440,134,47371,1,0,0:0:0:0:
357,146,47541,2,0,L|283:144,1,70,10|0,0:0|0:0,0:0:0:0:
313,65,47882,2,0,L|387:67,1,70,8|0,0:1|0:0,0:0:0:0:
445,138,48223,5,10,0:0:0:0:
445,138,48393,1,0,0:0:0:0:
492,207,48564,2,0,P|498:243|492:278,1,70,8|0,0:1|0:0,0:0:0:0:
415,307,48905,2,0,P|409:272|415:238,1,70,10|0,0:0|0:0,0:0:0:0:
379,161,49246,2,0,B|346:156|346:156|309:160,1,70,8|0,0:1|0:0,0:0:0:0:
276,238,49586,6,0,B|342:246|342:246|416:238,1,140,10|8,0:0|0:1,0:0:0:0:
461,167,50098,1,0,0:0:0:0:
399,109,50268,2,0,L|322:102,1,70,10|0,0:0|0:0,0:0:0:0:
270,41,50609,2,0,L|193:48,1,70,8|0,0:1|0:0,0:0:0:0:
120,74,50950,6,0,B|111:109|111:109|115:152,1,70,10|0,0:0|0:0,0:0:0:0:
194,168,51291,2,0,B|203:203|203:203|199:246,1,70,8|0,0:1|0:0,0:0:0:0:
132,287,51632,1,10,0:0:0:0:
203,330,51802,1,0,0:0:0:0:
270,278,51973,2,0,L|344:282,1,70,8|0,0:1|0:0,0:0:0:0:
404,336,52314,5,14,0:0:0:0:
404,336,52484,1,0,0:0:0:0:
464,277,52655,2,0,B|469:240|469:240|466:200,1,70,8|0,0:1|0:0,0:0:0:0:
426,133,52996,2,0,P|365:104|300:132,1,140,10|8,0:0|0:1,0:0:0:0:
236,183,53507,1,0,0:0:0:0:
172,128,53677,5,10,0:0:0:0:
172,128,53848,1,0,0:0:0:0:
108,182,54018,2,0,B|104:216|104:216|109:257,1,70,8|0,0:1|0:0,0:0:0:0:
155,321,54359,2,0,B|193:306|225:319|225:319|259:330|298:310,1,140,10|8,0:0|0:1,0:0:0:0:
366,274,54871,1,0,0:0:0:0:
304,216,55041,5,10,0:0:0:0:
335,94,55211,2,0,B|302:91|302:91|266:95,1,70,4|8,0:1|0:1,0:0:0:0:
372,174,55552,1,0,0:0:0:0:
447,137,55723,2,0,P|454:173|446:216,1,70,10|0,0:0|0:0,0:0:0:0:
380,253,56064,1,8,0:1:0:0:
304,216,56234,1,0,0:0:0:0:
204,263,56405,5,14,0:0:0:0:
204,263,56575,1,0,0:0:0:0:
129,302,56746,2,0,L|52:290,1,70,8|0,0:1|0:0,0:0:0:0:
55,207,57086,2,0,L|132:219,1,70,8|0,0:0|0:0,0:0:0:0:
204,241,57427,2,0,L|216:205,3,35,8|8|8|8,0:1|0:1|0:1|0:1,0:0:0:0:
205,166,57768,5,12,0:1:0:0:
198,142,58791,5,8,0:0:0:0:
326,175,58961,1,12,0:0:0:0:
323,198,60155,5,8,0:0:0:0:
213,272,60325,1,12,0:0:0:0:
237,261,61518,5,8,0:0:0:0:
214,129,61688,1,12,0:0:0:0:
256,192,61774,12,0,68336,0:0:0:0:
