osu file format v14

[General]
AudioFilename: audio.mp3
AudioLeadIn: 0
PreviewTime: 46519
Countdown: 0
SampleSet: Soft
StackLeniency: 0.7
Mode: 0
LetterboxInBreaks: 0
WidescreenStoryboard: 1

[Editor]
Bookmarks: 35610,43792
DistanceSpacing: 1.1
BeatDivisor: 4
GridSize: 8
TimelineZoom: 1.6

[Metadata]
Title:Twinkle, Twinkle, Little Star ~Hajimari no Stage Ver.~
TitleUnicode:Twinkle, Twinkle, Little Star ~はじまりのステージVer.~
Artist:Toyama Kasumi (CAST:Aimi)
ArtistUnicode:戸山香澄(CAST:愛美)
Creator:Nitrous
Version:Easy
Source:BanG Dream!
Tags:バンドリ!bandori kira boshi insert song april fools
BeatmapID:1575718
BeatmapSetID:673688

[Difficulty]
HPDrainRate:2
CircleSize:2.4
OverallDifficulty:2
ApproachRate:4
SliderMultiplier:0.799999999999999
SliderTickRate:1

[Events]
//Background and Video events
0,0,"kasumeme.jpg",0,0
//Break Periods
//Storyboard Layer 0 (Background)
//Storyboard Layer 1 (Fail)
//Storyboard Layer 2 (Pass)
//Storyboard Layer 3 (Foreground)
//Storyboard Sound Samples

[TimingPoints]
156,340.909090909091,4,2,1,50,1,0
46519,-100,4,2,1,80,0,1
57428,-100,4,2,1,80,0,0
61434,-100,4,2,1,40,0,0
67996,-100,4,2,1,5,0,0

[Colours]
Combo1 : 191,94,234
Combo2 : 251,204,45
Combo3 : 239,116,33
Combo4 : 57,108,244
Combo5 : 233,101,248

[HitObjects]
100,54,156,5,0,0:0:0:0:
170,106,496,2,0,B|156:164|156:164|169:202|169:202|154:276,1,160
161,348,1519,1,0,0:0:0:0:
88,298,1860,2,0,P|145:265|231:294,1,160
299,346,2883,6,0,B|375:320|375:320|471:335|471:335|417:281,1,240
361,231,4246,1,0,0:0:0:0:
278,198,4587,2,0,B|200:195|200:195|175:230,1,120
48,272,5610,6,0,B|64:232|48:192|48:192|24:152|32:120|32:120|88:112|128:160,1,240
178,195,6974,1,0,0:0:0:0:
251,147,7315,2,0,B|329:126|329:126|375:132,1,120
358,262,8337,6,0,B|310:230|238:262|238:262|174:294|118:262,1,240
50,224,9701,1,0,0:0:0:0:
75,139,10042,2,0,B|122:139|122:139|184:194,1,120
249,297,11065,6,0,P|344:300|282:216,1,240
203,220,12428,2,0,P|156:226|111:214,1,79.9999999999999
124,131,13110,2,0,P|170:124|215:136,1,79.9999999999999
278,174,13792,5,0,0:0:0:0:
344,116,14133,2,0,L|331:289,1,160
274,342,15156,1,0,0:0:0:0:
194,304,15496,2,0,P|152:300|113:306,2,79.9999999999999
274,342,16519,6,0,P|313:347|353:343,1,79.9999999999999
356,255,17201,2,0,P|316:249|276:253,1,79.9999999999999
193,283,17883,1,0,0:0:0:0:
135,349,18224,2,0,L|119:163,1,160
159,110,19246,5,0,0:0:0:0:
92,52,19587,2,0,L|6:45,2,79.9999999999999
159,110,20610,1,0,0:0:0:0:
118,187,20951,2,0,B|158:203|198:187|198:187|238:171|278:187,1,160
335,248,21974,6,0,L|342:337,1,79.9999999999999
426,305,22656,2,0,L|419:216,1,79.9999999999999
358,161,23337,2,0,B|299:155|299:155|256:164|256:164|185:150,1,160
116,126,24360,1,0,0:0:0:0:
44,177,24701,6,0,P|21:254|51:335,1,160
221,327,26065,2,0,P|245:252|222:176,1,160
164,109,27087,1,0,0:0:0:0:
221,42,27428,6,0,B|261:29|261:29|394:47,1,160
408,218,28792,2,0,B|329:203|329:203|257:220|257:220|170:200,1,240
111,138,30156,6,0,P|87:199|138:285,1,160
302,261,31519,2,0,P|326:200|275:114,1,160
218,63,32542,1,0,0:0:0:0:
172,137,32883,6,0,B|159:195|159:195|172:236|172:236|159:307,1,160
337,302,34246,2,0,P|381:227|278:246,1,240
241,320,35610,6,0,B|184:313|184:313|144:327|144:327|74:317,1,160
143,152,36974,2,0,B|200:159|200:159|240:145|240:145|310:155,1,160
437,263,38337,6,0,L|425:89,1,160
260,164,39701,2,0,B|246:337|246:337|209:281,1,240
154,212,41065,6,0,P|88:232|126:294,1,160
237,159,42428,2,0,P|173:115|87:118,1,160
191,262,43792,2,0,P|269:263|334:218,1,160
209,94,45156,6,0,L|204:152,1,40
148,202,45667,2,0,L|159:341,1,120
238,357,46519,6,0,B|291:343|291:343|342:351|342:351|403:337,1,160
482,345,47542,1,0,0:0:0:0:
504,259,47883,2,0,L|505:161,1,79.9999999999999
419,155,48565,2,0,L|418:253,1,79.9999999999999
349,289,49246,6,0,P|316:250|202:258,1,160
139,296,50269,1,0,0:0:0:0:
85,365,50610,2,0,B|93:251|93:251|68:188,1,160
16,143,51633,1,0,0:0:0:0:
77,79,51974,6,0,B|117:95|157:79|157:79|189:63|237:79,1,160
308,122,52996,1,0,0:0:0:0:
324,208,53337,2,0,P|396:220|389:150,1,160
308,122,54360,1,0,0:0:0:0:
236,173,54701,6,0,B|176:166|176:166|137:178|137:178|77:166,1,160
28,94,55724,1,0,0:0:0:0:
115,85,56065,2,0,B|175:118|176:195|138:230|138:230|148:261|148:261|140:304,1,240
77,357,57428,5,0,0:0:0:0:
315,243,58451,6,0,L|310:187,1,40
44,48,59815,6,0,L|40:87,1,40
180,362,61178,6,0,L|219:358,1,40
256,192,61434,12,0,67996,0:0:0:0:
