osu file format v14

[General]
AudioFilename: audio.mp3
AudioLeadIn: 0
PreviewTime: 51456
Countdown: 0
SampleSet: Soft
StackLeniency: 0.7
Mode: 0
LetterboxInBreaks: 0
WidescreenStoryboard: 1

[Editor]
Bookmarks: 8899,15708,24220,51456,66776,80394,94012,107630,122950,136568,137419,138270,139121,139972,140824,141675,142526,143377,144228,145079,145930,146781,147633,177422
DistanceSpacing: 1.1
BeatDivisor: 8
GridSize: 32
TimelineZoom: 2.1

[Metadata]
Title:Tarzan & Jane
TitleUnicode:Tarzan & Jane
Artist:Toy-Box
ArtistUnicode:Toy-Box
Creator:[Akito]
Version:Insane
Source:
Tags:English Pop Eurodance Euro EDM 90s Dance Pop Electronic FanTastic Fun Monkey Funky Jungle
BeatmapID:3855511
BeatmapSetID:1873682

[Difficulty]
HPDrainRate:4.9
CircleSize:3.7
OverallDifficulty:8
ApproachRate:8.5
SliderMultiplier:1.8
SliderTickRate:1

[Events]
//Background and Video events
0,0,"tarzan_jane.jpg",0,0
//Break Periods
2,11653,14175
2,136767,147163
//Storyboard Layer 0 (Background)
//Storyboard Layer 1 (Fail)
//Storyboard Layer 2 (Pass)
//Storyboard Layer 3 (Foreground)
//Storyboard Layer 4 (Overlay)
//Storyboard Sound Samples

[TimingPoints]
7197,425.562096602596,4,2,1,50,1,0
8899,-133.333333333333,4,2,1,50,0,0
15708,-133.333333333333,4,2,1,60,0,0
20814,-100,4,2,1,60,0,0
21666,-133.333333333333,4,2,1,60,0,0
22517,-133.333333333333,4,2,1,70,0,0
23793,-133.333333333333,4,2,70,60,0,0
24219,-100,4,2,1,70,0,0
25815,-100,4,2,1,25,0,0
25921,-100,4,2,1,70,0,0
31028,-83.3333333333333,4,2,1,70,0,0
32730,-100,4,2,1,70,0,0
34432,-83.3333333333333,4,2,1,70,0,0
35284,-100,4,2,1,70,0,0
37837,-80,4,2,1,75,0,0
41241,-100,4,2,1,75,0,0
43795,-66.6666666666667,4,2,70,75,0,0
44114,-66.6666666666667,4,2,70,25,0,0
44220,-66.6666666666667,4,2,71,75,0,0
44539,-66.6666666666667,4,2,71,25,0,0
44646,-80,4,2,1,75,0,0
48902,-100,4,2,1,75,0,0
49965,-100,4,2,1,65,0,0
50817,-100,4,2,1,75,0,0
51455,-66.6666666666667,4,2,1,90,0,1
51881,-66.6666666666667,4,2,1,90,0,0
54859,-80,4,2,1,90,0,0
58264,-66.6666666666667,4,2,1,90,0,1
58690,-66.6666666666667,4,2,1,90,0,0
61668,-80,4,2,1,90,0,0
65073,-80,4,2,1,70,0,0
66350,-80,4,2,70,60,0,0
66775,-100,4,2,1,70,0,0
73584,-83.3333333333333,4,2,1,70,0,0
74435,-100,4,2,1,70,0,0
74861,-80,4,2,1,70,0,0
75180,-80,4,2,1,25,0,0
75286,-133.333333333333,4,2,1,70,0,0
76138,-100,4,2,1,70,0,0
76989,-80,4,2,1,70,0,0
77308,-100,4,2,1,25,0,0
77414,-81.3008130081301,4,2,1,70,0,0
77733,-100,4,2,1,25,0,0
77840,-81.3008130081301,4,2,1,70,0,0
78159,-100,4,2,1,25,0,0
78265,-100,4,2,1,70,0,0
80393,-80,4,2,1,75,0,0
83798,-100,4,2,1,75,0,0
86351,-66.6666666666667,4,2,70,75,0,0
86670,-66.6666666666667,4,2,70,25,0,0
86777,-66.6666666666667,4,2,71,75,0,0
87096,-66.6666666666667,4,2,71,25,0,0
87202,-80,4,2,1,75,0,0
91458,-100,4,2,1,75,0,0
92522,-100,4,2,1,65,0,0
93373,-100,4,2,1,75,0,0
94011,-66.6666666666667,4,2,1,90,0,1
94437,-66.6666666666667,4,2,1,90,0,0
97416,-80,4,2,1,90,0,0
100820,-66.6666666666667,4,2,1,90,0,1
101246,-66.6666666666667,4,2,1,90,0,0
104225,-80,4,2,1,90,0,0
107629,-75.187969924812,4,2,1,90,0,1
108055,-75.187969924812,4,2,1,90,0,0
110608,-50,4,2,1,90,0,0
110927,-50,4,2,1,25,0,0
111034,-75.187969924812,4,2,1,90,0,0
114438,-75.187969924812,4,2,1,90,0,1
114864,-75.187969924812,4,2,1,90,0,0
117311,-75.187969924812,4,2,1,25,0,0
117417,-60.2409638554217,4,2,1,90,0,0
117736,-60.2409638554217,4,2,1,25,0,0
117843,-75.187969924812,4,2,1,90,0,0
121247,-100,4,2,1,70,0,0
122524,-100,4,2,70,60,0,0
122949,-100,4,2,1,70,0,0
124971,-100,4,2,1,25,0,0
125077,-100,4,2,1,70,0,0
127950,-100,4,2,1,25,0,0
128056,-75.187969924812,4,2,1,70,0,0
128482,-100,4,2,1,70,0,0
131461,-80,4,2,1,70,0,0
131780,-80,4,2,1,25,0,0
131886,-100,4,2,1,70,0,0
134440,-80,4,2,1,70,0,0
134759,-80,4,2,1,25,0,0
134865,-100,4,2,1,70,0,0
148483,-100,4,2,1,75,0,0
148696,-100,4,2,1,65,0,0
149547,-100,4,2,1,75,0,0
150185,-66.6666666666667,4,2,1,90,0,1
150611,-66.6666666666667,4,2,1,90,0,0
153590,-80,4,2,1,90,0,0
156994,-66.6666666666667,4,2,1,90,0,1
157420,-66.6666666666667,4,2,1,90,0,0
160399,-80,4,2,1,90,0,0
163803,-66.6666666666667,4,2,1,90,0,1
164229,-66.6666666666667,4,2,1,90,0,0
166782,-50,4,2,1,90,0,0
167101,-50,4,2,1,25,0,0
167208,-66.6666666666667,4,2,1,90,0,0
168485,-75.187969924812,4,2,1,90,0,0
170612,-66.6666666666667,4,2,1,90,0,1
171038,-66.6666666666667,4,2,1,90,0,0
174017,-80,4,2,1,90,0,0

[Colours]
Combo1 : 131,184,71
Combo2 : 64,146,227
Combo3 : 165,208,34
Combo4 : 207,82,82

[HitObjects]
184,93,8899,6,0,P|228:129|285:129,1,101.25,4|0,1:2|0:0,0:0:0:0:
271,134,9324,2,0,L|315:189,1,67.5000000000002,10|2,0:0|0:0,0:0:0:0:
484,253,9750,2,0,P|428:267|376:243,1,101.25,2|0,0:0|0:0,0:0:0:0:
388,253,10175,2,0,L|324:284,1,67.5000000000002,10|2,0:0|0:0,0:0:0:0:
137,288,10601,6,0,P|181:324|238:324,1,101.25,2|0,0:0|0:0,0:0:0:0:
223,328,11027,1,10,0:0:0:0:
394,358,11239,1,2,0:0:0:0:
333,200,11452,1,2,0:0:0:0:
116,249,15495,5,0,1:0:0:0:
53,92,15708,6,0,P|100:77|167:87,1,101.25,4|0,1:2|0:0,0:0:0:0:
151,81,16133,2,0,L|206:41,1,67.5000000000002,10|2,0:0|0:0,0:0:0:0:
416,130,16559,2,0,P|366:127|304:154,1,101.25,2|0,0:0|0:0,0:0:0:0:
318,143,16984,2,0,L|254:118,1,67.5000000000002,10|2,0:0|0:0,0:0:0:0:
47,238,17410,6,0,P|94:226|161:240,1,101.25,2|0,0:0|0:0,0:0:0:0:
145,233,17836,1,10,0:0:0:0:
312,280,18048,1,2,0:0:0:0:
254,119,18261,1,2,0:0:0:0:
422,166,18687,5,10,0:0:0:0:
490,123,18899,1,2,0:0:0:0:
495,203,19112,2,0,P|451:243|374:232,1,135,2|10,0:0|0:0,0:0:0:0:
302,210,19751,1,2,0:0:0:0:
223,231,19963,1,2,0:0:0:0:
209,238,20389,1,10,0:0:0:0:
196,245,20814,6,0,B|151:267|129:245|107:222|63:245,1,135,2|2,0:0|0:0,0:0:0:0:
66,243,21240,1,10,0:0:0:0:
53,349,21453,1,2,0:0:0:0:
150,381,21666,2,0,P|225:363|296:371,1,135,2|8,0:0|0:0,0:0:0:0:
282,367,22517,5,4,1:2:0:0:
256,192,22623,12,8,23793,1:2:0:0:
282,367,24219,6,0,B|320:285|320:285|381:365,1,180,4|10,1:2|0:0,0:0:0:0:
506,330,24857,1,2,0:0:0:0:
415,229,25070,2,0,L|353:147,1,90,2|2,1:2|0:3,0:0:0:0:
267,17,25496,2,0,L|236:157,1,135,10|0,0:0|0:0,0:0:0:0:
234,169,25921,5,2,1:2:0:0:
160,70,26134,1,2,0:0:0:0:
226,198,26347,1,10,0:2:0:0:
343,121,26560,1,2,0:0:0:0:
219,228,26772,1,2,1:2:0:0:
185,356,26985,1,2,0:3:0:0:
183,364,27092,1,2,0:3:0:0:
182,372,27198,1,8,0:0:0:0:
63,294,27411,1,2,0:3:0:0:
63,294,27623,6,0,P|46:205|81:112,1,180,2|10,1:2|0:0,0:0:0:0:
279,42,28475,1,2,1:2:0:0:
170,30,28687,1,2,0:3:0:0:
214,127,28900,1,10,0:0:0:0:
469,256,29326,6,0,P|391:256|354:344,1,180,2|10,1:2|0:0,0:0:0:0:
430,326,29964,2,0,L|307:182,1,180,2|2,0:0|0:3,0:0:0:0:
313,189,30496,1,2,0:3:0:0:
313,189,30602,1,8,0:2:0:0:
367,85,30815,1,2,0:3:0:0:
208,172,31028,6,0,B|138:206|103:172|68:137|0:171,1,216,2|10,1:2|0:0,0:0:0:0:
51,277,31666,1,2,0:0:0:0:
159,64,31879,2,0,P|212:47|269:60,1,108,2|2,1:2|0:3,0:0:0:0:
371,101,32305,1,10,0:0:0:0:
484,70,32517,1,2,0:0:0:0:
457,183,32730,6,0,P|410:197|351:195,1,90,2|2,1:2|0:0,0:0:0:0:
192,243,33156,2,0,P|233:269|291:282,1,90,10|2,0:0|0:0,0:0:0:0:
473,336,33581,2,0,P|424:346|366:338,1,90,2|2,1:2|0:3,0:0:0:0:
384,343,33901,1,2,0:3:0:0:
384,343,34007,1,8,0:0:0:0:
274,383,34220,1,2,0:3:0:0:
191,243,34432,6,0,P|123:182|28:256,1,216,2|10,1:2|0:0,0:0:0:0:
130,353,35284,2,0,L|111:266,1,90,2|2,1:2|0:3,0:0:0:0:
93,183,35709,1,10,0:0:0:0:
322,234,36135,1,2,1:2:0:0:
250,10,36560,1,10,0:0:0:0:
335,72,36773,1,2,0:0:0:0:
439,76,36986,6,0,P|450:92|462:122,3,45,0|0|0|0,1:0|1:0|1:0|1:0,0:0:0:0:
471,144,37411,1,8,1:2:0:0:
477,177,37518,1,8,1:2:0:0:
474,213,37624,1,8,1:2:0:0:
460,249,37731,1,8,1:2:0:0:
433,284,37837,6,0,P|358:318|271:303,1,168.75,6|0,1:2|0:0,0:0:0:0:
274,304,38263,1,10,0:0:0:0:
174,358,38475,1,2,0:0:0:0:
37,224,38688,6,0,P|97:244|159:231,1,112.5,2|2,1:2|0:3,0:0:0:0:
244,202,39114,1,10,0:0:0:0:
352,236,39326,1,2,0:3:0:0:
451,114,39539,6,0,P|376:79|289:94,1,168.75,0|0,1:0|0:0,0:0:0:0:
293,91,39965,1,10,0:0:0:0:
192,41,40178,1,2,0:0:0:0:
244,202,40390,1,2,1:2:0:0:
147,169,40603,1,2,0:3:0:0:
147,169,40710,1,2,0:3:0:0:
147,169,40816,1,8,0:2:0:0:
244,202,41029,1,2,0:3:0:0:
344,44,41241,6,0,B|285:14|256:44|226:73|168:44,1,180,2|10,1:2|0:0,0:0:0:0:
47,16,41880,1,2,0:0:0:0:
78,138,42093,2,0,P|92:185|101:243,1,90,2|2,1:2|0:3,0:0:0:0:
81,350,42518,1,10,0:0:0:0:
126,206,42731,1,2,0:3:0:0:
231,318,42944,2,0,P|315:331|404:292,1,180,0|10,1:0|0:0,0:0:0:0:
492,222,43582,1,2,0:0:0:0:
396,156,43795,6,2,B|341:108|302:130|262:153|208:105,1,202.5,2|0,1:2|0:0,0:0:0:0:
207,104,44220,2,2,B|277:89|300:129|323:168|394:154,1,202.5,2|0,1:2|0:0,0:0:0:0:
446,97,44646,6,0,P|467:180|392:235,1,168.75,6|0,1:2|0:0,0:0:0:0:
412,231,45072,1,10,0:0:0:0:
466,342,45284,1,2,0:0:0:0:
292,267,45497,6,0,P|241:249|204:201,1,112.5,2|2,1:2|0:3,0:0:0:0:
80,145,45923,1,10,0:0:0:0:
104,255,46135,1,2,0:3:0:0:
222,76,46348,6,0,P|283:16|368:53,1,168.75,2|0,1:2|0:0,0:0:0:0:
355,37,46774,1,10,0:0:0:0:
504,22,46987,1,2,0:0:0:0:
366,151,47199,1,2,1:2:0:0:
477,135,47412,1,2,0:3:0:0:
477,135,47519,1,2,0:3:0:0:
477,135,47625,1,8,0:0:0:0:
366,151,47838,1,2,0:3:0:0:
366,312,48050,5,2,1:2:0:0:
271,182,48263,1,2,0:0:0:0:
424,231,48476,1,10,0:0:0:0:
271,281,48689,1,2,0:0:0:0:
366,151,48902,2,0,P|388:111|388:48,1,90,2|0,1:2|0:0,0:0:0:0:
272,0,49327,2,0,P|291:40|292:85,1,90,2|0,1:2|0:0,0:0:0:0:
256,256,49753,5,4,1:3:0:0:
192,192,49965,1,8,0:3:0:0:
169,279,50178,1,8,3:2:0:0:
162,300,50285,1,8,0:3:0:0:
343,279,50497,1,8,3:2:0:0:
350,300,50604,1,8,0:3:0:0:
256,352,50817,5,8,1:2:0:0:
352,64,51029,1,8,1:2:0:0:
352,64,51455,6,0,B|286:31|254:64|221:96|156:64,1,202.5,4|0,1:0|0:0,0:0:0:0:
157,64,51881,1,10,1:2:0:0:
304,163,52093,1,2,0:0:0:0:
98,281,52306,2,0,P|125:219|24:162,1,202.5,2|0,1:2|0:0,0:0:0:0:
27,160,52732,1,10,1:2:0:0:
146,26,52944,1,2,0:0:0:0:
201,252,53157,5,2,1:2:0:0:
360,223,53370,1,0,0:0:0:0:
408,214,53476,1,0,0:0:0:0:
456,206,53583,1,10,1:2:0:0:
406,352,53796,1,2,0:0:0:0:
361,330,53902,1,0,0:0:0:0:
317,310,54008,1,2,1:2:0:0:
83,264,54434,5,10,0:0:0:0:
107,252,54647,1,2,0:0:0:0:
133,240,54859,2,0,P|241:230|315:309,1,225,2|10,1:2|0:2,0:0:0:0:
343,180,55498,1,2,0:0:0:0:
341,82,55711,2,0,P|252:141|272:245,1,225,2|10,1:2|0:2,0:0:0:0:
488,115,56562,5,2,1:2:0:0:
343,180,56774,1,2,0:2:0:0:
512,216,56987,1,10,1:2:0:0:
298,93,57200,1,2,0:2:0:0:
268,239,57413,2,0,P|259:293|248:352,1,112.5,2|2,1:2|0:3,0:0:0:0:
248,349,57732,1,2,0:3:0:0:
248,349,57838,1,8,0:2:0:0:
132,381,58051,1,2,0:3:0:0:
170,161,58264,6,0,P|159:93|45:88,1,202.5,4|0,1:0|0:0,0:0:0:0:
44,88,58690,1,10,1:2:0:0:
112,261,58902,1,2,0:0:0:0:
248,88,59115,2,0,P|306:51|385:134,1,202.5,2|0,1:2|0:0,0:0:0:0:
385,133,59541,1,10,1:2:0:0:
512,286,59753,1,2,0:0:0:0:
512,87,59966,5,2,1:2:0:0:
400,230,60179,1,0,0:0:0:0:
365,265,60285,1,0,0:0:0:0:
331,299,60392,1,10,1:2:0:0:
233,111,60605,1,2,0:0:0:0:
273,139,60711,1,0,0:0:0:0:
312,168,60817,1,2,1:2:0:0:
273,352,61243,5,10,0:0:0:0:
246,343,61456,1,2,0:0:0:0:
219,334,61668,2,0,P|126:316|8:364,1,225,2|10,1:2|0:0,0:0:0:0:
92,151,62307,1,2,0:0:0:0:
24,217,62520,2,0,P|114:242|184:130,1,225,2|10,1:2|0:0,0:0:0:0:
380,34,63371,5,2,1:2:0:0:
368,256,63690,1,2,0:0:0:0:
368,256,63796,1,10,1:2:0:0:
474,221,64009,1,2,0:0:0:0:
445,329,64222,2,0,P|389:357|331:350,1,112.5,2|2,1:2|0:3,0:0:0:0:
340,353,64541,1,2,0:3:0:0:
340,353,64647,1,8,0:2:0:0:
233,316,64860,1,2,0:3:0:0:
2,384,65073,1,4,1:2:0:0:
256,192,65179,12,8,66350,1:2:0:0:
84,247,66775,6,0,B|60:275|81:327|148:330|207:278|121:134,1,270,4|0,1:2|0:0,0:0:0:0:
77,59,67626,1,2,1:2:0:0:
236,113,67839,1,2,0:3:0:0:
244,110,67945,1,2,0:3:0:0:
252,107,68052,2,0,P|298:96|358:96,1,90,10|2,0:0|0:3,0:0:0:0:
496,133,68477,5,2,1:2:0:0:
496,133,68903,1,10,0:0:0:0:
432,45,69116,1,2,0:0:0:0:
400,182,69329,2,0,P|387:227|380:272,1,90,2|2,1:2|0:3,0:0:0:0:
380,269,69648,1,2,0:3:0:0:
380,269,69754,1,8,0:0:0:0:
456,344,69967,1,2,0:3:0:0:
256,256,70180,6,0,B|192:224|160:256|128:288|64:256,1,180,2|10,1:2|0:0,0:0:0:0:
3,189,70818,1,2,0:0:0:0:
106,159,71031,2,0,P|127:113|66:11,1,180,2|10,1:2|0:0,0:0:0:0:
38,98,71669,1,2,0:3:0:0:
244,72,71882,6,0,B|302:42|331:72|360:101|419:72,1,180,2|10,1:2|0:0,0:0:0:0:
502,147,72520,1,2,0:0:0:0:
416,72,72733,1,2,1:2:0:0:
395,190,72946,1,2,0:3:0:0:
388,195,73052,1,2,0:3:0:0:
381,200,73159,1,8,0:0:0:0:
468,329,73371,1,2,0:3:0:0:
221,339,73584,6,0,B|61:307|61:307|-3:339,1,216,2|10,1:2|0:0,0:0:0:0:
168,244,74223,1,2,0:0:0:0:
70,105,74435,2,0,P|73:143|57:193,1,90,2|2,1:2|0:3,0:0:0:0:
170,30,74861,2,0,P|187:94|288:143,1,168.75,10|0,1:2|0:0,0:0:0:0:
271,143,75286,5,2,1:2:0:0:
463,221,75712,1,10,0:0:0:0:
417,133,75925,1,2,0:0:0:0:
366,218,76138,2,0,P|373:262|410:306,1,90,2|2,1:2|0:3,0:0:0:0:
399,298,76457,1,2,0:3:0:0:
399,298,76563,1,8,0:0:0:0:
463,221,76776,1,2,0:3:0:0:
260,360,76989,6,0,P|193:360|99:314,1,168.75,2|0,1:2|0:0,0:0:0:0:
6,222,77414,2,0,P|68:237|168:218,1,166.050002533722,10|0,0:0|0:0,0:0:0:0:
275,150,77840,2,0,P|203:150|106:101,1,166.050002533722,2|2,1:2|0:3,0:0:0:0:
118,111,78265,5,10,0:0:0:0:
258,238,78478,1,2,0:0:0:0:
293,61,78691,2,0,P|369:52|442:117,1,180,2|10,1:2|0:0,0:0:0:0:
342,160,79329,1,2,0:0:0:0:
428,222,79542,2,0,P|421:240|403:267,3,45,0|0|0|0,1:0|1:0|1:0|1:0,0:0:0:0:
390,287,79968,1,8,1:2:0:0:
367,311,80074,1,8,1:2:0:0:
335,329,80180,1,8,1:2:0:0:
298,338,80287,1,8,1:2:0:0:
258,340,80393,6,0,P|171:323|119:246,1,168.75,6|0,1:2|0:0,0:0:0:0:
123,262,80819,1,10,0:0:0:0:
17,370,81032,1,2,0:0:0:0:
52,175,81244,6,0,P|104:152|175:164,1,112.5,2|2,1:2|0:3,0:0:0:0:
263,192,81670,1,10,0:0:0:0:
322,96,81883,1,2,0:3:0:0:
503,220,82095,6,0,P|431:271|339:252,1,168.75,0|0,1:0|0:0,0:0:0:0:
354,261,82521,1,10,0:0:0:0:
451,378,82734,1,2,0:0:0:0:
410,170,82947,1,2,1:2:0:0:
489,91,83159,1,2,0:3:0:0:
489,91,83266,1,2,0:3:0:0:
489,91,83372,1,8,0:2:0:0:
410,170,83585,1,2,0:3:0:0:
282,186,83798,6,0,P|250:267|290:346,1,180,2|10,1:2|0:0,0:0:0:0:
154,233,84436,1,2,0:0:0:0:
355,262,84649,2,0,P|401:272|453:279,1,90,2|2,1:2|0:3,0:0:0:0:
512,171,85074,1,10,0:0:0:0:
448,315,85287,1,2,0:3:0:0:
358,188,85500,2,0,P|295:139|200:156,1,180,0|10,1:0|0:0,0:0:0:0:
101,198,86138,1,2,0:0:0:0:
191,268,86351,6,2,B|262:281|223:332|274:371|313:319|345:384,1,202.5,2|0,1:2|0:0,0:0:0:0:
345,382,86777,2,2,B|273:368|312:317|261:278|222:330|190:265,1,202.5,2|0,1:2|0:0,0:0:0:0:
114,313,87202,6,0,P|106:237|178:177,1,168.75,6|0,1:2|0:0,0:0:0:0:
169,178,87628,1,10,0:0:0:0:
213,41,87841,1,2,0:0:0:0:
322,148,88053,6,0,P|361:194|371:261,1,112.5,2|2,1:2|0:3,0:0:0:0:
365,358,88479,1,10,0:0:0:0:
471,308,88692,1,2,0:3:0:0:
259,246,88904,6,0,P|184:237|113:298,1,168.75,2|0,1:2|0:0,0:0:0:0:
115,293,89330,1,10,0:0:0:0:
87,170,89543,1,2,0:0:0:0:
206,332,89756,1,2,1:2:0:0:
325,294,89968,1,2,0:3:0:0:
325,294,90075,1,2,0:3:0:0:
325,294,90181,1,8,0:0:0:0:
206,332,90394,1,2,0:3:0:0:
158,155,90607,5,2,1:2:0:0:
93,325,90819,1,2,0:0:0:0:
245,226,91032,1,10,0:0:0:0:
64,216,91245,1,2,0:0:0:0:
206,332,91458,2,0,P|248:353|301:352,1,90,2|0,1:2|0:0,0:0:0:0:
427,280,91883,2,0,P|380:289|330:274,1,90,2|0,1:2|0:0,0:0:0:0:
245,226,92309,5,4,1:3:0:0:
261,136,92522,1,8,0:3:0:0:
336,197,92734,1,8,3:2:0:0:
367,192,92841,1,8,0:3:0:0:
168,166,93054,1,8,3:2:0:0:
139,153,93160,1,8,0:3:0:0:
261,136,93373,5,8,1:2:0:0:
80,375,93586,1,8,1:2:0:0:
80,375,94011,6,0,P|100:296|7:223,1,202.500007724762,4|0,1:0|0:0,0:0:0:0:
17,223,94437,1,10,1:2:0:0:
208,298,94650,1,2,0:0:0:0:
193,98,94862,2,0,B|257:65|289:98|322:130|386:98,1,202.500007724762,2|0,1:2|0:0,0:0:0:0:
387,97,95288,1,10,1:2:0:0:
243,180,95501,1,2,0:0:0:0:
336,20,95713,5,2,1:2:0:0:
407,241,95926,1,0,0:0:0:0:
438,277,96032,1,0,0:0:0:0:
469,315,96139,1,10,1:2:0:0:
277,359,96352,1,2,0:0:0:0:
299,317,96458,1,0,0:0:0:0:
325,275,96565,1,2,1:2:0:0:
256,64,96990,5,10,0:0:0:0:
230,71,97203,1,2,0:0:0:0:
202,78,97416,2,0,P|109:83|8:6,1,225,2|10,1:2|0:2,0:0:0:0:
4,163,98054,1,2,0:0:0:0:
69,271,98267,2,0,P|130:181|97:78,1,225,2|10,1:2|0:2,0:0:0:0:
384,96,99118,5,2,1:2:0:0:
352,288,99331,1,2,0:2:0:0:
288,64,99543,1,10,1:2:0:0:
448,224,99756,1,2,0:2:0:0:
230,282,99969,2,0,P|178:294|116:321,1,112.5,2|2,1:2|0:3,0:0:0:0:
123,316,100288,1,2,0:3:0:0:
123,316,100395,1,8,0:0:0:0:
0,272,100607,1,2,0:3:0:0:
256,192,100820,6,0,P|341:153|390:55,1,202.500007724762,4|0,1:0|0:0,0:0:0:0:
389,59,101246,1,10,1:2:0:0:
483,217,101459,1,2,0:0:0:0:
256,56,101671,6,0,B|191:23|159:56|126:88|62:56,1,202.500007724762,2|0,1:2|0:0,0:0:0:0:
61,55,102097,1,10,1:2:0:0:
208,159,102310,1,2,0:0:0:0:
48,230,102522,5,2,1:2:0:0:
271,281,102735,1,0,0:0:0:0:
317,292,102841,1,0,0:0:0:0:
364,306,102948,1,10,1:2:0:0:
441,174,103161,1,2,0:0:0:0:
392,182,103268,1,0,0:0:0:0:
346,187,103374,1,2,1:2:0:0:
144,65,103799,5,10,0:0:0:0:
141,92,104012,1,2,0:0:0:0:
135,120,104225,2,0,P|117:170|64:76,1,225,2|10,1:2|0:0,0:0:0:0:
113,283,104863,1,2,0:0:0:0:
209,325,105076,2,0,P|191:219|90:182,1,225,2|10,1:2|0:0,0:0:0:0:
320,288,105927,5,2,1:2:0:0:
299,40,106246,1,2,0:0:0:0:
299,40,106352,1,10,1:2:0:0:
215,115,106565,1,2,0:0:0:0:
324,135,106778,2,0,P|377:149|413:191,1,112.5,2|2,1:2|0:3,0:0:0:0:
413,191,107097,1,2,0:3:0:0:
413,191,107204,1,8,0:0:0:0:
318,239,107416,1,2,0:3:0:0:
141,78,107629,6,0,P|71:58|-7:129,1,179.549992602768,4|2,1:2|3:1,0:0:0:0:
83,146,108267,1,2,3:1:0:0:
311,206,108480,6,0,P|240:226|162:154,1,179.549992602768,2|2,1:1|3:1,0:0:0:0:
253,137,109118,1,2,3:1:0:0:
84,241,109331,6,0,P|65:299|93:369,1,119.699995068512,2|0,1:1|0:0,0:0:0:0:
151,299,109651,1,2,3:1:0:0:
163,308,109757,2,0,P|214:341|288:332,1,119.699995068512,2|2,1:1|3:1,0:0:0:0:
483,338,110183,2,0,P|431:304|357:313,1,119.699995068512,2|0,1:1|0:0,0:0:0:0:
296,239,110608,6,0,P|271:169|350:239,1,270,2|0,1:2|0:0,0:0:0:0:
368,222,111034,5,0,1:0:0:0:
190,165,111246,1,2,0:0:0:0:
227,354,111459,1,10,0:0:0:0:
186,146,111672,1,2,0:0:0:0:
84,383,112027,5,0,0:0:0:0:
46,291,112204,1,2,0:0:0:0:
46,291,112310,2,0,P|31:229|49:170,1,119.699995068512,10|2,0:0|0:0,0:0:0:0:
182,39,112736,1,0,1:0:0:0:
152,231,112949,1,2,0:0:0:0:
64,58,113161,1,10,0:0:0:0:
236,146,113374,1,2,0:0:0:0:
451,81,113800,5,2,0:0:0:0:
236,146,114013,1,10,0:0:0:0:
487,219,114225,1,2,0:0:0:0:
288,66,114438,6,0,P|216:51|142:128,1,179.549992602768,4|2,1:3|3:1,0:0:0:0:
236,146,115076,1,2,3:1:0:0:
115,356,115289,6,0,P|177:296|165:211,1,179.549992602768,2|2,1:1|3:1,0:0:0:0:
84,264,115927,1,2,3:1:0:0:
317,201,116140,6,0,P|379:186|440:205,1,119.699995068512,2|0,1:1|0:0,0:0:0:0:
464,100,116460,1,2,3:1:0:0:
464,100,116566,2,0,P|400:92|341:118,1,119.699995068512,2|2,1:1|3:1,0:0:0:0:
198,128,116992,2,0,P|138:128|86:100,1,119.699995068512,2|0,1:1|0:0,0:0:0:0:
117,28,117417,6,0,P|18:58|34:160,1,224.10000324852,2|0,1:2|0:0,0:0:0:0:
34,159,117843,1,0,1:0:0:0:
70,281,118056,1,2,0:0:0:0:
231,145,118268,1,10,0:0:0:0:
49,298,118481,1,2,0:0:0:0:
219,374,118836,5,0,0:0:0:0:
321,365,119013,1,2,0:0:0:0:
321,365,119119,2,0,P|381:355|442:322,1,119.699995068512,10|2,0:0|0:0,0:0:0:0:
341,156,119545,1,0,1:0:0:0:
512,244,119758,1,2,0:0:0:0:
323,275,119970,1,10,0:0:0:0:
459,137,120183,1,2,0:0:0:0:
256,64,120609,5,2,0:0:0:0:
459,137,120822,1,10,0:0:0:0:
224,192,121034,1,2,0:0:0:0:
448,0,121247,1,4,1:2:0:0:
256,192,121354,12,8,122524,1:2:0:0:
0,64,122949,6,0,B|58:34|87:64|116:93|174:64,1,180,6|10,1:2|0:0,0:0:0:0:
284,25,123588,1,2,0:0:0:0:
465,66,123801,2,0,P|424:84|380:90,1,90,2|2,1:2|0:3,0:0:0:0:
231,161,124226,2,0,P|272:178|316:185,1,90,10|2,0:0|0:3,0:0:0:0:
487,259,124652,6,0,P|421:263|364:314,1,135,0|0,1:2|0:0,0:0:0:0:
369,305,125077,1,10,0:0:0:0:
316,185,125290,1,2,0:0:0:0:
235,293,125503,2,0,P|204:329|169:365,1,90,2|2,1:2|0:3,0:0:0:0:
174,359,125822,1,2,0:3:0:0:
174,359,125928,1,8,0:0:0:0:
57,344,126141,1,2,0:3:0:0:
111,119,126354,6,0,P|85:192|24:145,1,180,2|10,1:2|0:0,0:0:0:0:
191,178,126992,1,2,0:0:0:0:
234,14,127205,2,0,P|274:35|335:43,1,90,2|2,1:2|0:3,0:0:0:0:
477,158,127631,2,0,P|440:151|343:195,1,135,10|0,0:0|0:0,0:0:0:0:
400,238,128056,6,0,P|423:182|292:147,1,239.399990137024,2|10,1:2|0:0,0:0:0:0:
312,295,128694,2,0,P|355:333|474:310,1,180,2|2,0:0|0:3,0:0:0:0:
468,315,129226,1,2,0:3:0:0:
468,315,129333,1,8,0:0:0:0:
510,205,129546,1,2,0:3:0:0:
341,81,129758,6,0,B|273:53|209:83|209:83|155:64,1,180,2|10,1:2|0:0,0:0:0:0:
57,110,130397,1,2,0:0:0:0:
167,147,130610,2,0,L|257:178,1,90,2|2,1:2|0:3,0:0:0:0:
298,283,131035,1,10,0:0:0:0:
298,283,131461,6,0,B|353:310|381:283|409:255|465:283,1,168.75,2|0,1:2|0:0,0:0:0:0:
460,280,131886,1,10,0:0:0:0:
337,184,132099,1,2,0:0:0:0:
486,120,132312,2,0,P|491:71|477:21,1,90,2|2,1:2|0:3,0:0:0:0:
481,31,132631,1,2,0:3:0:0:
481,31,132737,1,10,0:0:0:0:
374,78,132950,1,2,0:3:0:0:
288,288,133163,5,2,1:2:0:0:
192,160,133376,1,2,0:0:0:0:
160,320,133588,1,10,1:2:0:0:
288,128,133801,1,2,0:0:0:0:
384,352,134014,2,0,P|431:348|471:307,1,90,2|2,1:2|0:3,0:0:0:0:
453,124,134440,6,0,P|396:183|397:265,1,168.75,10|0,0:0|0:0,0:0:0:0:
397,265,134865,1,2,1:2:0:0:
202,135,135291,1,10,0:0:0:0:
291,134,135503,1,2,0:0:0:0:
247,212,135716,6,0,P|228:225|198:230,3,45,0|0|0|0,1:0|1:0|1:0|1:0,0:0:0:0:
175,231,136142,1,8,1:2:0:0:
141,217,136248,1,8,1:2:0:0:
113,187,136354,1,8,1:2:0:0:
100,143,136461,1,8,1:2:0:0:
106,94,136567,1,6,1:2:0:0:
173,213,148483,5,4,1:3:0:0:
134,295,148696,1,8,0:3:0:0:
78,216,148908,1,8,3:2:0:0:
53,236,149015,1,8,0:3:0:0:
232,289,149228,1,8,3:2:0:0:
234,320,149334,1,8,0:3:0:0:
134,295,149547,5,8,1:2:0:0:
381,50,149760,1,8,1:2:0:0:
381,50,150185,6,0,P|367:108|486:134,1,202.500007724762,4|0,1:0|0:0,0:0:0:0:
478,142,150611,1,10,1:2:0:0:
442,350,150824,1,2,0:0:0:0:
230,235,151036,6,0,P|134:208|23:264,1,202.500007724762,2|0,1:2|0:0,0:0:0:0:
41,244,151462,1,10,1:2:0:0:
131,59,151675,1,2,0:0:0:0:
143,337,151887,5,2,1:2:0:0:
303,275,152100,1,0,0:0:0:0:
345,254,152206,1,0,0:0:0:0:
390,234,152313,1,10,1:2:0:0:
356,65,152526,1,2,0:0:0:0:
337,110,152633,1,0,0:0:0:0:
323,155,152739,1,2,1:2:0:0:
45,256,153164,5,10,0:0:0:0:
72,253,153377,1,2,0:0:0:0:
99,251,153590,2,0,B|181:241|204:289|227:338|300:329,1,225,2|10,1:2|0:2,0:0:0:0:
405,373,154228,1,2,0:0:0:0:
385,261,154441,2,0,P|285:220|200:286,1,225,2|10,1:2|0:2,0:0:0:0:
3,161,155292,5,2,1:2:0:0:
217,120,155505,1,2,0:2:0:0:
51,320,155717,1,10,1:2:0:0:
115,76,155930,1,2,0:2:0:0:
218,258,156143,2,0,P|251:296|313:298,1,112.5,2|2,1:2|0:3,0:0:0:0:
310,299,156462,1,2,0:3:0:0:
310,299,156569,1,8,0:0:0:0:
431,364,156781,1,2,0:3:0:0:
511,154,156994,6,0,B|446:121|414:154|381:186|317:154,1,202.500007724762,4|0,1:0|0:0,0:0:0:0:
316,153,157420,1,10,1:2:0:0:
463,245,157633,1,2,0:0:0:0:
280,70,157845,6,0,P|229:132|279:242,1,202.500007724762,2|0,1:2|0:0,0:0:0:0:
269,236,158271,1,10,1:2:0:0:
364,80,158484,1,2,0:0:0:0:
371,322,158696,5,2,1:2:0:0:
190,264,158909,1,0,0:0:0:0:
144,275,159015,1,0,0:0:0:0:
97,289,159122,1,10,1:2:0:0:
17,144,159335,1,2,0:0:0:0:
63,155,159441,1,0,0:0:0:0:
110,169,159548,1,2,1:2:0:0:
462,125,159973,5,10,0:0:0:0:
446,103,160186,1,2,0:0:0:0:
427,81,160399,2,0,P|386:46|387:154,1,225,2|10,1:2|0:0,0:0:0:0:
501,266,161037,1,2,0:0:0:0:
501,266,161250,2,0,B|452:258|396:300|396:300|329:280|286:303,1,225,2|10,1:2|0:0,0:0:0:0:
72,234,162101,5,2,1:2:0:0:
239,83,162420,1,2,0:0:0:0:
239,83,162526,1,10,1:2:0:0:
338,134,162739,1,2,0:0:0:0:
335,21,162952,1,2,1:2:0:0:
376,27,163058,1,0,0:0:0:0:
412,48,163164,1,2,0:3:0:0:
438,81,163271,1,2,0:3:0:0:
449,122,163378,2,0,L|479:152,7,28.125,8|0|0|0|2|0|0|0,0:0|0:0|0:0|0:0|0:3|0:0|0:0|0:0,0:0:0:0:
493,165,163803,6,0,P|456:248|411:181,1,202.500007724762,4|0,1:0|0:0,0:0:0:0:
408,188,164229,1,10,1:2:0:0:
491,342,164442,1,2,0:0:0:0:
256,291,164654,6,0,B|189:258|156:291|123:324|57:291,1,202.500007724762,2|0,1:2|0:0,0:0:0:0:
61,292,165080,1,10,1:2:0:0:
209,384,165293,1,2,0:0:0:0:
105,187,165506,5,2,1:2:0:0:
242,106,165718,1,0,0:0:0:0:
281,131,165824,1,0,0:0:0:0:
321,160,165931,1,10,1:2:0:0:
456,50,166144,1,2,0:0:0:0:
407,57,166251,1,0,0:0:0:0:
361,67,166357,1,2,1:2:0:0:
451,232,166570,2,0,L|516:268,1,67.5000025749208,2|2,1:2|1:2,0:0:0:0:
491,167,166782,6,0,P|411:169|474:306,1,270,10|0,1:2|0:0,0:0:0:0:
451,232,167208,5,0,1:0:0:0:
321,160,167421,1,2,0:0:0:0:
307,369,167634,1,10,0:0:0:0:
322,140,167847,1,2,0:0:0:0:
139,169,168201,5,0,0:0:0:0:
108,258,168379,1,2,0:0:0:0:
108,258,168485,2,0,P|58:286|-4:307,1,119.699995068512,10|2,0:0|0:0,0:0:0:0:
4,156,168911,5,0,1:0:0:0:
108,258,169124,1,2,0:0:0:0:
96,39,169336,1,10,0:0:0:0:
220,216,169549,1,2,0:0:0:0:
512,123,169975,5,2,0:0:0:0:
259,95,170188,1,10,0:0:0:0:
413,260,170400,1,2,0:0:0:0:
343,313,170612,6,0,P|336:217|442:178,1,202.500007724762,4|0,1:0|0:0,0:0:0:0:
420,173,171038,1,10,1:2:0:0:
512,328,171251,1,2,0:0:0:0:
509,106,171463,6,0,P|432:61|332:105,1,202.500007724762,2|0,1:2|0:0,0:0:0:0:
334,102,171889,1,10,1:2:0:0:
169,32,172102,1,2,0:0:0:0:
75,289,172314,5,2,1:2:0:0:
242,317,172527,1,0,0:0:0:0:
228,271,172633,1,0,0:0:0:0:
217,224,172740,1,10,1:2:0:0:
38,122,172953,1,2,0:0:0:0:
84,134,173059,1,0,0:0:0:0:
130,147,173166,1,2,1:2:0:0:
430,293,173591,5,10,0:0:0:0:
406,309,173804,1,2,0:0:0:0:
382,322,174017,2,0,B|310:357|274:322|238:286|166:322,1,225,2|10,1:2|0:0,0:0:0:0:
0,220,174655,1,2,0:0:0:0:
42,331,174868,2,0,L|169:122,1,225,2|10,1:2|0:0,0:0:0:0:
374,72,175719,5,2,1:2:0:0:
323,290,176038,1,2,0:0:0:0:
323,290,176144,1,10,1:2:0:0:
158,138,176357,1,2,0:0:0:0:
91,228,176570,2,0,P|54:182|47:125,1,112.5,2|2,1:2|0:3,0:0:0:0:
46,130,176889,1,2,0:3:0:0:
46,130,176996,1,8,0:0:0:0:
107,36,177208,1,2,0:3:0:0:
415,175,177421,1,4,1:0:0:0:
