osu file format v14

[General]
AudioFilename: audio.mp3
AudioLeadIn: 0
PreviewTime: 51456
Countdown: 0
SampleSet: Soft
StackLeniency: 0.7
Mode: 0
LetterboxInBreaks: 0
WidescreenStoryboard: 1

[Editor]
Bookmarks: 8899,15708,24220,51456,66776,80394,94012,107630,122950,136568,137419,138270,139121,139972,140824,141675,142526,143377,144228,145079,145930,146781,147633,177422
DistanceSpacing: 0.6
BeatDivisor: 3
GridSize: 32
TimelineZoom: 2.1

[Metadata]
Title:Tarzan & Jane
TitleUnicode:Tarzan & Jane
Artist:Toy-Box
ArtistUnicode:Toy-Box
Creator:[Akito]
Version:Hey Monkey, Get Funky!
Source:
Tags:English Pop Eurodance Euro EDM 90s Dance Pop Electronic FanTastic Fun Monkey Funky Jungle
BeatmapID:3883537
BeatmapSetID:1873682

[Difficulty]
HPDrainRate:5.2
CircleSize:3.8
OverallDifficulty:8.8
ApproachRate:9
SliderMultiplier:2
SliderTickRate:1

[Events]
//Background and Video events
0,0,"tarzan_jane.jpg",0,0
//Break Periods
2,11653,14175
2,136767,147163
//Storyboard Layer 0 (Background)
//Storyboard Layer 1 (Fail)
//Storyboard Layer 2 (Pass)
//Storyboard Layer 3 (Foreground)
//Storyboard Layer 4 (Overlay)
//Storyboard Sound Samples

[TimingPoints]
7197,425.562096602596,4,2,1,50,1,0
8899,-133.333333333333,4,2,1,50,0,0
15708,-133.333333333333,4,2,1,60,0,0
20708,-133.333333333333,4,2,1,25,0,0
20814,-100,4,2,1,60,0,0
21666,-111.111111111111,4,2,1,60,0,0
22517,-133.333333333333,4,2,1,70,0,0
23793,-133.333333333333,4,2,70,60,0,0
24219,-100,4,2,1,70,0,0
25496,-75.187969924812,4,2,1,70,0,0
25815,-100,4,2,1,25,0,0
25921,-100,4,2,1,70,0,0
27943,-100,4,2,1,25,0,0
28049,-80,4,2,1,70,0,0
28368,-80,4,2,1,25,0,0
28475,-80,4,2,1,70,0,0
28900,-100,4,2,1,70,0,0
29219,-100,4,2,1,25,0,0
29326,-100,4,2,1,70,0,0
31028,-83.3333333333333,4,2,1,70,0,0
31347,-83.3333333333333,4,2,1,25,0,0
31454,-83.3333333333333,4,2,1,70,0,0
32730,-100,4,2,1,70,0,0
34432,-100,4,2,1,70,0,0
34752,-100,4,2,1,25,0,0
34858,-80,4,2,1,70,0,0
35177,-80,4,2,1,25,0,0
35284,-100,4,2,1,70,0,0
36028,-100,4,2,1,25,0,0
36135,-100,4,2,1,70,0,0
36454,-100,4,2,1,25,0,0
36560,-100,4,2,1,70,0,0
37837,-80,4,2,1,75,0,0
40390,-100,4,2,1,75,0,0
41241,-100,4,2,1,75,0,0
41561,-100,4,2,1,25,0,0
41667,-100,4,2,1,75,0,0
43795,-60.2409638554217,4,2,70,75,0,0
44114,-66.6666666666667,4,2,70,25,0,0
44220,-60.2409638554217,4,2,71,75,0,0
44539,-66.6666666666667,4,2,71,25,0,0
44646,-80,4,2,1,75,0,0
47199,-100,4,2,1,75,0,0
48902,-100,4,2,1,75,0,0
49965,-100,4,2,1,65,0,0
50817,-100,4,2,1,75,0,0
51455,-66.6666666666667,4,2,1,90,0,1
51881,-66.6666666666667,4,2,1,90,0,0
54859,-80,4,2,1,90,0,0
57413,-100,4,2,1,90,0,0
58264,-66.6666666666667,4,2,1,90,0,1
58690,-66.6666666666667,4,2,1,90,0,0
61668,-80,4,2,1,90,0,0
64222,-100,4,2,1,90,0,0
65073,-80,4,2,1,70,0,0
66350,-80,4,2,70,60,0,0
66775,-100,4,2,1,70,0,0
70499,-100,4,2,1,25,0,0
70605,-100,4,2,1,70,0,0
73584,-83.3333333333333,4,2,1,70,0,0
74435,-100,4,2,1,70,0,0
74861,-80,4,2,1,70,0,0
75180,-80,4,2,1,25,0,0
75286,-100,4,2,1,70,0,0
76138,-100,4,2,1,70,0,0
76989,-80,4,2,1,70,0,0
77308,-100,4,2,1,25,0,0
77414,-81.3008130081301,4,2,1,70,0,0
77733,-100,4,2,1,25,0,0
77840,-81.3008130081301,4,2,1,70,0,0
78159,-100,4,2,1,25,0,0
78265,-100,4,2,1,70,0,0
80393,-80,4,2,1,75,0,0
82947,-100,4,2,1,75,0,0
83798,-100,4,2,1,75,0,0
84117,-100,4,2,1,25,0,0
84223,-100,4,2,1,75,0,0
86351,-60.2409638554217,4,2,70,75,0,0
86670,-66.6666666666667,4,2,70,25,0,0
86777,-60.2409638554217,4,2,71,75,0,0
87096,-66.6666666666667,4,2,71,25,0,0
87202,-80,4,2,1,75,0,0
89756,-100,4,2,1,75,0,0
91458,-100,4,2,1,75,0,0
92522,-100,4,2,1,65,0,0
93373,-100,4,2,1,75,0,0
94011,-66.6666666666667,4,2,1,90,0,1
94437,-66.6666666666667,4,2,1,90,0,0
97416,-80,4,2,1,90,0,0
99969,-100,4,2,1,90,0,0
100820,-66.6666666666667,4,2,1,90,0,1
101246,-66.6666666666667,4,2,1,90,0,0
104225,-80,4,2,1,90,0,0
106778,-100,4,2,1,90,0,0
107629,-75.187969924812,4,2,1,90,0,1
108055,-75.187969924812,4,2,1,90,0,0
110608,-50,4,2,1,90,0,0
110927,-50,4,2,1,25,0,0
111034,-75.187969924812,4,2,1,90,0,0
114438,-75.187969924812,4,2,1,90,0,1
114864,-75.187969924812,4,2,1,90,0,0
117311,-75.187969924812,4,2,1,25,0,0
117417,-60.2409638554217,4,2,1,90,0,0
117736,-60.2409638554217,4,2,1,25,0,0
117843,-75.187969924812,4,2,1,90,0,0
121247,-100,4,2,1,70,0,0
122524,-100,4,2,70,60,0,0
122949,-100,4,2,1,70,0,0
124971,-100,4,2,1,25,0,0
125077,-100,4,2,1,70,0,0
126673,-100,4,2,1,25,0,0
126779,-100,4,2,1,70,0,0
127524,-100,4,2,1,25,0,0
127631,-100,4,2,1,70,0,0
127950,-100,4,2,1,25,0,0
128056,-75.187969924812,4,2,1,70,0,0
128375,-75.187969924812,4,2,1,25,0,0
128482,-100,4,2,1,70,0,0
130078,-100,4,2,1,25,0,0
130184,-100,4,2,1,70,0,0
131461,-80,4,2,1,70,0,0
131780,-80,4,2,1,25,0,0
131886,-100,4,2,1,70,0,0
132737,-57.1428571428571,4,2,1,70,0,0
133056,-57.1428571428571,4,2,1,25,0,0
133163,-80,4,2,1,70,0,0
134333,-80,4,2,1,25,0,0
134440,-80,4,2,1,70,0,0
134759,-80,4,2,1,25,0,0
134865,-80,4,2,1,70,0,0
135184,-80,4,2,1,25,0,0
135291,-80,4,2,1,70,0,0
148483,-100,4,2,1,75,0,0
148696,-100,4,2,1,65,0,0
149547,-100,4,2,1,75,0,0
150185,-66.6666666666667,4,2,1,90,0,1
150611,-66.6666666666667,4,2,1,90,0,0
153590,-80,4,2,1,90,0,0
156143,-100,4,2,1,90,0,0
156994,-66.6666666666667,4,2,1,90,0,1
157420,-66.6666666666667,4,2,1,90,0,0
160399,-80,4,2,1,90,0,0
163803,-66.6666666666667,4,2,1,90,0,1
164229,-66.6666666666667,4,2,1,90,0,0
166782,-50,4,2,1,90,0,0
167101,-50,4,2,1,25,0,0
167208,-66.6666666666667,4,2,1,90,0,0
168485,-75.187969924812,4,2,1,90,0,0
170612,-66.6666666666667,4,2,1,90,0,1
171038,-66.6666666666667,4,2,1,90,0,0
174017,-80,4,2,1,90,0,0
176570,-100,4,2,1,90,0,0

[Colours]
Combo1 : 131,184,71
Combo2 : 64,146,227
Combo3 : 165,208,34
Combo4 : 207,82,82

[HitObjects]
83,206,8899,6,0,P|136:223|202:218,1,112.500004291535,4|0,1:2|0:0,0:0:0:0:
192,220,9324,1,10,0:0:0:0:
321,298,9537,1,2,0:0:0:0:
512,146,9750,6,0,P|465:176|400:188,1,112.500004291535,2|0,0:0|0:0,0:0:0:0:
410,188,10175,1,10,0:0:0:0:
321,298,10388,1,2,0:0:0:0:
104,83,10601,6,0,P|145:93|192:100,1,75.0000028610231,2|0,0:0|0:0,0:0:0:0:
210,103,10920,1,0,0:0:0:0:
243,105,11027,1,10,0:0:0:0:
422,78,11239,1,2,0:0:0:0:
391,89,11346,1,0,0:0:0:0:
358,98,11452,1,2,0:0:0:0:
358,98,15495,5,0,1:0:0:0:
418,339,15708,6,0,P|369:331|301:346,1,112.500004291535,4|0,1:2|0:0,0:0:0:0:
307,342,16133,1,10,0:0:0:0:
132,378,16346,1,2,0:0:0:0:
10,184,16559,6,0,P|65:186|117:208,1,112.500004291535,2|0,0:0|0:0,0:0:0:0:
117,208,16984,1,10,0:0:0:0:
256,305,17197,1,2,0:0:0:0:
242,55,17410,6,0,P|201:54|164:61,1,75.0000028610231,2|0,0:0|0:0,0:0:0:0:
135,70,17729,1,0,0:0:0:0:
103,83,17836,1,10,0:0:0:0:
6,197,18048,1,2,0:0:0:0:
40,198,18155,1,0,0:0:0:0:
73,203,18261,1,2,0:0:0:0:
105,213,18687,5,10,0:0:0:0:
184,190,18899,1,2,0:0:0:0:
263,211,19112,2,0,P|334:224|392:180,1,150.000005722046,2|10,0:0|0:0,0:0:0:0:
376,90,19751,1,2,0:0:0:0:
461,112,19963,2,0,P|485:153|453:255,1,150.000005722046,2|10,0:0|0:0,0:0:0:0:
362,246,20814,6,0,L|210:188,1,150,2|2,0:0|0:0,0:0:0:0:
221,192,21240,1,10,0:0:0:0:
129,224,21453,1,2,0:0:0:0:
151,125,21666,2,0,P|237:94|312:153,1,179.999994506836,2|8,0:0|0:0,0:0:0:0:
305,139,22517,1,4,1:2:0:0:
256,192,22623,12,8,23793,1:2:0:0:
305,139,24219,6,0,P|345:122|266:78,1,200,4|10,1:2|0:0,0:0:0:0:
135,137,24857,1,2,0:0:0:0:
193,42,25070,1,2,1:2:0:0:
221,245,25283,1,2,0:3:0:0:
70,206,25496,2,0,P|41:141|140:163,1,199.499991780854,10|0,0:0|0:0,0:0:0:0:
135,137,25921,5,2,1:2:0:0:
257,65,26134,1,2,0:0:0:0:
336,285,26347,5,10,0:2:0:0:
245,175,26560,1,2,0:0:0:0:
171,341,26772,5,2,1:2:0:0:
125,361,26878,1,0,0:0:0:0:
76,354,26984,1,2,0:3:0:0:
38,323,27091,1,2,0:3:0:0:
21,277,27197,1,8,0:0:0:0:
0,162,27411,1,2,0:3:0:0:
113,267,27623,6,0,P|171:223|169:150,1,150,2|0,1:2|0:0,0:0:0:0:
102,190,28049,2,0,L|291:279,1,187.5,10|0,0:0|0:0,0:0:0:0:
271,269,28475,1,2,1:2:0:0:
319,128,28687,1,2,0:3:0:0:
440,330,28900,2,0,P|399:286|357:348,1,150,10|0,0:0|0:0,0:0:0:0:
438,251,29326,6,0,B|469:187|438:155|406:123|438:59,1,200,2|10,1:2|0:0,0:0:0:0:
274,27,29964,2,0,P|315:61|334:105,1,100,2|0,0:0|1:0,0:0:0:0:
343,152,30283,1,0,0:0:0:0:
345,201,30389,1,2,0:3:0:0:
331,249,30495,1,2,0:3:0:0:
302,289,30602,1,8,0:2:0:0:
369,384,30815,1,2,0:3:0:0:
200,329,31028,6,0,B|140:299|110:329|80:359|22:330,1,179.999994506836,2|0,1:2|0:0,0:0:0:0:
26,332,31454,1,10,0:0:0:0:
0,154,31666,1,2,0:0:0:0:
112,252,31879,2,0,P|170:247|231:266,1,119.999996337891,2|2,1:2|0:3,0:0:0:0:
340,317,32305,1,10,0:0:0:0:
460,294,32517,1,2,0:0:0:0:
498,97,32730,5,2,1:2:0:0:
349,213,32943,1,2,0:0:0:0:
402,31,33156,1,10,0:0:0:0:
467,210,33368,1,2,0:0:0:0:
309,103,33581,1,2,1:2:0:0:
264,80,33687,1,0,0:0:0:0:
215,71,33793,1,2,0:3:0:0:
166,77,33900,1,2,0:3:0:0:
120,97,34006,1,8,0:0:0:0:
0,65,34220,1,2,0:3:0:0:
112,200,34432,6,0,P|144:263|93:343,1,150,2|0,1:2|0:0,0:0:0:0:
64,266,34858,2,0,L|275:252,1,187.5,10|0,0:0|0:0,0:0:0:0:
251,253,35284,1,2,1:2:0:0:
359,361,35496,1,2,0:3:0:0:
384,163,35709,2,0,P|420:120|457:187,1,150,10|0,0:0|0:0,0:0:0:0:
389,76,36135,6,0,P|335:42|240:66,1,150,2|0,1:2|0:0,0:0:0:0:
253,55,36560,1,10,0:0:0:0:
150,148,36773,1,2,0:0:0:0:
314,130,36986,5,0,1:0:0:0:
331,140,37092,1,0,1:0:0:0:
345,153,37199,1,0,1:0:0:0:
357,168,37305,1,0,1:0:0:0:
372,193,37411,1,8,1:2:0:0:
378,227,37517,1,8,1:2:0:0:
374,267,37624,1,8,1:2:0:0:
355,308,37731,1,8,1:2:0:0:
305,345,37837,6,0,B|252:371|220:339|188:308|125:339,1,187.5,6|0,1:2|0:0,0:0:0:0:
125,339,38263,1,10,0:0:0:0:
0,279,38475,1,2,0:0:0:0:
114,200,38688,5,2,1:2:0:0:
166,0,38901,1,2,0:3:0:0:
193,231,39114,5,10,0:0:0:0:
160,106,39327,1,2,0:3:0:0:
268,266,39539,6,0,P|315:333|422:307,1,187.5,0|0,1:0|0:0,0:0:0:0:
410,319,39965,1,10,0:0:0:0:
296,178,40178,1,2,0:0:0:0:
484,113,40390,1,2,1:2:0:0:
438,130,40496,1,0,0:0:0:0:
391,115,40602,1,2,0:3:0:0:
362,75,40709,1,2,0:3:0:0:
364,26,40815,1,8,0:2:0:0:
477,0,41029,1,2,0:3:0:0:
255,174,41241,6,0,P|175:180|114:138,1,150,2|0,1:2|0:0,0:0:0:0:
118,143,41667,1,10,0:0:0:0:
0,190,41880,1,2,0:0:0:0:
23,71,42093,2,0,P|100:16|202:48,1,200,2|10,1:2|0:0,0:0:0:0:
274,132,42731,1,2,0:3:0:0:
349,224,42944,2,0,P|434:265|512:210,1,200,0|10,1:0|0:0,0:0:0:0:
427,171,43582,1,2,0:0:0:0:
450,337,43795,6,2,B|353:345|353:345|311:310|311:310|215:318,1,249.000003609467,2|0,1:2|0:0,0:0:0:0:
215,319,44220,2,2,B|305:341|305:341|353:312|353:312|449:336,1,249.000003609467,2|0,1:2|0:0,0:0:0:0:
512,235,44646,6,0,P|475:263|460:169,1,187.5,6|0,1:2|0:0,0:0:0:0:
451,171,45072,1,10,0:0:0:0:
332,244,45284,1,2,0:0:0:0:
356,0,45497,5,2,1:2:0:0:
154,115,45710,1,2,0:3:0:0:
332,244,45923,5,10,0:0:0:0:
243,179,46136,1,2,0:3:0:0:
277,314,46348,6,0,P|356:327|419:247,1,187.5,2|0,1:2|0:0,0:0:0:0:
418,250,46774,1,10,0:0:0:0:
512,363,46987,1,2,0:0:0:0:
512,175,47199,1,2,1:2:0:0:
473,143,47305,1,0,0:0:0:0:
425,130,47411,1,2,0:3:0:0:
376,137,47518,1,2,0:3:0:0:
334,163,47624,1,8,0:0:0:0:
217,114,47838,1,2,0:3:0:0:
396,323,48050,5,2,1:2:0:0:
333,162,48263,1,2,0:0:0:0:
289,326,48476,1,10,0:0:0:0:
422,220,48689,1,2,0:0:0:0:
251,229,48902,2,0,P|197:233|141:214,1,100,2|0,1:2|0:0,0:0:0:0:
1,133,49327,2,0,P|55:137|111:118,1,100,2|0,1:2|0:0,0:0:0:0:
228,72,49753,5,4,1:3:0:0:
355,96,49965,1,8,0:3:0:0:
482,72,50178,1,8,3:2:0:0:
496,120,50285,1,8,0:3:0:0:
335,166,50497,1,8,3:2:0:0:
321,214,50604,1,8,0:3:0:0:
512,320,50817,5,8,1:2:0:0:
96,192,51029,1,8,1:2:0:0:
96,192,51455,6,0,P|175:152|225:85,1,150.000005722046,4|0,1:0|0:0,0:0:0:0:
237,67,51774,1,0,0:0:0:0:
251,24,51881,1,10,1:2:0:0:
99,44,52093,1,2,0:0:0:0:
381,177,52306,6,0,P|449:171|476:75,1,150.000005722046,2|0,1:2|0:0,0:0:0:0:
481,58,52625,1,0,0:0:0:0:
455,20,52732,1,10,1:2:0:0:
318,107,52944,1,2,0:0:0:0:
127,384,53157,5,2,1:2:0:0:
340,314,53370,1,0,0:0:0:0:
289,294,53476,1,0,0:0:0:0:
238,276,53583,1,10,1:2:0:0:
4,207,53796,1,2,0:0:0:0:
57,195,53902,1,0,0:0:0:0:
110,185,54009,1,2,1:2:0:0:
341,79,54434,5,10,0:0:0:0:
317,91,54647,1,2,0:0:0:0:
293,105,54859,2,0,B|211:145|171:105|130:64|49:105,1,250,2|10,1:2|0:2,0:0:0:0:
235,21,55498,1,2,0:0:0:0:
105,190,55711,2,0,P|153:84|48:2,1,250,2|10,1:2|0:2,0:0:0:0:
1,193,56562,5,2,1:2:0:0:
173,18,56774,1,2,0:2:0:0:
156,273,56987,1,10,1:2:0:0:
44,63,57200,1,2,0:2:0:0:
90,339,57413,1,2,1:2:0:0:
131,364,57519,1,0,0:0:0:0:
181,364,57625,1,2,0:3:0:0:
223,338,57732,1,2,0:3:0:0:
246,294,57838,1,8,0:2:0:0:
383,358,58051,1,2,0:3:0:0:
512,173,58264,6,0,P|439:185|341:170,1,150.000005722046,4|0,1:0|0:0,0:0:0:0:
320,166,58583,1,0,0:0:0:0:
276,151,58690,1,10,1:2:0:0:
399,69,58902,5,2,0:0:0:0:
238,326,59115,2,0,P|308:351|383:358,1,150.000005722046,2|0,1:2|0:0,0:0:0:0:
428,356,59434,1,0,0:0:0:0:
471,344,59541,1,10,1:2:0:0:
418,204,59753,1,2,0:0:0:0:
145,365,59966,5,2,1:2:0:0:
58,209,60179,1,0,0:0:0:0:
109,229,60285,1,0,0:0:0:0:
160,247,60392,1,10,1:2:0:0:
329,84,60605,1,2,0:0:0:0:
276,96,60711,1,0,0:0:0:0:
223,106,60818,1,2,1:2:0:0:
357,302,61243,5,10,0:0:0:0:
256,352,61456,1,2,0:0:0:0:
411,284,61668,2,0,P|449:222|321:220,1,250,2|10,1:2|0:0,0:0:0:0:
169,305,62307,1,2,0:0:0:0:
189,288,62520,2,0,P|279:263|341:386,1,250,2|10,1:2|0:0,0:0:0:0:
105,269,63371,6,0,P|49:324|124:348,1,187.5,2|2,1:2|0:0,0:0:0:0:
124,348,63796,1,10,1:2:0:0:
20,174,64009,1,2,0:0:0:0:
224,256,64222,1,2,1:2:0:0:
270,273,64328,1,0,0:0:0:0:
320,278,64434,1,2,0:3:0:0:
369,271,64541,1,2,0:3:0:0:
415,251,64647,1,8,0:2:0:0:
484,367,64860,5,2,0:3:0:0:
439,50,65073,1,4,1:2:0:0:
256,192,65179,12,8,66350,1:2:0:0:
30,354,66775,6,0,B|102:348|110:277|95:246|95:246|110:277|169:319|220:265,1,300,4|0,1:2|0:0,0:0:0:0:
344,329,67626,1,2,1:2:0:0:
341,193,67839,1,2,0:3:0:0:
341,193,67945,1,2,0:3:0:0:
341,193,68052,2,0,P|308:157|242:143,1,100,10|2,0:0|0:3,0:0:0:0:
24,278,68477,5,2,1:2:0:0:
24,278,68903,1,10,0:0:0:0:
77,112,69116,1,2,0:0:0:0:
233,189,69329,1,2,1:2:0:0:
280,202,69435,1,0,0:0:0:0:
327,187,69541,1,2,0:3:0:0:
358,149,69648,1,2,0:3:0:0:
363,100,69754,1,8,0:0:0:0:
456,197,69967,1,2,0:3:0:0:
269,106,70180,6,0,P|206:82|119:105,1,150,2|0,1:2|0:0,0:0:0:0:
127,99,70605,1,10,0:0:0:0:
29,29,70818,1,2,0:0:0:0:
95,240,71031,2,0,P|61:166|21:237,1,200,2|10,1:2|0:0,0:0:0:0:
81,373,71669,1,2,0:3:0:0:
173,255,71882,6,0,B|238:221|270:255|303:287|369:255,1,200,2|10,1:2|0:0,0:0:0:0:
457,216,72520,1,2,0:0:0:0:
315,348,72733,1,2,1:2:0:0:
278,314,72839,1,0,0:0:0:0:
261,267,72945,1,2,0:3:0:0:
268,218,73052,1,2,0:3:0:0:
296,178,73158,1,8,0:0:0:0:
155,94,73371,1,2,0:3:0:0:
365,256,73584,6,0,P|461:252|451:115,1,239.999992675781,2|10,1:2|0:0,0:0:0:0:
394,63,74223,1,2,0:0:0:0:
272,174,74435,1,2,1:2:0:0:
296,0,74648,1,2,0:3:0:0:
365,256,74861,1,10,1:2:0:0:
365,256,75286,6,0,P|283:298|176:251,1,200,2|10,1:2|0:0,0:0:0:0:
90,189,75925,1,2,0:0:0:0:
172,354,76138,1,2,1:2:0:0:
221,347,76244,1,0,0:0:0:0:
259,317,76350,1,2,0:3:0:0:
276,270,76457,1,2,0:3:0:0:
266,222,76563,1,8,0:0:0:0:
384,315,76776,1,2,0:3:0:0:
186,263,76989,6,0,P|179:205|277:133,1,187.5,2|0,1:2|0:0,0:0:0:0:
420,233,77414,2,0,P|339:270|265:222,1,184.500002815247,10|0,0:0|0:0,0:0:0:0:
279,43,77840,2,0,P|352:94|346:182,1,184.500002815247,2|2,1:2|0:3,0:0:0:0:
346,182,78265,5,10,0:0:0:0:
299,335,78478,1,2,0:0:0:0:
436,166,78691,2,0,P|367:93|269:137,1,200,2|10,1:2|0:0,0:0:0:0:
196,197,79329,1,2,0:0:0:0:
114,82,79542,5,0,1:0:0:0:
97,92,79648,1,0,1:0:0:0:
83,105,79755,1,0,1:0:0:0:
71,120,79861,1,0,1:0:0:0:
56,145,79967,1,8,1:2:0:0:
50,179,80073,1,8,1:2:0:0:
54,219,80180,1,8,1:2:0:0:
73,260,80287,1,8,1:2:0:0:
108,310,80393,6,0,P|177:349|283:317,1,187.5,6|0,1:2|0:0,0:0:0:0:
276,322,80819,1,10,0:0:0:0:
432,377,81032,1,2,0:0:0:0:
486,91,81244,5,2,1:2:0:0:
400,297,81457,1,2,0:3:0:0:
395,67,81670,5,10,0:0:0:0:
440,208,81883,1,2,0:3:0:0:
302,43,82095,6,0,B|247:2|213:27|178:51|124:11,1,187.5,0|0,1:0|0:0,0:0:0:0:
124,11,82521,1,10,0:0:0:0:
0,67,82734,1,2,0:0:0:0:
127,146,82947,1,2,1:2:0:0:
164,178,83053,1,0,0:0:0:0:
186,223,83159,1,2,0:3:0:0:
191,272,83266,1,2,0:3:0:0:
177,320,83372,1,8,0:2:0:0:
70,257,83585,1,2,0:3:0:0:
286,146,83798,6,0,P|360:124|435:144,1,150,2|0,1:2|0:0,0:0:0:0:
429,140,84223,1,10,0:0:0:0:
489,24,84436,1,2,0:0:0:0:
512,247,84649,2,0,P|508:291|446:226,1,200,2|10,1:2|0:0,0:0:0:0:
338,299,85287,1,2,0:3:0:0:
235,361,85500,2,0,P|171:369|63:283,1,200,0|10,1:0|0:0,0:0:0:0:
12,182,86138,1,2,0:0:0:0:
185,240,86351,6,2,B|254:263|254:263|301:240|301:240|348:263|348:263|418:240,1,249.000003609467,2|0,1:2|0:0,0:0:0:0:
414,240,86777,2,2,B|344:216|344:216|297:240|297:240|250:216|250:216|180:240,1,249.000003609467,2|0,1:2|0:0,0:0:0:0:
81,275,87202,6,0,P|90:186|166:133,1,187.5,6|0,1:2|0:0,0:0:0:0:
165,133,87628,1,10,0:0:0:0:
135,0,87841,1,2,0:0:0:0:
424,77,88053,5,2,1:2:0:0:
230,50,88266,1,2,0:3:0:0:
446,169,88479,5,10,0:0:0:0:
273,147,88692,1,2,0:3:0:0:
466,253,88904,6,0,P|442:337|354:342,1,187.5,2|0,1:2|0:0,0:0:0:0:
355,342,89330,1,10,0:0:0:0:
197,357,89543,1,2,0:0:0:0:
265,205,89756,1,2,1:2:0:0:
313,210,89862,1,0,0:0:0:0:
348,176,89968,1,2,0:3:0:0:
345,128,90075,1,2,0:3:0:0:
307,99,90181,1,8,0:0:0:0:
395,276,90394,1,2,0:3:0:0:
114,125,90606,5,2,1:2:0:0:
177,286,90820,1,2,0:0:0:0:
221,122,91033,1,10,0:0:0:0:
88,228,91245,1,2,0:0:0:0:
259,219,91459,2,0,P|308:235|368:219,1,100,2|0,1:2|0:0,0:0:0:0:
512,119,91883,2,0,P|463:135|403:119,1,100,2|0,1:2|0:0,0:0:0:0:
312,45,92309,5,4,1:3:0:0:
200,110,92521,1,8,0:3:0:0:
70,99,92734,1,8,3:2:0:0:
20,93,92841,1,8,0:3:0:0:
70,285,93054,1,8,3:2:0:0:
20,291,93161,1,8,0:3:0:0:
160,192,93373,5,8,1:2:0:0:
460,340,93585,1,8,1:2:0:0:
460,340,94011,6,0,P|474:267|456:180,1,150.000005722046,4|0,1:0|0:0,0:0:0:0:
446,150,94330,1,0,0:0:0:0:
429,108,94437,1,10,1:2:0:0:
356,225,94650,1,2,0:0:0:0:
63,114,94862,6,0,P|125:153|198:145,1,150.000005722046,2|0,1:2|0:0,0:0:0:0:
242,133,95181,1,0,0:0:0:0:
284,117,95288,1,10,1:2:0:0:
367,0,95501,1,2,0:0:0:0:
474,254,95713,5,2,1:2:0:0:
294,313,95926,1,0,0:0:0:0:
345,331,96033,1,0,0:0:0:0:
396,351,96139,1,10,1:2:0:0:
322,198,96352,1,2,0:0:0:0:
269,213,96458,1,0,0:0:0:0:
217,226,96565,1,2,1:2:0:0:
53,117,96990,5,10,0:0:0:0:
79,113,97203,1,2,0:0:0:0:
108,110,97416,2,0,B|185:103|227:138|227:138|263:96|340:89,1,250,2|10,1:2|0:2,0:0:0:0:
512,144,98054,1,2,0:0:0:0:
301,273,98267,2,0,P|333:181|377:269,1,250,2|10,1:2|0:2,0:0:0:0:
162,363,99118,5,2,1:2:0:0:
87,127,99331,1,2,0:2:0:0:
45,330,99543,1,10,1:2:0:0:
192,96,99756,1,2,0:2:0:0:
281,346,99969,1,2,1:2:0:0:
323,370,100075,1,0,0:0:0:0:
372,363,100181,1,2,0:3:0:0:
406,327,100288,1,2,0:3:0:0:
410,279,100394,1,8,0:0:0:0:
512,383,100607,1,2,0:3:0:0:
477,194,100820,6,0,P|433:171|321:216,1,150.000005722046,4|0,1:0|0:0,0:0:0:0:
306,225,101139,1,0,0:0:0:0:
286,265,101246,1,10,1:2:0:0:
413,373,101459,1,2,0:0:0:0:
151,323,101671,6,0,P|116:278|136:177,1,150.000005722046,2|0,1:2|0:0,0:0:0:0:
148,150,101990,1,0,0:0:0:0:
173,112,102097,1,10,1:2:0:0:
0,87,102310,1,2,0:0:0:0:
295,0,102522,5,2,1:2:0:0:
460,121,102735,1,0,0:0:0:0:
407,108,102842,1,0,0:0:0:0:
353,97,102948,1,10,1:2:0:0:
167,230,103161,1,2,0:0:0:0:
220,217,103268,1,0,0:0:0:0:
274,206,103374,1,2,1:2:0:0:
350,352,103799,5,10,0:0:0:0:
313,278,104012,1,2,0:0:0:0:
483,318,104225,2,0,B|530:239|492:195|454:151|500:73,1,250,2|10,1:2|0:0,0:0:0:0:
353,0,104863,1,2,0:0:0:0:
384,114,105076,2,0,P|300:181|311:73,1,250,2|10,1:2|0:0,0:0:0:0:
457,197,105927,6,0,P|386:262|293:273,1,187.5,2|2,1:2|0:0,0:0:0:0:
298,274,106352,1,10,1:2:0:0:
153,384,106565,1,2,0:0:0:0:
217,189,106778,1,2,1:2:0:0:
191,147,106884,1,0,0:0:0:0:
145,132,106990,1,2,0:3:0:0:
100,151,107097,1,2,0:3:0:0:
79,195,107203,1,8,0:0:0:0:
18,384,107416,1,2,0:3:0:0:
10,92,107629,5,4,1:2:0:0:
153,261,107948,1,2,3:1:0:0:
227,54,108267,1,2,3:1:0:0:
127,124,108480,5,2,1:1:0:0:
196,379,108799,1,2,3:1:0:0:
381,192,109118,1,2,3:1:0:0:
240,218,109331,5,2,1:1:0:0:
512,167,109651,1,2,3:1:0:0:
512,167,109757,2,0,P|492:116|494:12,1,132.999994520569,2|2,1:1|3:1,0:0:0:0:
343,108,110183,1,2,1:1:0:0:
296,162,110608,6,0,P|271:92|400:151,1,300,2|0,1:2|0:0,0:0:0:0:
415,112,111034,5,0,1:0:0:0:
477,228,111246,1,2,0:0:0:0:
258,295,111459,1,10,0:0:0:0:
508,219,111672,1,2,0:0:0:0:
203,52,112027,5,0,0:1:0:0:
204,206,112204,1,2,0:0:0:0:
186,213,112310,2,0,P|125:227|51:205,1,132.999994520569,10|2,0:0|0:0,0:0:0:0:
0,113,112736,1,0,1:0:0:0:
61,316,112949,1,2,0:0:0:0:
264,255,113161,1,10,0:0:0:0:
203,52,113374,1,2,0:0:0:0:
203,52,113800,5,2,0:0:0:0:
327,341,114013,1,10,0:0:0:0:
389,26,114225,1,2,0:0:0:0:
501,289,114438,5,4,1:3:0:0:
301,194,114757,1,2,3:1:0:0:
482,69,115076,1,2,3:1:0:0:
440,184,115289,5,2,1:1:0:0:
176,129,115608,1,2,3:1:0:0:
261,384,115928,1,2,3:1:0:0:
350,285,116140,5,2,1:1:0:0:
109,329,116460,1,2,3:1:0:0:
109,329,116566,2,0,P|67:301|44:218,1,132.999994520569,2|2,1:1|3:1,0:0:0:0:
13,60,116992,1,2,1:1:0:0:
220,108,117204,1,0,0:0:0:0:
259,29,117417,2,0,P|148:54|155:169,1,249.000003609467,2|0,1:2|0:0,0:0:0:0:
155,169,117843,5,0,1:0:0:0:
120,297,118056,1,2,0:0:0:0:
349,350,118268,1,10,0:0:0:0:
83,289,118481,1,2,0:0:0:0:
217,52,118836,5,0,0:1:0:0:
344,176,119013,1,2,0:0:0:0:
358,178,119119,2,0,P|425:172|479:135,1,132.999994520569,10|2,0:0|0:0,0:0:0:0:
423,0,119545,1,0,1:0:0:0:
217,52,119758,1,2,0:0:0:0:
269,258,119970,1,10,0:0:0:0:
475,206,120183,1,2,0:0:0:0:
475,206,120609,5,2,0:0:0:0:
186,107,120822,1,10,0:0:0:0:
512,40,121034,5,2,0:0:0:0:
256,352,121247,1,4,1:2:0:0:
256,192,121354,12,8,122524,1:2:0:0:
96,288,122949,6,0,B|194:261|194:261|252:277,1,150,6|0,1:2|0:0,0:0:0:0:
240,273,123375,1,10,0:0:0:0:
325,366,123588,1,2,0:0:0:0:
350,119,123801,1,2,1:2:0:0:
424,282,124013,1,2,0:3:0:0:
266,181,124226,2,0,P|229:158|159:159,1,100,10|2,0:0|0:3,0:0:0:0:
46,251,124652,6,0,P|112:286|186:281,1,150,0|0,1:2|0:0,0:0:0:0:
186,281,125077,1,10,0:0:0:0:
314,316,125290,1,2,0:0:0:0:
455,362,125503,1,2,1:2:0:0:
425,321,125609,1,0,0:0:0:0:
411,272,125715,1,2,0:3:0:0:
413,223,125822,1,2,0:3:0:0:
431,177,125928,1,8,0:0:0:0:
491,36,126141,1,2,0:3:0:0:
352,151,126354,6,0,P|289:182|211:158,1,150,2|0,1:2|0:0,0:0:0:0:
215,161,126779,1,10,0:0:0:0:
97,243,126992,1,2,0:0:0:0:
144,71,127205,2,0,P|214:44|291:71,1,150,2|2,1:2|0:3,0:0:0:0:
377,32,127631,2,0,P|359:84|439:81,1,150,10|0,0:0|0:0,0:0:0:0:
482,196,128056,6,0,B|418:227|386:196|354:164|291:196,1,199.499991780854,2|0,1:2|0:0,0:0:0:0:
290,196,128482,1,10,0:0:0:0:
96,249,128694,2,0,P|149:258|204:278,1,100,2|0,0:0|1:2,0:0:0:0:
237,297,129014,1,0,0:0:0:0:
284,311,129120,1,2,0:3:0:0:
333,305,129226,1,2,0:3:0:0:
375,278,129333,1,8,0:0:0:0:
512,363,129546,1,2,0:3:0:0:
479,157,129758,6,0,B|409:185|409:185|338:151,1,150,2|0,1:2|0:0,0:0:0:0:
342,153,130184,1,10,0:0:0:0:
304,21,130397,1,2,0:0:0:0:
150,210,130610,2,0,L|240:166,1,100,2|2,1:2|0:3,0:0:0:0:
458,44,131035,1,10,0:0:0:0:
302,332,131461,6,0,B|241:362|210:332|180:301|119:332,1,187.5,2|0,1:2|0:0,0:0:0:0:
122,332,131886,1,10,0:0:0:0:
90,102,132099,1,2,0:0:0:0:
15,235,132312,1,2,1:2:0:0:
62,251,132418,1,0,0:0:0:0:
111,251,132524,1,2,0:3:0:0:
159,237,132631,1,2,0:3:0:0:
200,208,132737,6,0,P|279:185|220:278,1,262.500002503395,10|0,0:0|0:0,0:0:0:0:
223,279,133163,5,2,1:2:0:0:
351,78,133376,1,2,0:0:0:0:
331,330,133588,1,10,1:2:0:0:
215,63,133801,1,2,0:0:0:0:
120,354,134014,2,0,P|73:350|70:220,1,187.5,2|2,1:2|0:3,0:0:0:0:
173,164,134440,2,0,P|183:251|103:284,1,187.5,10|0,0:0|0:0,0:0:0:0:
121,214,134865,6,0,L|291:309,1,187.5,2|0,1:2|0:0,0:0:0:0:
284,305,135291,1,10,0:0:0:0:
434,263,135503,1,2,0:0:0:0:
317,125,135716,5,0,1:0:0:0:
300,116,135822,1,0,1:0:0:0:
282,109,135928,1,0,1:0:0:0:
263,104,136035,1,0,1:0:0:0:
225,102,136141,1,8,1:2:0:0:
182,113,136247,1,8,1:2:0:0:
135,131,136354,1,8,1:2:0:0:
79,141,136461,1,8,1:2:0:0:
16,127,136567,1,6,1:2:0:0:
283,54,148483,5,4,1:3:0:0:
374,153,148696,1,8,0:3:0:0:
243,182,148909,1,8,3:2:0:0:
193,176,149016,1,8,0:3:0:0:
350,254,149228,1,8,3:2:0:0:
400,248,149335,1,8,0:3:0:0:
225,384,149547,5,8,1:2:0:0:
147,53,149759,1,8,1:2:0:0:
147,53,150185,6,0,P|223:73|313:57,1,150.000005722046,4|0,1:0|0:0,0:0:0:0:
336,49,150505,1,0,0:0:0:0:
374,26,150611,1,10,1:2:0:0:
512,100,150824,1,2,0:0:0:0:
374,313,151036,6,0,P|340:254|344:171,1,150.000005722046,2|0,1:2|0:0,0:0:0:0:
360,131,151356,1,0,0:0:0:0:
389,97,151462,1,10,1:2:0:0:
502,214,151675,1,2,0:0:0:0:
189,96,151887,5,2,1:2:0:0:
76,282,152100,1,0,0:0:0:0:
127,300,152207,1,0,0:0:0:0:
178,320,152313,1,10,1:2:0:0:
102,134,152526,1,2,0:0:0:0:
51,152,152633,1,0,0:0:0:0:
0,172,152739,1,2,1:2:0:0:
337,292,153164,5,10,0:0:0:0:
331,265,153377,1,2,0:0:0:0:
325,241,153590,2,0,P|291:187|173:278,1,250,2|10,1:2|0:2,0:0:0:0:
236,84,154228,1,2,0:0:0:0:
400,225,154441,2,0,P|338:318|248:253,1,250,2|10,1:2|0:2,0:0:0:0:
34,160,155292,5,2,1:2:0:0:
285,63,155505,1,2,0:2:0:0:
72,0,155717,1,10,1:2:0:0:
366,184,155930,1,2,0:2:0:0:
50,269,156143,1,2,1:2:0:0:
15,303,156249,1,0,0:0:0:0:
15,352,156355,1,2,0:3:0:0:
48,387,156462,1,2,0:3:0:0:
97,389,156568,1,8,0:0:0:0:
261,317,156781,1,2,0:3:0:0:
40,85,156994,6,0,P|117:60|215:65,1,150.000005722046,4|0,1:0|0:0,0:0:0:0:
229,71,157314,1,0,0:0:0:0:
271,85,157420,1,10,1:2:0:0:
426,10,157633,1,2,0:0:0:0:
512,284,157845,6,0,P|447:287|365:265,1,150.000005722046,2|0,1:2|0:0,0:0:0:0:
324,244,158165,1,0,0:0:0:0:
288,216,158271,1,10,1:2:0:0:
475,145,158484,1,2,0:0:0:0:
306,366,158696,5,2,1:2:0:0:
116,255,158909,1,0,0:0:0:0:
89,301,159016,1,0,0:0:0:0:
63,349,159122,1,10,1:2:0:0:
288,216,159335,1,2,0:0:0:0:
254,173,159441,1,0,0:0:0:0:
219,132,159548,1,2,1:2:0:0:
507,214,159973,5,10,0:0:0:0:
437,310,160186,1,2,0:0:0:0:
354,126,160399,2,0,P|395:161|380:58,1,250,2|10,1:2|0:0,0:0:0:0:
370,261,161037,1,2,0:0:0:0:
275,89,161250,2,0,B|194:48|154:89|114:129|34:89,1,250,2|10,1:2|0:0,0:0:0:0:
212,42,162101,6,0,P|208:126|305:162,1,187.5,2|2,1:2|0:0,0:0:0:0:
291,165,162527,1,10,1:2:0:0:
421,105,162739,1,2,0:0:0:0:
412,249,162952,1,2,1:2:0:0:
403,285,163058,1,0,0:0:0:0:
381,315,163164,1,2,0:3:0:0:
348,334,163271,1,2,0:3:0:0:
310,337,163378,2,0,L|261:332,7,31.25,8|0|0|0|2|0|0|0,0:0|0:0|0:0|0:0|0:3|0:0|0:0|0:0,0:0:0:0:
256,331,163803,6,0,P|185:330|96:348,1,150.000005722046,4|0,1:0|0:0,0:0:0:0:
64,360,164123,1,0,0:0:0:0:
22,377,164229,1,10,1:2:0:0:
0,195,164442,1,2,0:0:0:0:
256,256,164654,6,0,P|338:260|416:208,1,150.000005722046,2|0,1:2|0:0,0:0:0:0:
430,198,164974,1,0,0:0:0:0:
456,162,165080,1,10,1:2:0:0:
512,327,165293,1,2,0:0:0:0:
305,108,165506,5,2,1:2:0:0:
84,36,165718,1,0,0:0:0:0:
137,27,165825,1,0,0:0:0:0:
190,17,165931,1,10,1:2:0:0:
317,185,166144,1,2,0:0:0:0:
265,170,166250,1,0,0:0:0:0:
212,157,166357,1,2,1:2:0:0:
71,305,166570,2,0,L|152:275,1,75.0000028610231,2|2,1:2|1:2,0:0:0:0:
68,225,166782,6,0,P|-1:271|147:331,1,300,10|0,1:2|0:0,0:0:0:0:
119,370,167208,5,0,1:0:0:0:
288,278,167421,1,2,0:0:0:0:
12,159,167634,1,10,0:0:0:0:
325,293,167847,1,2,0:0:0:0:
489,64,168201,5,0,0:1:0:0:
377,197,168379,1,2,0:0:0:0:
358,196,168485,2,0,P|297:181|240:129,1,132.999994520569,10|2,0:0|0:0,0:0:0:0:
134,11,168911,1,0,1:0:0:0:
80,317,169124,1,2,0:0:0:0:
393,367,169336,1,10,0:0:0:0:
444,59,169549,1,2,0:0:0:0:
444,59,169974,5,2,0:0:0:0:
393,367,170187,1,10,0:0:0:0:
258,0,170400,1,2,0:0:0:0:
480,306,170612,6,0,P|425:269|337:275,1,150.000005722046,4|0,1:0|0:0,0:0:0:0:
303,292,170932,1,0,0:0:0:0:
267,318,171038,1,10,1:2:0:0:
120,366,171251,1,2,0:0:0:0:
1,119,171463,6,0,P|77:115|161:158,1,150.000005722046,2|0,1:2|0:0,0:0:0:0:
178,172,171783,1,0,0:0:0:0:
207,206,171889,1,10,1:2:0:0:
269,21,172102,1,2,0:0:0:0:
30,254,172315,5,2,1:2:0:0:
91,50,172527,1,0,0:0:0:0:
118,96,172634,1,0,0:0:0:0:
144,144,172740,1,10,1:2:0:0:
361,67,172953,1,2,0:0:0:0:
334,113,173060,1,0,0:0:0:0:
308,161,173166,1,2,1:2:0:0:
337,367,173591,5,10,0:0:0:0:
346,339,173804,1,2,0:0:0:0:
354,315,174017,2,0,B|370:263|419:208|419:208|357:205|300:154,1,250,2|10,1:2|0:0,0:0:0:0:
178,33,174655,1,2,0:0:0:0:
87,194,174868,2,0,P|158:126|158:224,1,250,2|10,1:2|0:0,0:0:0:0:
399,287,175719,6,0,B|338:317|308:287|278:256|218:287,1,187.5,2|2,1:2|0:0,0:0:0:0:
218,286,176145,1,10,1:2:0:0:
86,342,176357,1,2,0:0:0:0:
222,195,176570,1,2,1:2:0:0:
269,209,176676,1,0,0:0:0:0:
301,246,176782,1,2,0:3:0:0:
311,295,176889,1,2,0:3:0:0:
294,341,176995,1,8,0:0:0:0:
505,153,177209,5,2,0:3:0:0:
86,342,177421,1,4,1:0:0:0:
