osu file format v14

[General]
AudioFilename: audio.mp3
AudioLeadIn: 0
PreviewTime: 47917
Countdown: 0
SampleSet: Soft
StackLeniency: 0.3
Mode: 0
LetterboxInBreaks: 0
WidescreenStoryboard: 1

[Editor]
Bookmarks: 39998,47998,63998,65998,97998,129998,137498,165998,169998,185998,189998,217998,233998
DistanceSpacing: 0.4
BeatDivisor: 8
GridSize: 32
TimelineZoom: 2.4

[Metadata]
Title:Sway
TitleUnicode:Sway
Artist:Tove Styrke
ArtistUnicode:Tove Styrke
Creator:schoolboy
Version:Mint's Insane
Source:
Tags:yuuya_ke komore mint appleeaterx jas craezy pop english fifa 19 2019 ost wenet wenect unranked_mapper unranked mapper yuuya ke tuva stierka
BeatmapID:2727564
BeatmapSetID:1316289

[Difficulty]
HPDrainRate:5
CircleSize:3.8
OverallDifficulty:7.6
ApproachRate:8.3
SliderMultiplier:1
SliderTickRate:1

[Events]
//Background and Video events
0,0,"APPLEEASTES.jpg",0,0
Video,0,"Tove Styrke - Sway (1).mp4"
//Break Periods
2,137680,165276
//Storyboard Layer 0 (Background)
//Storyboard Layer 1 (Fail)
//Storyboard Layer 2 (Pass)
//Storyboard Layer 3 (Foreground)
//Storyboard Layer 4 (Overlay)
//Storyboard Sound Samples

[TimingPoints]
-20,500,4,2,0,61,1,0
7978,-80,4,2,1,60,0,0
43292,-80,4,2,1,5,0,0
43480,-80,4,2,1,60,0,0
43728,-80,4,2,1,10,0,0
43853,-80,4,2,1,15,0,0
43978,-80,4,2,1,60,0,0
47978,-100,4,2,2,70,0,0
48978,-66.6666666666667,4,2,2,70,0,0
50978,-133.333333333333,4,2,2,70,0,0
51978,-100,4,2,2,70,0,0
52978,-66.6666666666667,4,2,2,70,0,0
54978,-133.333333333333,4,2,2,70,0,0
56228,-30.03003003003,4,2,2,70,0,0
57228,-66.6666666666667,4,2,2,70,0,0
58228,-30.03003003003,4,2,2,70,0,0
58978,-30.03003003003,4,2,5,70,0,0
59228,-133.333333333333,4,2,2,70,0,0
60228,-30.03003003003,4,2,2,70,0,0
61728,-133.333333333333,4,2,2,70,0,0
61978,-40,4,2,3,70,0,0
62978,-133.333333333333,4,2,4,70,0,0
63478,-40,4,2,1,70,0,0
63519,-40,4,2,1,15,0,0
63978,-400,4,2,1,60,0,0
65978,-66.6666666666667,4,2,1,60,0,0
69478,-133.333333333333,4,2,1,60,0,0
69978,-66.6666666666667,4,2,1,60,0,0
81478,-133.333333333333,4,2,1,60,0,0
81978,-66.6666666666667,4,2,1,65,0,0
97978,-100,4,2,2,70,0,0
98978,-66.6666666666667,4,2,2,70,0,0
100978,-133.333333333333,4,2,2,70,0,0
101978,-100,4,2,2,70,0,0
102978,-66.6666666666667,4,2,2,70,0,0
104978,-133.333333333333,4,2,2,70,0,0
106228,-30.03003003003,4,2,2,70,0,0
107228,-66.6666666666667,4,2,2,70,0,0
108228,-30.03003003003,4,2,2,70,0,0
108978,-30.03003003003,4,2,5,70,0,0
109228,-133.333333333333,4,2,2,70,0,0
110228,-30.03003003003,4,2,2,70,0,0
111728,-133.333333333333,4,2,2,70,0,0
111978,-40,4,2,3,70,0,0
112978,-133.333333333333,4,2,2,70,0,0
113478,-40,4,2,2,70,0,0
113978,-100,4,2,2,70,0,0
114978,-66.6666666666667,4,2,2,70,0,0
116978,-133.333333333333,4,2,2,70,0,0
117978,-100,4,2,2,70,0,0
118978,-66.6666666666667,4,2,2,70,0,0
120978,-133.333333333333,4,2,2,70,0,0
122228,-30.03003003003,4,2,2,70,0,0
123228,-66.6666666666667,4,2,2,70,0,0
124228,-30.03003003003,4,2,2,70,0,0
124978,-30.03003003003,4,2,5,70,0,0
125228,-133.333333333333,4,2,2,70,0,0
126228,-30.03003003003,4,2,2,70,0,0
127728,-133.333333333333,4,2,2,70,0,0
127978,-40,4,2,3,70,0,0
128978,-100,4,2,2,70,0,0
129978,-100,4,2,1,60,0,0
133728,-100,4,2,1,10,0,0
133853,-100,4,2,1,15,0,0
133978,-100,4,2,1,50,0,0
135478,-100,4,2,1,40,0,0
135978,-100,4,2,1,30,0,0
136228,-100,4,2,1,20,0,0
136478,-133.333333333333,4,2,1,20,0,0
167978,-133.333333333333,4,2,1,40,0,0
168978,-133.333333333333,4,2,1,50,0,0
169478,-133.333333333333,4,2,1,65,0,0
169980,-303.030303030303,4,2,1,80,0,1
170478,-303.030303030303,4,2,2,80,0,1
183978,-40,4,2,2,80,0,1
184728,-100,4,2,1,80,0,1
184980,-40,4,2,1,80,0,1
185980,-400,4,2,1,70,0,0
187478,-400,4,2,1,60,0,0
187978,-133.333333333333,4,2,1,60,0,0
189978,-100,4,2,2,90,0,0
190978,-66.6666666666667,4,2,2,90,0,0
192978,-133.333333333333,4,2,2,90,0,0
193978,-30.03003003003,4,2,2,90,0,0
196978,-30.03003003003,4,2,5,90,0,0
197228,-30.03003003003,4,2,2,90,0,0
199728,-133.333333333333,4,2,2,90,0,0
199978,-40,4,2,3,90,0,0
200853,-40,4,2,1,90,0,0
201978,-100,4,2,2,90,0,0
202978,-66.6666666666667,4,2,2,90,0,0
204978,-133.333333333333,4,2,2,90,0,0
205144,-133.333333333333,4,2,3,90,0,0
205478,-133.333333333333,4,2,2,90,0,0
205978,-100,4,2,2,90,0,0
206978,-66.6666666666667,4,2,2,90,0,0
208978,-133.333333333333,4,2,2,90,0,0
209978,-30.03003003003,4,2,2,90,0,0
212978,-30.03003003003,4,2,5,90,0,0
213228,-30.03003003003,4,2,2,90,0,0
215728,-133.333333333333,4,2,2,90,0,0
215978,-40,4,2,3,90,0,0
216978,-40,4,2,2,90,0,0
217978,-133.333333333333,4,2,2,85,0,0
218978,-66.6666666666667,4,2,2,85,0,0
221478,-133.333333333333,4,2,2,85,0,0
221728,-133.333333333333,4,2,1,10,0,0
221853,-133.333333333333,4,2,1,15,0,0
221978,-133.333333333333,4,2,2,85,0,0
222228,-30.03003003003,4,2,2,85,0,0
223478,-133.333333333333,4,2,2,85,0,0
224478,-66.6666666666667,4,2,2,85,0,0
224542,-66.6666666666667,4,2,2,5,0,0
224730,-66.6666666666667,4,2,2,85,0,0
224792,-66.6666666666667,4,2,2,5,0,0
224978,-133.333333333333,4,2,2,85,0,0
226228,-30.03003003003,4,2,2,85,0,0
226980,-40,4,2,1,90,0,0
227478,-133.333333333333,4,2,2,85,0,0
228228,-30.03003003003,4,2,2,85,0,0
228978,-30.03003003003,4,2,5,85,0,0
229228,-30.03003003003,4,2,2,85,0,0
231728,-133.333333333333,4,2,2,85,0,0
231978,-40,4,2,3,85,0,0
232978,-133.333333333333,4,2,2,85,0,0
233978,-133.333333333333,4,2,2,20,0,0

[Colours]
Combo1 : 168,168,255
Combo2 : 133,254,197
Combo3 : 145,219,255
Combo4 : 255,160,66

[HitObjects]
256,192,3980,12,4,7480,0:0:0:0:
293,109,7980,6,0,P|331:103|364:100,1,62.5,2|2,1:2|3:2,0:0:0:0:
360,88,8355,1,0,3:0:0:0:
365,77,8480,1,2,3:2:0:0:
286,20,8730,1,2,1:2:0:0:
456,60,8980,2,0,P|476:121|450:199,1,125,10|2,0:0|0:0,0:0:0:0:
292,299,9980,5,2,0:0:0:0:
292,299,10105,1,2,0:0:0:0:
292,299,10230,2,0,P|297:260|302:232,1,62.5,2|2,1:2|0:0,0:0:0:0:
385,206,10730,1,2,1:2:0:0:
365,349,10980,1,10,0:0:0:0:
97,262,11980,5,2,1:2:0:0:
97,262,12105,1,2,0:0:0:0:
97,262,12230,2,0,L|163:250,1,62.5,2|2,3:2|3:2,0:0:0:0:
201,312,12605,2,0,L|192:278,1,31.25,2|2,0:0|1:2,0:0:0:0:
265,172,12980,2,0,L|292:302,1,125,10|2,0:0|0:0,0:0:0:0:
466,159,13980,5,2,0:0:0:0:
466,159,14105,1,2,0:0:0:0:
466,159,14230,2,0,P|431:150|392:144,1,62.5,2|2,1:2|0:0,0:0:0:0:
415,236,14730,1,2,1:2:0:0:
455,70,14980,1,10,0:0:0:0:
455,70,15480,5,2,0:0:0:0:
415,236,15730,1,2,0:0:0:0:
307,127,15980,2,0,L|236:116,1,62.5,2|0,1:2|3:0,0:0:0:0:
240,107,16355,1,0,3:0:0:0:
235,96,16480,1,2,3:2:0:0:
309,32,16730,1,0,1:0:0:0:
145,70,16980,2,0,P|120:119|139:201,1,125,8|0,0:0|0:0,0:0:0:0:
258,365,17980,5,2,0:0:0:0:
217,201,18230,1,2,1:2:0:0:
96,314,18480,2,0,L|164:303,1,62.5,2|2,0:0|1:2,0:0:0:0:
391,272,18980,5,10,0:0:0:0:
367,193,19230,1,2,0:0:0:0:
289,166,19480,1,2,0:0:0:0:
217,201,19730,1,2,0:0:0:0:
391,272,19980,6,0,P|431:265|456:261,1,62.5,2|0,1:2|3:0,0:0:0:0:
461,268,20355,1,0,3:0:0:0:
472,273,20480,1,2,3:2:0:0:
428,355,20730,1,0,1:0:0:0:
507,192,20980,2,0,L|488:60,1,125,8|0,0:0|0:0,0:0:0:0:
189,10,22230,5,4,1:3:0:0:
412,184,22480,6,0,L|408:162,1,15.625,4|0,1:3|0:0,0:0:0:0:
251,61,22730,2,0,L|248:76,1,15.625,4|0,1:3|0:0,0:0:0:0:
352,243,22980,6,0,L|225:215,1,125,8|0,1:2|0:0,0:0:0:0:
60,365,23980,6,0,L|136:349,1,62.5,6|2,1:2|3:2,0:0:0:0:
131,359,24355,1,0,3:0:0:0:
141,365,24480,1,2,3:2:0:0:
82,278,24730,1,2,1:2:0:0:
230,337,24980,2,0,P|243:278|220:200,1,125,10|2,0:0|0:0,0:0:0:0:
38,121,25980,5,2,0:0:0:0:
38,121,26105,1,2,0:0:0:0:
38,121,26230,2,0,L|108:110,1,62.5,2|2,1:2|0:0,0:0:0:0:
131,25,26730,1,2,1:2:0:0:
152,184,26980,1,10,0:0:0:0:
440,127,27480,1,0,0:0:0:0:
344,200,27980,5,2,0:0:0:0:
344,200,28105,1,2,0:0:0:0:
344,200,28230,2,0,L|358:124,1,62.5,2|2,3:2|3:2,0:0:0:0:
320,71,28605,2,0,L|326:111,1,31.25,2|2,0:0|1:2,0:0:0:0:
440,207,28980,2,0,L|421:338,1,125,10|2,0:0|0:0,0:0:0:0:
182,378,29980,5,2,0:0:0:0:
211,204,30230,1,2,1:2:0:0:
343,311,30480,2,0,L|272:296,1,62.5,2|2,0:0|1:2,0:0:0:0:
107,329,30980,2,0,L|36:314,1,62.5,10|0,0:0|0:0,0:0:0:0:
211,204,31480,5,2,0:0:0:0:
182,378,31730,1,2,0:0:0:0:
30,283,31980,2,0,L|41:215,1,62.5,2|0,1:2|3:0,0:0:0:0:
48,212,32355,1,0,3:0:0:0:
59,205,32480,1,2,3:2:0:0:
2,131,32730,1,0,1:0:0:0:
135,159,32980,2,0,L|157:28,1,125,8|0,0:0|0:0,0:0:0:0:
398,24,33980,5,2,0:0:0:0:
228,107,34230,2,0,L|302:97,2,62.5,2|2|2,1:2|3:2|1:2,0:0:0:0:
370,208,34980,5,10,0:2:0:0:
448,167,35230,1,2,0:0:0:0:
465,81,35480,1,2,0:0:0:0:
398,24,35730,1,2,0:0:0:0:
370,208,35980,5,2,1:2:0:0:
420,293,36230,1,0,3:0:0:0:
420,293,36355,1,0,3:0:0:0:
420,293,36480,2,0,L|490:283,1,62.5,2|0,3:2|1:0,0:0:0:0:
324,129,36980,1,8,0:0:0:0:
278,370,37480,5,0,0:0:0:0:
278,370,37730,1,0,0:0:0:0:
74,210,38230,5,4,1:3:0:0:
290,285,38480,6,0,L|264:281,1,15.625,2|0,0:0|0:0,0:0:0:0:
103,137,38730,2,0,L|129:133,1,15.625,4|0,1:3|0:0,0:0:0:0:
326,71,38980,6,0,L|305:208,1,125,8|0,0:0|0:0,0:0:0:0:
65,377,39980,6,0,P|42:341|82:203,1,187.5,4|8,1:0|0:0,0:0:0:0:
214,256,40980,2,0,P|187:252|147:248,1,62.5,2|0,0:0|0:0,0:0:0:0:
35,132,41480,6,0,L|42:95,1,31.25,8|0,0:0|0:0,0:0:0:0:
40,71,41980,6,0,P|71:74|102:78,1,62.5,2|8,0:0|0:0,0:0:0:0:
264,31,42480,5,2,0:0:0:0:
297,74,42646,5,2,0:0:0:0:
287,127,42813,5,2,0:0:0:0:
249,169,42980,6,0,P|203:160|146:152,1,93.75,10|0,0:0|0:0,0:0:0:0:
141,170,43480,2,0,L|133:210,1,31.25,8|0,0:0|0:0,0:0:0:0:
352,369,43980,6,0,P|408:367|484:267,1,187.5,2|8,0:0|0:0,0:0:0:0:
386,221,44980,2,0,P|385:265|387:294,1,62.5,2|0,0:0|0:0,0:0:0:0:
495,186,45480,6,0,L|451:176,1,31.25,8|0,0:0|0:0,0:0:0:0:
451,161,45980,6,0,P|452:117|450:88,1,62.5,2|8,0:0|0:0,0:0:0:0:
293,15,46480,5,2,0:0:0:0:
261,56,46646,5,2,0:0:0:0:
257,111,46813,5,2,0:0:0:0:
284,159,46980,6,0,P|227:152|144:145,1,125,2|2,0:0|0:0,0:0:0:0:
293,15,47980,6,0,P|291:48|288:73,1,50,4|0,1:0|3:0,0:0:0:0:
469,182,48355,1,0,3:0:0:0:
480,164,48480,2,0,P|482:131|485:106,1,50,0|0,3:0|1:0,0:0:0:0:
202,89,48980,6,0,P|160:145|192:224,1,150.000005722046,8|2,0:0|0:0,0:0:0:0:
111,259,49730,1,2,0:0:0:0:
34,226,49980,1,2,0:0:0:0:
313,337,50230,6,0,P|363:326|404:322,1,75.0000028610231,0|2,1:0|0:0,0:0:0:0:
245,282,50730,1,0,1:0:0:0:
443,260,50980,6,0,L|446:233,1,18.7500007152558,10|0,0:0|0:0,0:0:0:0:
360,241,51230,2,0,L|363:214,1,18.7500007152558,2|0,0:0|0:0,0:0:0:0:
356,45,51480,6,0,L|353:72,1,18.7500007152558,2|0,0:0|0:0,0:0:0:0:
510,69,51730,2,0,L|507:96,1,18.7500007152558,2|0,0:0|0:0,0:0:0:0:
318,142,51980,6,0,P|287:132|254:125,1,50,2|0,1:2|3:0,0:0:0:0:
54,167,52355,1,0,3:0:0:0:
62,184,52480,2,0,P|86:190|109:198,1,50,0|0,3:0|1:0,0:0:0:0:
167,1,52980,6,0,P|176:66|186:158,1,150.000005722046,8|2,0:0|0:0,0:0:0:0:
227,225,53730,1,2,0:0:0:0:
186,302,53980,1,2,0:0:0:0:
327,379,54230,5,0,1:0:0:0:
227,225,54480,1,2,0:0:0:0:
332,90,54730,1,0,1:0:0:0:
479,300,54980,6,0,L|447:294,1,18.7500007152558,12|0,0:0|0:0,0:0:0:0:
445,209,55230,5,2,1:2:0:0:
436,250,55355,1,2,0:0:0:0:
428,291,55480,1,2,0:0:0:0:
421,333,55605,1,0,0:0:0:0:
415,375,55730,1,2,0:0:0:0:
346,224,55980,5,2,1:2:0:0:
327,379,56230,1,2,3:1:0:0:
330,371,56355,1,2,3:1:0:0:
332,363,56480,2,0,P|420:351|523:342,2,166.500004064942,2|2|10,3:1|1:0|0:0,0:0:0:0:
227,225,57230,6,0,P|214:189|218:152,1,75.0000028610231,2|2,0:0|0:0,0:0:0:0:
286,67,57605,1,2,0:0:0:0:
295,79,57730,2,0,P|307:114|303:151,1,75.0000028610231,2|2,0:0|0:0,0:0:0:0:
174,316,58230,5,2,1:0:0:0:
171,308,58355,1,2,1:0:0:0:
169,300,58480,2,0,P|81:288|-22:279,2,166.500004064942,2|2|14,1:0|1:0|0:0,0:0:0:0:
21,192,59230,5,2,0:0:0:0:
33,152,59355,1,2,0:0:0:0:
62,121,59480,1,2,0:0:0:0:
101,107,59605,1,2,0:0:0:0:
142,112,59730,1,2,0:0:0:0:
306,200,59980,5,2,1:2:0:0:
234,4,60230,1,2,3:1:0:0:
240,10,60355,1,2,3:1:0:0:
246,18,60480,2,0,P|231:108|215:191,2,166.500004064942,2|2|10,3:1|1:0|0:0,0:0:0:0:
306,200,61230,5,2,0:0:0:0:
318,240,61355,1,2,0:0:0:0:
347,271,61480,1,2,0:0:0:0:
386,285,61605,1,2,0:0:0:0:
427,280,61730,2,0,L|456:274,1,18.7500007152558,2|0,0:0|0:0,0:0:0:0:
334,365,61980,6,0,P|271:349|178:335,1,125,10|0,1:2|0:0,0:0:0:0:
27,263,62355,6,0,P|90:247|183:233,1,125,10|0,1:2|0:0,0:0:0:0:
271,119,62730,6,0,P|243:113|206:108,1,62.5,10|0,1:2|0:0,0:0:0:0:
34,9,62980,6,0,P|44:49|47:75,1,56.2500021457673,12|0,0:0|0:0,0:0:0:0:
42,166,63480,6,0,P|60:84|167:59,1,187.5,4|4,0:3|0:3,0:0:0:0:
283,120,63980,6,0,P|246:113|209:108,1,75,2|2,0:0|0:0,0:0:0:0:
150,53,65730,1,2,0:0:0:0:
4,242,65980,6,0,P|41:235|78:230,1,75,2|2,1:2|3:2,0:0:0:0:
85,217,66355,1,0,3:0:0:0:
91,203,66480,1,2,3:2:0:0:
12,150,66730,1,2,1:2:0:0:
185,195,66980,2,0,L|160:357,1,150.000005722046,10|2,0:0|0:0,0:0:0:0:
145,358,67605,2,0,L|137:316,1,37.5000014305115,2|2,0:0|0:0,0:0:0:0:
268,277,67980,5,2,0:0:0:0:
268,277,68105,1,2,0:0:0:0:
268,277,68230,2,0,P|303:271|351:279,1,75.0000028610231,2|2,1:2|0:0,0:0:0:0:
492,331,68730,1,2,1:2:0:0:
457,179,68980,1,10,0:0:0:0:
444,168,69480,6,0,L|455:102,1,56.2500021457673
471,98,69980,5,2,0:0:0:0:
395,38,70230,1,2,3:2:0:0:
395,38,70355,1,0,3:0:0:0:
395,38,70480,2,0,P|353:42|308:49,1,75.0000028610231,2|2,3:2|1:2,0:0:0:0:
162,8,70980,2,0,P|134:58|165:130,1,112.500004291535,10|0,0:0|0:0,0:0:0:0:
168,124,71480,2,0,L|215:118,2,37.5000014305115,2|2|2,0:0|0:0|0:0,0:0:0:0:
94,246,71980,5,2,0:0:0:0:
94,246,72105,1,2,0:0:0:0:
94,246,72230,2,0,P|50:253|10:260,1,75.0000028610231,2|2,1:2|0:0,0:0:0:0:
35,163,72730,1,2,1:2:0:0:
61,341,72980,1,10,0:0:0:0:
61,341,73480,5,2,3:2:0:0:
35,163,73730,1,2,0:0:0:0:
181,233,73980,2,0,P|232:226|277:221,1,75.0000028610231,2|0,1:2|3:0,0:0:0:0:
266,233,74355,1,0,3:0:0:0:
275,241,74480,1,2,3:2:0:0:
220,317,74730,1,0,1:0:0:0:
367,242,74980,2,0,P|404:307|380:385,1,150.000005722046,8|0,0:0|0:0,0:0:0:0:
386,376,75980,5,2,0:0:0:0:
502,268,76230,2,0,P|496:225|492:187,2,75.0000028610231,2|2|2,1:2|0:0|1:2,0:0:0:0:
386,376,76980,5,10,0:0:0:0:
375,279,77230,1,2,0:0:0:0:
362,185,77480,2,0,P|356:142|352:104,1,75.0000028610231,2|2,0:0|0:0,0:0:0:0:
196,15,77980,5,2,1:2:0:0:
294,32,78230,1,0,3:0:0:0:
294,32,78355,1,0,3:0:0:0:
294,32,78480,2,0,P|337:26|378:20,1,75.0000028610231,2|0,3:2|1:0,0:0:0:0:
141,85,78980,2,0,P|81:103|41:188,1,150.000005722046,8|0,0:0|0:0,0:0:0:0:
132,171,79730,1,0,0:0:0:0:
272,380,80230,5,4,1:3:0:0:
217,171,80480,6,0,L|221:138,1,18.7500007152558,4|0,1:3|0:0,0:0:0:0:
347,314,80730,2,0,L|349:332,1,18.7500007152558,4|0,1:3|0:0,0:0:0:0:
263,84,80980,6,0,L|386:66,1,112.500004291535,8|0,1:2|0:0,0:0:0:0:
404,49,81480,6,0,L|394:111,1,56.2500021457673
461,150,81980,6,0,L|505:142,2,37.5000014305115,2|2|2,1:2|0:0|3:2,0:0:0:0:
328,212,82480,2,0,L|286:205,1,37.5000014305115,2|2,3:2|0:0,0:0:0:0:
341,216,82730,1,2,1:2:0:0:
456,294,82980,2,0,L|500:286,2,37.5000014305115,10|2|2,0:0|0:0|0:0,0:0:0:0:
328,350,83480,5,2,0:0:0:0:
328,350,83605,1,2,0:0:0:0:
328,350,83730,2,0,L|246:336,1,75.0000028610231,2|2,0:0|0:0,0:0:0:0:
133,355,84230,5,0,1:0:0:0:
137,364,84355,1,0,0:0:0:0:
141,375,84480,1,2,0:0:0:0:
212,260,84730,1,2,1:2:0:0:
16,318,84980,2,0,P|-5:258|20:179,1,150.000005722046,10|0,0:0|3:0,0:0:0:0:
158,97,85730,6,0,P|98:106|61:112,1,75.0000028610231,2|2,0:0|0:0,0:0:0:0:
340,27,86230,1,2,3:2:0:0:
340,27,86355,1,0,3:0:0:0:
340,27,86480,2,0,P|400:18|437:12,1,75.0000028610231,2|2,3:2|1:2,0:0:0:0:
264,100,86980,5,10,0:0:0:0:
260,115,87105,2,0,L|253:159,1,37.5000014305115,2|2,0:0|0:0,0:0:0:0:
463,253,87480,1,2,0:0:0:0:
467,238,87605,2,0,L|474:194,1,37.5000014305115,0|2,0:0|0:0,0:0:0:0:
284,248,87980,6,0,P|274:289|281:329,1,75.0000028610231,2|0,0:0|1:0,0:0:0:0:
288,329,88355,1,0,0:0:0:0:
300,337,88480,2,0,L|382:325,1,75.0000028610231,2|2,0:0|1:2,0:0:0:0:
199,361,88980,1,10,0:0:0:0:
199,361,89480,5,2,3:2:0:0:
147,188,89730,1,2,0:0:0:0:
16,312,89980,2,0,L|103:298,1,75.0000028610231,2|0,1:2|3:0,0:0:0:0:
84,286,90355,1,0,3:0:0:0:
78,269,90480,1,2,3:2:0:0:
147,188,90730,1,0,1:0:0:0:
208,286,90980,6,0,P|202:328|198:366,1,75.0000028610231,8|0,0:0|0:0,0:0:0:0:
206,375,91480,2,0,P|210:337|215:300,1,75.0000028610231,0|0,3:0|0:0,0:0:0:0:
288,247,91980,5,2,0:0:0:0:
461,269,92230,1,2,1:2:0:0:
368,296,92480,1,2,3:2:0:0:
484,178,92730,1,2,1:2:0:0:
328,141,92980,6,0,P|285:148|246:155,1,75.0000028610231,10|2,0:2|0:0,0:0:0:0:
184,108,93480,1,2,0:0:0:0:
260,66,93730,1,2,0:0:0:0:
180,20,93980,5,2,0:0:0:0:
40,98,94230,1,0,3:0:0:0:
38,109,94355,1,0,3:0:0:0:
36,122,94480,1,2,3:2:0:0:
178,192,94730,1,0,1:0:0:0:
101,240,94980,6,0,P|61:248|23:257,1,75.0000028610231,8|0,0:0|0:0,0:0:0:0:
24,267,95480,2,0,P|60:258|97:251,1,75.0000028610231
423,253,96230,5,4,1:3:0:0:
174,291,96480,6,0,L|197:287,1,18.7500007152558,2|0,0:0|0:0,0:0:0:0:
346,221,96730,2,0,L|323:217,1,18.7500007152558,4|0,1:3|0:0,0:0:0:0:
246,353,96980,6,0,L|216:131,1,225.000008583069,8|0,0:0|0:0,0:0:0:0:
427,31,97980,6,0,P|455:28|481:24,1,50,4|0,1:0|3:0,0:0:0:0:
396,224,98355,1,0,3:0:0:0:
377,211,98480,2,0,P|349:214|323:218,1,50,0|0,3:0|1:0,0:0:0:0:
78,144,98980,6,0,P|121:117|220:132,1,150.000005722046,8|2,0:0|3:2,0:0:0:0:
299,142,99730,1,8,0:3:0:0:
266,64,99980,1,2,0:0:0:0:
88,254,100230,6,0,P|39:247|1:245,1,75.0000028610231,0|8,1:0|0:3,0:0:0:0:
150,198,100730,1,0,1:0:0:0:
132,330,100980,6,0,L|162:324,1,18.7500007152558,10|0,0:0|0:0,0:0:0:0:
221,366,101230,2,0,L|251:360,1,18.7500007152558,2|0,0:0|0:0,0:0:0:0:
299,142,101480,6,0,L|269:136,1,18.7500007152558,2|0,0:0|0:0,0:0:0:0:
240,273,101730,2,0,L|210:267,1,18.7500007152558,2|0,0:0|0:0,0:0:0:0:
145,148,101980,6,0,P|149:192|150:217,1,50,2|0,1:2|3:0,0:0:0:0:
327,318,102355,1,0,3:0:0:0:
331,296,102480,2,0,P|327:252|326:227,1,50,0|0,3:0|1:0,0:0:0:0:
506,111,102980,5,8,0:0:0:0:
451,192,103230,1,0,0:0:0:0:
451,192,103355,1,0,0:0:0:0:
451,192,103480,2,0,P|408:181|361:174,1,75.0000028610231,2|8,3:2|0:3,0:0:0:0:
326,246,103980,1,2,0:0:0:0:
506,111,104230,5,0,1:0:0:0:
314,28,104480,1,8,0:3:0:0:
326,246,104730,1,0,1:0:0:0:
419,58,104980,6,0,L|411:91,1,18.7500007152558,12|0,0:0|0:0,0:0:0:0:
340,141,105230,5,2,1:2:0:0:
381,132,105355,1,2,0:0:0:0:
422,124,105480,1,2,0:0:0:0:
464,117,105605,1,0,0:0:0:0:
506,111,105730,1,2,0:0:0:0:
314,28,105980,5,2,1:2:0:0:
205,151,106230,1,2,3:1:0:0:
200,160,106355,1,2,3:1:0:0:
194,168,106480,2,0,P|165:83|201:20,2,166.500004064942,2|2|10,3:1|1:0|0:0,0:0:0:0:
365,272,107230,5,2,0:0:0:0:
273,223,107480,1,2,0:0:0:0:
267,260,107605,1,2,0:0:0:0:
264,297,107730,1,8,0:3:0:0:
361,172,107980,5,2,0:0:0:0:
185,375,108230,1,2,1:0:0:0:
182,367,108355,1,2,1:0:0:0:
180,359,108480,2,0,P|92:347|-11:338,2,166.500004064942,2|2|14,1:0|1:0|0:0,0:0:0:0:
49,250,109230,5,2,0:0:0:0:
28,213,109355,1,2,0:0:0:0:
28,172,109480,1,2,0:0:0:0:
49,136,109605,1,2,0:0:0:0:
85,115,109730,1,2,0:0:0:0:
151,262,109980,5,2,1:2:0:0:
186,3,110230,1,2,3:1:0:0:
180,9,110355,1,2,3:1:0:0:
174,17,110480,2,0,P|189:107|205:190,2,166.500004064942,2|2|10,3:1|1:0|0:0,0:0:0:0:
317,9,111230,5,2,0:0:0:0:
353,30,111355,1,2,0:0:0:0:
374,66,111480,1,2,0:0:0:0:
374,107,111605,1,2,0:0:0:0:
353,144,111730,2,0,L|345:175,1,18.7500007152558,8|0,0:3|0:0,0:0:0:0:
284,373,111980,6,0,P|248:311|266:235,1,125,10|0,1:2|0:0,0:0:0:0:
468,202,112355,6,0,P|504:264|486:340,1,125,10|0,1:2|0:0,0:0:0:0:
347,297,112730,6,0,P|378:284|408:280,1,62.5,10|0,1:2|0:0,0:0:0:0:
284,373,112980,5,12,0:0:0:0:
197,360,113230,1,0,0:0:0:0:
111,348,113480,1,0,0:0:0:0:
29,338,113730,1,0,0:0:0:0:
249,210,113980,6,0,P|252:250|254:278,1,50,4|0,1:0|3:0,0:0:0:0:
451,144,114355,1,0,3:0:0:0:
438,126,114480,2,0,P|435:86|433:58,1,50,0|0,3:0|1:0,0:0:0:0:
174,41,114980,6,0,P|143:115|172:175,1,150.000005722046,8|2,0:0|3:2,0:0:0:0:
249,210,115730,1,8,0:3:0:0:
320,161,115980,1,2,0:0:0:0:
168,332,116230,6,0,P|171:286|172:247,1,75.0000028610231,0|8,1:0|0:3,0:0:0:0:
242,372,116730,1,0,1:0:0:0:
74,226,116980,6,0,L|98:222,1,18.7500007152558,10|0,0:0|0:0,0:0:0:0:
61,146,117230,2,0,L|85:142,1,18.7500007152558,2|0,0:0|0:0,0:0:0:0:
246,34,117480,6,0,L|222:38,1,18.7500007152558,2|0,0:0|0:0,0:0:0:0:
276,291,117730,2,0,L|252:295,1,18.7500007152558,2|0,0:0|0:0,0:0:0:0:
165,171,117980,6,0,P|208:164|237:160,1,50,2|0,1:2|3:0,0:0:0:0:
427,296,118355,1,0,3:0:0:0:
412,307,118480,2,0,P|387:310|362:314,1,50,0|0,3:0|1:0,0:0:0:0:
303,126,118980,5,8,0:0:0:0:
286,216,119230,1,0,0:0:0:0:
286,216,119355,1,0,0:0:0:0:
286,216,119480,2,0,P|280:252|275:290,1,75.0000028610231,2|8,3:2|0:3,0:0:0:0:
362,313,119980,1,2,0:0:0:0:
165,171,120230,5,0,1:0:0:0:
389,71,120480,1,8,0:3:0:0:
165,171,120730,1,0,1:0:0:0:
362,313,120980,6,0,L|357:285,1,18.7500007152558,12|0,0:0|0:0,0:0:0:0:
414,218,121230,5,2,1:2:0:0:
405,259,121355,1,2,0:0:0:0:
397,300,121480,1,2,0:0:0:0:
390,342,121605,1,0,0:0:0:0:
384,384,121730,1,2,0:0:0:0:
510,234,121980,5,2,1:2:0:0:
322,185,122230,1,2,3:1:0:0:
324,176,122355,1,2,3:1:0:0:
326,167,122480,2,0,P|382:123|480:146,2,166.500004064942,2|2|10,3:1|1:0|0:0,0:0:0:0:
168,260,123230,5,2,0:0:0:0:
273,272,123480,1,2,0:0:0:0:
267,309,123605,1,2,0:0:0:0:
264,346,123730,1,8,0:3:0:0:
227,179,123980,5,2,0:0:0:0:
68,368,124230,1,2,1:0:0:0:
62,360,124355,1,2,1:0:0:0:
56,354,124480,2,0,P|69:262|83:176,2,166.500004064942,2|2|14,1:0|1:0|0:0,0:0:0:0:
14,118,125230,5,2,0:0:0:0:
41,86,125355,1,2,0:0:0:0:
80,69,125480,1,2,0:0:0:0:
122,69,125605,1,2,0:0:0:0:
160,85,125730,1,2,0:0:0:0:
267,309,125980,5,2,1:2:0:0:
237,140,126230,1,2,3:1:0:0:
233,148,126355,1,2,3:1:0:0:
227,154,126480,2,0,P|211:195|219:239,1,83.2500020324708,2|0,3:1|0:0,0:0:0:0:
354,253,126730,2,0,P|370:212|362:168,1,83.2500020324708,2|0,1:0|0:0,0:0:0:0:
316,84,126980,1,10,0:0:0:0:
501,221,127230,5,2,0:0:0:0:
462,204,127355,1,2,0:0:0:0:
420,204,127480,1,2,0:0:0:0:
382,221,127605,1,2,0:0:0:0:
354,253,127730,2,0,L|358:284,1,18.7500007152558,8|2,0:3|0:0,0:0:0:0:
214,383,127980,6,0,P|137:361|68:354,1,125,10|0,1:2|0:0,0:0:0:0:
345,288,128355,6,0,P|422:266|491:259,1,125,10|0,1:2|0:0,0:0:0:0:
157,233,128730,6,0,P|132:224|97:220,1,62.5,10|0,1:2|0:0,0:0:0:0:
291,44,128980,6,0,P|303:95|309:160,1,100,12|0,0:0|0:0,0:0:0:0:
466,260,129730,6,0,P|467:243|473:216,1,25
505,335,129980,1,4,1:0:0:0:
256,373,130730,6,0,P|209:364|144:358,1,100,8|0,0:0|0:0,0:0:0:0:
46,333,131480,6,0,L|75:327,1,25,8|0,0:0|0:0,0:0:0:0:
85,314,131980,6,0,P|86:271|84:245,1,50,2|10,0:0|0:0,0:0:0:0:
23,118,132480,5,2,0:0:0:0:
11,144,132646,5,2,0:0:0:0:
10,170,132813,5,2,0:0:0:0:
23,194,132980,6,0,P|68:185|124:178,1,100,10|8,0:0|3:2,0:0:0:0:
462,41,133980,6,0,P|412:47|363:56,1,100,2|2,1:2|0:0,0:0:0:0:
296,18,134730,1,8,0:0:0:0:
296,18,134980,1,2,0:0:0:0:
430,139,135480,6,0,L|426:176,1,25,8|0,0:0|0:0,0:0:0:0:
440,179,135980,6,0,P|434:208|442:243,1,50,2|10,0:0|0:0,0:0:0:0:
510,241,136480,6,0,L|428:226,1,75.0000028610231
341,281,137480,1,0,0:0:0:0:
256,192,165980,12,0,169480,0:0:0:0:
197,334,169980,6,0,L|194:314,1,16.499999949646,4|0,1:0|0:0,0:0:0:0:
352,379,170480,2,0,L|354:362,1,16.499999949646,10|0,0:3|0:0,0:0:0:0:
88,357,170980,6,0,L|127:350,1,32.999999899292,8|10,0:0|0:3,0:0:0:0:
197,334,171730,1,0,0:0:0:0:
361,364,172230,5,0,1:0:0:0:
361,364,172480,2,0,L|342:361,1,16.499999949646,10|0,0:3|1:0,0:0:0:0:
108,268,172980,6,0,L|147:261,1,32.999999899292,8|10,0:0|0:3,0:0:0:0:
163,246,173980,6,0,L|160:226,1,16.499999949646,0|0,1:0|0:0,0:0:0:0:
363,281,174480,2,0,L|365:264,1,16.499999949646,10|0,0:3|0:0,0:0:0:0:
54,269,174980,6,0,L|93:262,1,32.999999899292,8|10,0:0|0:3,0:0:0:0:
163,246,175730,1,0,0:0:0:0:
372,266,176230,5,0,1:0:0:0:
372,266,176480,2,0,L|353:263,1,16.499999949646,10|0,1:3|0:0,0:0:0:0:
74,180,176980,6,0,L|113:173,1,32.999999899292,12|10,0:0|0:3,0:0:0:0:
134,152,177980,6,0,L|131:132,1,16.499999949646,0|0,1:0|3:0,0:0:0:0:
415,195,178480,2,0,L|417:178,1,16.499999949646,10|0,0:3|1:0,0:0:0:0:
25,173,178980,6,0,L|64:166,1,32.999999899292,8|10,0:0|3:0,0:0:0:0:
134,152,179730,1,0,0:0:0:0:
417,178,180230,5,0,1:0:0:0:
417,178,180480,2,0,L|398:175,1,16.499999949646,10|0,1:3|0:0,0:0:0:0:
40,89,180980,6,0,L|79:82,1,32.999999899292,12|10,0:0|0:3,0:0:0:0:
109,55,181980,6,0,L|106:35,1,16.499999949646,0|0,1:0|3:0,0:0:0:0:
470,115,182480,2,0,L|472:98,1,16.499999949646,10|0,0:3|1:3,0:0:0:0:
0,82,182980,6,0,L|36:76,1,32.999999899292,8|10,0:0|0:3,0:0:0:0:
417,178,183980,6,0,P|445:238|419:299,1,125,0|0,1:0|0:0,0:0:0:0:
237,376,184355,6,0,P|209:316|235:255,1,125,2|0,1:2|0:0,0:0:0:0:
418,307,184730,6,0,L|416:327,3,12.5,0|0|0|8,1:0|3:0|3:0|3:0,0:0:0:0:
427,332,184980,6,0,P|366:316|284:311,1,125,12|0,1:3|0:0,0:0:0:0:
41,207,185355,6,0,P|102:191|184:186,1,125,4|0,1:3|3:0,0:0:0:0:
423,92,185730,6,0,P|377:81|350:81,1,62.5,4|0,1:3|0:0,0:0:0:0:
170,27,185980,6,0,P|176:67|178:101,1,75,2|2,0:0|0:0,0:0:0:0:
163,185,187730,1,2,0:0:0:0:
353,119,187980,6,0,P|347:159|345:193,1,75,2|2,0:0|0:0,0:0:0:0:
163,185,188980,6,0,P|169:225|171:259,1,75,2|2,0:0|0:0,0:0:0:0:
471,361,189980,6,0,P|473:333|475:310,1,50,4|0,1:0|3:0,0:0:0:0:
287,191,190355,1,0,3:0:0:0:
271,204,190480,2,0,P|269:232|267:255,1,50,0|0,3:0|1:0,0:0:0:0:
498,100,190980,6,0,P|470:54|373:41,1,150.000005722046,8|2,0:0|3:2,0:0:0:0:
291,44,191730,1,8,0:3:0:0:
242,116,191980,1,2,0:0:0:0:
461,220,192230,6,0,P|465:190|473:156,1,37.5000014305115,0|2,1:0|0:0,0:0:0:0:
335,120,192480,6,0,P|331:150|323:184,1,37.5000014305115,8|0,0:3|0:0,0:0:0:0:
371,330,192730,6,0,P|375:300|383:266,1,37.5000014305115,0|0,1:0|0:0,0:0:0:0:
199,232,192980,6,0,L|232:226,1,18.7500007152558,12|0,0:0|0:0,0:0:0:0:
398,275,193230,5,2,1:2:0:0:
357,266,193355,1,2,0:0:0:0:
316,258,193480,1,2,0:0:0:0:
274,251,193605,1,0,0:0:0:0:
232,245,193730,1,2,0:0:0:0:
467,359,193980,5,2,1:2:0:0:
376,182,194230,1,2,3:1:0:0:
370,175,194355,1,2,3:1:0:0:
364,167,194480,2,0,P|368:119|376:70,1,83.2500020324708,2|0,3:1|0:0,0:0:0:0:
484,137,194730,2,0,P|490:178|493:219,1,83.2500020324708,2|0,1:0|0:0,0:0:0:0:
398,275,194980,1,10,0:0:0:0:
260,151,195230,5,2,0:0:0:0:
232,245,195480,1,2,0:0:0:0:
223,286,195605,1,2,0:0:0:0:
215,327,195730,1,8,0:3:0:0:
260,151,195980,5,2,0:0:0:0:
123,366,196230,1,2,1:0:0:0:
116,359,196355,1,2,1:0:0:0:
109,351,196480,2,0,P|94:316|102:269,1,83.2500020324708,2|2,1:0|0:0,0:0:0:0:
2,216,196730,2,0,P|24:185|69:168,1,83.2500020324708,2|0,1:0|0:0,0:0:0:0:
163,198,196980,1,14,0:0:0:0:
43,75,197230,5,2,0:0:0:0:
84,66,197355,1,2,0:0:0:0:
125,58,197480,1,2,0:0:0:0:
167,51,197605,1,2,0:0:0:0:
209,45,197730,1,2,0:0:0:0:
317,207,197980,5,2,1:2:0:0:
385,85,198230,1,2,3:1:0:0:
390,76,198355,1,2,3:1:0:0:
394,65,198480,2,0,P|359:43|305:45,1,83.2500020324708,2|2,3:1|0:0,0:0:0:0:
410,177,198730,2,0,P|451:175|485:153,1,83.2500020324708,2|0,1:0|0:0,0:0:0:0:
494,52,198980,1,10,0:0:0:0:
317,207,199230,5,2,0:0:0:0:
290,175,199355,1,2,0:0:0:0:
253,157,199480,1,2,0:0:0:0:
211,158,199605,1,2,0:0:0:0:
174,176,199730,2,0,L|169:207,1,18.7500007152558,8|0,0:3|0:0,0:0:0:0:
57,358,199980,6,0,P|27:297|52:238,1,125,10|0,1:2|0:0,0:0:0:0:
264,321,200355,6,0,P|185:302|131:296,1,125,10|0,1:2|0:0,0:0:0:0:
18,151,200730,6,0,P|56:147|95:138,1,62.5,10|0,1:2|3:0,0:0:0:0:
201,10,200980,6,0,P|196:41|193:77,1,62.5,12|0,1:3|0:0,0:0:0:0:
317,207,201230,5,0,0:0:0:0:
336,183,201355,2,0,P|332:149|327:117,1,62.5,4|0,0:3|1:0,0:0:0:0:
45,332,201730,6,0,P|91:321|118:318,1,62.5,4|0,0:3|0:0,0:0:0:0:
304,352,201980,6,0,P|277:356|252:361,1,50,4|0,1:0|3:0,0:0:0:0:
109,230,202355,1,0,3:0:0:0:
123,215,202480,2,0,P|147:210|172:206,1,50,0|0,3:0|1:0,0:0:0:0:
497,91,202980,6,0,P|467:48|374:39,1,150.000005722046,8|2,0:0|3:2,0:0:0:0:
328,117,203730,1,8,0:3:0:0:
373,196,203980,1,2,0:0:0:0:
285,338,204230,5,0,1:0:0:0:
328,117,204480,1,8,0:3:0:0:
512,254,204730,1,0,1:0:0:0:
234,258,204980,5,10,0:0:0:0:
294,239,205146,5,0,3:0:0:0:
351,261,205313,5,0,3:0:0:0:
372,317,205480,6,0,L|401:313,1,18.7500007152558,2|0,0:0|0:0,0:0:0:0:
328,117,205730,2,0,L|357:113,1,18.7500007152558,2|0,0:0|0:0,0:0:0:0:
506,207,205980,6,0,P|467:199|440:194,1,50,2|0,1:2|3:0,0:0:0:0:
383,14,206355,1,0,3:0:0:0:
395,1,206480,2,0,P|419:5|444:10,1,50,0|0,3:0|1:0,0:0:0:0:
220,108,206980,6,0,P|225:151|234:268,1,150.000005722046,8|2,0:0|3:2,0:0:0:0:
299,315,207730,1,8,0:3:0:0:
248,384,207980,1,2,0:0:0:0:
59,240,208230,6,0,P|91:234|109:232,1,37.5000014305115,0|0,1:0|0:0,0:0:0:0:
220,108,208480,6,0,P|201:110|183:114,1,37.5000014305115,8|0,0:3|0:0,0:0:0:0:
23,32,208730,6,0,P|55:26|73:24,1,37.5000014305115,0|0,1:0|0:0,0:0:0:0:
336,53,208980,6,0,L|332:81,1,18.7500007152558,12|0,0:0|0:0,0:0:0:0:
333,242,209230,5,2,1:2:0:0:
327,200,209355,1,2,0:0:0:0:
320,158,209480,1,2,0:0:0:0:
312,117,209605,1,0,0:0:0:0:
303,76,209730,1,2,0:0:0:0:
436,239,209980,5,2,1:2:0:0:
234,171,210230,1,2,3:1:0:0:
228,179,210355,1,2,3:1:0:0:
221,187,210480,2,0,P|204:223|205:265,1,83.2500020324708,2|0,3:1|0:0,0:0:0:0:
307,381,210730,2,0,P|324:345|323:303,1,83.2500020324708,2|0,1:0|0:0,0:0:0:0:
327,200,210980,1,10,0:0:0:0:
200,368,211230,5,2,0:0:0:0:
117,314,211480,1,2,0:0:0:0:
74,307,211605,1,2,0:0:0:0:
33,301,211730,1,8,0:3:0:0:
200,368,211980,5,2,0:0:0:0:
83,218,212230,1,2,1:0:0:0:
76,211,212355,1,2,1:0:0:0:
69,204,212480,2,0,P|75:141|80:111,1,83.2500020324708,2|0,1:0|0:0,0:0:0:0:
212,18,212730,2,0,P|217:59|221:100,1,83.2500020324708,2|0,1:0|0:0,0:0:0:0:
165,175,212980,1,14,0:0:0:0:
321,54,213230,5,2,0:0:0:0:
360,41,213355,1,2,0:0:0:0:
400,47,213480,1,2,0:0:0:0:
434,71,213605,1,2,0:0:0:0:
453,107,213730,1,2,0:0:0:0:
255,191,213980,5,2,1:2:0:0:
512,208,214230,1,2,3:1:0:0:
509,218,214355,1,2,3:1:0:0:
505,227,214480,2,0,P|463:214|417:207,1,83.2500020324708,2|2,3:1|0:0,0:0:0:0:
275,298,214730,2,0,P|316:291|355:278,1,83.2500020324708,2|2,1:0|0:0,0:0:0:0:
364,136,214980,1,10,0:0:0:0:
178,254,215230,5,2,0:0:0:0:
159,218,215355,1,2,0:0:0:0:
125,194,215480,1,2,0:0:0:0:
85,188,215605,1,2,0:0:0:0:
46,201,215730,2,0,L|51:227,1,18.7500007152558,8|2,0:3|0:0,0:0:0:0:
137,371,215980,6,0,P|210:356|279:351,1,125,10|0,1:2|0:0,0:0:0:0:
461,294,216355,6,0,P|484:243|449:180,1,125,10|0,1:2|0:0,0:0:0:0:
283,81,216730,6,0,P|265:115|263:144,1,62.5,10|0,1:2|0:0,0:0:0:0:
389,240,216980,5,12,0:0:0:0:
308,216,217230,1,0,0:0:0:0:
372,158,217480,1,0,3:0:0:0:
455,184,217730,1,0,3:0:0:0:
405,320,217980,5,0,1:0:0:0:
443,98,218230,1,0,3:0:0:0:
270,221,218480,2,0,L|309:215,1,37.5000014305115,2|0,0:3|3:0,0:0:0:0:
471,198,218980,6,0,L|315:179,1,150.000005722046,8|2,0:0|0:3,0:0:0:0:
307,215,220230,5,0,1:0:0:0:
89,93,220480,1,2,0:3:0:0:
133,260,220730,1,0,1:0:0:0:
263,48,220980,2,0,L|250:131,1,75.0000028610231,8|0,0:0|0:0,0:0:0:0:
133,260,221480,6,0,L|125:197,1,56.2500021457673,2|4,0:3|0:3,0:0:0:0:
109,190,221980,5,0,1:0:0:0:
209,376,222230,1,0,3:0:0:0:
206,368,222355,1,0,3:0:0:0:
204,360,222480,2,0,P|122:346|11:336,2,166.500004064942,2|0|8,3:0|3:0|0:0,0:0:0:0:
464,127,223480,6,0,L|452:217,1,75.0000028610231,2|0,0:3|0:0,0:0:0:0:
284,384,224230,5,0,1:0:0:0:
436,282,224480,6,0,L|409:274,1,18.7500007152558,0|0,1:0|0:0,0:0:0:0:
181,204,224730,2,0,L|208:196,1,18.7500007152558,0|0,1:0|0:0,0:0:0:0:
372,12,224980,6,0,L|369:35,1,18.7500007152558,12|0,0:0|0:0,0:0:0:0:
366,211,225230,5,2,0:0:0:0:
360,169,225355,1,2,0:0:0:0:
353,127,225480,1,2,0:0:0:0:
345,86,225605,1,0,0:0:0:0:
336,45,225730,1,2,0:0:0:0:
459,176,225980,5,2,1:2:0:0:
272,268,226230,1,2,3:1:0:0:
267,261,226355,1,2,3:1:0:0:
262,252,226480,2,0,P|256:205|278:164,1,83.2500020324708,2|0,3:1|0:0,0:0:0:0:
395,250,226730,2,0,P|401:297|379:338,1,83.2500020324708,2|0,1:0|0:0,0:0:0:0:
264,380,226980,2,0,P|205:365|125:361,1,125,10|0,0:0|0:0,0:0:0:0:
22,192,227480,6,0,L|37:111,1,75.0000028610231,2|0,0:3|0:0,0:0:0:0:
123,53,228230,5,2,1:0:0:0:
118,46,228355,1,2,3:1:0:0:
111,38,228480,2,0,P|71:14|13:16,1,83.2500020324708,2|0,1:0|0:0,0:0:0:0:
126,166,228730,2,0,P|166:161|201:138,1,83.2500020324708,2|0,1:0|0:0,0:0:0:0:
226,31,228980,1,14,0:0:0:0:
344,132,229230,5,2,0:0:0:0:
335,173,229355,1,2,0:0:0:0:
327,214,229480,1,2,0:0:0:0:
320,256,229605,1,2,0:0:0:0:
314,298,229730,1,2,0:0:0:0:
328,34,229980,5,2,1:2:0:0:
502,243,230230,1,2,3:1:0:0:
505,233,230355,1,2,3:1:0:0:
511,222,230480,2,0,P|469:201|408:203,1,83.2500020324708,2|0,3:1|0:0,0:0:0:0:
266,156,230730,2,0,P|307:151|343:131,1,83.2500020324708,2|0,1:0|0:0,0:0:0:0:
442,86,230980,1,10,0:0:0:0:
195,68,231230,5,2,0:0:0:0:
156,91,231355,1,2,0:0:0:0:
135,132,231480,1,2,0:0:0:0:
140,177,231605,1,2,0:0:0:0:
168,213,231730,2,0,L|165:238,1,18.7500007152558,2|0,0:0|0:0,0:0:0:0:
347,361,231980,6,0,P|407:343|500:340,1,125,10|0,1:2|0:0,0:0:0:0:
168,247,232355,6,0,P|108:229|15:226,1,125,10|0,1:2|0:0,0:0:0:0:
399,155,232730,6,0,P|430:144|484:138,1,62.5,10|0,1:2|0:0,0:0:0:0:
139,39,232980,6,0,P|154:65|151:105,1,56.2500021457673,12|0,0:0|0:0,0:0:0:0:
81,102,233480,6,0,L|168:88,1,75.0000028610231,2|0,0:0|0:0,0:0:0:0:
