osu file format v14

[General]
AudioFilename: audio.mp3
AudioLeadIn: 0
PreviewTime: 47917
Countdown: 0
SampleSet: Soft
StackLeniency: 0.3
Mode: 0
LetterboxInBreaks: 0
WidescreenStoryboard: 1

[Editor]
Bookmarks: 101980,184248,233998
DistanceSpacing: 0.2
BeatDivisor: 8
GridSize: 32
TimelineZoom: 3.199998

[Metadata]
Title:Sway
TitleUnicode:Sway
Artist:Tove Styrke
ArtistUnicode:Tove Styrke
Creator:schoolboy
Version:Expert
Source:
Tags:yuuya_ke komore mint appleeaterx jas craezy pop english fifa 19 2019 ost wenet wenect unranked_mapper unranked mapper yuuya ke tuva stierka
BeatmapID:2727562
BeatmapSetID:1316289

[Difficulty]
HPDrainRate:5
CircleSize:4.3
OverallDifficulty:8
ApproachRate:9.3
SliderMultiplier:2.4
SliderTickRate:1

[Events]
//Background and Video events
0,0,"APPLEEASTES.jpg",0,0
Video,0,"Tove Styrke - Sway (1).mp4"
//Break Periods
2,136680,167426
//Storyboard Layer 0 (Background)
//Storyboard Layer 1 (Fail)
//Storyboard Layer 2 (Pass)
//Storyboard Layer 3 (Foreground)
//Storyboard Layer 4 (Overlay)
//Storyboard Sound Samples

[TimingPoints]
-20,500,4,2,0,61,1,0
7917,-100,4,2,0,5,0,0
7978,-100,4,2,1,60,0,0
10230,-90.9090909090909,4,2,1,60,0,0
10355,-100,4,2,1,60,0,0
14980,-76.9230769230769,4,2,1,60,0,0
15230,-100,4,2,1,60,0,0
15355,-100,4,2,1,5,0,0
15480,-100,4,2,1,60,0,0
18167,-100,4,2,1,5,0,0
18230,-100,4,2,1,60,0,0
18417,-100,4,2,1,5,0,0
18480,-100,4,2,1,60,0,0
18667,-100,4,2,1,5,0,0
18730,-100,4,2,1,60,0,0
19980,-200,4,2,1,60,0,0
20230,-200,4,2,1,5,0,0
20355,-200,4,2,1,60,0,0
22417,-200,4,2,1,5,0,0
22480,-76.9230769230769,4,2,1,60,0,0
22667,-66.6666666666667,4,2,1,5,0,0
22730,-76.9230769230769,4,2,1,60,0,0
22917,-66.6666666666667,4,2,1,5,0,0
22980,-153.846153846154,4,2,1,60,0,0
23230,-153.846153846154,4,2,1,5,0,0
23292,-153.846153846154,4,2,1,60,0,0
26230,-100,4,2,1,60,0,0
26917,-100,4,2,1,5,0,0
26980,-100,4,2,1,60,0,0
30167,-100,4,2,1,5,0,0
30230,-100,4,2,1,60,0,0
30417,-100,4,2,1,5,0,0
30480,-100,4,2,1,60,0,0
30980,-76.9230769230769,4,2,1,60,0,0
31354,-76.9230769230769,4,2,1,5,0,0
31480,-100,4,2,1,60,0,0
32230,-100,4,2,1,5,0,0
32355,-100,4,2,1,60,0,0
32480,-71.4285714285714,4,2,1,60,0,0
33605,-100,4,2,1,60,0,0
34167,-100,4,2,1,5,0,0
34230,-100,4,2,1,60,0,0
34417,-100,4,2,1,5,0,0
34480,-100,4,2,1,60,0,0
34667,-100,4,2,1,5,0,0
34730,-100,4,2,1,60,0,0
34980,-90.9090909090909,4,2,1,60,0,0
35980,-100,4,2,1,60,0,0
38417,-100,4,2,1,5,0,0
38480,-76.9230769230769,4,2,1,60,0,0
38667,-76.9230769230769,4,2,1,5,0,0
38730,-76.9230769230769,4,2,1,60,0,0
38917,-66.6666666666667,4,2,1,5,0,0
38980,-153.846153846154,4,2,1,60,0,0
39230,-153.846153846154,4,2,1,5,0,0
39980,-142.857142857143,4,2,1,60,0,0
43313,-142.857142857143,4,2,1,5,0,0
43480,-142.857142857143,4,2,1,60,0,0
43521,-142.857142857143,4,2,1,22,0,0
43728,-142.857142857143,4,2,1,22,0,0
43853,-142.857142857143,4,2,1,22,0,0
43896,-142.857142857143,4,2,1,33,0,0
43978,-142.857142857143,4,2,1,60,0,0
45521,-142.857142857143,4,2,1,22,0,0
45896,-142.857142857143,4,2,1,33,0,0
45980,-142.857142857143,4,2,1,60,0,0
47896,-142.857142857143,4,2,1,5,0,0
47980,-83.3333333333333,4,2,2,70,0,1
48980,-125,4,2,2,70,0,1
49355,-125,4,2,2,5,0,1
49480,-125,4,2,2,70,0,1
49980,-333.333333333333,4,2,2,70,0,1
50355,-333.333333333333,4,2,2,5,0,1
50480,-333.333333333333,4,2,2,70,0,1
50855,-333.333333333333,4,2,2,5,0,1
50980,-333.333333333333,4,2,2,70,0,1
51980,-83.3333333333333,4,2,2,70,0,1
52980,-125,4,2,2,70,0,1
53480,-125,4,2,2,70,0,1
53980,-83.3333333333333,4,2,2,70,0,1
54042,-100,4,2,2,70,0,1
55167,-100,4,2,2,5,0,1
55230,-100,4,2,2,70,0,1
55667,-100,4,2,2,5,0,1
55730,-100,4,2,2,70,0,1
55917,-100,4,2,2,5,0,1
55980,-100,4,2,2,70,0,1
56167,-100,4,2,2,5,0,1
56230,-100,4,2,2,70,0,1
56980,-303.030303030303,4,2,2,70,0,1
57167,-303.030303030303,4,2,2,5,0,1
57230,-303.030303030303,4,2,2,70,0,1
57480,-100,4,2,2,70,0,1
58167,-100,4,2,2,5,0,1
58230,-100,4,2,2,70,0,1
58980,-303.030303030303,4,2,5,70,0,1
59167,-303.030303030303,4,2,5,5,0,1
59228,-303.030303030303,4,2,2,70,0,1
59480,-100,4,2,2,70,0,1
59917,-100,4,2,2,5,0,1
59980,-100,4,2,2,70,0,1
60167,-100,4,2,2,5,0,1
60230,-100,4,2,2,70,0,1
60980,-303.030303030303,4,2,2,70,0,1
61167,-303.030303030303,4,2,2,5,0,1
61230,-303.030303030303,4,2,2,70,0,1
61480,-100,4,2,2,70,0,1
61917,-100,4,2,2,5,0,1
61980,-45.4545454545455,4,2,3,70,0,1
62980,-1000,4,2,4,70,0,1
63478,-1000,4,2,1,70,0,1
63519,-1000,4,2,1,15,0,1
63917,-1000,4,2,1,5,0,1
63980,-333.333333333333,4,2,1,60,0,0
65417,-333.333333333333,4,2,1,5,0,0
65479,-333.333333333333,4,2,1,60,0,0
68105,-100,4,2,1,60,0,0
71980,-90.9090909090909,4,2,1,60,0,0
72480,-76.9230769230769,4,2,1,60,0,0
72542,-90.9090909090909,4,2,1,60,0,0
76167,-90.9090909090909,4,2,1,5,0,0
76230,-90.9090909090909,4,2,1,60,0,0
76417,-90.9090909090909,4,2,1,5,0,0
76480,-76.9230769230769,4,2,1,60,0,0
77417,-76.9230769230769,4,2,1,5,0,0
77480,-76.9230769230769,4,2,1,60,0,0
77667,-76.9230769230769,4,2,1,5,0,0
77730,-76.9230769230769,4,2,1,60,0,0
77917,-76.9230769230769,4,2,1,5,0,0
77980,-76.9230769230769,4,2,1,60,0,0
80417,-76.9230769230769,4,2,1,5,0,0
80480,-76.9230769230769,4,2,1,60,0,0
80667,-66.6666666666667,4,2,1,5,0,0
80730,-76.9230769230769,4,2,1,60,0,0
80917,-153.846153846153,4,2,1,5,0,0
80980,-153.846153846154,4,2,1,60,0,0
81230,-153.846153846154,4,2,1,5,0,0
81417,-66.6666666666667,4,2,1,5,0,0
81480,-66.6666666666667,4,2,1,60,0,0
81917,-66.6666666666667,4,2,1,5,0,0
81978,-66.6666666666667,4,2,1,65,0,0
83980,-90.9090909090909,4,2,1,65,0,0
84230,-90.9090909090909,4,2,1,5,0,0
84355,-90.9090909090909,4,2,1,65,0,0
87917,-90.9090909090909,4,2,1,5,0,0
87980,-90.9090909090909,4,2,1,65,0,0
88230,-90.9090909090909,4,2,1,5,0,0
88355,-90.9090909090909,4,2,1,65,0,0
89355,-90.9090909090909,4,2,1,5,0,0
89480,-90.9090909090909,4,2,1,65,0,0
92167,-90.9090909090909,4,2,1,5,0,0
92230,-90.9090909090909,4,2,1,65,0,0
92417,-90.9090909090909,4,2,1,5,0,0
92480,-90.9090909090909,4,2,1,65,0,0
93417,-90.9090909090909,4,2,1,5,0,0
93480,-90.9090909090909,4,2,1,65,0,0
94230,-90.9090909090909,4,2,1,5,0,0
94355,-90.9090909090909,4,2,1,65,0,0
94980,-333.333333333333,4,2,1,65,0,0
95979,-333.333333333333,4,2,1,5,0,0
96167,-333.333333333333,4,2,1,5,0,0
96230,-333.333333333333,4,2,1,65,0,0
96417,-333.333333333333,4,2,1,5,0,0
96480,-66.6666666666667,4,2,1,65,0,0
97021,-66.6666666666667,4,2,1,22,0,0
97896,-66.6666666666667,4,2,1,65,0,0
97980,-83.3333333333333,4,2,2,70,0,1
98167,-83.3333333333333,4,2,2,5,0,1
98230,-83.3333333333333,4,2,2,70,0,1
98980,-166.666666666667,4,2,2,70,0,1
99354,-166.666666666667,4,2,2,5,0,1
99480,-166.666666666667,4,2,2,70,0,1
99980,-83.3333333333333,4,2,2,70,0,1
100355,-83.3333333333333,4,2,2,5,0,1
100480,-83.3333333333333,4,2,2,70,0,1
100855,-83.3333333333333,4,2,2,5,0,1
100980,-200,4,2,2,70,0,1
101980,-83.3333333333333,4,2,2,70,0,1
102167,-83.3333333333333,4,2,2,5,0,1
102230,-83.3333333333333,4,2,2,5,0,1
102355,-83.3333333333333,4,2,2,70,0,1
102980,-90.9090909090909,4,2,2,70,0,1
103355,-90.9090909090909,4,2,2,5,0,1
103480,-166.666666666667,4,2,2,70,0,1
103980,-100,4,2,2,70,0,1
104917,-100,4,2,2,5,0,1
104980,-90.9090909090909,4,2,2,70,0,1
105167,-90.9090909090909,4,2,2,5,0,1
105230,-90.9090909090909,4,2,2,70,0,1
105917,-90.9090909090909,4,2,2,5,0,1
105980,-90.9090909090909,4,2,2,70,0,1
106980,-74.6268656716418,4,2,2,70,0,1
107167,-74.6268656716418,4,2,2,5,0,1
107230,-74.6268656716418,4,2,2,70,0,1
107480,-100,4,2,2,70,0,1
107917,-100,4,2,2,5,0,1
107980,-100,4,2,2,70,0,1
108980,-75.187969924812,4,2,5,70,0,1
109167,-75.187969924812,4,2,5,5,0,1
109228,-75.187969924812,4,2,2,70,0,1
109480,-100,4,2,2,70,0,1
109917,-100,4,2,2,5,0,1
109980,-100,4,2,2,70,0,1
110980,-75.187969924812,4,2,2,70,0,1
111167,-75.187969924812,4,2,2,5,0,1
111230,-100,4,2,2,70,0,1
111917,-100,4,2,2,5,0,1
111980,-45.4545454545455,4,2,3,70,0,1
112230,-45.4545454545455,4,2,3,5,0,1
112355,-50,4,2,3,70,0,1
112605,-50,4,2,3,5,0,1
112730,-50,4,2,3,70,0,1
112980,-500,4,2,2,70,0,1
113980,-71.4285714285714,4,2,2,70,0,1
114167,-71.4285714285714,4,2,2,5,0,1
114230,-71.4285714285714,4,2,2,70,0,1
114980,-111.111111111111,4,2,2,70,0,1
115355,-111.111111111111,4,2,2,5,0,1
115480,-111.111111111111,4,2,2,70,0,1
115980,-66.6666666666667,4,2,2,70,0,1
116230,-66.6666666666667,4,2,2,5,0,1
116355,-66.6666666666667,4,2,2,70,0,1
116480,-83.3333333333333,4,2,2,70,0,1
116667,-83.3333333333333,4,2,2,5,0,1
116730,-83.3333333333333,4,2,2,70,0,1
116980,-200,4,2,2,70,0,1
117042,-200,4,2,2,5,0,1
117230,-200,4,2,2,70,0,1
117292,-200,4,2,2,5,0,1
117480,-200,4,2,2,70,0,1
117542,-200,4,2,2,5,0,1
117730,-200,4,2,2,70,0,1
117792,-200,4,2,2,5,0,1
117980,-83.3333333333333,4,2,2,70,0,1
118167,-83.3333333333333,4,2,2,5,0,1
118230,-83.3333333333333,4,2,2,5,0,1
118355,-83.3333333333333,4,2,2,70,0,1
118980,-76.9230769230769,4,2,2,70,0,1
119480,-166.666666666667,4,2,2,70,0,1
119980,-100,4,2,2,70,0,1
120167,-100,4,2,2,5,0,1
120230,-100,4,2,2,5,0,1
120355,-100,4,2,2,70,0,1
120980,-90.9090909090909,4,2,2,70,0,1
121167,-90.9090909090909,4,2,2,5,0,1
121230,-90.9090909090909,4,2,2,70,0,1
121917,-90.9090909090909,4,2,2,5,0,1
121980,-90.9090909090909,4,2,2,70,0,1
122167,-90.9090909090909,4,2,2,5,0,1
122230,-90.9090909090909,4,2,2,70,0,1
122980,-74.6268656716418,4,2,2,70,0,1
123167,-74.6268656716418,4,2,2,5,0,1
123230,-74.6268656716418,4,2,2,70,0,1
123480,-100,4,2,2,70,0,1
123917,-100,4,2,2,5,0,1
123980,-66.6666666666667,4,2,2,70,0,1
124167,-66.6666666666667,4,2,2,5,0,1
124230,-100,4,2,2,70,0,1
124980,-75.187969924812,4,2,5,70,0,1
125167,-75.187969924812,4,2,5,5,0,1
125228,-75.187969924812,4,2,2,70,0,1
125480,-100,4,2,2,70,0,1
125917,-100,4,2,2,5,0,1
125980,-100,4,2,2,70,0,1
126167,-100,4,2,2,5,0,1
126230,-100,4,2,2,70,0,1
126980,-75.187969924812,4,2,2,70,0,1
127167,-75.187969924812,4,2,2,5,0,1
127230,-100,4,2,2,70,0,1
127917,-100,4,2,2,5,0,1
127980,-50,4,2,3,70,0,1
128230,-50,4,2,3,5,0,1
128355,-45.4545454545455,4,2,3,70,0,1
128605,-45.4545454545455,4,2,3,5,0,1
128667,-45.4545454545455,4,2,3,70,0,1
128980,-200,4,2,2,70,0,1
129355,-200,4,2,2,5,0,1
129417,-200,4,2,2,5,0,1
129480,-200,4,2,2,70,0,1
129521,-200,4,2,2,31,0,1
129980,-200,4,2,1,60,0,0
130042,-200,4,2,1,5,0,0
130479,-200,4,2,1,60,0,0
133728,-200,4,2,1,10,0,0
133853,-200,4,2,1,15,0,0
133978,-200,4,2,1,50,0,0
135478,-200,4,2,1,40,0,0
135978,-200,4,2,1,30,0,0
136228,-200,4,2,1,20,0,0
136480,-200,4,2,1,15,0,0
167978,-1000,4,2,1,40,0,0
168978,-200,4,2,1,50,0,0
169478,-200,4,2,1,65,0,0
169917,-200,4,2,1,5,0,0
169978,-100,4,2,1,80,0,0
170478,-100,4,2,2,80,0,0
170980,-83.3333333333333,4,2,2,80,0,0
173980,-100,4,2,2,80,0,0
174980,-83.3333333333333,4,2,2,80,0,0
184355,-66.6666666666667,4,2,2,80,0,0
184605,-66.6666666666667,4,2,2,5,0,0
184728,-83.3333333333333,4,2,1,80,0,0
185355,-66.6666666666667,4,2,1,80,0,0
185605,-66.6666666666667,4,2,1,5,0,0
185730,-66.6666666666667,4,2,1,80,0,0
185917,-66.6666666666667,4,2,1,5,0,0
185978,-399.999999999997,4,2,1,70,0,0
187478,-333.333333333333,4,2,1,60,0,0
188355,-333.333333333333,4,2,1,5,0,0
188480,-333.333333333333,4,2,1,60,0,0
188854,-333.333333333333,4,2,1,5,0,0
188980,-333.333333333333,4,2,1,60,0,0
189917,-333.333333333333,4,2,1,5,0,0
189980,-83.3333333333333,4,2,2,90,0,1
190980,-111.111111111111,4,2,2,90,0,1
191011,-111.111111111111,4,2,2,5,0,1
191354,-111.111111111111,4,2,2,5,0,1
191480,-111.111111111111,4,2,2,90,0,1
191980,-83.3333333333333,4,2,2,90,0,1
192167,-83.3333333333333,4,2,2,5,0,1
192230,-83.3333333333333,4,2,2,90,0,1
192980,-200,4,2,2,90,0,1
193105,-200,4,2,3,90,0,1
193230,-200,4,2,3,90,0,1
193480,-83.3333333333333,4,2,2,90,0,1
193730,-66.6666666666667,4,2,2,90,0,1
193917,-66.6666666666667,4,2,2,5,0,1
193980,-83.3333333333333,4,2,2,90,0,1
194230,-83.3333333333333,4,2,2,90,0,1
194292,-83.3333333333333,4,2,2,69,0,1
194355,-83.3333333333333,4,2,2,90,0,1
194417,-83.3333333333333,4,2,2,69,0,1
194480,-83.3333333333333,4,2,2,90,0,1
194542,-83.3333333333333,4,2,2,69,0,1
194730,-83.3333333333333,4,2,2,90,0,1
194792,-83.3333333333333,4,2,2,69,0,1
194980,-250,4,2,2,90,0,1
195167,-250,4,2,2,5,0,1
195230,-66.6666666666667,4,2,2,90,0,1
195480,-166.666666666667,4,2,2,90,0,1
195980,-100,4,2,2,90,0,1
196167,-100,4,2,2,5,0,1
196230,-100,4,2,2,90,0,1
196980,-90.9090909090909,4,2,5,90,0,1
197063,-90.9090909090909,4,2,5,5,0,1
197146,-90.9090909090909,4,2,3,90,0,1
197229,-90.9090909090909,4,2,2,90,0,1
197313,-90.9090909090909,4,2,3,90,0,1
197396,-90.9090909090909,4,2,2,5,0,1
197480,-90.9090909090909,4,2,2,90,0,1
197667,-90.9090909090909,4,2,2,5,0,1
197730,-76.9230769230769,4,2,2,90,0,1
198980,-64.9350649350649,4,2,2,90,0,1
199480,-76.9230769230769,4,2,2,90,0,1
199917,-76.9230769230769,4,2,2,5,0,1
199980,-55.5555555555556,4,2,3,90,0,1
200042,-55.5555555555556,4,2,3,5,0,1
200355,-55.5555555555556,4,2,3,90,0,1
200417,-55.5555555555556,4,2,3,5,0,1
200730,-55.5555555555556,4,2,3,90,0,1
200792,-55.5555555555556,4,2,3,5,0,1
200853,-55.5555555555556,4,2,1,90,0,1
200980,-61.3496932515337,4,2,1,90,0,1
201042,-61.3496932515337,4,2,1,5,0,1
201355,-61.3496932515337,4,2,1,90,0,1
201417,-61.3496932515337,4,2,1,5,0,1
201480,-100,4,2,1,5,0,1
201730,-100,4,2,1,90,0,1
201917,-100,4,2,1,5,0,1
201980,-75.187969924812,4,2,2,90,0,1
202980,-120.481927710843,4,2,2,90,0,1
203230,-100,4,2,2,90,0,1
203417,-100,4,2,2,5,0,1
203480,-100,4,2,2,90,0,1
203980,-62.5,4,2,2,90,0,1
204167,-62.5,4,2,2,5,0,1
204230,-62.5,4,2,2,90,0,1
204355,-50,4,2,2,90,0,1
204730,-50,4,2,2,5,0,1
204980,-500,4,2,2,90,0,1
205063,-500,4,2,2,5,0,1
205146,-500,4,2,3,90,0,1
205396,-500,4,2,3,5,0,1
205480,-66.6666666666667,4,2,2,90,0,1
205980,-76.9230769230769,4,2,2,90,0,1
206980,-90.9090909090909,4,2,2,90,0,1
207355,-90.9090909090909,4,2,2,5,0,1
207480,-111.111111111111,4,2,2,90,0,1
207980,-133.333333333333,4,2,2,90,0,1
208042,-66.6666666666667,4,2,2,90,0,1
208167,-66.6666666666667,4,2,2,5,0,1
208230,-66.6666666666667,4,2,2,90,0,1
208480,-76.9230769230769,4,2,2,90,0,1
208720,-71.4285714285714,4,2,2,90,0,1
208980,-76.9230769230769,4,2,2,90,0,1
209011,-76.9230769230769,4,2,2,5,0,1
209042,-76.9230769230769,4,2,2,90,0,1
209917,-76.9230769230769,4,2,2,5,0,1
209980,-83.3333333333333,4,2,2,90,0,1
210167,-83.3333333333333,4,2,2,5,0,1
210230,-83.3333333333333,4,2,2,90,0,1
210292,-83.3333333333333,4,2,2,69,0,1
210355,-83.3333333333333,4,2,2,90,0,1
210417,-83.3333333333333,4,2,2,69,0,1
210480,-83.3333333333333,4,2,2,90,0,1
210542,-83.3333333333333,4,2,2,69,0,1
210730,-83.3333333333333,4,2,2,90,0,1
210792,-83.3333333333333,4,2,2,69,0,1
210980,-250,4,2,2,90,0,1
211167,-250,4,2,2,5,0,1
211230,-250,4,2,2,90,0,1
211480,-76.9230769230769,4,2,2,90,0,1
211730,-125,4,2,2,90,0,1
211980,-100,4,2,2,90,0,1
212167,-100,4,2,2,5,0,1
212230,-100,4,2,2,90,0,1
212292,-100,4,2,2,69,0,1
212355,-100,4,2,2,90,0,1
212417,-83.3333333333333,4,2,2,69,0,1
212730,-76.9230769230769,4,2,2,90,0,1
212980,-90.9090909090909,4,2,5,90,0,1
213146,-90.9090909090909,4,2,3,90,0,1
213355,-83.3333333333333,4,2,2,90,0,1
213917,-83.3333333333333,4,2,2,5,0,1
213980,-83.3333333333333,4,2,2,90,0,1
214167,-83.3333333333333,4,2,2,5,0,1
214230,-83.3333333333333,4,2,2,90,0,1
214980,-64.9350649350649,4,2,2,90,0,1
215167,-64.9350649350649,4,2,2,5,0,1
215230,-64.9350649350649,4,2,2,90,0,1
215480,-142.857142857143,4,2,2,90,0,1
215980,-50,4,2,3,90,0,1
216230,-100,4,2,3,90,0,1
216980,-75.187969924812,4,2,2,90,0,1
217228,-75.187969924812,4,2,2,90,0,1
217417,-75.187969924812,4,2,2,5,0,1
217480,-142.857142857143,4,2,2,90,0,1
217980,-142.857142857143,4,2,2,85,0,0
218230,-66.6666666666667,4,2,2,85,0,0
218855,-66.6666666666667,4,2,2,5,0,0
218980,-66.6666666666667,4,2,2,85,0,0
219480,-222.222222222221,4,2,2,85,0,0
219979,-222.222222222221,4,2,2,5,0,0
220230,-66.6666666666667,4,2,2,85,0,0
220480,-133.333333333333,4,2,2,85,0,0
220667,-66.6666666666667,4,2,2,85,0,0
220855,-66.6666666666667,4,2,2,54,0,0
220980,-83.3333333333333,4,2,2,85,0,0
221354,-83.3333333333333,4,2,2,5,0,0
221480,-66.6666666666667,4,2,2,85,0,0
221853,-66.6666666666667,4,2,1,15,0,0
221980,-50,4,2,2,85,0,0
222230,-50,4,2,2,5,0,0
222355,-50,4,2,2,85,0,0
222480,-50,4,2,2,85,0,0
222542,-50,4,2,2,5,0,0
222730,-50,4,2,2,85,0,0
222792,-50,4,2,2,5,0,0
222980,-50,4,2,2,85,0,0
223167,-50,4,2,2,5,0,0
223229,-50,4,2,2,85,0,0
223480,-181.818181818181,4,2,2,85,0,0
224230,-83.3333333333333,4,2,2,85,0,0
224980,-55.5555555555556,4,2,2,85,0,0
225480,-76.9230769230769,4,2,2,85,0,0
225980,-66.6666666666667,4,2,2,85,0,0
226292,-66.6666666666667,4,2,2,5,0,0
226355,-66.6666666666667,4,2,2,85,0,0
226417,-66.6666666666667,4,2,2,5,0,0
226480,-66.6666666666667,4,2,2,90,0,0
226542,-66.6666666666667,4,2,2,69,0,0
226730,-66.6666666666667,4,2,2,90,0,0
226792,-83.3333333333333,4,2,2,69,0,0
226980,-55.5555555555556,4,2,2,85,0,0
227480,-181.818181818181,4,2,2,85,0,0
228230,-66.6666666666667,4,2,2,90,0,0
228292,-66.6666666666667,4,2,2,69,0,0
228355,-66.6666666666667,4,2,2,90,0,0
228417,-66.6666666666667,4,2,2,69,0,0
228480,-66.6666666666667,4,2,2,90,0,0
228542,-66.6666666666667,4,2,2,69,0,0
228730,-66.6666666666667,4,2,2,90,0,0
228792,-83.3333333333333,4,2,2,69,0,0
228980,-45.4545454545455,4,2,5,85,0,0
229230,-83.3333333333333,4,2,2,85,0,0
229980,-50,4,2,2,85,0,0
230480,-66.6666666666667,4,2,2,90,0,0
230542,-66.6666666666667,4,2,2,69,0,0
230730,-66.6666666666667,4,2,2,90,0,0
230792,-66.6666666666667,4,2,2,69,0,0
230980,-55.5555555555556,4,2,2,85,0,0
231480,-83.3333333333333,4,2,2,85,0,0
231917,-83.3333333333333,4,2,2,5,0,0
231980,-50,4,2,3,85,0,0
232230,-50,4,2,3,5,0,0
232355,-50,4,2,3,85,0,0
232605,-50,4,2,3,5,0,0
232730,-50,4,2,3,85,0,0
232980,-142.857142857143,4,2,2,85,0,0
233480,-142.857142857143,4,2,2,44,0,0
233979,-142.857142857143,4,2,2,20,0,0

[Colours]
Combo1 : 168,168,255
Combo2 : 133,254,197
Combo3 : 145,219,255
Combo4 : 255,160,66

[HitObjects]
178,363,7480,5,4,0:0:0:0:
178,363,7980,5,2,1:2:0:0:
237,308,8105,1,2,0:0:0:0:
161,284,8230,1,2,3:2:0:0:
66,210,8480,5,2,3:2:0:0:
89,118,8605,1,2,0:0:0:0:
0,144,8730,1,2,1:2:0:0:
188,369,8980,5,10,0:0:0:0:
247,314,9105,1,2,0:0:0:0:
171,290,9230,1,2,0:0:0:0:
77,214,9480,5,2,0:0:0:0:
100,122,9605,1,2,0:0:0:0:
10,148,9730,1,2,0:0:0:0:
406,348,9980,6,0,P|415:352|407:348,1,60,2|2,0:0|0:0,0:0:0:0:
364,281,10230,2,0,B|428:295|428:295|429:297|429:297|491:311,2,132.00000402832,2|2|2,1:2|0:0|1:2,0:0:0:0:
18,211,10980,1,10,0:0:0:0:
90,28,11980,5,2,1:2:0:0:
108,111,12105,1,2,0:0:0:0:
126,194,12230,1,2,3:2:0:0:
393,68,12480,5,2,3:2:0:0:
374,165,12605,1,2,0:0:0:0:
355,262,12730,1,2,1:2:0:0:
80,19,12980,5,10,0:0:0:0:
98,102,13105,1,2,0:0:0:0:
116,185,13230,1,2,0:0:0:0:
383,59,13480,5,2,0:0:0:0:
364,156,13605,1,2,0:0:0:0:
345,253,13730,1,2,0:0:0:0:
46,367,13980,6,0,P|79:371|103:355,1,60,2|2,0:0|0:0,0:0:0:0:
164,302,14230,2,0,P|222:303|260:347,2,120,2|2|2,1:2|0:0|1:2,0:0:0:0:
31,159,14980,6,0,B|3:97|37:37|116:41|116:41|96:77|106:113,1,233.999989288331,10|0,0:0|0:0,0:0:0:0:
164,137,15480,2,0,P|165:140|164:133,1,60,2|0,0:0|0:0,0:0:0:0:
102,91,15730,1,2,0:0:0:0:
373,0,15980,5,2,1:2:0:0:
270,277,16230,1,0,3:0:0:0:
270,277,16355,1,0,3:0:0:0:
270,277,16480,1,2,3:2:0:0:
356,243,16730,1,0,1:0:0:0:
284,186,16980,1,8,0:0:0:0:
284,186,17480,1,0,0:0:0:0:
13,316,17980,6,0,P|71:316|112:358,1,120,2|2,0:0|1:2,0:0:0:0:
284,186,18355,1,0,0:0:0:0:
237,243,18480,2,0,B|225:254|225:272|225:272|112:246,1,120,2|2,0:0|1:2,0:0:0:0:
84,198,18855,1,0,0:0:0:0:
84,198,18980,6,0,P|70:192|90:193,1,60,10|0,0:0|0:0,0:0:0:0:
204,357,19230,1,2,0:0:0:0:
204,357,19480,6,0,P|234:351|253:301,1,60,2|0,0:0|0:0,0:0:0:0:
350,384,19730,2,0,P|353:353|311:320,1,60,2|0,0:0|0:0,0:0:0:0:
420,253,19980,6,0,P|392:240|347:269,1,60,2|0,1:2|3:0,0:0:0:0:
364,247,20355,1,0,3:0:0:0:
364,247,20480,1,2,3:2:0:0:
154,191,20730,1,0,1:0:0:0:
409,91,20980,1,8,0:0:0:0:
409,91,21480,1,0,0:0:0:0:
270,367,22230,5,4,1:3:0:0:
112,71,22480,2,0,P|77:99|90:148,1,77.9999964294435,4|0,1:3|0:0,0:0:0:0:
188,213,22730,2,0,P|180:168|131:155,1,77.9999964294435,4|0,1:3|0:0,0:0:0:0:
25,208,22980,6,0,P|67:223|102:187,1,77.9999964294435,8|0,1:2|0:0,0:0:0:0:
276,22,23980,5,6,1:2:0:0:
353,51,24105,1,2,0:0:0:0:
408,113,24230,1,2,3:2:0:0:
251,366,24480,5,2,3:2:0:0:
306,292,24605,1,2,0:0:0:0:
319,200,24730,1,2,1:2:0:0:
289,15,24980,5,10,0:0:0:0:
366,44,25105,1,2,0:0:0:0:
421,106,25230,1,2,0:0:0:0:
264,359,25480,5,2,0:0:0:0:
319,285,25605,1,2,0:0:0:0:
332,193,25730,1,2,0:0:0:0:
141,35,25980,5,2,0:0:0:0:
141,35,26105,1,2,0:0:0:0:
141,35,26230,2,0,L|153:112,1,60,2|0,1:2|0:0,0:0:0:0:
91,158,26480,2,0,P|31:162|-6:89,2,120,2|2|10,0:0|1:2|0:0,0:0:0:0:
91,158,27480,1,0,0:0:0:0:
442,75,27980,5,2,0:0:0:0:
357,37,28105,1,2,0:0:0:0:
319,122,28230,1,2,3:2:0:0:
385,341,28480,5,2,3:2:0:0:
482,371,28605,1,2,0:0:0:0:
512,274,28730,1,2,1:2:0:0:
433,68,28980,5,10,0:0:0:0:
348,30,29105,1,2,0:0:0:0:
310,115,29230,1,2,0:0:0:0:
376,334,29480,5,2,0:0:0:0:
473,364,29605,1,2,0:0:0:0:
503,267,29730,1,2,0:0:0:0:
210,172,29980,6,0,P|200:155|212:166,1,60,2|0,0:0|0:0,0:0:0:0:
286,215,30230,2,0,P|296:198|284:209,1,60,2|0,1:2|0:0,0:0:0:0:
217,263,30480,2,0,B|159:274|159:274|158:276|158:276|83:289,1,120,2|2,0:0|1:2,0:0:0:0:
31,82,30980,2,0,B|17:38|17:38|79:10|142:45|136:122|105:144,1,233.999989288331,10|0,0:0|0:0,0:0:0:0:
55,193,31480,6,0,P|40:206|54:192,1,60,2|0,0:0|0:0,0:0:0:0:
224,14,31730,1,2,0:0:0:0:
224,14,31980,6,0,P|283:29|341:44,1,120,2|0,1:2|3:0,0:0:0:0:
427,167,32355,1,0,3:0:0:0:
484,116,32480,2,0,B|512:80|492:19|426:24|426:24|437:69,2,167.999994873047,2|0|8,3:2|1:0|0:0,0:0:0:0:
484,116,33480,1,0,0:0:0:0:
96,367,33980,6,0,P|148:364|185:315,1,90,2|0,0:0|0:0,0:0:0:0:
186,336,34230,2,0,L|165:260,1,60,2|0,1:2|0:0,0:0:0:0:
255,279,34480,2,0,L|278:138,1,120,2|2,3:2|1:2,0:0:0:0:
184,36,34855,1,0,0:0:0:0:
121,82,34980,6,0,B|95:50|56:60|56:60|33:93|-21:86,2,132.00000402832,10|2|2,0:2|0:0|0:0,0:0:0:0:
230,326,35730,2,0,P|241:344|223:329,1,66.0000020141602,2|0,0:0|0:0,0:0:0:0:
193,254,35980,5,2,1:2:0:0:
497,67,36230,1,0,3:0:0:0:
497,67,36355,1,0,3:0:0:0:
497,67,36480,1,2,3:2:0:0:
360,8,36730,1,0,1:0:0:0:
378,157,36980,1,8,0:0:0:0:
378,157,37480,1,0,0:0:0:0:
512,384,38230,5,4,1:3:0:0:
133,185,38480,2,0,P|136:229|183:246,1,77.9999964294435,2|0,0:0|0:0,0:0:0:0:
294,204,38730,2,0,P|253:184|215:217,1,77.9999964294435,4|0,1:3|0:0,0:0:0:0:
196,335,38980,6,0,P|233:309|223:260,1,77.9999964294435,8|0,0:0|0:0,0:0:0:0:
508,49,39980,6,0,P|437:38|416:110,1,111.999996582031,4|2,1:0|0:0,0:0:0:0:
362,134,40480,2,0,P|291:145|270:73,1,111.999996582031,2|2,0:0|0:0,0:0:0:0:
199,17,40980,1,2,0:0:0:0:
199,17,41480,1,8,0:0:0:0:
58,348,41813,1,2,0:0:0:0:
124,294,41980,6,0,L|237:319,1,111.999996582031,2|2,0:0|0:0,0:0:0:0:
329,206,42480,1,2,0:0:0:0:
249,233,42646,1,2,0:0:0:0:
313,289,42813,1,2,0:0:0:0:
268,146,42980,6,0,L|293:23,1,111.999996582031,10|0,0:0|0:0,0:0:0:0:
329,206,43480,1,8,0:0:0:0:
15,135,43980,6,0,P|85:133|112:71,1,111.999996582031,2|2,0:0|0:0,0:0:0:0:
166,21,44480,2,0,P|219:14|259:52,1,111.999996582031,2|2,0:0|0:0,0:0:0:0:
303,168,44980,1,2,0:0:0:0:
303,168,45480,1,8,0:0:0:0:
507,24,45980,6,0,L|485:142,1,111.999996582031,2|2,0:0|0:0,0:0:0:0:
511,212,46480,1,2,0:0:0:0:
478,297,46646,1,2,0:0:0:0:
391,342,46813,1,2,0:0:0:0:
284,314,46980,1,2,0:0:0:0:
284,314,47480,1,2,0:0:0:0:
23,99,47980,6,0,P|116:83|169:32,1,143.999995605469,4|0,1:0|3:0,0:0:0:0:
222,0,48355,1,0,3:0:0:0:
177,159,48480,1,0,3:0:0:0:
177,159,48730,1,0,1:0:0:0:
466,280,48980,6,0,P|405:246|334:250,1,144,8|0,0:0|0:0,0:0:0:0:
272,302,49480,2,0,P|265:320|277:304,1,48,2|0,0:0|0:0,0:0:0:0:
434,152,49730,1,2,0:0:0:0:
434,152,49980,6,0,L|424:97,1,53.9999983520508,2|0,0:0|0:0,0:0:0:0:
262,248,50480,2,0,L|272:303,1,53.9999983520508,2|0,0:0|0:0,0:0:0:0:
478,373,50980,5,10,0:0:0:0:
383,353,51230,5,2,0:0:0:0:
403,258,51480,5,2,0:0:0:0:
498,278,51730,5,2,0:0:0:0:
241,384,51980,6,0,B|236:340|192:313|152:323|152:323|184:372,1,143.999995605469,2|0,1:2|3:0,0:0:0:0:
87,379,52355,1,0,3:0:0:0:
151,194,52480,1,0,3:0:0:0:
151,194,52730,1,0,1:0:0:0:
9,28,52980,6,0,B|76:42|76:42|78:44|78:44|168:63,1,144,8|0,0:0|0:0,0:0:0:0:
221,23,53480,2,0,P|227:20|214:21,1,48,2|0,0:0|0:0,0:0:0:0:
35,159,53730,1,2,0:0:0:0:
211,353,53980,6,0,B|216:313|254:299|281:312|281:312|288:340|313:360,1,143.999995605469,2|0,0:0|1:0,0:0:0:0:
381,384,54355,1,0,0:0:0:0:
454,246,54480,1,2,0:0:0:0:
454,246,54730,1,0,1:0:0:0:
306,47,54980,6,0,L|326:145,1,90,12|0,0:0|0:0,0:0:0:0:
330,152,55230,1,2,1:2:0:0:
409,131,55355,1,2,0:0:0:0:
251,173,55480,6,0,P|215:167|189:134,1,60,2|0,0:0|0:0,0:0:0:0:
112,189,55730,2,0,P|88:135|101:82,1,90,2|0,0:0|0:0,0:0:0:0:
152,38,55980,5,2,1:2:0:0:
152,38,56230,2,0,L|203:50,1,30,2|0,3:1|0:0,0:0:0:0:
90,105,56355,2,0,L|39:117,1,30,2|0,3:1|0:0,0:0:0:0:
158,185,56480,2,0,L|209:197,1,30,2|0,3:1|0:0,0:0:0:0:
158,185,56730,2,0,L|209:197,1,30,2|0,1:0|0:0,0:0:0:0:
158,185,56980,6,0,L|193:194,1,29.6999999093628,10|0,0:0|0:0,0:0:0:0:
202,196,57230,5,2,0:0:0:0:
289,182,57355,1,0,0:0:0:0:
370,211,57480,6,0,P|394:219|415:248,1,60,2|2,0:0|0:0,0:0:0:0:
498,87,57730,2,0,P|501:131|468:172,1,90,2|0,0:0|0:0,0:0:0:0:
397,131,57980,5,2,0:0:0:0:
397,131,58230,2,0,L|386:83,1,30,2|0,1:0|0:0,0:0:0:0:
324,14,58355,2,0,L|313:62,1,30,2|0,1:0|0:0,0:0:0:0:
232,127,58480,2,0,L|221:79,1,30,2|0,1:0|0:0,0:0:0:0:
232,127,58730,2,0,L|221:79,1,30,2|0,1:0|0:0,0:0:0:0:
232,127,58980,6,0,L|225:93,1,29.6999999093628,14|0,0:0|0:0,0:0:0:0:
221,81,59230,5,2,0:0:0:0:
140,39,59355,1,2,0:0:0:0:
74,106,59480,6,0,P|62:131|64:168,1,60,2|2,0:0|0:0,0:0:0:0:
163,288,59730,2,0,P|166:232|129:189,1,90,2|0,0:0|0:0,0:0:0:0:
73,247,59980,5,2,1:2:0:0:
73,247,60230,2,0,L|27:255,1,30,2|0,3:1|0:0,0:0:0:0:
162,192,60355,2,0,L|191:197,1,30,2|0,3:1|0:0,0:0:0:0:
62,123,60480,2,0,L|32:128,1,30,2|0,3:1|0:0,0:0:0:0:
62,123,60730,2,0,L|32:128,1,30,2|0,1:0|0:0,0:0:0:0:
62,123,60980,2,0,L|31:128,1,29.6999999093628,10|0,0:0|0:0,0:0:0:0:
16,131,61230,5,2,0:0:0:0:
37,44,61355,1,2,0:0:0:0:
0,217,61480,6,0,P|16:244|18:276,1,60,2|2,0:0|0:0,0:0:0:0:
101,374,61730,2,0,P|125:338|124:281,1,90,2|0,0:0|0:0,0:0:0:0:
203,284,61980,6,0,B|130:242|119:152|134:108|183:17|286:81|281:151|227:196|175:199,2,396.000012084961,10|10|10,1:2|1:2|1:2,0:0:0:0:
368,380,62980,2,0,L|413:374,1,45,12|0,0:0|0:0,0:0:0:0:
464,311,63980,6,0,P|488:240|437:300,1,215.999993408203,2|2,0:0|0:0,0:0:0:0:
436,299,65730,1,2,0:0:0:0:
80,225,65980,5,2,1:2:0:0:
166,201,66105,1,2,0:0:0:0:
143,287,66230,1,2,3:2:0:0:
337,39,66480,5,2,3:2:0:0:
431,78,66605,1,2,0:0:0:0:
350,139,66730,1,2,1:2:0:0:
70,215,66980,5,10,0:0:0:0:
156,191,67105,1,2,0:0:0:0:
133,277,67230,1,2,0:0:0:0:
327,29,67480,5,2,0:0:0:0:
421,68,67605,1,2,0:0:0:0:
340,129,67730,1,2,0:0:0:0:
36,45,67980,5,2,0:0:0:0:
52,41,68105,1,2,0:0:0:0:
124,21,68230,6,0,P|151:34|167:64,1,60,2|0,1:2|0:0,0:0:0:0:
238,125,68480,2,0,P|213:141|179:140,1,60,2|0,0:0|0:0,0:0:0:0:
90,171,68730,2,0,P|87:141|105:112,1,60,2|0,1:2|0:0,0:0:0:0:
153,106,68980,5,10,0:0:0:0:
153,106,69480,1,0,0:0:0:0:
485,356,69980,5,2,0:0:0:0:
404,309,70105,1,2,0:0:0:0:
413,215,70230,1,2,3:2:0:0:
153,32,70480,5,2,3:2:0:0:
259,44,70605,1,2,0:0:0:0:
291,145,70730,1,2,1:2:0:0:
495,368,70980,5,10,0:0:0:0:
414,321,71105,1,2,0:0:0:0:
423,227,71230,1,2,0:0:0:0:
163,44,71480,5,2,0:0:0:0:
269,56,71605,1,2,0:0:0:0:
301,157,71730,1,2,0:0:0:0:
122,327,71980,6,0,P|112:347|115:323,1,66.0000020141602,2|2,0:0|0:0,0:0:0:0:
169,230,72230,1,2,1:2:0:0:
169,230,72480,6,0,B|90:241|90:241|89:243|89:243|7:255,2,155.999992858887,2|2|10,0:0|1:2|0:0,0:0:0:0:
312,377,73480,6,0,P|344:363|356:319,1,66.0000020141602,2|0,3:2|0:0,0:0:0:0:
432,321,73730,2,0,P|428:274|405:251,1,66.0000020141602,2|0,0:0|0:0,0:0:0:0:
460,192,73980,5,2,1:2:0:0:
81,101,74230,1,0,3:0:0:0:
81,101,74355,1,0,3:0:0:0:
81,101,74480,1,2,3:2:0:0:
276,25,74730,1,0,1:0:0:0:
244,231,74980,1,8,0:0:0:0:
244,231,75480,1,0,0:0:0:0:
244,231,75980,6,0,P|185:204|130:213,1,99.0000030212403,2|0,0:0|0:0,0:0:0:0:
83,241,76230,2,0,B|67:253|64:278|74:292|74:292|73:265|93:243,1,99.0000030212403,2|0,1:2|0:0,0:0:0:0:
152,205,76480,6,0,P|133:127|60:118,2,155.999992858887,2|2|10,0:0|1:2|0:0,0:0:0:0:
362,354,77230,2,0,P|367:370|365:348,1,77.9999964294435,2|0,0:0|0:0,0:0:0:0:
316,293,77480,6,0,P|325:236|334:177,1,116.999994644165,2|0,0:0|0:0,0:0:0:0:
293,106,77730,2,0,B|309:75|343:65|365:83|365:83|331:94|314:119,1,116.999994644165,2|0,0:0|0:0,0:0:0:0:
334,177,77980,5,2,1:2:0:0:
12,74,78230,1,0,3:0:0:0:
12,74,78355,1,0,3:0:0:0:
12,74,78480,1,2,3:2:0:0:
101,31,78730,1,0,1:0:0:0:
93,129,78980,1,8,0:0:0:0:
93,129,79480,1,0,0:0:0:0:
461,0,80230,5,4,1:3:0:0:
244,303,80480,2,0,P|247:258|294:241,1,77.9999964294435,4|0,1:3|0:0,0:0:0:0:
405,284,80730,2,0,P|364:303|326:270,1,77.9999964294435,4|0,1:3|0:0,0:0:0:0:
307,153,80980,6,0,P|344:178|334:227,1,77.9999964294435,8|0,1:2|0:0,0:0:0:0:
346,208,81480,1,0,0:0:0:0:
18,85,81980,5,2,1:2:0:0:
111,60,82105,1,2,0:0:0:0:
18,85,82230,1,2,3:2:0:0:
211,8,82480,5,2,3:2:0:0:
308,39,82605,1,2,0:0:0:0:
211,8,82730,1,2,1:2:0:0:
415,45,82980,5,10,0:0:0:0:
447,153,83105,1,2,0:0:0:0:
415,45,83230,1,2,0:0:0:0:
340,207,83480,5,2,0:0:0:0:
312,348,83605,1,2,0:0:0:0:
340,207,83730,1,2,0:0:0:0:
206,384,83980,6,0,P|151:347|86:339,1,132.00000402832,2|0,0:0|1:0,0:0:0:0:
0,273,84355,1,0,0:0:0:0:
8,280,84480,2,0,P|43:276|71:238,1,66.0000020141602,2|0,0:0|0:0,0:0:0:0:
121,139,84730,5,2,1:2:0:0:
121,139,84980,2,0,B|139:68|112:16|5:-17|-16:55|0:123|66:107,1,264.000008056641,10|0,0:0|3:0,0:0:0:0:
121,139,85730,2,0,L|250:120,1,99.0000030212403,2|0,0:0|0:0,0:0:0:0:
233,121,85980,5,2,0:0:0:0:
277,31,86105,1,2,0:0:0:0:
233,121,86230,1,2,3:2:0:0:
430,74,86480,5,2,3:2:0:0:
325,107,86605,1,2,0:0:0:0:
430,74,86730,1,2,1:2:0:0:
512,210,86980,5,10,0:0:0:0:
397,156,87105,1,2,0:0:0:0:
512,210,87230,1,2,0:0:0:0:
473,383,87480,5,2,0:0:0:0:
427,243,87605,1,2,0:0:0:0:
473,383,87730,1,2,0:0:0:0:
313,338,87980,6,0,B|247:347|247:347|245:349|245:349|160:360,1,132.00000402832,2|0,0:0|1:0,0:0:0:0:
120,290,88355,1,0,0:0:0:0:
116,307,88480,2,0,L|95:384,1,66.0000020141602,2|0,0:0|0:0,0:0:0:0:
143,205,88730,1,2,1:2:0:0:
143,205,88980,6,0,B|153:151|91:110|41:136|41:136|56:183,1,198.000006042481,10|0,0:0|0:0,0:0:0:0:
48,190,89480,2,0,P|15:190|-24:145,1,66.0000020141602,2|0,3:2|0:0,0:0:0:0:
170,40,89730,1,2,0:0:0:0:
170,40,89980,5,2,1:2:0:0:
256,337,90230,1,0,3:0:0:0:
256,337,90355,1,0,3:0:0:0:
256,337,90480,1,2,3:2:0:0:
326,264,90730,1,0,1:0:0:0:
228,240,90980,1,8,0:0:0:0:
228,240,91480,1,0,3:0:0:0:
495,41,91980,6,0,P|463:47|438:68,1,66.0000020141602,2|0,0:0|0:0,0:0:0:0:
371,119,92230,2,0,P|324:76|321:12,2,132.00000402832,2|2|2,1:2|3:2|1:2,0:0:0:0:
468,345,92980,6,0,P|464:354|471:343,1,66.0000020141602,10|0,0:2|0:0,0:0:0:0:
453,271,93230,2,0,P|457:262|450:273,1,66.0000020141602,2|0,0:0|0:0,0:0:0:0:
394,333,93480,6,0,B|335:322|335:322|334:320|334:320|254:305,1,132.00000402832,2|2,0:0|0:0,0:0:0:0:
189,349,93855,1,0,0:0:0:0:
178,341,93980,6,0,P|160:289|207:226,1,132.00000402832,2|0,0:0|3:0,0:0:0:0:
272,200,94355,2,0,B|280:184|298:187|298:187|275:179|237:190,1,66.0000020141602,0|2,3:0|3:2,0:0:0:0:
54,111,94730,2,0,B|46:95|28:98|28:98|51:90|89:101,1,66.0000020141602,0|0,1:0|0:0,0:0:0:0:
0,183,94980,6,0,P|90:137|133:143,1,143.999995605469,8|0,0:0|0:0,0:0:0:0:
195,184,96230,5,4,1:3:0:0:
462,373,96480,2,0,B|515:317|490:238|448:266|402:285|489:343,2,180.000006866455,2|4|8,0:0|1:3|0:0,0:0:0:0:
381,355,97480,6,0,L|343:363,10,30.0000011444092
340,370,97980,6,0,P|279:335|208:332,1,143.999995605469,4|0,1:0|3:0,0:0:0:0:
139,374,98355,1,0,3:0:0:0:
16,275,98480,1,0,3:0:0:0:
16,275,98730,6,0,P|31:260|11:273,1,71.9999978027344,0|0,1:0|0:0,0:0:0:0:
172,138,98980,2,0,P|153:108|177:136,1,107.999996704102,8|0,0:0|0:0,0:0:0:0:
203,210,99480,5,2,3:2:0:0:
1,39,99730,2,0,P|14:42|32:62,1,35.9999989013672,8|0,0:3|0:0,0:0:0:0:
22,133,99980,6,0,B|33:57|106:34|146:57|146:57|128:80|129:119,1,215.999993408203,2|0,0:0|0:0,0:0:0:0:
279,132,100480,2,0,P|254:110|194:113,1,71.9999978027344,8|0,0:3|0:0,0:0:0:0:
96,258,100730,1,0,1:0:0:0:
96,258,100980,6,0,L|107:326,1,60,10|2,0:0|0:0,0:0:0:0:
11,271,101480,2,0,L|22:339,1,60,2|2,0:0|0:0,0:0:0:0:
187,363,101855,1,0,0:0:0:0:
200,360,101980,6,0,B|267:346|267:346|269:344|269:344|359:325,1,144,2|0,1:2|3:0,0:0:0:0:
392,266,102355,1,0,3:0:0:0:
512,384,102480,1,0,3:0:0:0:
314,132,102730,6,0,P|315:93|353:70,1,71.9999978027344,0|0,1:0|0:0,0:0:0:0:
426,14,102980,2,0,B|414:32|416:52|416:52|248:28,1,198.000006042481,8|0,0:0|0:0,0:0:0:0:
173,16,103480,6,0,L|179:68,1,35.9999989013672,2|0,3:2|0:0,0:0:0:0:
95,21,103730,2,0,L|101:73,1,35.9999989013672,8|0,0:3|0:0,0:0:0:0:
146,152,103980,5,2,0:0:0:0:
421,72,104230,1,0,1:0:0:0:
361,18,104355,1,0,0:0:0:0:
284,42,104480,1,8,0:3:0:0:
323,342,104730,6,0,P|347:320|343:283,1,60,0|0,1:0|0:0,0:0:0:0:
411,236,104980,2,0,P|395:192|344:168,1,99.0000030212403,12|0,0:0|0:0,0:0:0:0:
339,177,105230,5,2,1:2:0:0:
359,88,105355,1,2,0:0:0:0:
263,223,105480,6,0,L|177:205,1,66.0000020141602,2|0,0:0|0:0,0:0:0:0:
131,269,105730,2,0,P|105:229|103:180,1,99.0000030212403,2|0,0:0|0:0,0:0:0:0:
157,108,105980,5,2,1:2:0:0:
157,108,106230,2,0,L|137:57,1,33.0000010070801,2|0,3:1|0:0,0:0:0:0:
246,57,106355,2,0,L|263:5,1,33.0000010070801,2|0,3:1|0:0,0:0:0:0:
345,80,106480,2,0,L|393:53,1,33.0000010070801,2|0,3:1|0:0,0:0:0:0:
345,80,106730,2,0,L|393:53,1,33.0000010070801,2|0,1:0|0:0,0:0:0:0:
344,80,106980,6,0,P|403:79|439:125,1,120.599994295349,10|0,0:0|0:0,0:0:0:0:
512,165,107230,2,0,P|452:170|402:203,1,120.599994295349,2|0,0:0|0:0,0:0:0:0:
394,216,107480,5,2,0:0:0:0:
457,277,107605,1,2,0:0:0:0:
333,333,107730,2,0,L|240:315,1,90,8|0,0:3|0:0,0:0:0:0:
161,339,107980,5,2,0:0:0:0:
161,339,108230,2,0,L|152:295,1,30,2|0,1:0|0:0,0:0:0:0:
77,252,108355,2,0,L|98:212,1,30,2|0,1:0|0:0,0:0:0:0:
68,131,108480,2,0,L|109:114,1,30,2|0,1:0|0:0,0:0:0:0:
68,131,108730,2,0,L|109:114,1,30,2|0,1:0|0:0,0:0:0:0:
68,131,108980,6,0,B|124:122|124:122|126:120|126:120|201:109,1,119.699995068512,14|0,0:0|0:0,0:0:0:0:
336,171,109230,2,0,P|369:139|354:68,1,119.699995068512,2|0,0:0|0:0,0:0:0:0:
348,65,109480,5,2,0:0:0:0:
271,111,109605,1,2,0:0:0:0:
428,207,109730,2,0,P|471:205|508:160,1,90,2|0,0:0|0:0,0:0:0:0:
508,155,109980,5,2,1:2:0:0:
508,155,110230,2,0,L|493:106,1,30,2|0,3:1|0:0,0:0:0:0:
416,239,110355,2,0,L|410:269,1,30,2|0,3:1|0:0,0:0:0:0:
321,154,110480,2,0,L|315:124,1,30,2|0,3:1|0:0,0:0:0:0:
321,154,110730,2,0,L|315:124,1,30,2|0,1:0|0:0,0:0:0:0:
321,154,110980,2,0,P|259:153|232:219,1,119.699995068512,10|0,0:0|0:0,0:0:0:0:
218,205,111230,5,2,0:0:0:0:
132,192,111355,1,2,0:0:0:0:
163,276,111480,5,2,0:0:0:0:
77,289,111605,1,2,0:0:0:0:
218,205,111730,2,0,L|308:221,1,90,8|0,0:3|0:0,0:0:0:0:
320,226,111980,6,0,B|308:146|360:98|438:112|452:137|456:196|397:209,1,264.000008056641,10|0,1:2|0:0,0:0:0:0:
416,330,112355,2,0,P|341:280|174:266,1,240,10|0,1:2|0:0,0:0:0:0:
125,317,112730,2,0,B|144:345|133:375|133:375|147:345|185:348,1,120,10|0,1:2|0:0,0:0:0:0:
248,135,112980,5,12,0:0:0:0:
248,135,113230,2,0,L|255:113,2,24
473,366,113980,6,0,B|510:328|487:265|435:268|435:268|446:292|444:311,1,167.999994873047,4|0,1:0|3:0,0:0:0:0:
383,362,114355,1,0,3:0:0:0:
268,262,114480,1,0,3:0:0:0:
417,106,114730,6,0,P|404:84|421:106,1,83.9999974365235,0|0,1:0|0:0,0:0:0:0:
490,166,114980,6,0,B|457:130|410:137|410:137|385:175|335:171,1,161.999995056153,8|0,0:0|0:0,0:0:0:0:
239,133,115480,2,0,P|258:117|294:113,1,53.9999983520508,2|0,3:2|0:0,0:0:0:0:
399,253,115730,1,8,0:3:0:0:
241,346,115980,6,0,B|231:303|169:278|130:300|130:300|157:314|162:344,1,180.000006866455,2|0,0:0|1:0,0:0:0:0:
89,376,116355,1,0,0:0:0:0:
17,303,116480,6,0,P|7:246|62:220,1,107.999996704102,8|0,0:3|0:0,0:0:0:0:
53,202,116730,2,0,L|127:220,1,71.9999978027344,0|0,1:0|0:0,0:0:0:0:
242,117,116980,5,10,0:0:0:0:
224,25,117230,5,2,0:0:0:0:
149,134,117480,5,2,0:0:0:0:
132,43,117730,5,2,0:0:0:0:
200,231,117980,6,0,B|267:217|267:217|269:215|269:215|361:196,1,143.999995605469,2|0,1:2|3:0,0:0:0:0:
405,240,118355,1,0,3:0:0:0:
461,107,118480,1,0,3:0:0:0:
278,352,118730,6,0,B|246:347|246:347|245:348|245:348|196:340,1,71.9999978027344,0|0,1:0|0:0,0:0:0:0:
139,289,118980,2,0,B|33:309|33:309|56:279|88:284,1,155.999992858887,8|0,0:0|0:0,0:0:0:0:
195,211,119355,5,0,0:0:0:0:
193,197,119480,2,0,L|182:116,1,71.9999978027344,2|8,3:2|0:3,0:0:0:0:
207,341,119980,6,0,P|241:338|344:401,1,120,2|0,0:0|1:0,0:0:0:0:
392,334,120355,1,0,0:0:0:0:
290,223,120480,1,8,0:3:0:0:
496,94,120730,6,0,P|511:84|490:89,1,60,0|0,1:0|0:0,0:0:0:0:
432,146,120980,6,0,P|382:137|336:85,1,99.0000030212403,12|0,0:0|0:0,0:0:0:0:
333,116,121230,1,2,1:2:0:0:
277,45,121355,1,2,0:0:0:0:
214,120,121480,6,0,L|201:192,1,66.0000020141602,2|0,0:0|0:0,0:0:0:0:
290,223,121730,2,0,L|308:341,1,99.0000030212403,2|0,0:0|0:0,0:0:0:0:
308,336,121980,5,2,1:2:0:0:
308,336,122230,2,0,L|361:351,1,33.0000010070801,2|0,3:1|0:0,0:0:0:0:
468,265,122355,2,0,L|436:273,1,33.0000010070801,2|0,3:1|0:0,0:0:0:0:
295,184,122480,2,0,L|326:192,1,33.0000010070801,2|0,3:1|0:0,0:0:0:0:
295,184,122730,2,0,L|326:192,1,33.0000010070801,2|0,1:0|0:0,0:0:0:0:
295,184,122980,6,0,L|433:153,1,120.599994295349,10|0,0:0|0:0,0:0:0:0:
477,106,123230,2,0,B|466:80|482:49|482:49|461:80|429:77,1,120.599994295349,2|0,0:0|0:0,0:0:0:0:
412,157,123480,5,2,0:0:0:0:
344,96,123605,1,2,0:0:0:0:
282,197,123730,2,0,L|170:177,1,90,8|0,0:3|0:0,0:0:0:0:
133,125,123980,6,0,B|116:88|138:44|181:41|181:41|175:90,1,135.000005149841,2|0,0:0|0:0,0:0:0:0:
178,61,124230,2,0,L|220:54,1,30,2|0,1:0|0:0,0:0:0:0:
193,181,124355,2,0,L|232:197,1,30,2|0,1:0|0:0,0:0:0:0:
140,288,124480,2,0,L|163:322,1,30,2|0,1:0|0:0,0:0:0:0:
140,288,124730,2,0,L|163:322,1,30,2|0,1:0|0:0,0:0:0:0:
140,288,124980,2,0,L|282:316,1,119.699995068512,14|0,0:0|0:0,0:0:0:0:
271,323,125230,5,2,0:0:0:0:
339,258,125355,1,2,0:0:0:0:
267,194,125480,6,0,P|252:167|251:127,1,60,2|2,0:0|0:0,0:0:0:0:
393,97,125730,2,0,P|343:90|309:63,1,90,2|0,0:0|0:0,0:0:0:0:
302,54,125980,5,2,1:2:0:0:
302,54,126230,1,2,3:1:0:0:
226,31,126355,1,2,3:1:0:0:
160,83,126480,1,2,3:1:0:0:
84,60,126605,1,2,0:0:0:0:
18,112,126730,1,2,1:0:0:0:
9,104,126855,1,2,0:0:0:0:
1,94,126980,6,0,L|28:215,1,119.699995068512,10|0,0:0|0:0,0:0:0:0:
31,225,127230,5,2,0:0:0:0:
72,300,127355,1,2,0:0:0:0:
203,248,127480,5,2,0:0:0:0:
122,224,127605,1,2,0:0:0:0:
34,377,127730,2,0,L|132:365,1,90,8|0,0:3|0:0,0:0:0:0:
135,372,127980,6,0,P|181:263|171:145,1,240,10|0,1:2|0:0,0:0:0:0:
331,38,128355,2,0,B|323:55|323:77|323:77|223:56|223:56|220:57|220:57|74:29,1,264.000008056641,10|0,1:2|0:0,0:0:0:0:
36,104,128730,2,0,P|17:109|47:109,1,132.00000402832,10|0,1:2|0:0,0:0:0:0:
282,274,128980,6,0,L|369:254,1,90,12|0,0:0|0:0,0:0:0:0:
432,204,129479,2,0,L|448:206,10,10
370,156,129979,5,4,1:0:0:0:
370,156,130479,2,0,P|376:127|382:98,1,60,2|8,0:0|0:0,0:0:0:0:
321,35,130980,2,0,P|268:41|227:103,1,120,2|8,0:0|0:0,0:0:0:0:
111,354,131980,5,2,0:0:0:0:
61,281,132230,1,10,0:0:0:0:
125,220,132480,2,0,L|185:228,2,40,2|2|2,0:0|0:0|0:0,0:0:0:0:
49,158,132980,2,0,P|36:95|23:33,1,120,10|8,0:0|3:2,0:0:0:0:
24,40,133980,6,0,P|83:42|131:76,1,120,2|2,1:2|0:0,0:0:0:0:
221,218,134730,1,8,0:0:0:0:
221,218,134980,2,0,P|280:211|322:157,1,120,2|8,0:0|0:0,0:0:0:0:
318,167,135980,5,2,0:0:0:0:
386,124,136230,2,0,B|405:120|423:128|423:128|407:116|396:117,1,60,10|0,0:0|0:0,0:0:0:0:
260,364,167980,6,0,L|244:272,1,93,2|0,0:0|0:0,0:0:0:0:
240,256,169980,6,0,L|319:276,1,60,4|0,1:0|0:0,0:0:0:0:
22,207,170230,1,0,0:0:0:0:
111,179,170480,6,0,L|170:160,1,60,10|0,0:3|0:0,0:0:0:0:
22,207,170730,1,0,0:0:0:0:
207,37,170980,6,0,B|271:52|271:52|273:54|273:54|347:72,2,143.999995605469,8|0|10,0:0|0:0|0:3,0:0:0:0:
77,363,171730,1,0,0:0:0:0:
77,362,172230,6,0,P|97:334|131:322,1,71.9999978027344,0|0,1:0|0:0,0:0:0:0:
400,384,172480,1,10,0:3:0:0:
0,229,172730,6,0,L|101:269,1,71.9999978027344,0|0,1:0|0:0,0:0:0:0:
400,384,172980,1,8,0:0:0:0:
451,287,173230,6,0,B|387:302|387:302|385:304|385:304|311:322,2,143.999995605469,0|10|0,0:0|0:3|0:0,0:0:0:0:
253,24,173980,6,0,L|238:109,1,60,0|0,1:0|0:0,0:0:0:0:
192,357,174230,1,0,0:0:0:0:
164,209,174480,6,0,L|179:294,1,60,10|0,0:3|0:0,0:0:0:0:
192,357,174730,1,0,0:0:0:0:
489,179,174980,6,0,B|505:130|454:92|422:108|422:108|432:132,2,143.999995605469,8|0|10,0:0|0:0|0:3,0:0:0:0:
76,366,175730,1,0,0:0:0:0:
76,366,176230,6,0,P|53:359|32:296,1,71.9999978027344,0|0,1:0|0:0,0:0:0:0:
167,33,176480,1,10,1:3:0:0:
0,237,176730,6,0,L|106:217,1,71.9999978027344
437,364,176980,1,12,0:0:0:0:
339,323,177230,6,0,B|323:274|374:236|406:252|406:252|396:276,2,143.999995605469,0|10|0,1:0|0:3|0:0,0:0:0:0:
129,56,177980,6,0,L|229:80,1,71.9999978027344,0|0,1:0|0:0,0:0:0:0:
488,142,178230,1,0,3:0:0:0:
318,185,178480,6,0,L|418:161,1,71.9999978027344,10|0,0:3|0:0,0:0:0:0:
488,142,178730,1,0,1:0:0:0:
293,342,178980,6,0,B|283:355|280:366|280:366|145:328,2,143.999995605469,8|0|10,0:0|3:0|3:0,0:0:0:0:
424,16,179730,1,0,0:0:0:0:
424,16,179855,1,0,0:0:0:0:
424,16,179980,1,0,3:0:0:0:
482,343,180230,6,0,P|480:306|440:263,1,71.9999978027344,0|0,1:0|0:0,0:0:0:0:
191,125,180480,1,10,1:3:0:0:
504,208,180730,6,0,L|403:184,1,71.9999978027344
108,104,180980,1,12,0:0:0:0:
47,236,181230,6,0,B|57:249|60:260|60:260|195:222,2,143.999995605469,0|10|0,0:0|0:3|0:0,0:0:0:0:
361,10,181980,6,0,L|339:117,1,71.9999978027344,0|0,1:0|0:0,0:0:0:0:
294,354,182230,1,0,3:0:0:0:
484,305,182480,6,0,L|384:276,1,71.9999978027344,10|0,0:3|0:0,0:0:0:0:
294,354,182730,1,0,1:3:0:0:
171,163,182980,6,0,B|155:130|115:121|92:127|92:127|81:156|45:167,2,143.999995605469,8|0|10,0:0|3:0|0:3,0:0:0:0:
466,58,183730,1,0,3:0:0:0:
466,58,183855,1,0,0:0:0:0:
380,23,183980,6,0,B|392:93|392:93|394:95|394:95|413:197,1,143.999995605469,0|0,1:0|0:0,0:0:0:0:
442,357,184355,2,0,B|467:354|525:299|459:215|407:260|413:301,1,180.000006866455,2|0,1:2|0:0,0:0:0:0:
356,357,184730,2,0,L|271:344,1,71.9999978027344,0|0,1:0|3:0,0:0:0:0:
224,297,184917,1,8,3:0:0:0:
209,300,184980,6,0,B|141:310|141:310|139:312|139:312|67:324,1,143.999995605469,12|0,1:3|0:0,0:0:0:0:
0,160,185355,2,0,B|53:162|94:99|94:99|71:131|74:174,1,180.000006866455,4|0,1:3|3:0,0:0:0:0:
42,239,185730,1,4,1:3:0:0:
188,18,185980,6,0,L|368:54,1,180,2|2,0:0|0:0,0:0:0:0:
364,53,187730,1,2,0:0:0:0:
364,53,187980,6,0,L|373:109,1,53.9999983520508,2|0,0:0|0:0,0:0:0:0:
447,92,188480,2,0,L|438:36,1,53.9999983520508,2|0,0:0|0:0,0:0:0:0:
419,170,188980,5,2,0:0:0:0:
419,170,189480,1,2,0:0:0:0:
419,170,189980,6,0,B|381:141|344:150|344:150|319:180|286:177,1,143.999995605469,4|0,1:0|3:0,0:0:0:0:
218,216,190355,1,0,3:0:0:0:
277,50,190480,1,0,3:0:0:0:
277,50,190730,6,0,B|305:51|331:58|331:58|318:43|297:41,1,71.9999978027344,0|0,1:0|0:0,0:0:0:0:
127,172,190980,2,0,B|78:164|20:185|20:185|36:157|74:153,1,161.999995056153,8|0,0:0|0:0,0:0:0:0:
67,146,191480,6,0,L|52:78,1,53.9999983520508,2|0,3:2|0:0,0:0:0:0:
112,339,191730,1,8,0:3:0:0:
110,22,191980,5,2,0:0:0:0:
110,22,192230,1,0,1:0:0:0:
205,9,192355,1,2,0:0:0:0:
263,84,192480,1,8,0:3:0:0:
399,226,192730,1,0,1:0:0:0:
454,38,192980,6,0,L|465:-13,2,40,12|0|0,0:0|3:0|3:0,0:0:0:0:
512,99,193480,6,0,P|461:94|405:115,1,107.999996704102,2|0,0:0|0:0,0:0:0:0:
340,64,193730,2,0,B|321:32|338:-9|366:-12|366:-12|353:10|359:40,1,135.000005149841,2|0,0:0|0:0,0:0:0:0:
399,226,193980,5,2,1:2:0:0:
399,226,194230,2,0,L|334:238,1,35.9999989013672,2|0,3:1|0:0,0:0:0:0:
295,309,194355,2,0,L|230:297,1,35.9999989013672,2|0,3:1|0:0,0:0:0:0:
201,210,194480,2,0,L|136:222,1,35.9999989013672,2|0,3:1|0:0,0:0:0:0:
201,210,194730,2,0,L|136:222,1,35.9999989013672,2|0,1:0|0:0,0:0:0:0:
201,210,194980,2,0,L|136:222,1,35.9999989013672,10|0,0:0|0:0,0:0:0:0:
147,221,195230,5,2,0:0:0:0:
25,13,195480,1,2,0:0:0:0:
103,48,195605,1,2,0:0:0:0:
36,99,195730,2,0,L|23:160,1,53.9999983520508,8|0,0:3|0:0,0:0:0:0:
21,168,195980,5,2,0:0:0:0:
21,168,196230,1,2,1:0:0:0:
39,251,196355,1,2,1:0:0:0:
122,234,196480,1,2,1:0:0:0:
104,151,196605,1,2,0:0:0:0:
21,168,196730,1,2,1:0:0:0:
256,330,196980,5,14,0:0:0:0:
329,344,197146,5,0,3:0:0:0:
402,358,197313,5,0,3:0:0:0:
475,372,197480,6,0,P|497:344|490:301,1,66.0000020141602,2|2,0:0|0:0,0:0:0:0:
428,262,197730,2,0,B|418:205|418:205|416:204|416:204|403:134,1,116.999994644165,2|0,0:0|0:0,0:0:0:0:
402,128,197980,5,2,1:2:0:0:
402,128,198230,1,2,3:1:0:0:
320,109,198355,1,2,3:1:0:0:
278,36,198480,1,2,3:1:0:0:
196,55,198605,1,2,0:0:0:0:
154,128,198730,2,0,L|74:114,1,77.9999964294435,2|2,1:0|0:0,0:0:0:0:
12,58,198980,6,0,L|38:227,1,138.599997250671,10|0,0:0|0:0,0:0:0:0:
35,207,199230,5,2,0:0:0:0:
114,245,199355,1,2,0:0:0:0:
50,358,199480,2,0,P|32:326|52:285,1,77.9999964294435,2|2,0:0|0:0,0:0:0:0:
188,203,199730,2,0,B|241:212|241:212|244:214|244:214|302:223,1,116.999994644165,8|0,0:3|0:0,0:0:0:0:
317,226,199980,6,0,B|378:186|351:94|288:95|288:95|296:131,1,215.999993408203,10|0,1:2|0:0,0:0:0:0:
236,322,200355,2,0,P|325:256|468:274,1,215.999993408203,10|0,1:2|0:0,0:0:0:0:
484,328,200730,2,0,P|505:356|479:331,1,107.999996704102,10|0,1:2|3:0,0:0:0:0:
426,255,200917,1,8,3:0:0:0:
422,244,200980,6,0,B|441:152|441:152|440:149|440:149|460:43,1,195.599999850769,12|0,1:3|0:0,0:0:0:0:
221,156,201355,2,0,B|202:169|195:188|195:188|282:152|350:165,1,195.599999850769,4|0,0:3|0:0,0:0:0:0:
154,18,201730,1,4,0:3:0:0:
154,18,201980,6,0,B|134:51|101:63|101:63|80:108|114:148,1,159.599993424683,4|0,1:0|3:0,0:0:0:0:
182,189,202355,1,0,3:0:0:0:
60,290,202480,1,0,3:0:0:0:
60,290,202730,6,0,B|13:282|13:282|53:279,1,79.7999967123414,0|0,1:0|0:0,0:0:0:0:
150,360,202980,2,0,B|166:274|166:274|167:273|167:273|183:182,1,174.300002526627,8|0,0:0|0:0,0:0:0:0:
138,119,203480,6,0,P|125:102|133:122,1,60,2|0,3:2|0:0,0:0:0:0:
286,359,203730,1,8,0:3:0:0:
286,359,203980,6,0,P|358:348|394:289,1,144,2|0,0:0|0:0,0:0:0:0:
407,296,204230,1,0,1:0:0:0:
331,243,204355,5,2,0:0:0:0:
438,153,204480,2,0,B|483:186|483:186|394:169|394:169|392:170|392:170|292:152,1,240,8|0,0:3|1:0,0:0:0:0:
48,27,204980,6,0,L|53:49,1,16,10|0,0:0|3:0,0:0:0:0:
74,127,205313,1,0,3:0:0:0:
48,27,205480,6,0,P|53:6|46:28,1,90.0000034332277,2|0,0:0|0:0,0:0:0:0:
96,211,205730,2,0,P|91:232|98:210,1,90.0000034332277,2|0,0:0|0:0,0:0:0:0:
221,102,205980,6,0,B|294:117|294:117|295:119|295:119|398:140,1,155.999992858887,2|0,1:2|3:0,0:0:0:0:
440,92,206355,1,0,3:0:0:0:
325,0,206480,1,0,3:0:0:0:
448,341,206730,6,0,P|443:351|451:339,1,77.9999964294435,0|0,1:0|0:0,0:0:0:0:
425,267,206980,6,0,B|396:228|348:228|320:258|320:258|326:306|284:338,1,198.000006042481,8|0,0:0|0:0,0:0:0:0:
303,344,207480,5,2,3:2:0:0:
208,324,207605,1,0,0:0:0:0:
113,304,207730,1,8,0:3:0:0:
113,304,207980,6,0,L|31:321,1,67.5000025749207,2|0,0:0|0:0,0:0:0:0:
18,328,208230,6,0,P|60:331|119:349,1,90.0000034332277,0|0,1:0|0:0,0:0:0:0:
231,214,208480,2,0,L|148:235,1,77.9999964294435,8|0,0:3|0:0,0:0:0:0:
84,149,208730,6,0,B|66:122|75:83|101:79|101:79|81:102|84:153,1,125.999996154785,0|0,1:0|0:0,0:0:0:0:
91,168,208980,5,12,0:0:0:0:
460,28,209230,1,2,1:2:0:0:
460,28,209355,1,2,0:0:0:0:
392,89,209480,2,0,L|314:72,1,77.9999964294435,2|0,0:0|0:0,0:0:0:0:
444,238,209730,2,0,P|478:197|459:130,1,116.999994644165,2|0,0:0|0:0,0:0:0:0:
356,268,209980,5,2,1:2:0:0:
356,268,210230,2,0,L|347:314,1,35.9999989013672,2|0,3:1|0:0,0:0:0:0:
239,200,210355,2,0,L|226:159,1,35.9999989013672,2|0,3:1|0:0,0:0:0:0:
128,274,210480,2,0,L|77:291,1,35.9999989013672,2|0,3:1|0:0,0:0:0:0:
128,274,210730,2,0,L|77:291,1,35.9999989013672,2|0,1:0|0:0,0:0:0:0:
128,274,210980,2,0,L|77:291,1,35.9999989013672,10|0,0:0|0:0,0:0:0:0:
81,290,211230,5,2,0:0:0:0:
2,230,211355,1,2,0:0:0:0:
87,178,211480,2,0,B|130:187|130:187|88:168,1,77.9999964294435,2|2,0:0|0:0,0:0:0:0:
24,112,211730,6,0,L|2:27,1,72,8|0,0:3|0:0,0:0:0:0:
0,26,211980,1,2,0:0:0:0:
0,26,212230,2,0,L|41:34,1,30,2|0,1:0|0:0,0:0:0:0:
155,85,212355,2,0,L|106:99,1,30,2|0,1:0|0:0,0:0:0:0:
252,11,212480,1,2,1:0:0:0:
252,11,212605,1,0,0:0:0:0:
252,11,212730,6,0,L|388:36,1,116.999994644165,2|0,1:0|0:0,0:0:0:0:
381,38,212980,6,0,L|411:154,1,88.000002685547,14|0,0:0|3:0,0:0:0:0:
443,290,213313,1,0,3:0:0:0:
511,228,213480,6,0,P|487:207|441:201,1,71.9999978027344,2|2,0:0|0:0,0:0:0:0:
306,373,213730,2,0,P|348:339|346:275,1,107.999996704102,2|0,0:0|0:0,0:0:0:0:
313,189,213980,5,2,1:2:0:0:
313,189,214230,1,2,3:1:0:0:
229,211,214355,1,2,3:1:0:0:
165,152,214480,1,2,3:1:0:0:
81,174,214605,1,2,0:0:0:0:
17,115,214730,1,2,1:0:0:0:
21,101,214855,1,2,0:0:0:0:
26,85,214980,6,0,P|36:145|48:221,1,138.599997250671,10|0,0:0|0:0,0:0:0:0:
53,237,215230,1,2,0:0:0:0:
145,254,215355,1,2,0:0:0:0:
128,346,215480,1,2,0:0:0:0:
36,329,215605,1,2,0:0:0:0:
216,316,215730,6,0,L|278:309,1,62.9999980773926,8|0,0:3|0:0,0:0:0:0:
349,384,215980,6,0,B|306:353|282:302|300:154|431:167|463:217|453:288|411:304,2,360,10|10|10,1:2|1:2|1:2,0:0:0:0:
0,100,216980,6,0,B|135:86|135:86|138:84|138:84|282:70,1,279.299988493195,12|0,0:0|0:0,0:0:0:0:
284,80,217480,6,0,L|275:132,1,41.9999987182618,0|0,3:0|0:0,0:0:0:0:
351,135,217730,2,0,L|360:83,1,41.9999987182618,0|0,3:0|0:0,0:0:0:0:
333,17,217980,5,0,1:0:0:0:
285,343,218230,2,0,P|276:366|292:342,1,90.0000034332277,0|0,3:0|0:0,0:0:0:0:
312,266,218480,6,0,B|403:254|403:254|404:253|404:253|499:240,2,180.000006866455,2|0|8,0:3|3:0|0:0,0:0:0:0:
22,28,219480,2,0,L|131:47,1,107.999996704102,2|0,0:3|0:0,0:0:0:0:
128,46,220230,6,0,P|124:94|159:130,1,90.0000034332277,0|0,1:0|0:0,0:0:0:0:
222,85,220480,2,0,P|218:51|195:35,1,45.0000017166138,2|0,0:3|0:0,0:0:0:0:
0,203,220730,6,0,L|97:188,1,90.0000034332277,0|0,1:0|0:0,0:0:0:0:
308,306,220980,2,0,B|296:322|298:346|298:346|220:329|220:329|217:330|217:330|103:305,1,215.999993408203,8|0,0:0|0:0,0:0:0:0:
39,349,221480,6,0,P|20:369|38:346,1,90.0000034332277,2|0,0:3|0:0,0:0:0:0:
375,222,221730,1,4,0:3:0:0:
375,222,221980,6,0,B|418:174|384:82|309:102|309:102|325:132|330:180,1,240,0|0,1:0|3:0,0:0:0:0:
272,219,222355,1,0,3:0:0:0:
165,91,222480,2,0,P|163:76|193:33,1,60,2|0,3:0|0:0,0:0:0:0:
165,91,222730,2,0,P|163:76|193:33,1,60,0|0,3:0|0:0,0:0:0:0:
165,91,222980,6,0,B|149:66|109:52|72:78|72:78|69:123|24:143,1,180,8|0,0:0|0:0,0:0:0:0:
22,132,223230,1,0,0:0:0:0:
295,368,223480,2,0,P|327:306|295:251,1,132.00000402832,2|0,0:3|0:0,0:0:0:0:
300,255,224230,5,2,1:2:0:0:
223,220,224355,1,0,0:0:0:0:
294,165,224480,2,0,L|370:186,1,71.9999978027344,2|0,1:2|0:0,0:0:0:0:
227,309,224730,2,0,L|146:327,1,71.9999978027344,2|0,1:2|0:0,0:0:0:0:
4,150,224980,6,0,B|24:117|61:119|84:144|84:144|92:187|136:195,1,161.999995056153,12|0,0:0|0:0,0:0:0:0:
140,184,225230,1,2,0:0:0:0:
191,109,225355,1,2,0:0:0:0:
133,40,225480,6,0,L|44:25,1,77.9999964294435,2|0,0:0|0:0,0:0:0:0:
262,172,225730,2,0,P|350:149|378:113,1,116.999994644165,2|0,0:0|0:0,0:0:0:0:
439,89,225980,6,0,B|411:46|436:6|436:6|413:53|359:47,1,180.000006866455,2|2,1:2|3:1,0:0:0:0:
365,132,226355,1,2,3:1:0:0:
233,25,226480,2,0,P|255:23|278:-10,1,45.0000017166138,2|0,3:1|0:0,0:0:0:0:
233,25,226730,2,0,P|255:23|278:-10,1,45.0000017166138,2|0,1:0|0:0,0:0:0:0:
480,255,226980,6,0,B|513:265|522:289|522:289|442:246|333:240,1,215.999993408203,10|0,0:0|0:0,0:0:0:0:
9,361,227480,2,0,P|91:355|133:317,1,132.00000402832,2|0,0:3|0:0,0:0:0:0:
127,324,228230,6,0,B|91:253,1,45.0000017166138,2|0,1:0|0:0,0:0:0:0:
215,239,228355,2,0,L|232:187,1,45.0000017166138,2|0,3:1|0:0,0:0:0:0:
313,307,228480,2,0,L|375:296,1,45.0000017166138,2|0,1:0|0:0,0:0:0:0:
313,307,228730,2,0,L|375:296,1,45.0000017166138,2|0,1:0|0:0,0:0:0:0:
313,307,228980,6,0,B|387:318|387:318|389:320|389:320|466:331|466:331|426:295,1,198.000006042481,14|0,0:0|0:0,0:0:0:0:
423,292,229230,1,2,0:0:0:0:
366,218,229355,1,2,0:0:0:0:
434,155,229480,2,0,L|521:137,1,71.9999978027344,2|2,0:0|0:0,0:0:0:0:
261,32,229730,1,2,0:0:0:0:
261,32,229980,6,0,B|203:56|187:105|198:189|262:182|314:141|276:91,1,240,2|2,1:2|3:1,0:0:0:0:
347,50,230355,1,2,3:1:0:0:
427,164,230480,2,0,L|415:224,1,45.0000017166138,2|0,3:1|0:0,0:0:0:0:
427,164,230730,2,0,L|415:224,1,45.0000017166138,2|0,1:0|0:0,0:0:0:0:
427,164,230980,6,0,B|415:138|374:127|353:134|353:134|334:172|285:174,1,161.999995056153,10|0,0:0|0:0,0:0:0:0:
275,166,231230,1,2,0:0:0:0:
201,117,231355,1,2,0:0:0:0:
138,180,231480,2,0,L|118:270,1,71.9999978027344,2|2,0:0|0:0,0:0:0:0:
12,69,231730,2,0,L|35:200,1,107.999996704102,2|0,0:0|0:0,0:0:0:0:
34,190,231980,6,0,B|151:171|151:171|154:169|154:169|290:148,1,240,10|0,1:2|0:0,0:0:0:0:
490,304,232355,2,0,B|440:305|404:377|404:377|408:299|355:275,1,240,10|0,1:2|0:0,0:0:0:0:
438,214,232730,2,0,P|430:175|439:214,1,120,10|0,1:2|0:0,0:0:0:0:
256,377,232980,6,0,P|178:349|93:345,1,167.999994873047,12|2,0:0|0:0,0:0:0:0:
