osu file format v14

[General]
AudioFilename: audio.mp3
AudioLeadIn: 0
PreviewTime: 47917
Countdown: 0
SampleSet: Soft
StackLeniency: 0.2
Mode: 0
LetterboxInBreaks: 0
WidescreenStoryboard: 1

[Editor]
Bookmarks: 23978,39978,47978,63978,65978,81978,97978,129978,136228,167978,169978,185978,189978,217978,233978
DistanceSpacing: 0.8
BeatDivisor: 7
GridSize: 32
TimelineZoom: 2.4

[Metadata]
Title:Sway
TitleUnicode:Sway
Artist:Tove Styrke
ArtistUnicode:Tove Styrke
Creator:schoolboy
Version:Basic
Source:
Tags:yuuya_ke komore mint appleeaterx jas craezy pop english fifa 19 2019 ost wenet wenect unranked_mapper unranked mapper yuuya ke tuva stierka
BeatmapID:2785496
BeatmapSetID:1316289

[Difficulty]
HPDrainRate:3
CircleSize:3.5
OverallDifficulty:4
ApproachRate:4.5
SliderMultiplier:1.2
SliderTickRate:1

[Events]
//Background and Video events
0,0,"APPLEEASTES.jpg",0,0
Video,0,"Tove Styrke - Sway (1).mp4"
//Break Periods
2,136478,167978
//Storyboard Layer 0 (Background)
//Storyboard Layer 1 (Fail)
//Storyboard Layer 2 (Pass)
//Storyboard Layer 3 (Foreground)
//Storyboard Layer 4 (Overlay)
//Storyboard Sound Samples

[TimingPoints]
-20,500,4,2,1,60,1,0
43730,-100,4,2,1,10,0,0
43855,-100,4,2,1,15,0,0
43980,-100,4,2,1,60,0,0
47980,-100,4,2,2,70,0,1
58980,-100,4,2,5,70,0,1
59230,-100,4,2,2,70,0,1
61980,-100,4,2,3,70,0,1
62980,-100,4,2,4,70,0,1
63480,-100,4,2,1,70,0,1
63521,-100,4,2,1,15,0,1
63980,-100,4,2,1,60,0,0
65980,-100,4,2,1,60,0,0
81980,-100,4,2,1,65,0,0
97980,-100,4,2,2,70,0,1
108980,-100,4,2,5,70,0,1
109230,-100,4,2,2,70,0,1
111980,-100,4,2,3,70,0,1
112980,-100,4,2,2,70,0,1
124980,-100,4,2,5,70,0,1
125230,-100,4,2,2,70,0,1
127980,-100,4,2,3,70,0,1
128980,-100,4,2,2,70,0,1
129980,-100,4,2,1,60,0,0
133730,-100,4,2,1,10,0,0
133855,-100,4,2,1,15,0,0
133980,-100,4,2,1,50,0,0
135480,-100,4,2,1,40,0,0
135980,-100,4,2,1,30,0,0
136230,-100,4,2,1,20,0,0
167980,-100,4,2,1,40,0,0
168980,-100,4,2,1,50,0,0
169480,-100,4,2,1,65,0,0
169980,-100,4,2,1,80,0,0
170480,-100,4,2,2,80,0,0
177980,-100,4,2,2,80,0,0
184730,-100,4,2,1,80,0,0
185980,-100,4,2,1,70,0,0
187480,-100,4,2,1,60,0,0
189980,-100,4,2,2,90,0,1
196980,-100,4,2,5,90,0,1
197146,-100,4,2,3,90,0,1
197230,-100,4,2,3,90,0,1
197980,-100,4,2,2,90,0,1
199980,-100,4,2,3,90,0,1
200855,-100,4,2,1,90,0,1
201980,-100,4,2,2,90,0,1
205146,-100,4,2,3,90,0,1
205480,-100,4,2,2,90,0,1
212980,-100,4,2,5,90,0,1
213230,-100,4,2,2,90,0,1
215980,-100,4,2,3,90,0,1
216980,-100,4,2,2,90,0,1
217980,-100,4,2,2,85,0,0
221730,-100,4,2,1,10,0,0
221855,-100,4,2,1,15,0,0
221980,-100,4,2,2,85,0,0
228980,-100,4,2,5,85,0,0
229230,-100,4,2,2,85,0,0
231980,-100,4,2,3,85,0,0
232980,-100,4,2,2,85,0,0
233980,-100,4,2,2,20,0,0
235980,-100,4,2,2,5,0,0

[Colours]
Combo1 : 168,168,255
Combo2 : 133,254,197
Combo3 : 145,219,255
Combo4 : 255,160,66

[HitObjects]
37,84,7980,6,0,P|90:90|139:143,1,120,2|2,1:2|3:2,0:0:0:0:
158,177,8730,1,2,1:2:0:0:
158,177,8980,2,0,L|186:44,1,120,10|2,0:0|0:0,0:0:0:0:
270,19,9980,2,0,P|328:30|387:41,1,120,2|2,0:0|0:0,0:0:0:0:
432,23,10730,1,2,1:2:0:0:
432,23,10980,2,0,P|473:32|492:117,1,120,10|0,0:0|0:0,0:0:0:0:
487,194,11980,6,0,P|405:173|351:162,1,120,2|2,1:2|3:2,0:0:0:0:
349,122,12730,1,2,1:2:0:0:
349,122,12980,2,0,P|276:130|244:186,1,120,10|2,0:0|0:0,0:0:0:0:
195,243,13980,2,0,L|66:224,1,120,2|2,0:0|0:0,0:0:0:0:
34,245,14730,1,2,1:2:0:0:
34,245,14980,2,0,P|14:176|52:134,1,120,10|2,0:0|0:0,0:0:0:0:
42,45,15980,6,0,P|100:53|140:104,1,120,2|2,1:2|3:2,0:0:0:0:
159,140,16730,1,0,1:0:0:0:
159,140,16980,1,8,0:0:0:0:
215,323,17980,2,0,P|274:315|334:307,1,120,2|2,0:0|0:0,0:0:0:0:
373,344,18730,1,2,1:2:0:0:
373,344,18980,2,0,P|386:255|400:166,1,180,10|2,0:0|0:0,0:0:0:0:
411,119,19980,6,0,P|352:157|287:136,1,120,2|2,1:2|3:2,0:0:0:0:
279,190,20730,1,0,1:0:0:0:
279,190,20980,2,0,L|154:169,1,120,8|0,0:0|0:0,0:0:0:0:
47,81,22230,2,0,L|33:18,2,60,4|4|4,1:3|1:3|1:3,0:0:0:0:
16,117,22980,1,8,1:2:0:0:
83,296,23980,6,0,P|144:296|194:342,1,120,6|2,1:2|3:2,0:0:0:0:
230,355,24730,1,2,1:2:0:0:
230,355,24980,2,0,L|361:333,1,120,10|2,0:0|0:0,0:0:0:0:
436,371,25980,2,0,L|462:244,1,120,2|2,0:0|0:0,0:0:0:0:
495,220,26730,1,2,1:2:0:0:
495,220,26980,2,0,P|437:223|387:167,1,120,10|0,0:0|0:0,0:0:0:0:
337,105,27980,6,0,P|281:82|226:113,1,120,2|2,0:0|3:2,0:0:0:0:
205,147,28730,1,2,1:2:0:0:
205,147,28980,2,0,L|61:127,1,120,10|2,0:0|0:0,0:0:0:0:
16,196,29980,2,0,L|36:323,1,120,2|2,0:0|0:0,0:0:0:0:
46,361,30730,1,2,1:2:0:0:
46,361,30980,1,10,0:0:0:0:
130,315,31480,1,2,0:0:0:0:
212,364,31980,6,0,P|284:345|344:348,1,120,2|2,1:2|3:2,0:0:0:0:
372,366,32730,1,0,1:0:0:0:
372,366,32980,1,8,0:0:0:0:
501,224,33980,2,0,P|488:171|429:140,1,120,2|2,0:0|3:2,0:0:0:0:
419,94,34730,1,2,1:2:0:0:
419,94,34980,2,0,P|373:155|266:159,1,180,10|2,0:2|0:0,0:0:0:0:
242,198,35980,6,0,L|119:182,1,120,2|2,1:2|3:2,0:0:0:0:
82,207,36730,1,0,1:0:0:0:
82,207,36980,1,8,0:0:0:0:
281,73,38230,2,0,L|352:85,2,60,4|2|4,1:3|0:0|1:3,0:0:0:0:
241,44,38980,1,8,0:0:0:0:
241,44,39980,6,0,P|232:107|224:171,1,120,4|2,1:0|0:0,0:0:0:0:
237,209,40730,2,0,P|327:201|378:129,1,180,8|8,0:0|0:0,0:0:0:0:
458,81,41980,2,0,P|501:113|497:191,2,120,2|2|10,0:0|0:0|0:0,0:0:0:0:
379,25,43480,1,8,0:0:0:0:
310,91,43980,6,0,P|208:78|168:73,1,120,2|2,0:0|0:0,0:0:0:0:
148,53,44730,2,0,P|175:155|164:239,1,180,8|8,0:0|0:0,0:0:0:0:
94,291,45980,2,0,P|56:253|-7:248,2,120,2|2|2,0:0|0:0|0:0,0:0:0:0:
270,366,47980,6,0,P|346:353|381:311,1,120,4|0,1:0|3:0,0:0:0:0:
416,300,48730,1,0,1:0:0:0:
416,300,48980,1,8,0:0:0:0:
363,219,49480,2,0,L|351:155,1,60,2|2,0:0|0:0,0:0:0:0:
342,112,49980,2,0,P|403:122|468:134,2,120,2|2|10,0:0|0:0|0:0,0:0:0:0:
171,23,51980,6,0,P|107:36|72:90,1,120,2|0,1:2|3:0,0:0:0:0:
42,112,52730,1,0,1:0:0:0:
42,112,52980,1,8,0:0:0:0:
64,205,53480,2,0,L|79:275,1,60,2|2,0:0|0:0,0:0:0:0:
91,309,53980,2,0,P|149:305|214:351,1,120,2|2,0:0|0:0,0:0:0:0:
236,367,54730,1,0,1:0:0:0:
236,367,54980,2,0,L|371:357,1,120,12|2,0:0|0:0,0:0:0:0:
437,308,55980,6,0,P|459:239|428:192,1,120,2|2,1:2|3:1,0:0:0:0:
400,170,56730,1,2,1:0:0:0:
400,170,56980,1,10,0:0:0:0:
319,222,57480,2,0,L|251:213,1,60,2|2,0:0|0:0,0:0:0:0:
216,234,57980,2,0,L|198:109,1,120,2|2,0:0|1:0,0:0:0:0:
190,72,58730,1,2,1:0:0:0:
190,72,58980,1,14,0:0:0:0:
263,10,59480,1,2,0:0:0:0:
321,86,59980,6,0,P|391:85|442:42,1,120,2|2,1:2|3:1,0:0:0:0:
466,25,60730,1,2,1:0:0:0:
466,25,60980,1,10,0:0:0:0:
508,111,61480,1,2,0:0:0:0:
437,176,61980,2,0,L|416:276,2,90,10|10|10,1:2|1:2|1:2,0:0:0:0:
402,142,62980,1,12,0:0:0:0:
245,30,63980,6,0,B|151:45|102:184|138:250|229:287|287:235|298:174|266:132,1,420,2|2,0:0|0:0,0:0:0:0:
315,124,65980,6,0,P|423:144|454:149,1,120,2|2,1:2|3:2,0:0:0:0:
479,133,66730,1,2,1:2:0:0:
479,133,66980,2,0,P|515:177|496:247,1,120,10|2,0:0|0:0,0:0:0:0:
440,308,67980,2,0,P|388:271|321:287,1,120,2|2,0:0|0:0,0:0:0:0:
297,307,68730,1,2,1:2:0:0:
297,307,68980,2,0,L|156:319,1,120,10|0,0:0|0:0,0:0:0:0:
92,362,69980,6,0,P|57:319|72:243,1,120,2|2,0:0|3:2,0:0:0:0:
44,212,70730,1,2,1:2:0:0:
44,212,70980,2,0,P|114:234|166:218,1,120,10|2,0:0|0:0,0:0:0:0:
229,159,71980,2,0,L|360:177,1,120,2|2,0:0|0:0,0:0:0:0:
387,211,72730,1,2,1:2:0:0:
387,211,72980,1,10,0:0:0:0:
454,143,73480,1,2,3:2:0:0:
397,65,73980,6,0,L|277:89,1,120,2|2,1:2|3:2,0:0:0:0:
239,72,74730,1,0,1:0:0:0:
239,72,74980,1,8,0:0:0:0:
149,241,75980,2,0,P|212:243|251:298,1,120,2|2,0:0|0:0,0:0:0:0:
275,322,76730,1,2,1:2:0:0:
275,322,76980,2,0,P|368:313|386:294,1,120,10|2,0:0|0:0,0:0:0:0:
445,224,77980,6,0,L|412:90,1,120,2|2,1:2|3:2,0:0:0:0:
398,62,78730,1,0,1:0:0:0:
398,62,78980,1,8,0:0:0:0:
187,176,80230,2,0,L|118:167,2,60,4|4|4,1:3|1:3|1:3,0:0:0:0:
227,201,80980,1,8,1:2:0:0:
377,325,81980,6,0,P|381:270|408:236,1,60,2|2,1:2|3:2,0:0:0:0:
412,229,82480,2,0,P|406:194|382:156,1,60,2|2,3:2|1:2,0:0:0:0:
407,126,82980,2,0,P|357:162|266:147,1,120,10|2,0:0|0:0,0:0:0:0:
219,111,83980,2,0,P|174:89|92:114,1,120,2|2,0:0|0:0,0:0:0:0:
64,94,84730,1,2,1:2:0:0:
64,94,84980,2,0,L|90:229,1,120,10|0,0:0|3:0,0:0:0:0:
40,296,85980,6,0,P|75:303|107:333,1,60,2|2,0:0|3:2,0:0:0:0:
120,356,86480,2,0,P|165:349|191:326,1,60,2|2,3:2|1:2,0:0:0:0:
213,310,86980,2,0,P|264:303|337:390,1,120,10|2,0:0|0:0,0:0:0:0:
409,300,87980,2,0,P|429:240|391:190,1,120,2|2,0:0|0:0,0:0:0:0:
365,163,88730,1,2,1:2:0:0:
365,163,88980,1,10,0:0:0:0:
283,112,89480,1,2,3:2:0:0:
217,182,89980,6,0,P|149:197|93:153,1,120,2|2,1:2|3:2,0:0:0:0:
70,142,90730,1,0,1:0:0:0:
70,142,90980,1,8,0:0:0:0:
225,29,91980,2,0,L|365:53,1,120,2|2,0:0|3:2,0:0:0:0:
380,18,92730,1,2,1:2:0:0:
380,18,92980,2,0,P|428:43|447:192,1,180,10|2,0:2|0:0,0:0:0:0:
405,234,94230,5,0,3:0:0:0:
405,234,94480,2,0,P|341:215|273:215,1,120,2|8,3:2|0:0,0:0:0:0:
78,330,96230,2,0,L|63:246,2,60,4|2|4,1:3|0:0|1:3,0:0:0:0:
112,362,96980,1,8,0:0:0:0:
251,229,97980,6,0,P|327:242|362:284,1,120,4|0,1:0|3:0,0:0:0:0:
386,313,98730,1,0,1:0:0:0:
386,313,98980,1,8,0:0:0:0:
465,259,99480,2,0,P|455:234|453:195,1,60,2|8,3:2|0:3,0:0:0:0:
421,164,99980,2,0,P|436:113|435:34,2,120,2|8|10,0:0|0:3|0:0,0:0:0:0:
263,273,101980,6,0,L|126:294,1,120,2|0,1:2|3:0,0:0:0:0:
111,326,102730,1,0,1:0:0:0:
111,326,102980,1,8,0:0:0:0:
36,265,103480,2,0,L|23:206,1,60,2|8,3:2|0:3,0:0:0:0:
15,158,103980,2,0,P|62:147|144:200,1,120,2|8,0:0|0:3,0:0:0:0:
168,207,104730,1,0,1:0:0:0:
168,207,104980,2,0,P|228:200|279:147,1,120,12|2,0:0|0:0,0:0:0:0:
345,102,105980,6,0,L|369:226,1,120,2|2,1:2|3:1,0:0:0:0:
380,270,106730,1,2,1:0:0:0:
380,270,106980,1,10,0:0:0:0:
316,342,107480,2,0,L|248:333,1,60,2|8,0:0|0:3,0:0:0:0:
222,300,107980,2,0,P|146:303|95:362,1,120,2|2,0:0|1:0,0:0:0:0:
73,351,108730,1,2,1:0:0:0:
73,351,108980,1,14,0:0:0:0:
13,275,109480,1,2,0:0:0:0:
63,193,109980,6,0,L|201:210,1,120,2|2,1:2|3:1,0:0:0:0:
224,240,110730,1,2,1:0:0:0:
224,240,110980,1,10,0:0:0:0:
299,180,111480,1,2,0:0:0:0:
233,109,111980,2,0,L|212:9,2,90,10|10|10,1:2|1:2|1:2,0:0:0:0:
208,150,112980,2,0,P|146:141|80:132,1,120,12|0,0:0|0:0,0:0:0:0:
18,197,113980,6,0,L|39:338,1,120,4|0,1:0|3:0,0:0:0:0:
44,362,114730,1,0,1:0:0:0:
44,362,114980,1,8,0:0:0:0:
130,320,115480,2,0,P|165:323|203:350,1,60,2|8,3:2|0:3,0:0:0:0:
223,365,115980,2,0,P|286:359|328:293,1,120,2|8,0:0|0:3,0:0:0:0:
367,332,116730,1,0,1:0:0:0:
367,332,116980,2,0,L|344:162,1,120,10|2,0:0|0:0,0:0:0:0:
421,148,117980,6,0,P|363:110|301:117,1,120,2|0,1:2|3:0,0:0:0:0:
278,89,118730,1,0,1:0:0:0:
278,89,118980,2,0,P|227:120|159:105,1,120,8|2,0:0|3:2,0:0:0:0:
80,74,119980,2,0,L|99:215,1,120,2|8,0:0|0:3,0:0:0:0:
65,229,120730,1,0,1:0:0:0:
65,229,120980,2,0,P|111:232|181:304,1,120,12|2,0:0|0:0,0:0:0:0:
241,337,121980,6,0,P|300:329|360:321,1,120,2|2,1:2|3:1,0:0:0:0:
403,352,122730,1,2,1:0:0:0:
403,352,122980,1,10,0:0:0:0:
470,283,123480,2,0,L|477:214,1,60,2|8,0:0|0:3,0:0:0:0:
475,175,123980,2,0,P|418:212|339:190,1,120,2|2,0:0|1:0,0:0:0:0:
330,188,124730,1,2,1:0:0:0:
330,188,124980,1,14,0:0:0:0:
252,131,125480,1,2,0:0:0:0:
180,195,125980,5,2,1:2:0:0:
180,195,126230,2,0,L|104:183,1,60,2|2,3:1|3:1,0:0:0:0:
101,141,126730,2,0,L|12:157,1,60,2|10,1:0|0:0,0:0:0:0:
0,238,127480,1,2,0:0:0:0:
79,292,127980,2,0,P|120:293|178:328,2,90,10|10|10,1:2|1:2|1:2,0:0:0:0:
43,324,128980,1,12,0:0:0:0:
228,373,129980,6,0,P|306:355|336:254,2,180,4|8|8,1:0|0:0|0:0,0:0:0:0:
145,323,131980,2,0,P|133:243|121:204,1,120,2|2,0:0|0:0,0:0:0:0:
188,136,132980,2,0,P|280:156|325:164,1,120,10|8,0:0|3:2,0:0:0:0:
399,181,133980,6,0,P|416:75|500:50,2,180,2|8|8,1:2|0:0|0:0,0:0:0:0:
468,247,135980,1,2,0:0:0:0:
225,370,169980,6,0,P|217:310|211:250,1,120,4|10,1:0|0:3,0:0:0:0:
204,206,170730,1,0,0:0:0:0:
203,206,170980,2,0,P|262:214|321:222,1,120,8|10,0:0|0:3,0:0:0:0:
441,141,172230,2,0,L|425:78,2,60,0|10|0,1:0|0:3|1:0,0:0:0:0:
476,173,172980,2,0,L|455:297,1,120,8|10,0:0|0:3,0:0:0:0:
496,378,173980,6,0,P|418:346|363:358,1,120,0|10,1:0|0:3,0:0:0:0:
342,374,174730,1,0,0:0:0:0:
342,374,174980,2,0,P|361:329|330:257,1,120,8|10,0:0|0:3,0:0:0:0:
227,172,176230,2,0,L|219:103,2,60,0|10|0,1:0|1:3|0:0,0:0:0:0:
198,210,176980,2,0,L|73:219,1,120,12|10,0:0|0:3,0:0:0:0:
17,144,177980,6,0,P|19:75|61:47,1,120,0|10,1:0|0:3,0:0:0:0:
90,13,178730,1,0,1:0:0:0:
90,13,178980,2,0,P|129:47|205:47,1,120,8|10,0:0|3:0,0:0:0:0:
334,14,180230,2,0,L|403:28,2,60,0|10|0,1:0|1:3|0:0,0:0:0:0:
300,49,180980,2,0,L|316:134,1,60,12|0,0:0|0:0,0:0:0:0:
346,140,181480,2,0,L|338:208,1,60,10|0,0:3|0:0,0:0:0:0:
327,246,181980,6,0,P|276:215|218:227,1,120,0|10,1:0|0:3,0:0:0:0:
189,264,182730,1,0,1:3:0:0:
189,264,182980,2,0,P|109:254|87:214,1,120,8|10,0:0|0:3,0:0:0:0:
87,129,183980,2,0,P|33:128|1:161,2,90,0|2|0,1:0|1:2|1:0,0:0:0:0:
132,144,184980,2,0,L|146:42,2,90,12|4|4,1:3|1:3|1:3,0:0:0:0:
159,182,185980,6,0,B|231:244|354:258|449:101|335:-1|244:51|241:115,1,420,2|2,0:0|0:0,0:0:0:0:
242,104,189980,6,0,P|251:163|260:222,1,120,4|0,1:0|3:0,0:0:0:0:
270,274,190730,1,0,1:0:0:0:
270,274,190980,1,8,0:0:0:0:
189,326,191480,2,0,P|157:316|117:315,1,60,2|8,3:2|0:3,0:0:0:0:
86,332,191980,2,0,P|115:285|90:206,1,120,2|8,0:0|0:3,0:0:0:0:
69,198,192730,1,0,1:0:0:0:
69,198,192980,2,0,L|51:77,1,120,12|2,0:0|0:0,0:0:0:0:
126,18,193980,6,0,L|247:42,1,120,2|2,1:2|3:1,0:0:0:0:
292,28,194730,1,2,1:0:0:0:
292,28,194980,1,10,0:0:0:0:
336,113,195480,2,0,L|326:184,1,60,2|8,0:0|0:3,0:0:0:0:
281,187,195980,2,0,L|296:326,1,120,2|2,0:0|1:0,0:0:0:0:
307,357,196730,1,2,1:0:0:0:
307,357,196980,1,14,0:0:0:0:
214,380,197480,1,2,0:0:0:0:
176,291,197980,6,0,P|125:260|66:262,1,120,2|2,1:2|3:1,0:0:0:0:
27,289,198730,1,2,1:0:0:0:
27,289,198980,1,10,0:0:0:0:
7,195,199480,1,2,0:0:0:0:
63,117,199980,2,0,P|48:72|-1:51,2,90,10|10|10,1:2|1:2|1:2,0:0:0:0:
107,135,200980,2,0,L|211:151,2,90,12|4|4,1:3|0:3|0:3,0:0:0:0:
90,179,201980,6,0,P|101:240|115:317,1,120,4|0,1:0|3:0,0:0:0:0:
126,342,202730,1,0,1:0:0:0:
126,342,202980,1,8,0:0:0:0:
212,300,203480,2,0,L|278:314,1,60,2|8,3:2|0:3,0:0:0:0:
302,348,203980,2,0,P|360:343|405:279,1,120,2|8,0:0|0:3,0:0:0:0:
443,278,204730,1,0,1:0:0:0:
443,278,204980,2,0,P|436:214|386:186,1,120,10|2,0:0|0:0,0:0:0:0:
356,97,205980,6,0,P|287:147|233:134,1,120,2|0,1:2|3:0,0:0:0:0:
212,124,206730,1,0,1:0:0:0:
212,124,206980,1,8,0:0:0:0:
129,171,207480,2,0,P|116:198|118:228,1,60,2|8,3:2|0:3,0:0:0:0:
146,267,207980,2,0,P|205:268|253:302,1,120,2|8,0:0|0:3,0:0:0:0:
288,342,208730,1,0,1:0:0:0:
288,342,208980,2,0,P|343:333|421:322,1,120,12|2,0:0|0:0,0:0:0:0:
490,369,209980,6,0,P|502:320|464:251,1,120,2|2,1:2|3:1,0:0:0:0:
445,227,210730,1,2,1:0:0:0:
445,227,210980,1,10,0:0:0:0:
371,165,211480,2,0,L|303:174,1,60,2|8,0:0|0:3,0:0:0:0:
272,201,211980,2,0,P|196:198|145:139,1,120,2|2,0:0|1:0,0:0:0:0:
138,137,212730,1,2,1:0:0:0:
138,137,212980,1,14,0:0:0:0:
69,204,213480,1,2,0:0:0:0:
120,284,213980,6,0,P|196:287|240:326,1,120,2|2,1:2|3:1,0:0:0:0:
260,355,214730,1,2,1:0:0:0:
260,355,214980,1,10,0:0:0:0:
334,294,215480,1,2,0:0:0:0:
407,355,215980,2,0,L|514:368,2,90,10|10|10,1:2|1:2|1:2,0:0:0:0:
369,324,216980,2,0,P|360:272|408:212,1,120,12|0,0:0|3:0,0:0:0:0:
435,191,217730,1,0,3:0:0:0:
435,191,217980,5,0,1:0:0:0:
361,128,218480,2,0,P|302:140|243:152,1,120,2|8,0:3|0:0,0:0:0:0:
179,224,219480,2,0,P|120:230|69:200,1,120,2|0,0:3|0:0,0:0:0:0:
30,225,220230,1,0,1:0:0:0:
30,225,220480,2,0,L|8:95,1,120,2|8,0:3|0:0,0:0:0:0:
79,40,221480,6,0,L|220:68,1,120,2|0,0:3|1:0,0:0:0:0:
230,97,222230,1,0,3:0:0:0:
230,97,222480,2,0,P|307:85|346:35,1,120,2|8,3:0|0:0,0:0:0:0:
412,0,223480,2,0,P|457:42|457:108,1,120,2|0,0:3|0:0,0:0:0:0:
503,183,224480,2,0,P|455:157|386:166,1,120,0|12,1:0|0:0,0:0:0:0:
357,195,225230,1,2,0:0:0:0:
357,195,225480,2,0,L|345:270,1,60,2|2,0:0|0:0,0:0:0:0:
337,301,225980,6,0,P|277:292|201:281,1,120,2|2,1:2|3:1,0:0:0:0:
179,312,226730,1,2,1:0:0:0:
179,312,226980,1,10,0:0:0:0:
98,259,227480,2,0,P|82:204|115:150,1,120,2|0,0:3|0:0,0:0:0:0:
139,114,228230,1,2,1:0:0:0:
139,114,228480,2,0,L|118:43,2,60,2|2|14,1:0|1:0|0:0,0:0:0:0:
217,168,229480,1,2,0:0:0:0:
292,108,229980,6,0,P|353:109|402:171,1,120,2|2,1:2|3:1,0:0:0:0:
423,186,230730,1,2,1:0:0:0:
423,186,230980,1,10,0:0:0:0:
362,260,231480,1,2,0:0:0:0:
427,330,231980,2,0,P|468:336|504:368,2,90,10|10|10,1:2|1:2|1:2,0:0:0:0:
389,360,232980,1,12,0:0:0:0:
302,317,233480,1,2,0:0:0:0:
256,192,233605,12,0,235980,0:0:0:0:
