osu file format v14

[General]
AudioFilename: audio.mp3
AudioLeadIn: 0
PreviewTime: 47917
Countdown: 0
SampleSet: Soft
StackLeniency: 0.3
Mode: 0
LetterboxInBreaks: 0
WidescreenStoryboard: 0

[Editor]
Bookmarks: 184248,233998
DistanceSpacing: 0.4
BeatDivisor: 8
GridSize: 8
TimelineZoom: 2.1

[Metadata]
Title:Sway
TitleUnicode:Sway
Artist:Tove Styrke
ArtistUnicode:Tove Styrke
Creator:schoolboy
Version:Are We Gonna Stay Up?
Source:
Tags:yuuya_ke komore mint appleeaterx jas craezy pop english fifa 19 2019 ost wenet wenect unranked_mapper unranked mapper yuuya ke tuva stierka
BeatmapID:2727565
BeatmapSetID:1316289

[Difficulty]
HPDrainRate:5
CircleSize:4.5
OverallDifficulty:8
ApproachRate:9.5
SliderMultiplier:1.4
SliderTickRate:1

[Events]
//Background and Video events
0,0,"APPLEEASTES.jpg",0,0
Video,0,"Tove Styrke - Sway (1).mp4"
//Break Periods
2,136430,167455
//Storyboard Layer 0 (Background)
//Storyboard Layer 1 (Fail)
//Storyboard Layer 2 (Pass)
//Storyboard Layer 3 (Foreground)
//Storyboard Layer 4 (Overlay)
//Storyboard Sound Samples

[TimingPoints]
-20,500,4,2,0,61,1,0
7917,-100,4,2,0,5,0,0
7980,-100,4,2,1,60,0,0
9980,-50,4,2,1,60,0,0
15355,-50,4,2,1,5,0,0
15480,-100,4,2,1,60,0,0
15980,-50,4,2,1,60,0,0
18167,-50,4,2,1,5,0,0
18230,-50,4,2,1,60,0,0
18417,-50,4,2,1,5,0,0
18480,-37.4531835205993,4,2,1,60,0,0
18667,-37.4531835205993,4,2,1,5,0,0
18730,-43.4782608695652,4,2,1,60,0,0
22167,-142.857142857143,4,2,1,60,0,0
22417,-142.857142857143,4,2,1,5,0,0
22480,-25,4,2,1,60,0,0
22667,-25,4,2,1,5,0,0
22730,-25,4,2,1,60,0,0
22917,-25,4,2,1,5,0,0
22980,-25,4,2,1,60,0,0
26480,-50,4,2,1,60,0,0
26917,-50,4,2,1,5,0,0
26980,-50,4,2,1,60,0,0
30167,-50,4,2,1,5,0,0
30230,-50,4,2,1,60,0,0
30417,-50,4,2,1,5,0,0
30480,-50,4,2,1,60,0,0
31480,-100,4,2,1,60,0,0
31980,-50,4,2,1,60,0,0
32355,-50,4,2,1,60,0,0
34167,-50,4,2,1,5,0,0
34230,-40,4,2,1,60,0,0
34417,-40,4,2,1,5,0,0
34480,-50,4,2,1,60,0,0
34667,-50,4,2,1,5,0,0
34730,-45.4545454545455,4,2,1,60,0,0
34908,-50,4,2,1,60,0,0
38417,-50,4,2,1,5,0,0
38480,-25,4,2,1,60,0,0
38667,-25,4,2,1,5,0,0
38730,-25,4,2,1,60,0,0
38917,-25,4,2,1,5,0,0
38980,-25,4,2,1,60,0,0
39980,-66.6666666666667,4,2,1,60,0,0
40980,-133.333333333333,4,2,1,60,0,0
41980,-66.6666666666667,4,2,1,60,0,0
42480,-66.6666666666667,4,2,1,60,0,0
43480,-33.3333333333333,4,2,1,60,0,0
43521,-33.3333333333333,4,2,1,22,0,0
43728,-33.3333333333333,4,2,1,22,0,0
43853,-33.3333333333333,4,2,1,22,0,0
43896,-33.3333333333333,4,2,1,33,0,0
43980,-66.6666666666667,4,2,1,60,0,0
44480,-66.6666666666667,4,2,1,60,0,0
44980,-66.6666666666667,4,2,1,60,0,0
45480,-33.3333333333333,4,2,1,60,0,0
45521,-33.3333333333333,4,2,1,22,0,0
45896,-33.3333333333333,4,2,1,33,0,0
45980,-66.6666666666667,4,2,1,60,0,0
46313,-66.6666666666667,4,2,1,60,0,0
46480,-66.6666666666667,4,2,1,60,0,0
46980,-66.6666666666667,4,2,1,60,0,0
47480,-181.818181818181,4,2,1,60,0,0
47896,-181.818181818181,4,2,1,5,0,0
47980,-25,4,2,2,70,0,1
48355,-25,4,2,2,70,0,1
49480,-66.6666666666667,4,2,2,70,0,1
49980,-50,4,2,2,70,0,1
50355,-50,4,2,2,5,0,1
50480,-50,4,2,2,70,0,1
50855,-50,4,2,2,5,0,1
50980,-133.333333333333,4,2,2,70,0,1
51980,-25,4,2,2,70,0,1
52355,-25,4,2,2,70,0,1
53480,-66.6666666666667,4,2,2,70,0,1
53980,-50,4,2,2,70,0,1
54355,-50,4,2,2,70,0,1
54980,-133.333333333333,4,2,2,70,0,1
55167,-133.333333333333,4,2,2,5,0,1
55230,-133.333333333333,4,2,2,70,0,1
55480,-50,4,2,2,70,0,1
55667,-50,4,2,2,5,0,1
55730,-50,4,2,2,70,0,1
55917,-50,4,2,2,5,0,1
55980,-20,4,2,2,70,0,1
56167,-20,4,2,2,5,0,1
56230,-20,4,2,2,70,0,1
56292,-20,4,2,2,70,0,1
56355,-20,4,2,2,70,0,1
56417,-20,4,2,2,70,0,1
56480,-20,4,2,2,70,0,1
56542,-20,4,2,2,70,0,1
56730,-20,4,2,2,70,0,1
56792,-20,4,2,2,70,0,1
56980,-25,4,2,2,70,0,1
57167,-25,4,2,2,5,0,1
57230,-25,4,2,2,70,0,1
57480,-50,4,2,2,70,0,1
57980,-100,4,2,2,70,0,1
58167,-100,4,2,2,5,0,1
58230,-20,4,2,2,70,0,1
58292,-20,4,2,2,70,0,1
58355,-20,4,2,2,70,0,1
58417,-20,4,2,2,70,0,1
58480,-20,4,2,2,70,0,1
58542,-20,4,2,2,70,0,1
58730,-20,4,2,2,70,0,1
58792,-20,4,2,2,70,0,1
58980,-25,4,2,5,70,0,1
59167,-25,4,2,5,5,0,1
59230,-25,4,2,2,70,0,1
59480,-50,4,2,2,70,0,1
59730,-66.6666666666667,4,2,2,70,0,1
59917,-66.6666666666667,4,2,2,5,0,1
59980,-20,4,2,2,70,0,1
60167,-20,4,2,2,5,0,1
60230,-20,4,2,2,70,0,1
60292,-20,4,2,2,70,0,1
60355,-20,4,2,2,70,0,1
60417,-20,4,2,2,70,0,1
60480,-20,4,2,2,70,0,1
60542,-20,4,2,2,70,0,1
60730,-20,4,2,2,70,0,1
60792,-20,4,2,2,70,0,1
60980,-23.2558139534884,4,2,2,70,0,1
61167,-23.2558139534884,4,2,2,5,0,1
61230,-50,4,2,2,70,0,1
61917,-50,4,2,2,5,0,1
61980,-20,4,2,3,70,0,1
62978,-20,4,2,4,70,0,1
63478,-20,4,2,1,70,0,1
63521,-20,4,2,1,15,0,1
63980,-100,4,2,1,60,0,0
65417,-100,4,2,1,5,0,0
65479,-100,4,2,1,60,0,0
65980,-50,4,2,1,60,0,0
73480,-100,4,2,1,60,0,0
73980,-37.037037037037,4,2,1,60,0,0
74355,-37.037037037037,4,2,1,60,0,0
75980,-50,4,2,1,60,0,0
76167,-50,4,2,1,5,0,0
76230,-50,4,2,1,60,0,0
76417,-50,4,2,1,5,0,0
76480,-50,4,2,1,60,0,0
77417,-50,4,2,1,5,0,0
77480,-50,4,2,1,60,0,0
77667,-50,4,2,1,5,0,0
77730,-40,4,2,1,60,0,0
77917,-40,4,2,1,5,0,0
77980,-40,4,2,1,60,0,0
78980,-83.3333333333333,4,2,1,60,0,0
79480,-83.3333333333333,4,2,1,60,0,0
80230,-200,4,2,1,60,0,0
80417,-200,4,2,1,5,0,0
80480,-25,4,2,1,60,0,0
80667,-25,4,2,1,5,0,0
80730,-25,4,2,1,60,0,0
80917,-25,4,2,1,5,0,0
80980,-25,4,2,1,60,0,0
81417,-25,4,2,1,5,0,0
81480,-181.818181818181,4,2,1,60,0,0
81917,-181.818181818181,4,2,1,5,0,0
81980,-39.2156862745098,4,2,1,65,0,0
82042,-39.2156862745098,4,2,1,65,0,0
82105,-39.2156862745098,4,2,1,65,0,0
82542,-39.2156862745098,4,2,1,65,0,0
82605,-39.2156862745098,4,2,1,65,0,0
83042,-39.2156862745098,4,2,1,65,0,0
83105,-39.2156862745098,4,2,1,65,0,0
83542,-39.2156862745098,4,2,1,65,0,0
83605,-39.2156862745098,4,2,1,65,0,0
84355,-39.2156862745098,4,2,1,65,0,0
84980,-181.818181818182,4,2,1,65,0,0
85980,-42.5531914893617,4,2,1,65,0,0
86042,-42.5531914893617,4,2,1,65,0,0
86105,-42.5531914893617,4,2,1,65,0,0
86542,-42.5531914893617,4,2,1,65,0,0
86605,-42.5531914893617,4,2,1,65,0,0
87042,-42.5531914893617,4,2,1,65,0,0
87105,-42.5531914893617,4,2,1,65,0,0
87167,-42.5531914893617,4,2,1,65,0,0
87230,-42.5531914893617,4,2,1,65,0,0
87917,-42.5531914893617,4,2,1,5,0,0
87980,-42.5531914893617,4,2,1,65,0,0
88355,-42.5531914893617,4,2,1,65,0,0
89480,-66.6666666666667,4,2,1,65,0,0
89980,-42.5531914893617,4,2,1,65,0,0
90355,-42.5531914893617,4,2,1,65,0,0
91980,-43.4782608695652,4,2,1,65,0,0
92167,-43.4782608695652,4,2,1,5,0,0
92230,-43.4782608695652,4,2,1,65,0,0
92417,-43.4782608695652,4,2,1,5,0,0
92480,-43.4782608695652,4,2,1,65,0,0
93417,-43.4782608695652,4,2,1,5,0,0
93480,-43.4782608695652,4,2,1,65,0,0
93855,-43.4782608695652,4,2,1,65,0,0
93980,-43.4782608695652,4,2,1,65,0,0
94355,-43.4782608695652,4,2,1,65,0,0
94980,-1000,4,2,1,65,0,0
96167,-1000,4,2,1,5,0,0
96230,-200,4,2,1,65,0,0
96417,-200,4,2,1,5,0,0
96480,-28.5714285714286,4,2,1,65,0,0
96980,-33.3333333333333,4,2,1,65,0,0
97021,-33.3333333333333,4,2,1,22,0,0
97896,-33.3333333333333,4,2,1,65,0,0
97980,-133.333333333333,4,2,2,70,0,1
98167,-133.333333333333,4,2,2,5,0,1
98230,-133.333333333333,4,2,2,70,0,1
99980,-400,4,2,2,70,0,1
100355,-400,4,2,2,5,0,1
100480,-400,4,2,2,70,0,1
100855,-400,4,2,2,5,0,1
100980,-400,4,2,2,70,0,1
101980,-133.333333333333,4,2,2,70,0,1
102167,-133.333333333333,4,2,2,5,0,1
102230,-133.333333333333,4,2,2,70,0,1
103230,-50,4,2,2,70,0,1
103730,-50,4,2,2,70,0,1
103980,-100,4,2,2,70,0,1
104917,-100,4,2,2,5,0,1
104980,-33.3333333333333,4,2,2,70,0,1
105167,-33.3333333333333,4,2,2,5,0,1
105230,-33.3333333333333,4,2,2,70,0,1
105480,-43.4782608695652,4,2,2,70,0,1
105917,-43.4782608695652,4,2,2,5,0,1
105980,-43.4782608695652,4,2,2,70,0,1
106230,-25,4,2,2,70,0,1
106292,-25,4,2,2,70,0,1
106355,-25,4,2,2,70,0,1
106417,-25,4,2,2,70,0,1
106480,-25,4,2,2,70,0,1
106542,-25,4,2,2,70,0,1
106730,-25,4,2,2,70,0,1
106792,-25,4,2,2,70,0,1
106980,-75.187969924812,4,2,2,70,0,1
107167,-75.187969924812,4,2,2,5,0,1
107230,-75.187969924812,4,2,2,70,0,1
107480,-42.9184549356223,4,2,2,70,0,1
107730,-42.9184549356223,4,2,2,70,0,1
107917,-42.9184549356223,4,2,2,5,0,1
107980,-42.9184549356223,4,2,2,70,0,1
108230,-25,4,2,2,70,0,1
108292,-25,4,2,2,70,0,1
108355,-25,4,2,2,70,0,1
108417,-25,4,2,2,70,0,1
108480,-25,4,2,2,70,0,1
108542,-25,4,2,2,70,0,1
108730,-25,4,2,2,70,0,1
108792,-25,4,2,2,70,0,1
108980,-75.187969924812,4,2,5,70,0,1
109167,-75.187969924812,4,2,5,5,0,1
109230,-75.187969924812,4,2,2,70,0,1
109480,-42.9184549356223,4,2,2,70,0,1
109667,-43.4782608695652,4,2,2,70,0,1
109917,-43.4782608695652,4,2,2,5,0,1
109980,-43.4782608695652,4,2,2,70,0,1
110230,-25,4,2,2,70,0,1
110292,-25,4,2,2,70,0,1
110355,-25,4,2,2,70,0,1
110417,-25,4,2,2,70,0,1
110480,-25,4,2,2,70,0,1
110542,-25,4,2,2,70,0,1
110730,-25,4,2,2,70,0,1
110792,-25,4,2,2,70,0,1
110980,-75.187969924812,4,2,2,70,0,1
111167,-75.187969924812,4,2,2,5,0,1
111230,-75.187969924812,4,2,2,70,0,1
111917,-75.187969924812,4,2,2,5,0,1
111980,-13,4,2,3,70,0,1
112978,-13,4,2,2,70,0,1
113480,-20,4,2,2,70,0,1
113521,-20,4,2,2,47,0,1
113896,-20,4,2,2,70,0,1
113980,-33.3333333333333,4,2,2,70,0,1
114167,-33.3333333333333,4,2,2,5,0,1
114230,-33.3333333333333,4,2,2,70,0,1
114980,-100,4,2,2,70,0,1
115355,-100,4,2,2,5,0,1
115480,-100,4,2,2,70,0,1
115980,-43.4782608695652,4,2,2,70,0,1
116730,-43.4782608695652,4,2,2,70,0,1
116980,-43.4782608695652,4,2,2,70,0,1
117042,-43.4782608695652,4,2,2,5,0,1
117230,-43.4782608695652,4,2,2,70,0,1
117292,-43.4782608695652,4,2,2,5,0,1
117480,-43.4782608695652,4,2,2,70,0,1
117542,-43.4782608695652,4,2,2,5,0,1
117730,-43.4782608695652,4,2,2,70,0,1
117792,-43.4782608695652,4,2,2,5,0,1
117980,-33.3333333333333,4,2,2,70,0,1
118167,-33.3333333333333,4,2,2,5,0,1
118230,-33.3333333333333,4,2,2,70,0,1
119355,-33.3333333333333,4,2,2,70,0,1
119480,-100,4,2,2,70,0,1
119980,-41.6666666666667,4,2,2,70,0,1
120167,-41.6666666666667,4,2,2,5,0,1
120230,-41.6666666666667,4,2,2,70,0,1
120980,-37.037037037037,4,2,2,70,0,1
121167,-41.6666666666667,4,2,2,5,0,1
121230,-41.6666666666667,4,2,2,70,0,1
121917,-41.6666666666667,4,2,2,5,0,1
121980,-35.7142857142857,4,2,2,70,0,1
122167,-35.7142857142857,4,2,2,5,0,1
122230,-22.2222222222222,4,2,2,70,0,1
122292,-22.2222222222222,4,2,2,70,0,1
122355,-22.2222222222222,4,2,2,70,0,1
122417,-22.2222222222222,4,2,2,70,0,1
122480,-22.2222222222222,4,2,2,70,0,1
122542,-22.2222222222222,4,2,2,70,0,1
122730,-22.2222222222222,4,2,2,70,0,1
122792,-22.2222222222222,4,2,2,70,0,1
122980,-66.6666666666667,4,2,2,70,0,1
123167,-59.8802395209581,4,2,2,5,0,1
123230,-59.8802395209581,4,2,2,70,0,1
123730,-43.4782608695652,4,2,2,70,0,1
123917,-43.4782608695652,4,2,2,5,0,1
123980,-22.2222222222222,4,2,2,70,0,1
124167,-25,4,2,2,5,0,1
124230,-22.2222222222222,4,2,2,70,0,1
124292,-22.2222222222222,4,2,2,70,0,1
124355,-22.2222222222222,4,2,2,70,0,1
124417,-22.2222222222222,4,2,2,70,0,1
124480,-22.2222222222222,4,2,2,70,0,1
124542,-22.2222222222222,4,2,2,70,0,1
124730,-22.2222222222222,4,2,2,70,0,1
124792,-22.2222222222222,4,2,2,70,0,1
124980,-66.6666666666667,4,2,5,70,0,1
125167,-59.8802395209581,4,2,5,5,0,1
125230,-59.8802395209581,4,2,2,70,0,1
125480,-43.4782608695652,4,2,2,70,0,1
125917,-43.4782608695652,4,2,2,5,0,1
125980,-43.4782608695652,4,2,2,70,0,1
126167,-43.4782608695652,4,2,2,5,0,1
126230,-43.4782608695652,4,2,2,70,0,1
126980,-40,4,2,2,70,0,1
127167,-40,4,2,2,5,0,1
127230,-40,4,2,2,70,0,1
127730,-100,4,2,2,70,0,1
127917,-100,4,2,2,5,0,1
127980,-14.3014301430143,4,2,3,70,0,1
128980,-14.3014301430143,4,2,2,70,0,1
129417,-14.3014301430143,4,2,2,5,0,1
129480,-14.3014301430143,4,2,2,70,0,1
129521,-14.3014301430143,4,2,2,31,0,1
129980,-14.3014301430143,4,2,1,60,0,0
130042,-14.3014301430143,4,2,1,5,0,0
130479,-14.3014301430143,4,2,1,60,0,0
133728,-14.3014301430143,4,2,1,10,0,0
133853,-14.3014301430143,4,2,1,15,0,0
133980,-14.3014301430143,4,2,1,50,0,0
135480,-14.3014301430143,4,2,1,40,0,0
135980,-14.3014301430143,4,2,1,30,0,0
136228,-14.3014301430143,4,2,1,20,0,0
167980,-1000,4,2,1,40,0,0
168980,-1000,4,2,1,50,0,0
169480,-1000,4,2,1,65,0,0
169917,-1000,4,2,1,5,0,0
169980,-33.3333333333333,4,2,1,80,0,0
170478,-33.3333333333333,4,2,2,80,0,0
171730,-66.6666666666667,4,2,2,80,0,0
172230,-33.3333333333333,4,2,2,80,0,0
173730,-66.6666666666667,4,2,2,80,0,0
174230,-33.3333333333333,4,2,2,80,0,0
175730,-66.6666666666667,4,2,2,80,0,0
175792,-33.3333333333333,4,2,2,80,0,0
178980,-66.6666666666667,4,2,2,80,0,0
179480,-66.6666666666667,4,2,2,80,0,0
179980,-33.3333333333333,4,2,2,80,0,0
181980,-66.6666666666667,4,2,2,80,0,0
183980,-33.3333333333333,4,2,2,80,0,0
184728,-33.3333333333333,4,2,1,80,0,0
184980,-29.4117647058824,4,2,1,80,0,0
185917,-29.4117647058824,4,2,1,5,0,0
185980,-100,4,2,1,70,0,0
187478,-100,4,2,1,60,0,0
188355,-100,4,2,1,5,0,0
188480,-100,4,2,1,60,0,0
189917,-100,4,2,1,5,0,0
189980,-25,4,2,2,90,0,1
190355,-25,4,2,2,90,0,1
190980,-25,4,2,2,90,0,1
191011,-25,4,2,2,5,0,1
191480,-45.4545454545455,4,2,2,90,0,1
191980,-37.037037037037,4,2,2,90,0,1
192167,-37.037037037037,4,2,2,5,0,1
192230,-37.037037037037,4,2,2,90,0,1
192480,-58.8235294117647,4,2,2,90,0,1
192980,-37.037037037037,4,2,2,90,0,1
193167,-37.037037037037,4,2,2,5,0,1
193230,-37.037037037037,4,2,2,90,0,1
193917,-37.037037037037,4,2,2,5,0,1
193980,-37.037037037037,4,2,2,90,0,1
194230,-16.6666666666667,4,2,2,90,0,1
194292,-16.6666666666667,4,2,2,70,0,1
194355,-16.6666666666667,4,2,2,90,0,1
194417,-16.6666666666667,4,2,2,70,0,1
194480,-14.3014301430143,4,2,2,90,0,1
194542,-14.3014301430143,4,2,2,70,0,1
194730,-14.3014301430143,4,2,2,90,0,1
194792,-14.3014301430143,4,2,2,70,0,1
194980,-42.9184549356223,4,2,2,90,0,1
195167,-42.9184549356223,4,2,2,5,0,1
195230,-42.9184549356223,4,2,2,90,0,1
195980,-36.6300366300366,4,2,2,90,0,1
196167,-36.6300366300366,4,2,2,5,0,1
196230,-33.3333333333333,4,2,2,90,0,1
196980,-25,4,2,5,90,0,1
197063,-25,4,2,5,5,0,1
197146,-25,4,2,3,90,0,1
197229,-25,4,2,2,90,0,1
197313,-25,4,2,3,90,0,1
197396,-25,4,2,2,5,0,1
197480,-27.027027027027,4,2,2,90,0,1
197646,-25,4,2,2,90,0,1
197667,-25,4,2,2,5,0,1
197730,-25,4,2,2,90,0,1
197980,-25,4,2,2,90,0,1
199730,-75.187969924812,4,2,2,90,0,1
199917,-75.187969924812,4,2,2,5,0,1
199980,-14.2857142857143,4,2,3,90,0,1
200042,-14.2857142857143,4,2,3,5,0,1
200355,-14.2857142857143,4,2,3,90,0,1
200417,-14.2857142857143,4,2,3,5,0,1
200730,-14.2857142857143,4,2,3,90,0,1
200792,-14.2857142857143,4,2,3,5,0,1
200853,-14.2857142857143,4,2,1,90,0,1
200980,-14.2857142857143,4,2,1,90,0,1
201042,-14.2857142857143,4,2,1,5,0,1
201355,-14.2857142857143,4,2,1,90,0,1
201417,-14.2857142857143,4,2,1,5,0,1
201730,-30.9597523219814,4,2,1,90,0,1
201917,-30.9597523219814,4,2,1,5,0,1
201980,-25.4452926208651,4,2,2,90,0,1
202355,-34.1296928327645,4,2,2,90,0,1
202980,-62.5,4,2,2,90,0,1
203355,-30.9597523219814,4,2,2,90,0,1
203480,-42.9184549356223,4,2,2,90,0,1
203980,-30.9597523219814,4,2,2,90,0,1
204167,-30.9597523219814,4,2,2,5,0,1
204230,-30.9597523219814,4,2,2,90,0,1
204480,-50,4,2,2,90,0,1
204855,-58.8235294117647,4,2,2,90,0,1
204980,-28.9855072463768,4,2,2,90,0,1
205063,-28.9855072463768,4,2,2,5,0,1
205146,-28.9855072463768,4,2,3,90,0,1
205229,-28.9855072463768,4,2,3,90,0,1
205313,-28.9855072463768,4,2,3,90,0,1
205396,-28.9855072463768,4,2,3,5,0,1
205480,-28.9855072463768,4,2,2,90,0,1
205980,-25,4,2,2,90,0,1
206730,-30.9597523219814,4,2,2,90,0,1
206980,-38.0228136882129,4,2,2,90,0,1
207355,-38.0228136882129,4,2,2,90,0,1
207480,-33.3333333333333,4,2,2,90,0,1
207980,-33.3333333333333,4,2,2,90,0,1
208167,-33.3333333333333,4,2,2,5,0,1
208230,-30.3030303030303,4,2,2,90,0,1
209011,-30.3030303030303,4,2,2,5,0,1
209042,-30.3030303030303,4,2,2,90,0,1
209480,-35.7142857142857,4,2,2,90,0,1
209730,-35.7142857142857,4,2,2,90,0,1
209917,-35.7142857142857,4,2,2,5,0,1
209980,-27.027027027027,4,2,2,90,0,1
210167,-27.027027027027,4,2,2,5,0,1
210230,-20,4,2,2,90,0,1
210292,-20,4,2,2,70,0,1
210355,-20,4,2,2,90,0,1
210417,-20,4,2,2,70,0,1
210480,-20,4,2,2,90,0,1
210542,-20,4,2,2,70,0,1
210730,-20,4,2,2,90,0,1
210792,-20,4,2,2,70,0,1
210980,-25,4,2,2,90,0,1
211167,-25,4,2,2,5,0,1
211230,-25,4,2,2,90,0,1
212167,-25,4,2,2,5,0,1
212230,-20,4,2,2,90,0,1
212292,-20,4,2,2,70,0,1
212355,-20,4,2,2,90,0,1
212417,-20,4,2,2,70,0,1
212480,-20,4,2,2,90,0,1
212542,-20,4,2,2,70,0,1
212730,-20,4,2,2,90,0,1
212792,-20,4,2,2,70,0,1
212980,-20,4,2,5,90,0,1
213063,-20,4,2,5,5,0,1
213146,-20,4,2,5,90,0,1
213229,-20,4,2,5,90,0,1
213313,-20,4,2,5,90,0,1
213417,-20,4,2,2,90,0,1
213730,-37.037037037037,4,2,2,90,0,1
213917,-37.037037037037,4,2,2,5,0,1
213980,-20,4,2,2,90,0,1
214167,-20,4,2,2,5,0,1
214230,-20,4,2,2,90,0,1
214980,-36.101083032491,4,2,2,90,0,1
215167,-36.101083032491,4,2,2,5,0,1
215230,-36.101083032491,4,2,2,90,0,1
215980,-25,4,2,3,90,0,1
216730,-20,4,2,3,90,0,1
216980,-333.333333333333,4,2,2,90,0,1
217417,-333.333333333333,4,2,2,5,0,1
217480,-333.333333333333,4,2,2,90,0,1
217980,-33.3333333333333,4,2,2,85,0,0
218855,-33.3333333333333,4,2,2,5,0,0
218980,-33.3333333333333,4,2,2,85,0,0
219480,-38.4615384615385,4,2,2,85,0,0
219980,-33.3333333333333,4,2,2,85,0,0
220230,-33.3333333333333,4,2,2,85,0,0
220480,-18.8679245283019,4,2,2,85,0,0
220542,-33.3333333333333,4,2,2,85,0,0
221480,-28.169014084507,4,2,2,85,0,0
221728,-28.169014084507,4,2,1,10,0,0
221853,-28.169014084507,4,2,1,15,0,0
221917,-28.169014084507,4,2,1,15,0,0
221980,-28.169014084507,4,2,2,85,0,0
222480,-22.2222222222222,4,2,2,85,0,0
222667,-33.3333333333333,4,2,2,85,0,0
223480,-38.4615384615385,4,2,2,85,0,0
223980,-38.4615384615385,4,2,2,85,0,0
224230,-38.4615384615385,4,2,2,85,0,0
224480,-18.8679245283019,4,2,2,85,0,0
224980,-45.4545454545455,4,2,2,85,0,0
225480,-16.1290322580645,4,2,2,85,0,0
225980,-50,4,2,2,85,0,0
226292,-50,4,2,2,5,0,0
226355,-50,4,2,2,85,0,0
226417,-50,4,2,2,5,0,0
226480,-22.2222222222222,4,2,2,85,0,0
226667,-33.3333333333333,4,2,2,85,0,0
227480,-38.4615384615385,4,2,2,85,0,0
227980,-38.4615384615385,4,2,2,85,0,0
228230,-38.4615384615385,4,2,2,85,0,0
228292,-38.4615384615385,4,2,2,5,0,0
228355,-38.4615384615385,4,2,2,85,0,0
228417,-38.4615384615385,4,2,2,5,0,0
228480,-18.8679245283019,4,2,2,85,0,0
228980,-33.3333333333333,4,2,5,85,0,0
229228,-33.3333333333333,4,2,2,85,0,0
229480,-16.1290322580645,4,2,2,85,0,0
229980,-28.169014084507,4,2,2,85,0,0
230230,-50,4,2,2,85,0,0
230292,-50,4,2,2,5,0,0
230355,-50,4,2,2,85,0,0
230417,-50,4,2,2,5,0,0
230480,-22.2222222222222,4,2,2,85,0,0
230667,-33.3333333333333,4,2,2,85,0,0
231480,-28.4900284900285,4,2,2,85,0,0
231917,-33.003300330033,4,2,2,5,0,0
231980,-18.8679245283019,4,2,3,85,0,0
232978,-18.8679245283019,4,2,2,85,0,0
233480,-333.333333333333,4,2,2,44,0,0
233979,-333.333333333333,4,2,2,20,0,0

[Colours]
Combo1 : 168,168,255
Combo2 : 133,254,197
Combo3 : 120,201,254
Combo4 : 255,160,66

[HitObjects]
32,126,7480,6,0,P|93:136|145:166,1,122.5,4|0,0:0|0:0,0:0:0:0:
156,180,7979,1,2,1:2:0:0:
186,142,8105,1,2,0:0:0:0:
162,68,8230,1,2,3:2:0:0:
236,214,8480,1,2,3:2:0:0:
291,193,8605,1,2,0:0:0:0:
313,107,8730,1,2,1:2:0:0:
280,284,8980,1,10,0:0:0:0:
322,291,9105,1,2,0:0:0:0:
396,233,9230,1,2,0:0:0:0:
231,358,9480,1,2,0:0:0:0:
231,358,9605,1,2,0:0:0:0:
231,358,9730,1,2,0:0:0:0:
231,358,9980,6,0,P|188:337|138:337,1,70,2|2,0:0|0:0,0:0:0:0:
100,375,10230,2,0,B|115:308|115:308|114:305|114:305|133:212,2,140,2|2|2,1:2|0:0|1:2,0:0:0:0:
10,25,10980,1,10,0:0:0:0:
10,25,11980,5,2,1:2:0:0:
81,52,12105,1,2,0:0:0:0:
0,51,12230,1,2,3:2:0:0:
176,4,12480,1,2,3:2:0:0:
217,70,12605,1,2,0:0:0:0:
165,3,12730,1,2,1:2:0:0:
10,25,12980,5,10,0:0:0:0:
13,38,13105,1,2,0:0:0:0:
17,51,13230,1,2,0:0:0:0:
305,159,13480,1,2,0:0:0:0:
310,131,13605,1,2,0:0:0:0:
315,103,13730,1,2,0:0:0:0:
113,303,13980,6,0,P|88:278|123:231,1,70,2|2,0:0|0:0,0:0:0:0:
146,186,14230,2,0,B|78:204|78:204|77:206|77:206|-17:230,2,140,2|2|2,1:2|0:0|1:2,0:0:0:0:
512,309,14980,6,0,B|497:328|499:350|499:350|420:333|420:333|418:335|418:335|320:316,1,210,10|0,0:0|0:0,0:0:0:0:
262,305,15480,6,0,L|251:359,1,35,2|0,0:0|0:0,0:0:0:0:
185,291,15730,2,0,L|174:345,1,35,2|0,0:0|0:0,0:0:0:0:
97,86,15980,5,2,1:2:0:0:
97,86,16230,1,0,3:0:0:0:
168,38,16355,1,0,3:0:0:0:
245,74,16480,1,2,3:2:0:0:
369,227,16730,1,0,1:0:0:0:
440,44,16980,1,8,0:0:0:0:
440,44,17480,1,0,0:0:0:0:
56,323,17980,6,0,P|129:338|160:379,1,105,2|0,0:0|0:0,0:0:0:0:
160,373,18230,2,0,P|142:317|161:244,1,105,2|0,1:2|0:0,0:0:0:0:
131,187,18480,2,0,B|93:188|70:157|70:157|89:191|72:226,1,140.175004865999,2|0,0:0|0:0,0:0:0:0:
147,272,18730,2,0,B|229:280|229:280|229:281|229:281|319:290,2,161.000003070831,2|10|2,1:2|0:0|0:0,0:0:0:0:
12,24,19480,1,2,0:0:0:0:
88,59,19730,1,2,0:0:0:0:
19,115,19980,5,2,1:2:0:0:
19,115,20230,1,0,3:0:0:0:
50,194,20355,1,0,3:0:0:0:
133,206,20480,1,2,3:2:0:0:
265,57,20730,1,0,1:0:0:0:
460,96,20980,1,8,0:0:0:0:
460,96,21480,1,0,0:0:0:0:
246,346,22230,6,0,L|206:339,1,36.749998878479,4|0,1:3|0:0,0:0:0:0:
118,316,22480,6,0,P|223:303|327:296,1,210,4|0,1:3|0:0,0:0:0:0:
370,198,22730,2,0,P|265:211|160:217,1,210,4|0,1:3|0:0,0:0:0:0:
407,358,22980,2,0,B|242:271|331:28|422:34|543:62|531:134|497:272|402:240,1,560,8|0,1:2|0:0,0:0:0:0:
55,36,23980,5,6,1:2:0:0:
126,55,24105,1,2,0:0:0:0:
46,55,24230,1,2,3:2:0:0:
216,5,24480,1,2,3:2:0:0:
294,40,24605,1,2,0:0:0:0:
201,12,24730,1,2,1:2:0:0:
389,7,24980,1,10,0:0:0:0:
435,119,25105,1,2,0:0:0:0:
376,41,25230,1,2,0:0:0:0:
510,155,25480,1,2,0:0:0:0:
470,255,25605,1,2,0:0:0:0:
491,176,25730,1,2,0:0:0:0:
512,364,25980,5,2,0:0:0:0:
512,364,26105,1,2,0:0:0:0:
512,364,26230,1,2,1:2:0:0:
512,364,26480,6,0,L|428:350,1,70,2|0,0:0|0:0,0:0:0:0:
372,281,26730,2,0,L|244:301,1,105,2|0,1:2|0:0,0:0:0:0:
215,349,26980,2,0,B|251:311|257:250|212:203|135:216|135:216|158:242|158:298,1,280,10|0,0:0|0:0,0:0:0:0:
396,82,27980,6,0,L|410:176,1,70,2|2,0:0|0:0,0:0:0:0:
392,66,28230,1,2,3:2:0:0:
496,211,28480,1,2,3:2:0:0:
392,238,28605,1,2,0:0:0:0:
488,222,28730,1,2,1:2:0:0:
368,329,28980,1,10,0:0:0:0:
250,295,29105,1,2,0:0:0:0:
352,354,29230,1,2,0:0:0:0:
135,219,29480,1,2,0:0:0:0:
177,360,29605,1,2,0:0:0:0:
115,243,29730,1,2,0:0:0:0:
0,361,29980,6,0,P|69:356|103:313,1,105,2|0,0:0|0:0,0:0:0:0:
103,330,30230,2,0,P|73:270|84:202,1,105,2|0,1:2|0:0,0:0:0:0:
20,177,30480,2,0,P|35:118|26:27,2,140,2|2|10,0:0|1:2|0:0,0:0:0:0:
353,358,31480,6,0,L|311:352,1,35,2|0,0:0|0:0,0:0:0:0:
246,337,31730,2,0,L|204:331,1,35,2|0,0:0|0:0,0:0:0:0:
138,316,31980,6,0,P|213:303|272:234,1,140,2|0,1:2|3:0,0:0:0:0:
341,245,32355,1,0,3:0:0:0:
373,168,32480,1,2,3:2:0:0:
132,84,32730,1,0,1:0:0:0:
48,325,32980,1,8,0:0:0:0:
48,325,33480,1,0,0:0:0:0:
505,187,33980,6,0,P|465:161|393:154,1,105,2|0,0:0|0:0,0:0:0:0:
342,101,34230,2,0,B|319:64|342:20|386:25|386:25|377:37|376:61,1,131.25,2|0,1:2|0:0,0:0:0:0:
303,176,34480,2,0,P|272:192|302:174,1,105,2|0,3:2|0:0,0:0:0:0:
300,172,34730,2,0,B|226:179|226:179|225:180|225:180|133:187,2,154.000004699707,2|10|2,1:2|0:2|0:0,0:0:0:0:
490,353,35480,1,2,0:0:0:0:
406,329,35730,1,2,0:0:0:0:
322,305,35980,5,2,1:2:0:0:
322,305,36230,1,0,3:0:0:0:
220,348,36355,1,0,3:0:0:0:
131,281,36480,1,2,3:2:0:0:
215,47,36730,1,0,1:0:0:0:
431,168,36980,1,8,0:0:0:0:
431,168,37480,1,0,0:0:0:0:
88,307,38230,6,0,P|76:273|97:305,1,105,4|0,1:3|0:0,0:0:0:0:
159,371,38480,6,0,P|136:268|112:166,1,210,2|0,0:0|0:0,0:0:0:0:
198,119,38730,2,0,B|168:83|189:20|189:20|141:78|89:63,1,210,4|0,1:3|0:3,0:3:0:0:
234,231,38980,6,0,B|364:291|458:240|574:91|471:-17|348:-19|294:86|376:193,1,560,8|0,0:0|0:0,0:0:0:0:
0,235,39980,6,0,P|67:221|102:287,1,140.000005340576,4|2,1:0|0:0,0:0:0:0:
72,353,40480,2,0,P|139:367|174:301,1,140.000005340576,2|2,0:0|0:0,0:0:0:0:
243,261,40980,6,0,L|345:281,1,105.000004005432,2|8,0:0|0:0,0:0:0:0:
489,34,41813,1,2,0:0:0:0:
424,83,41980,6,0,L|286:109,1,140.000005340576,2|2,0:0|0:0,0:0:0:0:
194,0,42480,1,2,0:0:0:0:
271,26,42646,1,2,0:0:0:0:
209,79,42813,1,2,0:0:0:0:
225,35,42980,6,0,L|87:9,1,140.000005340576,10|0,0:0|0:0,0:0:0:0:
24,76,43480,2,0,L|34:126,10,35.0000013351441,8|0|0|0|0|0|4|0|0|4|0,0:0|0:0|0:0|0:0|0:0|0:0|0:3|0:0|0:0|0:3|0:0,0:0:0:0:
93,178,43980,6,0,P|145:176|197:256,1,140.000005340576,2|2,0:0|0:0,0:0:0:0:
202,332,44480,2,0,P|254:334|306:254,1,140.000005340576,2|2,0:0|0:0,0:0:0:0:
375,217,44980,2,0,B|398:197|434:207|440:231|440:231|410:217|359:230,1,140.000005340576,2|0,0:0|0:0,0:0:0:0:
298,175,45480,2,0,L|279:133,10,35.0000013351441,8|0|0|0|0|0|0|0|2|0|0,0:0|0:0|0:0|0:0|0:0|0:0|0:0|0:0|0:0|0:0|0:0,0:0:0:0:
416,382,45980,6,0,P|347:351|259:351,1,140.000005340576,2|2,0:0|0:0,0:0:0:0:
200,378,46480,1,2,0:0:0:0:
55,326,46646,1,2,0:0:0:0:
27,174,46813,1,2,0:0:0:0:
109,200,46980,5,2,0:0:0:0:
109,200,47480,2,0,P|141:185|154:154,1,64.166668624878,2|0,0:0|0:0,0:0:0:0:
211,227,47980,6,0,B|177:182|183:99|248:74|304:96|304:96|285:130|285:179,1,280,4|0,1:0|3:0,0:0:0:0:
382,226,48355,1,0,3:0:0:0:
278,163,48480,1,0,3:0:0:0:
512,93,48730,1,0,1:0:0:0:
88,32,48980,1,8,0:0:0:0:
88,32,49480,6,0,P|74:59|75:90,1,52.5000020027161,2|0,0:0|0:0,0:0:0:0:
145,106,49730,2,0,P|159:79|158:48,1,52.5000020027161,2|0,0:0|0:0,0:0:0:0:
88,159,49980,6,0,P|188:185|291:212,1,210,2|0,0:0|0:0,0:0:0:0:
498,21,50480,2,0,L|294:72,1,210,2|0,0:0|0:0,0:0:0:0:
475,213,50980,6,0,L|487:153,1,52.5000020027161,10|2,0:0|0:0,0:0:0:0:
393,197,51480,2,0,L|404:145,1,52.5000020027161,2|2,0:0|0:0,0:0:0:0:
241,5,51855,5,0,0:0:0:0:
241,5,51980,2,0,B|180:33|147:119|206:211|307:164|299:97|251:66,1,280,2|0,1:2|3:0,0:0:0:0:
386,12,52355,1,0,3:0:0:0:
263,76,52480,1,0,3:0:0:0:
493,233,52730,1,0,1:0:0:0:
21,142,52980,1,8,0:0:0:0:
87,80,53230,5,0,0:0:0:0:
87,80,53355,1,0,0:0:0:0:
87,80,53480,2,0,P|74:47|77:17,1,52.5000020027161,2|0,0:0|0:0,0:0:0:0:
149,10,53730,2,0,P|162:43|159:73,1,52.5000020027161,2|0,0:0|0:0,0:0:0:0:
16,248,53980,6,0,P|69:251|152:303,1,140,2|0,0:0|1:0,0:0:0:0:
203,359,54355,1,0,0:0:0:0:
352,211,54480,1,2,0:0:0:0:
496,368,54730,1,0,1:0:0:0:
502,29,54980,6,0,L|454:42,1,39.3750015020371,12|0,0:0|0:0,0:0:0:0:
457,52,55230,1,2,1:2:0:0:
224,88,55355,1,2,0:0:0:0:
278,30,55480,6,0,P|329:41|383:48,1,105,2|0,0:0|0:0,0:0:0:0:
352,211,55730,2,0,P|300:199|247:193,1,105,2|0,0:0|0:0,0:0:0:0:
87,37,55980,6,0,B|110:172|110:172|112:175|112:175|136:321,1,262.5,2|0,1:2|0:0,0:0:0:0:
116,307,56230,2,0,P|86:310|60:247,1,87.5,2|0,3:1|0:0,0:0:0:0:
184,371,56355,2,0,P|216:325|274:349,1,87.5,2|0,3:1|0:0,0:0:0:0:
315,279,56480,2,0,B|357:289|357:289|358:290|358:290|412:303,1,87.5,2|0,3:1|0:0,0:0:0:0:
315,279,56730,2,0,B|357:289|357:289|358:290|358:290|412:303,1,87.5,2|0,1:0|0:0,0:0:0:0:
315,279,56980,6,0,P|426:243|436:158,1,210,10|0,0:0|0:0,0:0:0:0:
494,99,57230,1,2,0:0:0:0:
494,99,57355,1,0,0:0:0:0:
494,99,57480,6,0,P|475:62|429:65,1,70,2|2,0:0|0:0,0:0:0:0:
391,0,57730,2,0,P|358:17|346:62,1,70,2|0,0:0|0:0,0:0:0:0:
278,104,57980,6,0,L|226:113,1,52.5,2|0,0:0|0:0,0:0:0:0:
215,122,58230,2,0,P|178:93|204:37,1,87.5,2|0,1:0|0:0,0:0:0:0:
161,196,58355,2,0,B|122:205|122:205|121:207|121:207|76:218,1,87.5,2|0,1:0|0:0,0:0:0:0:
192,325,58480,2,0,P|224:296|214:241,1,87.5,2|0,1:0|0:0,0:0:0:0:
192,325,58730,2,0,P|224:296|214:241,1,87.5,2|0,1:0|0:0,0:0:0:0:
192,325,58980,6,0,P|224:296|407:281,1,210,14|0,0:0|0:0,0:0:0:0:
457,334,59230,1,2,0:0:0:0:
457,334,59355,1,2,0:0:0:0:
457,334,59480,6,0,L|477:248,1,70,2|2,0:0|0:0,0:0:0:0:
291,188,59730,2,0,L|270:99,1,78.7500030040742,2|0,0:0|0:0,0:0:0:0:
319,53,59980,6,0,B|366:0|460:12|469:80|469:80|440:109|447:152,1,262.5,2|0,1:2|0:0,0:0:0:0:
443,164,60230,2,0,P|411:135|368:137,1,87.5,2|0,3:1|0:0,0:0:0:0:
307,202,60355,2,0,P|275:230|232:228,1,87.5,2|0,3:1|0:0,0:0:0:0:
164,176,60480,2,0,B|121:183|121:183|120:184|120:184|74:191,1,87.5,2|0,3:1|0:0,0:0:0:0:
164,176,60730,2,0,B|121:183|121:183|120:184|120:184|74:191,1,87.5,2|0,1:0|0:0,0:0:0:0:
164,176,60980,6,0,B|101:229|13:190|25:94|100:98|116:130,1,225.750003444672,10|0,0:0|0:0,0:0:0:0:
180,80,61230,1,2,0:0:0:0:
180,80,61355,1,2,0:0:0:0:
180,80,61480,6,0,L|263:100,1,70,2|2,0:0|0:0,0:0:0:0:
512,253,61730,2,0,P|466:259|407:308,1,105,2|0,0:0|0:0,0:0:0:0:
367,356,61980,6,0,B|427:95|427:95|503:0,1,350,10|0,1:2|0:0,0:0:0:0:
293,312,62355,2,0,B|228:141|228:141|343:100|343:100|328:170,1,350,10|0,1:2|0:0,0:0:0:0:
223,362,62730,2,0,B|155:338|155:338|198:304|198:304|220:355,1,175,10|0,1:2|0:0,0:0:0:0:
61,370,62980,6,0,B|37:341|37:341|43:316|43:316|169:216|169:216|136:132|136:132|137:128|137:128|100:46|100:46|46:86|46:86|45:90|45:90|-8:128|-8:128|26:217,1,612.5,12|0,0:0|0:0,0:0:0:0:
28,205,63480,2,0,P|57:186|50:145,10,58.3333333333333,4|4|4|4|4|4|4|4|4|4|4,0:3|0:3|0:3|0:3|0:3|0:3|0:3|0:3|0:3|0:3|0:3,0:0:0:0:
16,190,63980,6,0,P|246:229|423:259,1,402.5,2|0,0:0|0:0,0:0:0:0:
426,262,65480,6,0,L|421:218,1,35,2|0,0:0|0:0,0:0:0:0:
498,217,65730,2,0,L|503:261,1,35,2|0,0:0|0:0,0:0:0:0:
479,366,65980,5,2,1:2:0:0:
401,341,66105,1,2,0:0:0:0:
288,352,66230,1,2,3:2:0:0:
319,198,66480,1,2,3:2:0:0:
222,222,66605,1,2,0:0:0:0:
329,218,66730,1,2,1:2:0:0:
125,347,66980,1,10,0:0:0:0:
72,272,67105,1,2,0:0:0:0:
138,156,67230,1,2,0:0:0:0:
16,8,67480,1,2,0:0:0:0:
0,140,67605,1,2,0:0:0:0:
34,0,67730,1,2,0:0:0:0:
222,217,67980,5,2,0:0:0:0:
222,217,68105,1,2,0:0:0:0:
222,217,68230,2,0,P|255:206|270:168,1,70,2|0,1:2|0:0,0:0:0:0:
275,40,68480,2,0,P|268:74|293:106,1,70,2|0,0:0|0:0,0:0:0:0:
401,174,68730,2,0,P|374:150|334:156,1,70,2|0,1:2|0:0,0:0:0:0:
298,147,68980,5,10,0:0:0:0:
298,147,69480,1,0,0:0:0:0:
1,17,69980,5,2,0:0:0:0:
85,85,70105,1,2,0:0:0:0:
193,13,70230,1,2,3:2:0:0:
145,217,70480,1,2,3:2:0:0:
37,194,70605,1,2,0:0:0:0:
218,160,70730,1,2,1:2:0:0:
241,363,70980,1,10,0:0:0:0:
59,310,71105,1,2,0:0:0:0:
168,300,71230,1,2,0:0:0:0:
358,172,71480,1,2,0:0:0:0:
395,297,71605,1,2,0:0:0:0:
286,241,71730,1,2,0:0:0:0:
510,76,71980,5,2,0:0:0:0:
510,76,72105,1,2,0:0:0:0:
510,76,72230,2,0,P|474:72|448:14,1,70,2|0,1:2|0:0,0:0:0:0:
386,8,72480,2,0,B|318:26|318:26|317:28|317:28|223:52,2,140,2|2|10,0:0|1:2|0:0,0:0:0:0:
153,342,73480,6,0,L|109:334,1,35,2|0,3:2|0:0,0:0:0:0:
44,317,73730,2,0,L|0:309,1,35,2|0,0:0|0:0,0:0:0:0:
238,359,73980,6,0,B|260:300|329:286|362:304|362:304|334:318|330:342,1,189.000000720978,2|0,1:2|3:0,0:0:0:0:
402,380,74355,1,0,3:0:0:0:
473,333,74480,1,2,3:2:0:0:
370,128,74730,1,0,1:0:0:0:
147,181,74980,1,8,0:0:0:0:
147,181,75480,1,0,0:0:0:0:
2,362,75980,6,0,P|52:367|90:332,1,105,2|0,0:0|0:0,0:0:0:0:
154,289,76230,2,0,P|204:283|242:318,1,105,2|0,1:2|0:0,0:0:0:0:
290,372,76480,6,0,B|278:307|278:307|279:305|279:305|263:217,2,140,2|2|10,0:0|1:2|0:0,0:0:0:0:
312,167,77230,2,0,P|324:133|304:164,1,105,2|0,0:0|0:0,0:0:0:0:
267,235,77480,6,0,L|163:216,1,105,2|0,0:0|0:0,0:0:0:0:
101,163,77730,2,0,B|86:138|91:96|126:89|126:89|112:111|119:134,1,131.25,2|0,0:0|0:0,0:0:0:0:
162,346,77980,5,2,1:2:0:0:
162,346,78230,1,0,3:0:0:0:
64,359,78355,1,0,3:0:0:0:
2,280,78480,1,2,3:2:0:0:
391,370,78730,1,0,1:0:0:0:
391,369,78980,6,0,P|411:347|405:297,1,83.9999974365235,8|0,0:0|0:0,0:0:0:0:
451,226,79480,2,0,P|491:236|510:274,2,83.9999974365235
103,365,80230,6,0,L|110:334,1,26.25,4|0,1:3|0:0,0:0:0:0:
0,324,80480,6,0,P|103:307|207:291,1,210,4|0,1:3|0:0,0:0:0:0:
310,203,80730,2,0,B|308:176|278:140|237:140|237:140|286:167|284:228,1,210,4|0,1:3|0:0,0:0:0:0:
373,384,80980,6,0,B|266:247|375:86|434:100|515:119|548:157|500:283|463:234,1,490,8|0,1:2|0:0,0:0:0:0:
473,254,81480,6,0,P|443:236|408:244,1,67.3750020561219
337,300,81980,6,0,L|321:346,1,44.624999404192,2|0,1:2|0:0,0:0:0:0:
261,220,82105,1,2,0:0:0:0:
160,330,82230,1,2,3:2:0:0:
20,187,82480,2,0,L|80:203,1,44.624999404192,2|0,3:2|0:0,0:0:0:0:
160,152,82605,1,2,0:0:0:0:
0,70,82730,1,2,1:2:0:0:
229,9,82980,2,0,L|245:81,1,44.624999404192,10|0,0:0|0:0,0:0:0:0:
160,152,83105,1,2,0:0:0:0:
226,0,83230,1,2,0:0:0:0:
432,134,83480,2,0,L|384:119,1,44.624999404192,2|0,0:0|0:0,0:0:0:0:
291,157,83605,1,2,0:0:0:0:
448,32,83730,1,2,0:0:0:0:
507,258,83980,6,0,B|495:274|494:290|494:290|341:263,1,178.499997616768,2|0,0:0|1:0,0:0:0:0:
322,338,84355,1,0,0:0:0:0:
322,338,84480,2,0,P|303:338|275:279,1,89.249998808384,2|0,0:0|0:0,0:0:0:0:
202,251,84730,2,0,P|209:218|269:201,1,89.249998808384,2|0,1:2|0:0,0:0:0:0:
135,304,84980,6,0,L|53:293,1,77.0000023498536,10|0,0:0|3:0,0:0:0:0:
488,28,85730,1,2,0:0:0:0:
488,28,85980,6,0,L|470:77,1,41.1249993724823,2|0,0:0|0:0,0:0:0:0:
510,172,86105,1,2,0:0:0:0:
378,14,86230,1,2,3:2:0:0:
361,228,86480,2,0,L|342:177,1,41.1249993724823,2|0,3:2|0:0,0:0:0:0:
296,59,86605,1,2,0:0:0:0:
243,297,86730,1,2,1:2:0:0:
94,149,86980,2,0,L|141:168,1,41.1249993724823,10|0,0:0|0:0,0:0:0:0:
202,122,87105,2,0,L|155:135,1,41.1249993724823,2|0,0:0|0:0,0:0:0:0:
0,164,87230,1,2,0:0:0:0:
331,368,87480,6,0,P|365:346|360:301,1,82.2499987449646,2|0,0:0|0:0,0:0:0:0:
432,259,87730,2,0,P|400:213|326:212,1,123.374998117447,2|0,0:0|0:0,0:0:0:0:
322,216,87980,6,0,B|335:136|335:136|337:135|337:135|356:21,1,164.499997489929,2|0,0:0|1:0,0:0:0:0:
415,116,88355,1,0,0:0:0:0:
415,116,88480,2,0,P|455:107|477:61,1,82.2499987449646,2|0,0:0|0:0,0:0:0:0:
274,15,88730,2,0,L|167:42,1,82.2499987449646,2|0,1:2|0:0,0:0:0:0:
14,78,88980,1,10,0:0:0:0:
14,78,89480,6,0,P|15:107|25:129,1,52.5000020027161,2|0,3:2|0:0,0:0:0:0:
98,112,89730,2,0,P|99:86|89:62,1,52.5000020027161,2|0,0:0|0:0,0:0:0:0:
76,250,89980,6,0,P|156:233|237:218,1,164.499997489929,2|0,1:2|3:0,0:0:0:0:
314,259,90355,1,0,3:0:0:0:
374,198,90480,2,0,P|374:160|311:140,1,82.2499987449646,2|0,3:2|0:0,0:0:0:0:
314,259,90730,2,0,L|299:346,1,82.2499987449646,0|0,1:0|0:0,0:0:0:0:
355,11,90980,5,8,0:0:0:0:
355,11,91980,2,0,P|305:24|221:48,1,120.750002303124,2|0,0:0|0:0,0:0:0:0:
195,120,92230,2,0,B|159:104|121:111|121:111|130:94|154:90|167:94,1,120.750002303124,2|0,1:2|0:0,0:0:0:0:
238,42,92480,6,0,L|274:217,2,161.000003070831,2|2|10,3:2|1:2|0:2,0:0:0:0:
218,268,93230,2,0,B|237:297|227:325|227:325|237:295|273:288,1,120.750002303124,2|0,0:0|0:0,0:0:0:0:
270,199,93480,2,0,B|194:222|194:222|193:223|193:223|98:251,1,161.000003070831,2|2,0:0|0:0,0:0:0:0:
354,359,93855,1,0,0:0:0:0:
354,359,93980,6,0,B|391:357|427:334|426:286|426:286|410:266|404:230,1,161.000003070831,2|0,0:0|3:0,0:0:0:0:
483,188,94355,1,0,3:0:0:0:
424,115,94480,1,2,3:2:0:0:
240,200,94730,1,0,1:0:0:0:
75,82,94980,6,0,L|84:51,1,33.25,8|0,0:0|0:0,0:0:0:0:
155,77,96230,6,0,L|181:63,1,26.25,4|0,1:3|0:0,0:0:0:0:
229,121,96480,6,0,B|352:99|352:99|355:100|355:100|497:74,2,245.000002336502,2|4|8,0:0|1:3|0:0,0:0:0:0:
254,193,97021,6,0,L|300:209,21,35.0000013351441
189,249,97980,6,0,L|199:293,1,39.3750015020371,4|0,1:0|0:0,0:0:0:0:
201,299,98230,1,0,3:0:0:0:
94,198,98355,1,0,3:0:0:0:
23,371,98480,1,0,3:0:0:0:
244,11,98730,1,0,1:0:0:0:
465,371,98980,1,8,0:0:0:0:
493,292,99230,5,0,0:0:0:0:
493,292,99355,1,0,0:0:0:0:
493,292,99480,2,0,L|479:252,1,26.2500010013581,2|0,3:2|0:0,0:0:0:0:
412,250,99730,2,0,L|398:210,1,26.2500010013581,8|0,0:3|0:0,0:0:0:0:
25,366,99980,6,0,L|39:326,1,26.2500010013581,2|0,0:0|0:0,0:0:0:0:
106,324,100480,2,0,L|120:284,1,26.2500010013581,8|0,0:3|0:0,0:0:0:0:
170,27,100980,6,0,L|173:39,1,8.75,10|0,0:0|0:0,0:0:0:0:
239,13,101230,2,0,L|242:25,1,8.75,2|0,0:0|0:0,0:0:0:0:
440,114,101480,6,0,L|443:102,1,8.75,2|0,0:0|0:0,0:0:0:0:
509,128,101730,2,0,L|512:116,1,8.75,2|0,0:0|0:0,0:0:0:0:
383,35,101980,6,0,L|344:41,1,39.3750015020371,2|0,1:2|0:0,0:0:0:0:
335,45,102230,1,0,3:0:0:0:
383,165,102355,1,0,3:0:0:0:
193,104,102480,1,0,3:0:0:0:
506,10,102730,1,0,1:0:0:0:
346,374,102980,1,8,0:0:0:0:
90,176,103230,6,0,P|106:167|91:185,1,70
9,202,103480,6,0,P|10:220|0:199,1,70,2|0,3:2|0:0,0:0:0:0:
26,118,103730,6,0,P|9:100|32:111,1,70,8|0,0:3|0:0,0:0:0:0:
198,348,103980,6,0,L|120:333,1,70,2|0,0:0|1:0,0:0:0:0:
45,315,104355,1,0,0:0:0:0:
197,158,104480,1,8,0:3:0:0:
197,158,104730,2,0,L|204:93,1,52.5,0|0,1:0|0:0,0:0:0:0:
273,52,104980,6,0,B|118:82,1,157.500006008148,12|0,0:0|0:0,0:0:0:0:
34,103,105230,1,2,1:2:0:0:
193,179,105355,1,2,0:0:0:0:
7,231,105480,2,0,P|34:239|61:300,1,80.5000015354157,2|0,0:0|0:0,0:0:0:0:
145,282,105730,2,0,P|156:328|100:390,1,120.750002303124,2|0,0:0|0:0,0:0:0:0:
113,193,105980,5,2,1:2:0:0:
113,193,106230,2,0,L|129:105,1,70,2|0,3:1|0:0,0:0:0:0:
201,159,106355,2,0,L|217:71,1,70,2|0,3:1|0:0,0:0:0:0:
289,125,106480,2,0,L|305:37,1,70,2|0,3:1|0:0,0:0:0:0:
301,56,106730,2,0,L|289:125,1,70,2|0,1:0|0:0,0:0:0:0:
289,125,106980,6,0,L|302:52,1,69.8249971232988,10|0,0:0|0:0,0:0:0:0:
303,42,107230,5,2,0:0:0:0:
396,193,107355,1,0,0:0:0:0:
499,85,107480,2,0,L|412:104,1,81.55000326643,2|2,0:0|0:0,0:0:0:0:
451,292,107730,2,0,P|484:266|472:177,1,122.325004899645,8|0,0:3|0:0,0:0:0:0:
313,357,107980,5,2,0:0:0:0:
313,357,108230,2,0,L|200:374,1,70,2|0,1:0|0:0,0:0:0:0:
204,288,108355,2,0,L|91:305,1,70,2|0,1:0|0:0,0:0:0:0:
95,219,108480,2,0,L|-18:236,1,70,2|0,1:0|0:0,0:0:0:0:
25,229,108730,2,0,L|95:219,1,70,2|0,1:0|0:0,0:0:0:0:
95,219,108980,6,0,L|17:231,1,69.8249971232988,14|0,0:0|0:0,0:0:0:0:
12,233,109230,5,2,0:0:0:0:
159,132,109355,1,2,0:0:0:0:
0,16,109480,2,0,P|40:24|71:59,1,81.55000326643,2|2,0:0|0:0,0:0:0:0:
26,229,109730,2,0,P|41:153|103:139,1,120.750002303124,2|0,0:0|0:0,0:0:0:0:
231,359,109980,5,2,1:2:0:0:
231,359,110230,2,0,L|219:279,1,70,2|0,3:1|0:0,0:0:0:0:
322,298,110355,2,0,L|310:218,1,70,2|0,3:1|0:0,0:0:0:0:
413,237,110480,2,0,L|401:157,1,70,2|0,3:1|0:0,0:0:0:0:
402,167,110730,2,0,L|413:237,1,70,2|0,1:0|0:0,0:0:0:0:
412,236,110980,6,0,L|402:167,1,69.8249971232988,10|0,0:0|0:0,0:0:0:0:
397,152,111230,5,2,0:0:0:0:
311,228,111355,1,2,0:0:0:0:
377,76,111480,5,2,0:0:0:0:
504,160,111605,1,2,0:0:0:0:
353,2,111730,6,0,L|279:13,1,69.8249971232988,8|0,0:3|0:0,0:0:0:0:
20,48,111980,6,0,B|64:319|65:323|66:327|71:380|125:403|234:414|225:303|224:298|223:293|212:238,1,538.461538461538,10|0,1:2|0:0,0:0:0:0:
274,20,112355,2,0,B|208:286|207:290|207:294|191:345|231:387|327:440|395:313|340:238|267:262,1,538.461538461538,10|0,1:2|0:0,0:0:0:0:
348,188,112730,2,0,B|407:235|411:238|415:241|472:298|550:248|530:158|454:154|417:192|417:192,1,269.230769230769,10|0,1:2|0:0,0:0:0:0:
369,102,112980,6,0,B|401:98|406:97|411:96|507:71|468:-35|402:-19|389:-60|327:-26|235:0|217:41|239:148|252:188|254:194|255:198|290:346|206:426|46:404|-15:272|58:132|210:199,1,807.692307692308,12|0,0:0|0:0,0:0:0:0:
132,185,113480,2,0,P|124:154|88:163,10,58.3333333333333
16,118,113980,6,0,P|96:101|181:83,1,157.500006008148,4|0,1:0|0:0,0:0:0:0:
248,65,114230,1,0,3:0:0:0:
406,100,114355,1,0,3:0:0:0:
248,65,114480,1,0,3:0:0:0:
280,355,114730,6,0,P|301:333|275:353,1,105.000004005432,0|0,1:0|0:0,0:0:0:0:
339,35,114980,2,0,P|359:8|336:34,1,105,8|0,0:0|0:0,0:0:0:0:
323,111,115480,6,0,L|314:157,1,35,2|0,3:2|0:0,0:0:0:0:
294,253,115730,2,0,L|300:218,1,35,8|0,0:3|0:0,0:0:0:0:
42,28,115980,6,0,B|61:51|58:73|58:73|193:38,1,161.000003070831,2|0,0:0|1:0,0:0:0:0:
177,52,116355,1,0,0:0:0:0:
400,196,116480,2,0,P|394:237|283:239,1,161.000003070831,8|0,0:3|1:0,0:0:0:0:
66,370,116980,6,0,L|51:309,1,40.2500007677078,10|0,0:0|0:0,0:0:0:0:
28,219,117230,2,0,L|43:280,1,40.2500007677078,2|0,0:0|0:0,0:0:0:0:
66,370,117480,6,0,L|51:309,1,40.2500007677078,2|0,0:0|0:0,0:0:0:0:
28,219,117730,2,0,L|43:280,1,40.2500007677078,2|0,0:0|0:0,0:0:0:0:
151,332,117980,6,0,P|229:316|306:302,1,157.500006008148,2|0,1:2|0:0,0:0:0:0:
368,350,118230,1,0,3:0:0:0:
434,161,118355,1,0,3:0:0:0:
368,350,118480,1,0,3:0:0:0:
463,82,118730,6,0,B|466:66|474:60|474:60|346:82,1,105.000004005432,0|0,1:0|0:0,0:0:0:0:
453,284,118980,2,0,B|474:259|503:254|503:254|344:230,1,210.000008010865,8|0,0:0|0:0,0:0:0:0:
276,217,119355,1,0,0:0:0:0:
276,217,119480,2,0,L|285:170,2,35,2|0|8,3:2|0:0|0:3,0:0:0:0:
86,363,119980,6,0,P|47:316|65:259,1,125.999996154785,2|0,0:0|0:0,0:0:0:0:
129,208,120230,1,0,1:0:0:0:
269,349,120355,1,0,0:0:0:0:
129,208,120480,1,8,0:3:0:0:
68,147,120730,6,0,P|68:106|95:75,1,83.9999974365235,0|0,1:0|0:0,0:0:0:0:
426,255,120980,2,0,B|420:267|420:275|420:275|284:246,1,141.750000540733,12|0,0:0|0:0,0:0:0:0:
224,229,121230,1,2,1:2:0:0:
347,159,121355,1,2,0:0:0:0:
337,384,121480,6,0,L|234:363,1,83.9999974365235,2|0,0:0|0:0,0:0:0:0:
197,301,121730,2,0,B|134:314|134:314|132:316|132:316|74:327,1,125.999996154785,2|0,0:0|0:0,0:0:0:0:
0,371,121980,6,0,P|46:297|19:216,1,146.999995513916,2|0,1:2|0:0,0:0:0:0:
77,173,122230,2,0,P|57:211|22:220,1,78.7500030040742,2|0,3:1|0:0,0:0:0:0:
128,92,122355,2,0,P|87:105|55:86,1,78.7500030040742,2|0,3:1|0:0,0:0:0:0:
221,70,122480,2,0,P|182:50|174:15,1,78.7500030040742,2|0,3:1|0:0,0:0:0:0:
302,120,122730,2,0,P|288:79|307:47,1,78.7500030040742,2|0,1:0|0:0,0:0:0:0:
323,212,122980,6,0,P|342:173|378:165,1,78.7500030040742,10|0,0:0|0:0,0:0:0:0:
389,169,123230,5,2,0:0:0:0:
287,324,123355,1,0,0:0:0:0:
376,290,123480,1,2,0:0:0:0:
242,218,123605,1,2,0:0:0:0:
345,103,123730,2,0,P|334:162|324:222,1,120.750002303124,8|0,0:3|0:0,0:0:0:0:
376,290,123980,6,0,B|411:329|488:330|529:285|526:223|460:183|430:260,1,236.250009012223,2|0,0:0|0:0,0:0:0:0:
438,226,124230,2,0,P|443:185|481:152,1,78.7500030040742,2|0,1:0|0:0,0:0:0:0:
376,139,124355,2,0,P|350:106|354:56,1,78.7500030040742,2|0,1:0|0:0,0:0:0:0:
270,121,124480,2,0,P|229:116|196:78,1,78.7500030040742,2|0,1:0|0:0,0:0:0:0:
183,183,124730,2,0,P|150:208|100:204,1,78.7500030040742,2|0,1:0|0:0,0:0:0:0:
165,289,124980,6,0,P|160:329|122:362,1,78.7500030040742,14|0,0:0|0:0,0:0:0:0:
118,363,125230,5,2,0:0:0:0:
268,291,125355,1,2,0:0:0:0:
92,213,125480,1,2,0:0:0:0:
165,289,125605,1,2,0:0:0:0:
235,210,125730,2,0,B|252:182|229:133|204:139|204:139|223:160|216:197,1,120.750002303124,2|0,0:0|0:0,0:0:0:0:
207,170,125980,6,0,P|265:165|313:121,1,120.750002303124,2|0,1:2|0:0,0:0:0:0:
371,21,126230,1,2,3:1:0:0:
453,48,126355,1,2,3:1:0:0:
389,104,126480,1,2,3:1:0:0:
449,39,126605,5,2,0:0:0:0:
478,135,126730,1,2,1:0:0:0:
445,29,126855,1,2,0:0:0:0:
482,146,126980,6,0,P|419:145|346:214,1,131.25,10|0,0:0|0:0,0:0:0:0:
319,244,127230,1,2,0:0:0:0:
239,150,127355,1,2,0:0:0:0:
153,287,127480,1,2,0:0:0:0:
87,98,127605,1,2,0:0:0:0:
0,229,127730,6,0,L|61:220,1,52.5,8|0,0:3|0:0,0:0:0:0:
153,287,127980,6,0,B|130:151|130:151|132:148|132:148|105:-2|105:-2|224:36|224:36|193:121,1,489.461551962452,10|0,1:2|0:0,0:0:0:0:
255,355,128355,2,0,B|274:231|274:231|273:228|273:228|288:133|288:133|344:85|344:85|382:148|382:148|371:219|371:219|300:208,1,489.461551962452,10|0,1:2|0:0,0:0:0:0:
431,350,128730,2,0,B|450:356|450:356|477:335|477:335|465:293|465:293|422:283|422:283|375:305|375:305|327:388,1,244.730775981226,10|0,1:2|0:0,0:0:0:0:
51,221,128980,6,0,B|15:308|15:308|156:282|156:282|158:279|158:279|347:244|347:244|413:59|413:59|266:95|266:95|231:188,1,856.557715934291,12|0,0:0|0:0,0:0:0:0:
234,180,129480,2,0,P|271:169|271:99,10,81.5769253270754
155,144,129980,6,0,B|140:88|140:88|141:86|141:86|113:-14,1,122.365387990613,4|0,1:0|0:0,0:0:0:0:
155,144,130479,1,2,0:0:0:0:
74,126,130730,1,8,0:0:0:0:
155,144,130980,1,2,0:0:0:0:
155,144,131480,1,8,0:0:0:0:
155,144,131980,1,2,0:0:0:0:
391,66,132230,1,10,0:0:0:0:
155,144,132480,1,2,0:0:0:0:
224,167,132646,1,2,0:0:0:0:
293,190,132813,1,2,0:0:0:0:
155,144,132980,1,10,0:0:0:0:
155,144,133480,1,8,3:2:0:0:
155,144,133980,1,2,1:2:0:0:
155,144,134480,1,2,0:0:0:0:
199,72,134730,1,8,0:0:0:0:
155,144,134980,1,2,0:0:0:0:
155,144,135480,1,8,0:0:0:0:
155,144,135980,1,2,0:0:0:0:
351,212,136230,1,10,0:0:0:0:
306,344,167980,6,0,L|319:291,1,54.25,2|0,0:0|0:0,0:0:0:0:
389,243,169980,6,0,P|407:212|386:241,1,105.000004005432,4|0,1:0|0:0,0:0:0:0:
77,367,170230,1,0,0:0:0:0:
112,50,170480,6,0,P|94:19|115:48,1,105.000004005432,10|0,0:3|0:0,0:0:0:0:
167,104,170730,1,0,0:0:0:0:
167,104,170980,6,0,P|185:73|164:102,1,105.000004005432,8|0,0:0|0:0,0:0:0:0:
134,174,171230,2,0,P|116:205|137:176,1,105.000004005432
90,45,171480,6,0,P|72:15|87:47,1,105.000004005432,10|0,0:3|0:0,0:0:0:0:
201,244,171730,2,0,P|219:274|204:242,1,105.000004005432
480,38,172230,6,0,P|498:7|483:39,1,105.000004005432,0|0,1:0|0:0,0:0:0:0:
404,348,172480,1,10,0:3:0:0:
285,64,172730,6,0,P|254:46|283:66,1,105.000004005432,0|0,1:0|0:0,0:0:0:0:
380,85,172980,2,0,P|387:49|376:84,1,105.000004005432,8|0,0:0|0:0,0:0:0:0:
388,183,173230,6,0,P|423:179|387:179,1,105.000004005432
297,221,173480,2,0,P|311:253|300:219,1,105.000004005432,10|0,0:3|0:0,0:0:0:0:
233,146,173730,6,0,P|206:169|235:148,1,105.000004005432,0|0,0:0|1:0,0:0:0:0:
488,300,174230,6,0,P|514:276|485:297,1,105.000004005432
431,347,174480,1,10,0:3:0:0:
25,129,174730,6,0,P|-1:105|27:126,1,105.000004005432
258,300,174980,1,8,0:0:0:0:
34,337,175230,6,0,P|7:360|36:339,1,105.000004005432
57,258,175480,2,0,P|49:222|53:258,1,105.000004005432,10|0,0:3|0:0,0:0:0:0:
114,318,175730,6,0,P|148:329|115:314,1,105.000004005432
476,64,176230,6,0,P|509:50|474:60,1,105.000004005432,0|0,1:0|0:0,0:0:0:0:
374,34,176480,2,0,P|399:9|371:31,1,105.000004005432,10|0,1:3|0:0,0:0:0:0:
268,45,176730,2,0,P|282:12|264:43,1,105.000004005432
173,94,176980,2,0,P|174:58|169:93,1,105.000004005432,12|0,0:0|0:0,0:0:0:0:
104,175,177230,2,0,P|91:141|100:176,1,105.000004005432,0|0,1:0|0:0,0:0:0:0:
71,277,177480,2,0,P|47:250|68:279,1,105.000004005432,10|0,0:3|0:0,0:0:0:0:
78,383,177730,1,0,0:0:0:0:
480,175,177980,6,0,P|513:161|478:171,1,105.000004005432,0|0,1:0|0:0,0:0:0:0:
409,198,178230,2,0,P|376:212|411:202,1,105.000004005432,0|0,3:0|0:0,0:0:0:0:
321,19,178480,6,0,P|331:-15|316:17,1,105.000004005432,10|0,0:3|0:0,0:0:0:0:
265,160,178730,2,0,P|254:194|269:161,1,105.000004005432,0|0,1:0|0:0,0:0:0:0:
122,60,178980,6,0,P|111:26|116:61,1,105.000004005432,8|0,0:0|3:0,0:0:0:0:
154,304,179480,2,0,P|164:337|159:302,1,105.000004005432,10|0,3:0|0:0,0:0:0:0:
337,144,180230,6,0,P|371:134|338:147,1,105.000004005432,0|0,1:0|0:0,0:0:0:0:
155,191,180480,1,10,1:3:0:0:
424,253,180730,6,0,P|458:262|425:249,1,105.000004005432
37,153,180980,1,12,0:0:0:0:
276,20,181230,6,0,P|297:-8|279:22,1,105.000004005432
341,92,181480,2,0,P|376:96|340:96,1,105.000004005432,10|0,0:3|0:0,0:0:0:0:
311,184,181730,2,0,P|325:216|307:186,1,105.000004005432
211,201,181980,6,0,P|189:229|207:198,1,105.000004005432,0|0,1:0|3:0,0:0:0:0:
332,31,182480,2,0,P|354:3|336:34,1,105.000004005432,10|0,0:3|1:3,0:0:0:0:
324,333,182980,6,0,P|337:366|319:334,1,105.000004005432,8|0,0:0|3:0,0:0:0:0:
210,42,183480,2,0,P|196:8|214:40,1,105.000004005432,10|0,0:3|3:0,0:0:0:0:
59,238,183980,6,0,P|46:288|151:252,1,210.000008010865,0|0,1:0|0:0,0:0:0:0:
189,202,184355,2,0,P|267:157|285:245,1,210.000008010865,2|0,1:2|0:0,0:0:0:0:
332,318,184730,2,0,P|387:326|407:262,1,105.000004005432,0|0,1:0|3:0,0:0:0:0:
419,270,184917,1,8,3:0:0:0:
422,250,184980,6,0,L|361:19,1,238.00000453949,12|0,1:3|0:0,0:0:0:0:
449,368,185355,2,0,L|497:107,1,238.00000453949,4|0,1:3|3:0,0:0:0:0:
332,318,185730,2,0,B|306:175|306:175|256:123,1,178.500003404617,4|0,1:3|0:0,0:0:0:0:
121,32,185980,6,0,B|4:57|-32:223|73:290|171:256|184:166|129:133,1,420,2|2,0:0|0:0,0:0:0:0:
129,133,187730,1,2,0:0:0:0:
512,255,187980,6,0,P|473:259|422:299,1,105,2|0,0:0|0:0,0:0:0:0:
434,380,188480,2,0,P|369:373|312:313,1,140,2|2,0:0|0:0,0:0:0:0:
247,208,189480,6,0,P|218:205|244:210,1,122.5,2|0,0:0|0:0,0:0:0:0:
247,208,189980,6,0,B|316:168|305:74|241:43|186:73|186:73|214:159,1,280,4|0,1:0|3:0,0:0:0:0:
236,223,190355,1,0,3:0:0:0:
356,0,190480,1,0,3:0:0:0:
449,373,190730,1,0,1:0:0:0:
0,201,190980,6,0,L|57:192,1,35,8|0,0:0|0:0,0:0:0:0:
34,196,191480,6,0,P|37:220|36:197,1,77.0000023498536,2|0,3:2|0:0,0:0:0:0:
71,128,191730,2,0,P|68:104|69:127,1,77.0000023498536,8|0,0:3|0:0,0:0:0:0:
5,361,191980,6,0,P|62:324|138:330,1,141.750000540733,2|0,0:0|0:0,0:0:0:0:
203,370,192230,1,0,1:0:0:0:
372,249,192355,1,2,0:0:0:0:
218,140,192480,6,0,L|239:207,1,59.5000011348725,8|0,0:3|0:0,0:0:0:0:
264,281,192730,1,0,1:0:0:0:
512,69,192980,6,0,B|446:54|446:54|444:55|444:55|363:38,1,141.750000540733,12|0,0:0|0:0,0:0:0:0:
361,48,193230,1,2,1:2:0:0:
450,159,193355,1,2,0:0:0:0:
209,9,193480,6,0,P|164:19|143:60,1,94.5000003604889,2|0,0:0|0:0,0:0:0:0:
62,99,193730,2,0,P|99:166|190:159,1,141.750000540733,2|0,0:0|0:0,0:0:0:0:
267,286,193980,5,2,1:2:0:0:
267,286,194230,2,0,P|326:289|375:359,1,105.000004005432,2|0,3:1|0:0,0:0:0:0:
423,221,194355,2,0,B|493:207|493:207|476:193|438:202,1,105.000004005432,2|0,3:1|0:0,0:0:0:0:
347,121,194480,2,0,B|333:92|347:60|377:50|377:50|363:71|359:142,1,122.365387990613,2|0,3:1|0:0,0:0:0:0:
347,121,194730,2,0,B|333:92|347:60|377:50|377:50|363:71|359:142,1,122.365387990613,2|0,1:0|0:0,0:0:0:0:
347,121,194980,6,0,B|333:92|347:60|377:50|377:50|363:71|359:142,1,122.365387990613,10|0,0:0|0:0,0:0:0:0:
378,91,195230,5,2,0:0:0:0:
41,43,195480,1,2,0:0:0:0:
41,43,195605,1,2,0:0:0:0:
121,10,195730,2,0,L|217:28,1,81.55000326643,8|0,0:3|0:0,0:0:0:0:
84,296,195980,2,0,P|36:256|56:173,1,143.325004811325,2|0,0:0|0:0,0:0:0:0:
104,132,196230,5,2,1:0:0:0:
156,208,196355,1,2,1:0:0:0:
221,106,196480,1,2,1:0:0:0:
292,236,196605,1,2,0:0:0:0:
357,42,196730,1,2,1:0:0:0:
357,42,196980,6,0,P|403:50|404:130,1,93.3333333333333,14|0,0:0|0:0,0:0:0:0:
416,321,197146,2,0,P|385:281|418:226,1,93.3333333333333,0|2,3:0|0:0,0:0:0:0:
458,188,197313,2,0,P|487:176|462:192,1,93.3333333333333,0|0,3:0|0:0,0:0:0:0:
325,355,197480,6,0,P|239:328|135:326,1,194.249999258995,2|0,0:0|0:0,0:0:0:0:
63,368,197730,1,2,0:0:0:0:
419,128,197980,1,2,1:2:0:0:
419,128,198230,5,2,3:1:0:0:
332,108,198355,1,2,3:1:0:0:
264,181,198480,1,2,3:1:0:0:
188,87,198605,1,2,0:0:0:0:
94,247,198730,1,2,1:0:0:0:
0,18,198980,5,10,0:0:0:0:
0,18,199230,5,2,0:0:0:0:
34,101,199355,1,2,0:0:0:0:
163,94,199480,1,2,0:0:0:0:
209,224,199605,1,2,0:0:0:0:
367,251,199730,6,0,L|441:260,1,69.8249971232988,8|0,0:3|0:0,0:0:0:0:
449,245,199980,6,0,B|477:219|468:169|433:161|433:161|449:215,1,122.500001168251,10|0,1:2|0:0,0:0:0:0:
72,364,200355,6,0,B|136:352|136:352|138:350|138:350|226:334,1,122.500001168251,10|0,1:2|0:0,0:0:0:0:
394,68,200730,6,0,P|413:48|385:67,1,122.500001168251,10|0,1:2|0:0,0:0:0:0:
473,381,200980,6,0,B|465:341|486:309|486:309|459:320|451:358|466:392,1,122.500001168251,12|0,1:3|0:0,0:0:0:0:
305,43,201355,6,0,B|273:43|242:57|242:57|205:42|217:-4,1,122.500001168251,4|0,0:3|0:0,0:0:0:0:
59,353,201730,6,0,B|65:307|116:285|157:295|157:295|131:313|131:346,1,169.574996086393,4|0,0:3|0:0,0:0:0:0:
215,372,201980,6,0,B|177:337|162:265|201:179|285:181|321:277|265:312|215:303,1,275.099991289788,4|0,1:0|3:0,0:0:0:0:
312,362,202355,1,0,3:0:0:0:
248,99,202480,1,0,3:0:0:0:
75,273,202730,6,0,P|112:239|161:243,1,102.550002268944,0|0,1:0|0:0,0:0:0:0:
474,345,202980,2,0,P|429:307|370:316,1,112,8|0,0:0|0:0,0:0:0:0:
312,362,203355,1,0,0:0:0:0:
161,243,203480,6,0,L|139:161,1,81.55000326643,2|0,3:2|0:0,0:0:0:0:
239,225,203730,2,0,L|217:146,1,81.55000326643,8|0,0:3|0:0,0:0:0:0:
164,81,203980,6,0,L|331:114,1,169.574996086393,2|0,0:0|0:0,0:0:0:0:
345,107,204230,1,0,1:0:0:0:
285,306,204355,1,2,0:0:0:0:
512,201,204480,6,0,B|440:210|440:210|438:212|438:212|356:222,1,140,8|0,0:3|1:0,0:0:0:0:
308,190,204855,1,0,0:0:0:0:
365,364,204980,6,0,P|396:345|404:296,1,80.4999980039597,10|0,0:0|0:0,0:0:0:0:
119,197,205146,2,0,P|119:233|158:264,1,80.4999980039597,0|2,3:0|0:0,0:0:0:0:
386,67,205313,2,0,P|354:49|307:67,1,80.4999980039597,0|0,3:0|0:0,0:0:0:0:
49,349,205480,6,0,B|166:329|166:329|167:327|167:327|286:306,1,241.499994011879,2|2,0:0|0:0,0:0:0:0:
365,364,205855,1,0,0:0:0:0:
312,206,205980,6,0,B|309:173|330:150|330:150|258:93|186:150|182:224|253:283,1,280,2|0,1:2|3:0,0:0:0:0:
285,306,206355,1,0,3:0:0:0:
183,58,206480,1,0,3:0:0:0:
27,262,206730,6,0,L|182:240,1,113.049997390928,0|0,1:0|0:0,0:0:0:0:
365,364,206980,2,0,P|412:296|398:197,1,184.100008708344,8|0,0:0|3:0,0:0:0:0:
326,242,207355,1,0,0:0:0:0:
465,140,207480,6,0,B|449:90|394:63|330:80|330:80|357:98|360:140,1,210.000008010865,2|8,3:2|0:3,0:0:0:0:
49,357,207980,2,0,P|128:359|190:307,1,157.500006008148,2|0,0:0|0:0,0:0:0:0:
253,376,208230,6,0,B|204:335|227:241|285:237|285:237|261:272|275:344,2,231.000002202988,0|8|0,1:0|0:3|1:0,0:0:0:0:
369,267,208855,1,0,0:0:0:0:
190,157,208980,2,0,L|200:205,1,28.8750002753735,12|0,0:0|0:0,0:0:0:0:
56,302,209230,5,2,1:2:0:0:
56,302,209355,1,2,0:0:0:0:
56,302,209480,2,0,P|105:308|169:363,1,97.9999970092774,2|0,0:0|0:0,0:0:0:0:
321,145,209730,2,0,P|266:192|176:170,1,146.999995513916,2|0,0:0|0:0,0:0:0:0:
119,117,209980,6,0,B|91:60|134:3|191:-3|204:33|204:33|186:71,1,194.249999258995,2|0,1:2|0:0,0:0:0:0:
202,62,210230,2,0,P|251:61|282:9,1,87.5,2|0,3:1|0:0,0:0:0:0:
313,135,210355,2,0,P|348:100|335:41,1,87.5,2|0,3:1|0:0,0:0:0:0:
443,112,210480,2,0,P|445:63|395:28,1,87.5,2|0,3:1|0:0,0:0:0:0:
421,35,210730,2,0,P|447:69|443:112,1,87.5,2|0,1:0|0:0,0:0:0:0:
442,112,210980,6,0,P|333:151|295:261,1,210,10|0,0:0|0:0,0:0:0:0:
289,246,211230,1,2,0:0:0:0:
213,165,211355,1,2,0:0:0:0:
130,298,211480,1,2,0:0:0:0:
44,120,211605,1,2,0:0:0:0:
122,169,211730,1,8,0:3:0:0:
40,212,211855,1,2,0:0:0:0:
44,120,211980,6,0,B|45:60|98:13|152:27|152:27|120:45|116:76,1,210,2|0,0:0|0:0,0:0:0:0:
196,111,212230,2,0,B|251:122|251:122|250:122|245:107|224:104,1,87.5,2|0,1:0|0:0,0:0:0:0:
286,39,212355,2,0,B|341:28|341:28|340:28|335:43|314:46,1,87.5,2|0,1:0|0:0,0:0:0:0:
383,122,212480,2,0,B|438:133|438:133|437:133|432:118|411:115,1,87.5,2|0,1:0|0:0,0:0:0:0:
383,122,212730,2,0,B|438:133|438:133|437:133|432:118|411:115,1,87.5,2|0,1:0|0:0,0:0:0:0:
413,115,212980,6,0,P|361:132|343:240,1,116.666666666667,14|0,0:0|0:0,0:0:0:0:
243,366,213146,2,0,P|255:312|170:243,1,116.666666666667,0|2,3:0|0:0,0:0:0:0:
111,94,213313,2,0,P|151:131|254:92,1,116.666666666667,0|0,3:0|0:0,0:0:0:0:
262,199,213480,5,2,0:0:0:0:
262,199,213605,1,2,0:0:0:0:
262,199,213730,2,0,L|295:57,1,141.750000540733,2|0,0:0|0:0,0:0:0:0:
231,13,213980,6,0,L|269:286,1,262.5,2|0,1:2|0:0,0:0:0:0:
270,291,214230,1,2,3:1:0:0:
155,202,214355,1,2,3:1:0:0:
132,308,214480,5,2,3:1:0:0:
244,157,214605,1,2,0:0:0:0:
56,124,214730,5,2,1:0:0:0:
56,124,214855,1,0,0:0:0:0:
56,124,214980,2,0,B|49:151|20:177|20:177|14:230|60:258,1,145.42500477087,10|0,0:0|0:0,0:0:0:0:
60,254,215230,5,2,0:0:0:0:
157,141,215355,1,2,0:0:0:0:
151,268,215480,5,2,0:0:0:0:
326,214,215605,1,2,0:0:0:0:
185,355,215730,5,8,0:3:0:0:
274,373,215855,1,2,0:0:0:0:
97,361,215980,6,0,P|251:341|372:271,1,280,10|0,1:2|0:0,0:0:0:0:
430,383,216355,2,0,P|478:263|463:92,1,280,10|0,1:2|0:0,0:0:0:0:
382,91,216730,2,0,B|396:47|361:12|361:12|401:45|450:24,1,175,10|0,1:2|0:0,0:0:0:0:
258,267,216980,6,0,L|223:259,1,36.749998878479,12|0,0:0|0:0,0:0:0:0:
148,235,217480,1,0,3:0:0:0:
334,289,217730,1,0,3:0:0:0:
448,133,217980,6,0,P|476:150|449:125,1,105.000004005432,0|0,1:0|0:0,0:0:0:0:
417,41,218230,2,0,P|438:15|410:38,1,105.000004005432,0|0,3:0|0:0,0:0:0:0:
320,42,218480,6,0,B|304:6|259:7|217:42|243:97|243:97|275:137|257:188|193:202|170:172|155:127,1,315.000012016297,2|0,0:3|0:0,0:0:0:0:
167,154,218980,1,8,0:0:0:0:
150,79,219355,5,0,0:0:0:0:
150,79,219480,2,0,B|204:127|226:171|226:171|234:129|244:111|244:111|288:155|288:155|283:96|300:20,1,363.999983337403,2|0,0:3|0:0,0:0:0:0:
276,238,220230,6,0,P|291:266|267:239,1,105.000004005432,0|0,1:0|0:0,0:0:0:0:
187,184,220480,2,0,B|218:125|214:15|214:15|279:116|279:116|272:119|272:119|279:117|279:117|307:161|351:183,2,371.00001556778,2|0|8,0:3|1:0|0:0,0:0:0:0:
4,128,221230,2,0,B|73:122|42:111|105:102,1,105.000004005432
178,36,221480,6,0,B|178:72|196:112|239:108|295:94|275:23|275:23|334:135|263:217|189:177,1,434.875001658916,2|4,0:3|0:3,0:0:0:0:
191,178,221980,1,0,1:0:0:0:
388,87,222230,1,0,3:0:0:0:
391,7,222355,1,0,3:0:0:0:
320,42,222480,6,0,B|304:6|259:7|217:42|243:97|243:97|275:137|257:188|193:202|170:172|155:127,2,315.000012016297,2|0|8,3:0|3:0|0:0,0:0:0:0:
222,13,223230,6,0,P|192:6|226:7,1,105.000004005432
150,79,223480,2,0,B|204:127|226:171|226:171|234:129|244:111|244:111|288:155|288:155|283:94|300:20,1,363.999983337403,2|0,0:3|0:0,0:0:0:0:
111,211,224230,1,0,1:0:0:0:
176,263,224355,1,0,0:0:0:0:
187,184,224480,6,0,B|218:125|214:15|214:15|279:116|279:116|272:119|272:119|279:117|279:117|307:161|352:181,2,371.00001556778,0|0|12,1:0|1:0|0:0,0:0:0:0:
282,309,225230,2,0,L|258:214,1,77.0000023498536,2|2,0:0|0:0,0:0:0:0:
178,36,225480,6,0,B|178:72|196:112|239:108|295:94|275:23|275:23|334:135|261:215|188:176,2,434.000003311157,2|2|2,0:0|0:0|1:2,0:0:0:0:
448,144,226230,6,0,L|458:98,1,35,2|0,3:1|0:0,0:0:0:0:
377,132,226355,2,0,L|387:86,1,35,2|0,3:1|0:0,0:0:0:0:
320,42,226480,6,0,B|304:6|259:7|217:42|243:97|243:97|275:137|257:188|193:202|170:172|155:127,2,315.000012016297,2|2|10,3:1|1:0|0:0,0:0:0:0:
150,79,227355,5,0,0:0:0:0:
150,79,227480,2,0,B|204:127|226:171|226:171|234:129|244:111|244:111|288:155|288:155|283:94|300:20,1,363.999983337403,2|0,0:3|0:0,0:0:0:0:
113,210,228230,2,0,P|97:210|113:209,1,45.4999979171754,2|0,1:0|0:0,0:0:0:0:
172,261,228355,2,0,P|180:274|171:261,1,45.4999979171754,2|0,3:1|0:0,0:0:0:0:
187,184,228480,6,0,B|218:125|214:15|214:15|279:116|279:116|272:119|272:119|279:117|279:117|307:161|352:181,2,371.00001556778,2|2|14,1:0|1:0|0:0,0:0:0:0:
79,34,229230,1,2,0:0:0:0:
93,30,229355,1,2,0:0:0:0:
178,36,229480,6,0,B|178:72|196:112|239:108|295:94|275:23|275:23|334:135|261:215|188:176,2,434.000003311157,2|2|2,0:0|0:0|1:2,0:0:0:0:
383,91,230230,6,0,L|377:143,1,35
457,97,230355,2,0,L|451:149,1,35,2|0,3:1|0:0,0:0:0:0:
320,42,230480,6,0,B|304:6|259:7|217:42|243:97|243:97|275:137|257:188|193:202|170:172|155:127,2,315.000012016297,2|2|10,3:1|1:0|0:0,0:0:0:0:
70,146,231230,6,0,P|46:139|75:143,1,105.000004005432,2|2,0:0|0:0,0:0:0:0:
150,79,231480,2,0,B|204:127|226:171|226:171|234:129|244:111|244:111|288:155|288:155|283:94|304:27,1,368.550001405907,2|0,0:0|0:0,0:0:0:0:
436,320,231980,6,0,P|507:282|378:278,1,371.00001556778,10|0,1:2|0:0,0:0:0:0:
343,45,232355,2,0,B|300:2|262:16|215:62|272:115|272:115|333:163|275:242|212:220|184:166,1,371.00001556778,10|0,1:2|0:0,0:0:0:0:
0,250,232730,2,0,B|-13:338|21:393|57:407|128:385|151:365|153:300|139:265|77:199,1,371.00001556778,10|12,1:2|0:0,0:0:0:0:
464,88,233480,6,0,L|505:99,1,41.9999987182618,2|0,0:0|0:0,0:0:0:0:
