osu file format v14

[General]
AudioFilename: audio.mp3
AudioLeadIn: 0
PreviewTime: 27492
Countdown: 0
SampleSet: Soft
StackLeniency: 0.7
Mode: 0
LetterboxInBreaks: 0
WidescreenStoryboard: 1

[Editor]
Bookmarks: 30573,97409,115637,158168
DistanceSpacing: 0.4
BeatDivisor: 4
GridSize: 4
TimelineZoom: 1.7

[Metadata]
Title:Changed My Mind
TitleUnicode:Changed My Mind
Artist:Tove Styrke
ArtistUnicode:Tove Styrke
Creator:Mint
Version:schoolboy's Insane (feat. Mint)
Source:
Tags:sway english pop schoolboy komore appleeaterx
BeatmapID:2391106
BeatmapSetID:982452

[Difficulty]
HPDrainRate:5.5
CircleSize:4.3
OverallDifficulty:7
ApproachRate:8.3
SliderMultiplier:1.4
SliderTickRate:1

[Events]
//Background and Video events
0,0,"tove-styrke-fashionista.jpg",0,0
//Break Periods
2,127850,133212
//Storyboard Layer 0 (Background)
//Storyboard Layer 1 (Fail)
//Storyboard Layer 2 (Pass)
//Storyboard Layer 3 (Foreground)
//Storyboard Layer 4 (Overlay)
//Storyboard Sound Samples

[TimingPoints]
246,379.746835443038,4,2,0,35,1,0
6321,-100,4,2,1,35,0,0
10118,-100,4,2,1,35,0,0
10499,-100,4,2,1,35,0,0
11827,-100,4,2,1,35,0,0
12208,-100,4,2,1,35,0,0
14390,-100,4,2,1,35,0,0
14486,-100,4,2,1,35,0,0
16194,-100,4,2,1,35,0,0
16575,-100,4,2,1,35,0,0
17903,-100,4,2,1,35,0,0
18094,-100,4,2,1,35,0,0
18473,-100,4,2,1,30,0,0
18568,-100,4,2,1,47,0,0
19517,-100,4,2,1,47,0,0
19613,-100,4,2,1,47,0,0
20752,-100,4,2,2,47,0,0
20941,-100,4,2,2,47,0,0
21132,-100,4,2,1,47,0,0
22271,-100,4,2,2,47,0,0
22651,-100,4,2,1,47,0,0
23220,-100,4,2,1,47,0,0
23409,-100,4,2,1,47,0,0
23790,-100,4,2,2,47,0,0
24074,-100,4,2,2,47,0,0
24170,-100,4,2,1,47,0,0
24549,-100,4,2,1,50,0,0
24928,-100,4,2,3,50,0,0
25119,-100,4,2,1,50,0,0
25309,-100,4,2,3,50,0,0
25689,-100,4,2,1,50,0,0
25878,-100,4,2,1,50,0,0
26068,-100,4,2,1,50,0,0
26448,-100,4,2,3,50,0,0
26638,-100,4,2,1,50,0,0
26828,-100,4,2,3,50,0,0
27112,-100,4,2,3,50,0,0
27208,-100,4,2,1,50,0,0
27587,-100,4,2,1,55,0,0
27777,-100,4,2,3,55,0,0
28157,-100,4,2,1,55,0,0
28347,-100,4,2,3,60,0,0
29106,-100,4,2,3,35,0,0
29296,-100,4,2,3,35,0,0
30625,-100,4,2,1,65,0,0
30720,-100,4,2,1,78,0,0
31195,-100,4,2,2,78,0,0
31385,-100,4,2,4,78,0,0
31764,-100,4,2,2,78,0,0
32144,-100,4,2,3,78,0,0
32428,-100,4,2,3,78,0,0
32524,-100,4,2,2,78,0,0
32713,-100,4,2,2,78,0,0
32904,-100,4,2,4,78,0,0
33283,-100,4,2,2,78,0,0
33473,-100,4,2,3,78,0,0
33663,-100,4,2,3,78,0,0
34042,-100,4,2,2,78,0,0
34233,-100,4,2,2,78,0,0
34423,-100,4,2,4,78,0,0
34802,-100,4,2,2,78,0,0
35182,-100,4,2,3,78,0,0
35562,-100,4,2,2,78,0,0
35752,-100,4,2,2,78,0,0
35942,-100,4,2,4,78,0,0
36226,-100,4,2,4,78,0,0
36321,-100,4,2,2,78,0,0
36701,-100,4,2,1,65,0,0
36796,-100,4,2,1,78,0,0
37080,-100,4,2,2,78,0,0
37271,-100,4,2,2,78,0,0
37461,-100,4,2,4,78,0,0
37840,-100,4,2,2,78,0,0
38220,-100,4,2,3,78,0,0
38504,-100,4,2,3,78,0,0
38600,-100,4,2,2,78,0,0
38789,-100,4,2,2,78,0,0
38980,-100,4,2,4,78,0,0
39359,-100,4,2,2,78,0,0
39549,-100,4,2,3,78,0,0
39739,-100,4,2,3,78,0,0
40118,-100,4,2,2,78,0,0
40309,-100,4,2,2,78,0,0
40499,-100,4,2,4,78,0,0
40783,-100,4,2,4,78,0,0
40878,-100,4,2,2,78,0,0
41258,-100,4,2,3,78,0,0
41638,-100,4,2,2,78,0,0
41828,-100,4,2,2,78,0,0
42018,-100,4,2,4,78,0,0
42208,-100,4,2,1,78,0,0
42302,-100,4,2,1,78,0,0
42397,-100,4,2,2,78,0,0
42777,-100,4,2,1,65,0,0
42872,-100,4,2,1,78,0,0
43156,-100,4,2,2,78,0,0
43347,-100,4,2,2,78,0,0
43537,-100,4,2,4,78,0,0
43916,-100,4,2,2,78,0,0
44106,-100,4,2,2,78,0,0
44296,-100,4,2,3,78,0,0
44676,-100,4,2,2,78,0,0
44865,-100,4,2,2,78,0,0
45056,-100,4,2,4,78,0,0
45435,-100,4,2,2,78,0,0
45625,-100,4,2,3,78,0,0
45815,-100,4,2,3,78,0,0
46194,-100,4,2,2,78,0,0
46385,-100,4,2,2,78,0,0
46575,-100,4,2,4,78,0,0
46954,-100,4,2,2,78,0,0
47144,-100,4,2,2,78,0,0
47334,-100,4,2,3,78,0,0
47524,-100,4,2,2,78,0,0
47903,-100,4,2,2,78,0,0
48094,-100,4,2,4,78,0,0
48473,-100,4,2,2,78,0,0
48663,-100,4,2,3,78,0,0
48853,-100,4,2,3,78,0,0
49232,-100,4,2,2,78,0,0
49423,-100,4,2,2,78,0,0
49613,-100,4,2,4,78,0,0
49897,-100,4,2,4,78,0,0
49992,-100,4,2,2,78,0,0
50181,-100,4,2,2,78,0,0
50372,-100,4,2,3,78,0,0
50562,-100,4,2,3,78,0,0
50752,-100,4,2,2,78,0,0
50941,-100,4,2,2,78,0,0
51132,-100,4,2,4,78,0,0
51416,-100,4,2,4,78,0,0
51511,-100,4,2,2,78,0,0
51701,-100,4,2,3,78,0,0
51891,-100,4,2,3,78,0,0
52270,-100,4,2,3,78,0,0
52461,-100,4,2,2,78,0,0
52651,-100,4,2,4,82,0,0
52840,-100,4,2,3,82,0,0
53031,-100,4,2,2,82,0,0
53221,-100,4,2,3,82,0,0
53410,-100,4,2,1,45,0,0
54929,-100,4,2,1,65,0,1
55024,-100,4,2,1,78,0,1
55308,-100,4,2,5,78,0,1
55499,-100,4,2,2,78,0,1
55689,-100,4,2,4,78,0,1
55878,-100,4,2,2,78,0,1
56068,-100,4,2,2,78,0,1
56352,-100,4,2,2,78,0,1
56448,-100,4,2,3,78,0,1
56828,-100,4,2,5,78,0,1
57018,-100,4,2,2,78,0,1
57208,-100,4,2,4,78,0,1
57397,-100,4,2,2,78,0,1
57587,-100,4,2,2,78,0,1
57777,-100,4,2,3,78,0,1
57967,-100,4,2,3,78,0,1
58067,-100,4,2,3,78,0,1
58346,-100,4,2,5,78,0,1
58537,-100,4,2,2,78,0,1
58727,-100,4,2,4,78,0,1
58916,-100,4,2,4,78,0,1
59106,-100,4,2,2,78,0,1
59390,-100,4,2,2,78,0,1
59486,-100,4,2,3,78,0,1
59866,-100,4,2,5,78,0,1
60056,-100,4,2,2,78,0,1
60246,-100,4,2,4,78,0,1
60435,-100,4,2,2,78,0,1
60625,-100,4,2,2,78,0,1
60814,-100,4,2,2,78,0,1
61005,-100,4,2,1,78,0,1
61384,-100,4,2,5,78,0,1
61575,-100,4,2,2,78,0,1
61764,-100,4,2,4,78,0,1
61953,-100,4,2,2,78,0,1
62144,-100,4,2,2,78,0,1
62428,-100,4,2,2,78,0,1
62524,-100,4,2,3,78,0,1
62904,-100,4,2,5,78,0,1
63094,-100,4,2,2,78,0,1
63283,-100,4,2,4,78,0,1
63472,-100,4,2,2,78,0,1
63567,-100,4,2,2,78,0,1
63663,-100,4,2,2,78,0,1
63853,-100,4,2,3,78,0,1
64043,-100,4,2,3,78,0,1
64422,-100,4,2,5,78,0,1
64613,-100,4,2,2,78,0,1
64802,-100,4,2,4,78,0,1
65181,-100,4,2,2,78,0,1
65371,-100,4,2,2,78,0,1
65562,-100,4,2,3,78,0,1
65942,-100,4,2,5,78,0,1
66132,-100,4,2,2,78,0,1
66321,-100,4,2,4,78,0,1
66511,-100,4,2,2,78,0,1
66701,-100,4,2,2,78,0,1
66891,-100,4,2,2,78,0,1
67081,-100,4,2,1,58,0,0
67840,-100,4,2,4,58,0,0
68219,-100,4,2,1,58,0,0
68409,-100,4,2,1,58,0,0
69359,-100,4,2,4,58,0,0
69739,-100,4,2,1,58,0,0
70878,-100,4,2,4,58,0,0
71257,-100,4,2,1,58,0,0
72397,-100,4,2,4,58,0,0
72492,-100,4,2,4,58,0,0
72587,-100,4,2,4,58,0,0
72777,-100,4,2,1,58,0,0
73916,-100,4,2,4,58,0,0
74295,-100,4,2,1,58,0,0
74390,-100,4,2,1,58,0,0
74486,-100,4,2,1,58,0,0
75150,-100,4,2,1,58,0,0
75246,-100,4,2,1,58,0,0
75340,-100,4,2,1,58,0,0
75435,-100,4,2,4,58,0,0
75577,-100,4,2,4,58,0,0
75625,-100,4,2,4,58,0,0
75767,-100,4,2,4,58,0,0
75815,-100,4,2,1,58,0,0
75957,-100,4,2,1,58,0,0
76005,-100,4,2,1,58,0,0
76147,-100,4,2,1,58,0,0
76195,-100,4,2,1,58,0,0
76954,-100,4,2,4,58,0,0
77333,-100,4,2,1,58,0,0
77904,-100,4,2,4,58,0,0
78283,-100,4,2,1,58,0,0
78473,-100,4,2,4,58,0,0
78757,-100,4,2,4,58,0,0
78853,-100,4,2,1,58,0,0
79233,-100,4,2,1,63,0,0
79992,-100,4,2,4,63,0,0
80276,-100,4,2,4,63,0,0
80372,-100,4,2,1,63,0,0
81511,-100,4,2,4,63,0,0
81891,-100,4,2,1,63,0,0
83030,-100,4,2,4,63,0,0
83410,-100,4,2,1,63,0,0
84549,-100,4,2,4,63,0,0
84738,-100,4,2,4,63,0,0
84929,-100,4,2,1,63,0,0
85688,-100,4,2,3,63,0,0
85878,-100,4,2,1,63,0,0
86068,-100,4,2,3,63,0,0
86448,-100,4,2,1,63,0,0
86638,-100,4,2,1,63,0,0
86828,-100,4,2,1,63,0,0
87017,-100,4,2,1,63,0,0
87081,-100,4,2,3,63,0,0
87334,-100,4,2,2,63,0,0
87587,-100,4,2,3,65,0,0
87776,-100,4,2,3,65,0,0
87966,-100,4,2,1,65,0,0
88094,-100,4,2,2,65,0,0
88347,-100,4,2,1,68,0,0
88537,-100,4,2,3,68,0,0
88916,-100,4,2,1,68,0,0
89106,-100,4,2,3,70,0,0
89866,-100,4,2,3,35,0,0
90056,-100,4,2,3,35,0,0
91385,-100,4,2,1,65,0,0
91480,-100,4,2,1,78,0,0
91954,-100,4,2,2,78,0,0
92144,-100,4,2,4,78,0,0
92523,-100,4,2,2,78,0,0
92904,-100,4,2,3,78,0,0
93188,-100,4,2,3,78,0,0
93283,-100,4,2,2,78,0,0
93472,-100,4,2,2,78,0,0
93663,-100,4,2,4,78,0,0
94043,-100,4,2,2,78,0,0
94233,-100,4,2,3,78,0,0
94423,-100,4,2,3,78,0,0
94802,-100,4,2,2,78,0,0
94992,-100,4,2,2,78,0,0
95182,-100,4,2,4,78,0,0
95561,-100,4,2,2,78,0,0
95942,-100,4,2,3,78,0,0
96321,-100,4,2,2,78,0,0
96511,-100,4,2,2,78,0,0
96701,-100,4,2,4,78,0,0
96985,-100,4,2,4,78,0,0
97081,-100,4,2,2,65,0,0
97461,-100,4,2,1,78,0,0
97840,-100,4,2,2,78,0,0
98030,-100,4,2,2,78,0,0
98220,-100,4,2,4,78,0,0
98599,-100,4,2,2,78,0,0
98980,-100,4,2,3,78,0,0
99264,-100,4,2,3,78,0,0
99359,-100,4,2,2,78,0,0
99548,-100,4,2,2,78,0,0
99739,-100,4,2,4,78,0,0
100023,-100,4,2,4,78,0,0
100119,-100,4,2,2,78,0,0
100309,-100,4,2,3,78,0,0
100499,-100,4,2,3,78,0,0
100878,-100,4,2,2,78,0,0
101068,-100,4,2,2,78,0,0
101258,-100,4,2,4,78,0,0
101638,-100,4,2,2,78,0,0
102018,-100,4,2,3,78,0,0
102207,-100,4,2,3,78,0,0
102397,-100,4,2,2,78,0,0
102587,-100,4,2,2,78,0,0
102777,-100,4,2,4,78,0,0
102967,-100,4,2,1,78,0,0
103061,-100,4,2,1,78,0,0
103157,-100,4,2,2,78,0,0
103537,-100,4,2,1,65,0,0
103632,-100,4,2,1,78,0,0
103916,-100,4,2,2,78,0,0
104106,-100,4,2,2,78,0,0
104296,-100,4,2,4,78,0,0
104676,-100,4,2,2,78,0,0
104866,-100,4,2,2,78,0,0
105056,-100,4,2,3,78,0,0
105435,-100,4,2,2,78,0,0
105624,-100,4,2,2,78,0,0
105815,-100,4,2,4,78,0,0
106194,-100,4,2,2,78,0,0
106385,-100,4,2,3,78,0,0
106575,-100,4,2,3,78,0,0
106954,-100,4,2,2,78,0,0
107144,-100,4,2,2,78,0,0
107334,-100,4,2,4,78,0,0
107714,-100,4,2,2,78,0,0
107904,-100,4,2,2,78,0,0
108094,-100,4,2,3,78,0,0
108283,-100,4,2,2,78,0,0
108662,-100,4,2,2,78,0,0
108853,-100,4,2,4,78,0,0
109232,-100,4,2,2,78,0,0
109423,-100,4,2,3,78,0,0
109613,-100,4,2,3,78,0,0
109992,-100,4,2,2,78,0,0
110182,-100,4,2,2,78,0,0
110372,-100,4,2,4,78,0,0
110656,-100,4,2,4,78,0,0
110752,-100,4,2,2,78,0,0
110941,-100,4,2,2,78,0,0
111132,-100,4,2,3,78,0,0
111321,-100,4,2,3,78,0,0
111511,-100,4,2,2,78,0,0
111700,-100,4,2,2,78,0,0
111891,-100,4,2,4,78,0,0
112270,-100,4,2,2,78,0,0
112461,-100,4,2,3,78,0,0
112651,-100,4,2,3,78,0,0
112840,-100,4,2,3,78,0,0
113220,-100,4,2,2,78,0,0
113410,-100,4,2,4,82,0,0
113599,-100,4,2,3,82,0,0
113790,-100,4,2,2,82,0,0
113980,-100,4,2,3,82,0,0
114170,-100,4,2,1,45,0,0
115689,-100,4,2,1,65,0,1
115783,-100,4,2,1,78,0,1
116068,-100,4,2,5,78,0,1
116258,-100,4,2,2,78,0,1
116448,-100,4,2,4,78,0,1
116637,-100,4,2,2,78,0,1
116828,-100,4,2,2,78,0,1
117112,-100,4,2,2,78,0,1
117208,-100,4,2,3,78,0,1
117587,-100,4,2,5,78,0,1
117777,-100,4,2,2,78,0,1
117967,-100,4,2,4,78,0,1
118157,-100,4,2,2,78,0,1
118347,-100,4,2,2,78,0,1
118537,-100,4,2,3,78,0,1
118727,-100,4,2,3,78,0,1
118827,-100,4,2,3,78,0,1
119106,-100,4,2,5,78,0,1
119296,-100,4,2,2,78,0,1
119486,-100,4,2,4,78,0,1
119675,-100,4,2,4,78,0,1
119866,-100,4,2,2,78,0,1
120150,-100,4,2,2,78,0,1
120246,-100,4,2,3,78,0,1
120624,-100,4,2,5,78,0,1
120815,-100,4,2,2,78,0,1
121005,-100,4,2,4,78,0,1
121195,-100,4,2,2,78,0,1
121385,-100,4,2,2,78,0,1
121575,-100,4,2,2,78,0,1
121764,-100,4,2,1,65,0,1
121859,-100,4,2,1,78,0,1
122143,-100,4,2,5,78,0,1
122334,-100,4,2,2,78,0,1
122524,-100,4,2,4,78,0,1
122713,-100,4,2,2,78,0,1
122904,-100,4,2,2,78,0,1
123188,-100,4,2,2,78,0,1
123283,-100,4,2,3,78,0,1
123663,-100,4,2,5,78,0,1
123853,-100,4,2,2,78,0,1
124043,-100,4,2,4,78,0,1
124232,-100,4,2,2,78,0,1
124423,-100,4,2,2,78,0,1
124613,-100,4,2,3,78,0,1
124802,-100,4,2,3,78,0,1
125181,-100,4,2,5,78,0,1
125372,-100,4,2,2,78,0,1
125562,-100,4,2,4,78,0,1
125941,-100,4,2,2,78,0,1
126131,-100,4,2,2,78,0,1
126321,-100,4,2,3,78,0,1
126701,-100,4,2,5,78,0,1
126891,-100,4,2,2,78,0,1
127081,-100,4,2,4,78,0,1
127271,-100,4,2,2,78,0,1
127365,-100,4,2,2,78,0,1
127461,-100,4,2,2,78,0,1
127650,-100,4,2,2,78,0,1
127840,-100,4,2,2,45,0,0
133916,-133.333333333333,4,2,3,45,0,0
138852,-133.333333333333,4,2,3,45,0,0
139043,-133.333333333333,4,2,3,45,0,0
139422,-133.333333333333,4,2,3,45,0,0
139613,-133.333333333333,4,2,3,45,0,0
139802,-133.333333333333,4,2,3,45,0,0
139992,-133.333333333333,4,2,3,45,0,0
143790,-133.333333333333,4,2,3,52,0,0
144549,-500,4,2,3,52,0,0
146068,-133.333333333333,4,2,1,39,0,0
146447,-133.333333333333,4,2,1,39,0,0
146638,-133.333333333333,4,2,1,39,0,0
147017,-133.333333333333,4,2,1,39,0,0
147208,-133.333333333333,4,2,1,39,0,0
147966,-133.333333333333,4,2,1,39,0,0
148157,-133.333333333333,4,2,1,39,0,0
149485,-133.333333333333,4,2,1,39,0,0
149676,-133.333333333333,4,2,1,39,0,0
150055,-133.333333333333,4,2,1,39,0,0
150246,-133.333333333333,4,2,1,39,0,0
150435,-133.333333333333,4,2,1,39,0,0
150625,-133.333333333333,4,2,1,39,0,0
151004,-133.333333333333,4,2,1,39,0,0
151195,-133.333333333333,4,2,1,39,0,0
154612,-133.333333333333,4,2,1,39,0,0
154802,-133.333333333333,4,2,1,39,0,0
154991,-133.333333333333,4,2,1,39,0,0
155182,-133.333333333333,4,2,1,50,0,0
155372,-133.333333333333,4,2,3,50,0,0
155752,-133.333333333333,4,2,1,50,0,0
155942,-133.333333333333,4,2,3,55,0,0
156321,-133.333333333333,4,2,1,55,0,0
156510,-133.333333333333,4,2,3,55,0,0
156701,-133.333333333333,4,2,3,35,0,0
158125,-133.333333333333,4,2,3,35,0,0
158220,-100,4,2,1,70,0,0
158790,-100,4,2,2,83,0,0
158980,-100,4,2,4,83,0,0
159359,-100,4,2,2,83,0,0
159739,-100,4,2,3,83,0,0
160023,-100,4,2,3,83,0,0
160119,-100,4,2,2,83,0,0
160308,-100,4,2,2,83,0,0
160499,-100,4,2,4,83,0,0
160878,-100,4,2,2,83,0,0
161068,-100,4,2,3,83,0,0
161258,-100,4,2,3,83,0,0
161637,-100,4,2,2,83,0,0
161828,-100,4,2,2,83,0,0
162018,-100,4,2,4,83,0,0
162397,-100,4,2,2,83,0,0
162777,-100,4,2,3,83,0,0
163157,-100,4,2,3,83,0,0
163347,-100,4,2,2,83,0,0
163537,-100,4,2,4,83,0,0
163916,-100,4,2,2,83,0,0
164296,-100,4,2,1,70,0,0
164391,-100,4,2,1,83,0,0
164675,-100,4,2,2,83,0,0
164866,-100,4,2,2,83,0,0
165056,-100,4,2,4,83,0,0
165435,-100,4,2,2,83,0,0
165815,-100,4,2,3,83,0,0
166194,-100,4,2,2,83,0,0
166385,-100,4,2,2,83,0,0
166575,-100,4,2,4,83,0,0
166954,-100,4,2,2,83,0,0
167144,-100,4,2,3,83,0,0
167334,-100,4,2,3,83,0,0
167523,-100,4,2,3,83,0,0
167714,-100,4,2,2,83,0,0
167903,-100,4,2,2,83,0,0
168094,-100,4,2,4,87,0,0
168283,-100,4,2,3,87,0,0
168473,-100,4,2,2,75,0,0
168663,-100,4,2,3,75,0,0
168853,-100,4,2,3,50,0,0
170372,-100,4,2,1,70,0,1
170467,-100,4,2,1,83,0,1
170751,-100,4,2,5,83,0,1
170942,-100,4,2,2,83,0,1
171132,-100,4,2,4,83,0,1
171321,-100,4,2,2,83,0,1
171511,-100,4,2,2,83,0,1
171795,-100,4,2,2,83,0,1
171891,-100,4,2,3,83,0,1
172271,-100,4,2,5,83,0,1
172461,-100,4,2,2,83,0,1
172651,-100,4,2,4,83,0,1
172840,-100,4,2,2,83,0,1
173030,-100,4,2,2,83,0,1
173220,-100,4,2,3,83,0,1
173410,-100,4,2,3,83,0,1
173511,-100,4,2,3,83,0,1
173790,-100,4,2,5,83,0,1
173979,-100,4,2,2,83,0,1
174170,-100,4,2,4,83,0,1
174359,-100,4,2,4,83,0,1
174549,-100,4,2,2,83,0,1
174738,-100,4,2,2,83,0,1
174929,-100,4,2,3,83,0,1
175309,-100,4,2,5,83,0,1
175498,-100,4,2,2,83,0,1
175689,-100,4,2,4,83,0,1
175878,-100,4,2,2,83,0,1
176068,-100,4,2,2,83,0,1
176258,-100,4,2,2,83,0,1
176448,-100,4,2,1,70,0,1
176543,-100,4,2,1,83,0,1
176827,-100,4,2,5,83,0,1
177018,-100,4,2,2,83,0,1
177208,-100,4,2,4,83,0,1
177397,-100,4,2,2,83,0,1
177587,-100,4,2,2,83,0,1
177871,-100,4,2,2,83,0,1
177967,-100,4,2,3,83,0,1
178347,-100,4,2,5,83,0,1
178536,-100,4,2,2,83,0,1
178727,-100,4,2,4,83,0,1
178916,-100,4,2,2,83,0,1
179106,-100,4,2,2,83,0,1
179296,-100,4,2,3,83,0,1
179486,-100,4,2,3,83,0,1
179865,-100,4,2,5,83,0,1
180056,-100,4,2,2,83,0,1
180246,-100,4,2,4,83,0,1
180625,-100,4,2,2,83,0,1
180815,-100,4,2,2,83,0,1
181005,-100,4,2,3,83,0,0
181764,-133.333333333333,4,2,3,35,0,0

[Colours]
Combo1 : 30,185,230
Combo2 : 247,30,128
Combo3 : 247,193,9

[HitObjects]
224,179,6132,5,0,0:0:0:0:
224,179,6321,2,0,P|192:165|157:160,1,70,2|0,2:2|2:0,0:0:0:0:
137,135,6606,2,0,P|88:155|36:163,1,105,0|2,2:0|2:2,0:0:0:0:
224,4,7081,2,0,P|211:36|209:74,1,70,0|0,2:0|2:0,0:0:0:0:
278,115,7366,2,0,P|330:109|382:104,1,105,0|0,2:0|2:0,0:0:0:0:
501,219,7840,6,0,P|467:217|436:200,1,70,2|0,2:2|2:0,0:0:0:0:
418,186,8125,2,0,L|432:289,1,105,0|2,2:0|2:2,0:0:0:0:
324,384,8600,2,0,P|324:349|333:315,1,70,0|0,2:0|2:0,0:0:0:0:
282,248,8885,2,0,P|231:247|192:280,1,105,0|0,2:0|2:0,0:0:0:0:
139,359,9359,5,2,2:2:0:0:
114,222,9549,1,0,2:0:0:0:
193,280,9739,2,0,P|126:301|57:313,1,140,0|0,2:0|0:0,0:0:0:0:
298,133,10499,1,2,2:2:0:0:
298,133,10878,6,0,P|355:167|353:234,1,140,2|0,2:2|2:0,0:0:0:0:
448,287,11448,2,0,P|411:345|344:353,1,140,2|0,2:2|0:0,0:0:0:0:
270,315,12018,1,0,0:0:0:0:
142,366,12208,5,0,2:0:0:0:
142,366,12397,2,0,P|140:331|132:297,1,70,2|0,2:2|2:0,0:0:0:0:
120,286,12682,2,0,L|133:181,1,105,0|2,2:0|2:2,0:0:0:0:
44,62,13157,2,0,P|54:97|58:138,1,70,0|0,2:0|2:0,0:0:0:0:
128,176,13442,2,0,P|179:162|218:128,1,105,0|0,2:0|2:0,0:0:0:0:
376,65,13916,6,0,P|345:48|311:42,1,70,2|0,2:2|2:0,0:0:0:0:
293,53,14201,2,0,L|304:122,1,70,0|0,2:0|0:0,0:0:0:0:
308,142,14486,1,2,2:2:0:0:
303,343,14676,2,0,P|304:308|320:273,1,70,0|0,2:0|2:0,0:0:0:0:
248,224,14961,2,0,P|196:234|145:244,1,105,0|0,2:0|2:0,0:0:0:0:
11,168,15435,5,2,2:2:0:0:
203,116,15625,1,0,2:0:0:0:
110,161,15815,2,0,P|91:94|91:25,1,140,0|0,2:0|0:0,0:0:0:0:
334,261,16575,1,2,2:2:0:0:
334,261,16954,6,0,P|266:279|196:285,1,140,2|0,2:2|2:0,0:0:0:0:
0,199,17524,2,0,P|67:188|123:227,1,140,2|0,2:2|0:0,0:0:0:0:
22,364,18094,1,0,2:0:0:0:
45,283,18283,1,0,2:0:0:0:
22,364,18473,6,0,P|5:296|-1:226,1,140,4|0,2:2|2:0,0:0:0:0:
190,110,19043,1,10,2:2:0:0:
107,44,19233,2,0,L|92:147,1,105,0|0,2:0|0:0,0:0:0:0:
83,158,19613,2,0,P|49:161|17:148,1,70,10|0,2:2|2:0,0:0:0:0:
163,247,19992,5,10,2:2:0:0:
163,247,20182,2,0,P|229:224|299:223,1,140,0|10,2:0|2:2,0:0:0:0:
395,85,20752,2,0,L|384:154,1,70,8|0,2:2|0:0,0:0:0:0:
435,330,21132,2,0,L|446:261,1,70,10|0,2:2|2:0,0:0:0:0:
310,326,21511,6,0,P|241:342|173:358,1,140,10|0,2:2|2:0,0:0:0:0:
10,302,22081,1,10,2:2:0:0:
110,254,22271,1,8,2:2:0:0:
88,337,22461,1,0,2:0:0:0:
88,337,22651,1,10,2:2:0:0:
27,172,23030,5,10,2:2:0:0:
89,108,23220,2,0,P|88:74|73:39,1,70,0|0,0:0|2:0,0:0:0:0:
27,172,23600,1,10,2:2:0:0:
152,241,23790,2,0,P|178:197|177:145,1,105,8|0,2:2|0:0,0:0:0:0:
167,129,24170,2,0,L|234:109,1,70,10|0,2:2|2:0,0:0:0:0:
386,15,24549,6,0,P|371:83|366:152,1,140,4|8,2:2|2:2,0:0:0:0:
496,358,25309,1,8,2:2:0:0:
446,237,25689,1,10,2:2:0:0:
446,237,25878,1,0,0:0:0:0:
374,318,26068,6,0,P|342:331|307:333,1,70,10|0,2:2|2:0,0:0:0:0:
161,240,26448,1,8,2:2:0:0:
202,367,26638,1,2,2:2:0:0:
161,240,26828,2,0,P|167:187|174:135,1,105,8|0,2:2|0:0,0:0:0:0:
99,93,27208,2,0,L|29:103,1,70,10|0,2:2|2:0,0:0:0:0:
203,13,27587,5,10,2:2:0:0:
302,56,27777,1,8,2:2:0:0:
296,220,27967,1,8,2:2:0:0:
245,121,28157,1,10,2:2:0:0:
424,62,28347,1,8,2:2:0:0:
401,229,28537,1,8,2:2:0:0:
497,171,28727,1,8,2:2:0:0:
363,134,28916,1,8,2:2:0:0:
363,134,29011,1,0,2:0:0:0:
363,134,29106,5,0,2:0:0:0:
272,124,29296,1,0,0:0:0:0:
181,113,29486,1,0,0:0:0:0:
90,103,29676,1,0,0:0:0:0:
145,30,29866,5,0,0:0:0:0:
171,117,30056,1,0,0:0:0:0:
82,95,30246,1,0,0:0:0:0:
145,30,30435,1,0,0:0:0:0:
165,224,30625,6,0,P|113:271|45:270,1,140,4|0,2:3|2:0,0:0:0:0:
80,187,31195,1,4,2:3:0:0:
206,335,31385,2,0,P|285:318|345:318,1,140,8|4,2:2|2:3,0:0:0:0:
490,204,31954,1,0,2:0:0:0:
397,156,32144,6,0,L|414:259,1,105,4|0,2:3|0:0,0:0:0:0:
421,275,32524,2,0,P|454:286|487:296,1,70,2|4,2:2|2:3,0:0:0:0:
387,141,32904,1,8,2:2:0:0:
235,369,33283,2,0,P|205:349|171:344,1,70,4|2,2:3|2:2,0:0:0:0:
170,249,33663,6,0,P|101:260|31:272,1,140,4|2,2:3|2:2,0:0:0:0:
170,160,34233,1,4,2:3:0:0:
1,30,34423,2,0,P|45:81|113:87,1,140,8|4,2:2|2:3,0:0:0:0:
199,24,34992,1,0,2:0:0:0:
294,231,35182,5,4,2:3:0:0:
294,231,35562,1,2,2:2:0:0:
362,142,35752,2,0,L|358:176,1,35,4|0,2:3|2:0,0:0:0:0:
208,292,35942,2,0,L|211:257,1,35,8|0,2:2|2:0,0:0:0:0:
350,363,36132,2,0,L|346:328,1,35,0|0,2:0|0:0,0:0:0:0:
409,260,36321,2,0,L|477:244,1,70,4|0,2:3|2:0,0:0:0:0:
489,252,36606,1,0,2:0:0:0:
499,261,36701,6,0,P|506:194|517:98,1,140,4|2,2:3|2:2,0:0:0:0:
430,24,37271,1,4,2:3:0:0:
270,208,37461,2,0,P|338:213|393:173,1,140,8|4,2:2|2:3,0:0:0:0:
310,111,38030,1,0,2:0:0:0:
391,299,38220,6,0,L|496:286,1,105,4|0,2:3|0:0,0:0:0:0:
507,295,38600,2,0,P|497:329|492:364,1,70,2|4,2:2|2:3,0:0:0:0:
424,200,38980,2,0,P|407:129|426:48,1,140,8|4,2:2|2:3,0:0:0:0:
496,4,39549,1,2,2:2:0:0:
331,225,39739,6,0,B|247:234|288:195|195:202,1,140,4|2,2:3|2:2,0:0:0:0:
31,108,40309,1,4,2:3:0:0:
103,55,40499,2,0,P|109:107|115:159,1,105,8|0,2:2|0:0,0:0:0:0:
99,178,40878,2,0,P|70:199|36:207,1,70,4|0,2:3|2:0,0:0:0:0:
228,359,41258,5,4,2:3:0:0:
228,359,41638,1,2,2:2:0:0:
277,247,41828,2,0,L|283:281,1,35,4|0,2:3|2:0,0:0:0:0:
383,377,42018,2,0,L|389:342,1,35,8|0,2:2|2:0,0:0:0:0:
486,219,42208,2,0,L|492:253,1,35,8|0,2:3|0:0,0:0:0:0:
394,145,42397,2,0,L|400:75,1,70,4|0,2:3|2:0,0:0:0:0:
409,64,42682,1,0,2:0:0:0:
418,52,42777,6,0,P|361:92|292:92,1,140,4|2,2:3|2:2,0:0:0:0:
146,22,43347,1,4,2:3:0:0:
188,169,43537,1,8,2:2:0:0:
209,84,43727,1,0,2:0:0:0:
97,132,43916,1,4,2:3:0:0:
203,181,44106,1,2,2:2:0:0:
48,33,44296,5,4,2:3:0:0:
110,239,44486,1,0,2:0:0:0:
17,188,44676,2,0,P|10:153|23:116,1,70,2|4,2:2|2:3,0:0:0:0:
131,324,45056,2,0,P|63:320|16:369,1,140,8|4,2:2|2:3,0:0:0:0:
192,238,45625,1,2,2:2:0:0:
267,337,45815,6,0,P|288:357|394:367,1,140,4|2,2:3|2:2,0:0:0:0:
482,301,46385,1,4,2:3:0:0:
340,167,46575,1,8,2:2:0:0:
486,207,46764,1,0,2:0:0:0:
348,274,46954,1,4,2:3:0:0:
496,203,47144,1,2,2:2:0:0:
275,331,47334,5,4,2:3:0:0:
412,225,47524,1,2,2:2:0:0:
253,119,47714,2,0,P|263:151|265:187,1,70,2|4,2:2|2:3,0:0:0:0:
116,365,48094,2,0,P|99:292|119:225,1,140,8|4,2:2|2:3,0:0:0:0:
64,165,48568,2,0,L|29:168,2,35,0|2|0,2:0|2:2|2:0,0:0:0:0:
122,103,48853,6,0,P|189:87|233:34,1,140,4|2,2:3|2:2,0:0:0:0:
339,192,49423,1,4,2:3:0:0:
462,130,49613,2,0,L|358:111,1,105,8|0,2:2|0:0,0:0:0:0:
364,96,49992,2,0,L|294:102,1,70,4|2,2:3|2:2,0:0:0:0:
114,218,50372,5,4,2:3:0:0:
114,218,50562,1,0,0:0:0:0:
175,84,50752,2,0,P|180:119|185:154,1,70,2|4,2:2|2:3,0:0:0:0:
47,359,51132,2,0,P|31:310|42:259,1,105,8|0,2:2|0:0,0:0:0:0:
53,246,51511,2,0,L|-14:227,1,70,4|2,2:3|2:2,0:0:0:0:
198,360,51891,6,0,B|287:365|250:333|334:337,1,140,4|8,2:3|2:2,0:0:0:0:
480,289,52461,1,4,2:3:0:0:
404,200,52651,2,0,P|396:232|395:269,1,70,8|8,2:2|2:2,0:0:0:0:
485,146,53030,1,4,2:3:0:0:
282,232,53220,1,8,2:2:0:0:
435,374,53410,5,8,2:3:0:0:
435,374,53980,1,0,2:0:0:0:
435,374,54075,1,0,2:0:0:0:
435,374,54170,1,0,2:0:0:0:
475,291,54359,1,0,2:0:0:0:
345,379,54549,1,0,2:0:0:0:
345,379,54929,6,0,P|317:316|318:246,1,140,4|10,2:3|2:2,0:0:0:0:
418,103,55499,1,4,2:3:0:0:
450,195,55689,2,0,L|441:264,1,70,8|2,2:2|2:2,0:0:0:0:
207,154,56068,2,0,P|258:130|311:136,1,105,4|0,2:3|0:0,0:0:0:0:
324,148,56448,5,4,2:3:0:0:
206,46,56638,1,0,2:0:0:0:
206,46,56733,1,0,2:0:0:0:
206,46,56828,1,10,2:2:0:0:
293,3,57018,1,4,2:3:0:0:
208,153,57208,2,0,P|176:169|141:171,1,70,8|2,2:2|2:2,0:0:0:0:
58,112,57587,2,0,L|51:77,2,35,4|0|2,2:3|2:0|2:2,0:0:0:0:
0,251,57967,6,0,P|67:262|100:322,1,140,4|10,2:3|2:2,0:0:0:0:
259,270,58537,1,4,2:3:0:0:
156,170,58727,2,0,L|167:261,1,70,8|0,2:2|0:0,0:0:0:0:
292,360,59106,2,0,P|343:345|395:343,1,105,4|0,2:3|0:0,0:0:0:0:
411,358,59486,5,4,2:3:0:0:
498,202,59676,1,0,2:0:0:0:
498,202,59771,1,0,2:0:0:0:
498,202,59866,1,10,2:2:0:0:
401,246,60056,1,4,2:3:0:0:
499,298,60246,1,8,2:2:0:0:
414,143,60435,1,2,2:2:0:0:
317,275,60625,2,0,P|311:309|308:344,1,70,4|2,2:3|2:2,0:0:0:0:
308,358,60910,1,0,2:0:0:0:
306,371,61005,6,0,P|253:329|184:331,1,140,4|10,2:3|2:2,0:0:0:0:
50,195,61575,1,4,2:3:0:0:
12,294,61764,2,0,L|81:283,1,70,8|2,2:2|2:2,0:0:0:0:
182,136,62144,2,0,P|154:173|163:229,1,105,4|0,2:3|0:0,0:0:0:0:
173,241,62524,5,4,2:3:0:0:
86,74,62714,1,0,2:0:0:0:
86,74,62809,1,0,2:0:0:0:
86,74,62904,1,10,2:2:0:0:
262,151,63094,1,4,2:3:0:0:
124,315,63283,2,0,P|120:250|105:208,1,105,8|0,2:2|0:0,0:0:0:0:
32,159,63663,2,0,L|-2:163,2,35,4|0|2,2:3|2:0|2:2,0:0:0:0:
148,55,64043,6,0,P|221:47|279:84,1,140,4|10,2:3|2:2,0:0:0:0:
489,123,64613,1,4,2:3:0:0:
373,234,64802,6,0,B|355:112|420:174|397:18,1,210,8|0,2:2|0:0,0:0:0:0:
385,22,65562,5,4,2:3:0:0:
278,212,65752,1,0,2:0:0:0:
278,212,65847,1,0,2:0:0:0:
278,212,65942,1,10,2:2:0:0:
187,164,66132,5,4,2:3:0:0:
338,109,66321,1,8,2:2:0:0:
170,167,66511,1,2,2:2:0:0:
374,236,66701,1,4,2:3:0:0:
253,332,66891,5,2,2:2:0:0:
253,332,66986,1,0,2:0:0:0:
253,332,67081,2,0,P|223:311|184:307,1,70,2|0,2:2|2:0,0:0:0:0:
112,335,67366,2,0,P|82:293|87:236,1,105,0|2,2:0|2:2,0:0:0:0:
207,70,67840,2,0,P|223:104|221:152,1,70,8|0,2:2|2:0,0:0:0:0:
286,192,68125,2,0,P|337:191|377:158,1,105,0|0,2:0|2:0,0:0:0:0:
512,323,68600,6,0,P|478:311|444:306,1,70,2|0,2:2|2:0,0:0:0:0:
425,291,68885,2,0,L|322:312,1,105,0|2,2:0|2:2,0:0:0:0:
198,267,69359,1,8,2:2:0:0:
298,208,69549,1,0,2:0:0:0:
240,366,69739,1,2,2:2:0:0:
240,366,69929,1,0,2:0:0:0:
127,203,70119,5,2,2:2:0:0:
274,281,70309,1,0,2:0:0:0:
125,362,70499,2,0,P|56:375|-13:374,1,140,0|8,2:0|2:2,0:0:0:0:
9,282,71068,2,0,P|42:275|77:279,2,70,0|2|0,2:0|2:2|2:0,0:0:0:0:
200,376,71638,6,0,P|253:326|333:331,1,140,2|0,2:2|2:0,0:0:0:0:
388,359,72113,1,0,2:0:0:0:
388,359,72208,2,0,L|435:357,2,35,2|0|8,2:2|2:0|2:2,0:0:0:0:
261,271,72587,1,0,2:0:0:0:
402,218,72777,1,2,2:2:0:0:
261,271,72967,1,0,2:0:0:0:
409,144,73157,6,0,L|417:74,1,70,2|0,2:2|2:0,0:0:0:0:
451,0,73442,2,0,P|407:28|356:25,1,105,0|2,2:0|2:2,0:0:0:0:
255,126,73916,2,0,P|226:106|192:97,1,70,8|0,2:2|2:0,0:0:0:0:
127,57,74201,2,0,L|57:66,1,70,0|0,2:0|0:0,0:0:0:0:
1,116,74486,1,0,2:0:0:0:
81,233,74676,6,0,L|150:223,1,70,2|0,2:2|2:0,0:0:0:0:
226,214,74961,2,0,P|249:239|256:273,1,70,0|0,2:0|0:0,0:0:0:0:
206,373,75246,2,0,P|201:356|202:338,1,35,2|0,2:2|0:0,0:0:0:0:
256,274,75435,6,0,L|308:278,1,52.5,8|0,2:2|0:0,0:0:0:0:
319,272,75625,2,0,L|371:276,1,52.5,0|0,2:0|0:0,0:0:0:0:
383,286,75815,2,0,L|435:290,1,52.5,2|0,2:2|0:0,0:0:0:0:
446,284,76005,2,0,L|498:288,1,52.5,0|0,2:0|0:0,0:0:0:0:
507,299,76195,5,2,2:2:0:0:
384,179,76385,1,0,2:0:0:0:
499,80,76575,2,0,P|492:150|466:215,1,140,0|8,2:0|2:2,0:0:0:0:
392,272,77144,2,0,L|322:279,2,70,0|2|0,2:0|2:2|2:0,0:0:0:0:
504,384,77714,5,2,2:2:0:0:
504,384,77904,2,0,P|465:365|360:372,1,140,8|2,2:2|2:2,0:0:0:0:
261,191,78473,2,0,P|275:213|277:306,1,105,8|0,2:2|0:0,0:0:0:0:
223,349,78853,2,0,P|185:353|140:376,1,70,2|0,2:2|2:0,0:0:0:0:
31,258,79233,6,0,P|17:162|48:95,1,140,4|0,2:2|2:0,0:0:0:0:
214,213,79802,1,10,2:2:0:0:
140,19,79992,2,0,P|135:70|130:144,1,105,8|0,2:2|0:0,0:0:0:0:
145,142,80372,2,0,P|183:139|224:121,1,70,10|0,2:2|2:0,0:0:0:0:
420,70,80752,5,10,2:2:0:0:
332,4,80942,2,0,L|346:158,1,140,0|10,2:0|2:2,0:0:0:0:
436,235,81511,2,0,P|438:199|450:144,1,70,8|0,2:2|2:0,0:0:0:0:
268,289,81891,2,0,P|263:254|246:200,1,70,10|0,2:2|2:0,0:0:0:0:
504,376,82271,6,0,P|445:334|365:336,1,140,10|0,2:2|2:0,0:0:0:0:
243,180,82840,1,10,2:2:0:0:
268,289,83030,1,8,2:2:0:0:
334,216,83220,1,0,2:0:0:0:
182,262,83410,1,10,2:2:0:0:
273,298,83600,1,0,2:0:0:0:
367,134,83790,5,10,2:2:0:0:
367,134,83980,1,0,2:0:0:0:
307,362,84170,1,0,2:0:0:0:
222,186,84359,1,10,2:2:0:0:
420,259,84549,2,0,P|491:247|506:235,1,70,8|0,2:2|0:0,0:0:0:0:
329,168,84929,1,10,2:2:0:0:
392,355,85119,1,0,2:0:0:0:
329,168,85309,6,0,P|334:98|356:32,2,140,4|8|8,2:2|2:2|2:2,0:0:0:0:
101,362,86448,1,10,2:2:0:0:
54,256,86638,1,0,0:0:0:0:
177,216,86828,6,0,P|233:223|273:243,2,93.3333333333333,10|8|10,2:2|0:0|0:0,0:0:0:0:
352,350,87587,2,0,P|398:345|441:327,2,93.3333333333333,10|8|10,2:2|0:0|0:0,0:0:0:0:
368,189,88347,5,10,2:2:0:0:
368,189,88537,1,8,2:2:0:0:
368,189,88727,1,8,2:2:0:0:
368,189,88916,1,10,2:2:0:0:
368,189,89106,1,8,2:2:0:0:
289,116,89296,1,8,2:2:0:0:
219,241,89486,1,8,2:2:0:0:
165,79,89676,1,8,2:2:0:0:
165,79,89771,1,0,2:0:0:0:
165,79,89866,5,0,2:0:0:0:
176,168,90056,1,0,0:0:0:0:
85,179,90246,1,0,0:0:0:0:
75,89,90435,1,0,0:0:0:0:
175,71,90625,5,0,0:0:0:0:
178,161,90815,1,0,0:0:0:0:
86,164,91005,1,0,0:0:0:0:
84,73,91194,1,0,0:0:0:0:
10,255,91385,6,0,P|66:263|122:344,1,140,4|0,2:3|2:0,0:0:0:0:
296,213,91954,1,4,2:3:0:0:
216,118,92144,2,0,P|191:162|197:249,1,140,8|4,2:2|2:3,0:0:0:0:
270,331,92714,1,0,2:0:0:0:
466,234,92904,6,0,P|432:262|361:256,1,105,4|0,2:3|0:0,0:0:0:0:
357,247,93283,2,0,P|361:210|370:157,1,70,2|4,2:2|2:3,0:0:0:0:
406,378,93663,1,8,2:2:0:0:
104,288,94043,2,0,P|138:283|191:278,1,70,4|2,2:3|2:2,0:0:0:0:
216,184,94423,6,0,P|196:141|90:138,1,140,4|2,2:3|2:2,0:0:0:0:
280,267,94992,1,4,2:3:0:0:
363,206,95182,2,0,B|445:208|417:179|499:183,1,140,8|4,2:2|2:3,0:0:0:0:
370,106,95752,1,0,2:0:0:0:
427,304,95942,5,4,2:3:0:0:
427,304,96321,1,2,2:2:0:0:
355,361,96511,2,0,L|294:369,1,35,4|0,2:3|2:0,0:0:0:0:
172,300,96701,2,0,L|233:292,1,35,8|0,2:2|2:0,0:0:0:0:
331,176,96891,2,0,L|270:184,1,35,0|0,2:0|0:0,0:0:0:0:
227,112,97081,2,0,P|218:61|222:35,1,70,4|0,2:3|2:0,0:0:0:0:
230,33,97366,1,0,2:0:0:0:
240,23,97461,6,0,P|168:64|101:68,1,140,4|2,2:3|2:2,0:0:0:0:
186,253,98030,1,4,2:3:0:0:
9,208,98220,2,0,P|66:163|143:178,1,140,8|4,2:2|2:3,0:0:0:0:
289,73,98790,1,0,2:0:0:0:
192,22,98980,6,0,L|209:130,1,105,4|0,2:3|0:0,0:0:0:0:
215,141,99359,2,0,L|207:227,1,70,2|4,2:2|2:3,0:0:0:0:
345,373,99739,2,0,P|324:317|260:322,1,105,8|0,2:2|0:0,0:0:0:0:
268,303,100119,2,0,L|175:315,1,70,4|2,2:3|2:2,0:0:0:0:
371,196,100499,6,0,P|440:203|523:211,1,140,4|2,2:3|2:2,0:0:0:0:
466,111,101068,1,4,2:3:0:0:
358,294,101258,1,8,2:2:0:0:
219,40,101638,1,4,2:3:0:0:
219,40,102018,6,0,P|212:78|204:131,1,70,4|0,2:3|0:0,0:0:0:0:
251,245,102397,1,2,2:2:0:0:
135,206,102587,2,0,L|186:196,1,35,4|0,2:3|2:0,0:0:0:0:
347,319,102777,2,0,L|296:309,1,35,8|0,2:2|2:0,0:0:0:0:
377,206,102967,6,0,L|326:196,1,35,8|0,2:3|0:0,0:0:0:0:
165,319,103157,2,0,P|203:315|238:295,1,70,4|0,2:3|2:0,0:0:0:0:
238,288,103442,1,0,2:0:0:0:
244,275,103537,6,0,P|239:205|233:119,1,140,4|2,2:3|2:2,0:0:0:0:
365,34,104106,1,4,2:3:0:0:
329,135,104296,1,8,2:2:0:0:
264,15,104486,1,0,2:0:0:0:
411,107,104676,1,4,2:3:0:0:
240,183,104866,1,2,2:2:0:0:
481,24,105056,5,4,2:3:0:0:
424,240,105246,1,0,2:0:0:0:
262,148,105435,2,0,P|291:135|341:138,1,70,2|4,2:2|2:3,0:0:0:0:
483,344,105815,2,0,P|434:299|348:318,1,140,8|4,2:2|2:3,0:0:0:0:
271,370,106385,1,2,2:2:0:0:
150,298,106575,6,0,P|128:226|158:145,1,140,4|2,2:3|2:2,0:0:0:0:
260,48,107144,1,4,2:3:0:0:
237,179,107334,1,8,2:2:0:0:
167,25,107524,1,0,2:0:0:0:
327,108,107714,1,4,2:3:0:0:
167,25,107904,1,2,2:2:0:0:
64,195,108094,5,4,2:3:0:0:
230,110,108283,1,2,2:2:0:0:
84,12,108473,2,0,P|90:45|103:107,1,70,2|4,2:2|2:3,0:0:0:0:
239,183,108853,2,0,B|330:186|294:156|386:160,1,140,8|4,2:2|2:3,0:0:0:0:
447,115,109328,2,0,L|456:57,2,35,0|2|0,2:0|2:2|2:0,0:0:0:0:
501,175,109613,6,0,P|517:227|495:334,1,140,4|2,2:3|2:2,0:0:0:0:
341,226,110182,1,4,2:3:0:0:
406,372,110372,2,0,P|412:312|422:266,1,105,8|0,2:2|0:0,0:0:0:0:
410,254,110752,2,0,L|312:272,1,70,4|2,2:3|2:2,0:0:0:0:
187,170,111132,5,4,2:3:0:0:
187,170,111321,1,0,0:0:0:0:
287,102,111511,2,0,P|293:142|294:183,1,70,2|4,2:2|2:3,0:0:0:0:
177,313,111891,2,0,P|146:280|36:272,1,140,8|4,2:2|2:3,0:0:0:0:
187,170,112461,1,2,2:2:0:0:
76,103,112651,6,0,L|-10:118,1,70,4|8,2:3|2:2,0:0:0:0:
187,170,113030,1,8,2:2:0:0:
156,0,113220,1,4,2:3:0:0:
318,102,113410,6,0,P|288:93|236:86,1,70,8|8,2:2|2:2,0:0:0:0:
52,251,113790,2,0,P|86:245|120:235,1,70,4|8,2:3|2:2,0:0:0:0:
131,244,114075,1,0,2:0:0:0:
141,252,114170,5,8,2:3:0:0:
149,259,114739,1,0,2:0:0:0:
149,259,114834,1,0,2:0:0:0:
149,259,114929,1,0,2:0:0:0:
105,346,115119,1,0,2:0:0:0:
239,256,115309,1,0,2:0:0:0:
239,256,115689,6,0,P|246:183|256:99,1,140,4|10,2:3|2:2,0:0:0:0:
338,175,116258,1,4,2:3:0:0:
140,272,116448,2,0,L|42:283,1,70,8|2,2:2|2:2,0:0:0:0:
308,364,116828,2,0,P|346:370|414:321,1,105,4|0,2:3|0:0,0:0:0:0:
421,351,117208,5,4,2:3:0:0:
508,210,117397,1,0,2:0:0:0:
508,210,117492,1,0,2:0:0:0:
508,210,117587,1,10,2:2:0:0:
392,238,117777,1,4,2:3:0:0:
511,331,117967,1,8,2:2:0:0:
511,331,118157,1,2,2:2:0:0:
427,147,118347,2,0,P|440:33|441:22,1,105,4|0,2:3|2:0,0:0:0:0:
453,19,118727,6,0,P|416:52|314:44,1,140,4|10,2:3|2:2,0:0:0:0:
226,168,119296,1,4,2:3:0:0:
115,82,119486,2,0,P|168:83|199:69,1,70,8|0,2:2|0:0,0:0:0:0:
410,202,119866,2,0,P|367:180|300:192,1,105,4|0,2:3|0:0,0:0:0:0:
294,204,120246,5,4,2:3:0:0:
244,306,120435,2,0,L|250:355,2,35,0|0|10,2:0|2:0|2:2,0:0:0:0:
135,203,120815,1,4,2:3:0:0:
135,203,120910,1,0,2:0:0:0:
135,203,121005,1,8,2:2:0:0:
71,329,121195,1,2,2:2:0:0:
219,227,121385,1,4,2:3:0:0:
41,162,121575,1,2,2:2:0:0:
41,162,121670,1,0,2:0:0:0:
41,162,121764,6,0,P|58:31|63:-4,1,140,4|10,2:3|2:2,0:0:0:0:
216,133,122334,1,4,2:3:0:0:
141,237,122524,2,0,L|130:157,1,70,8|2,2:2|2:2,0:0:0:0:
281,85,122904,2,0,P|362:95|406:96,1,105,4|0,2:3|0:0,0:0:0:0:
406,82,123283,5,4,2:3:0:0:
494,234,123473,1,0,2:0:0:0:
494,234,123568,1,0,2:0:0:0:
494,234,123663,1,10,2:2:0:0:
360,187,123853,1,4,2:3:0:0:
501,114,124043,2,0,L|516:36,1,70,8|2,2:2|2:2,0:0:0:0:
367,213,124423,2,0,L|372:268,1,35,4|0,2:3|2:0,0:0:0:0:
434,292,124613,2,0,L|439:347,1,35,2|0,2:2|2:0,0:0:0:0:
371,369,124802,6,0,B|291:368|326:339|237:337,1,140,4|10,2:3|2:2,0:0:0:0:
100,211,125372,1,4,2:3:0:0:
16,294,125562,2,0,B|146:294|84:233|232:237,1,210,8|0,2:2|0:0,0:0:0:0:
231,253,126321,5,4,2:3:0:0:
293,80,126511,1,0,2:0:0:0:
293,80,126606,1,0,2:0:0:0:
293,80,126701,1,10,2:2:0:0:
171,141,126891,1,4,2:3:0:0:
336,235,127081,2,0,L|325:189,1,35,8|0,2:2|2:0,0:0:0:0:
147,319,127271,2,0,L|158:273,1,35,2|0,2:2|0:0,0:0:0:0:
315,384,127461,2,0,P|348:371|411:369,1,70,4|2,2:3|2:2,0:0:0:0:
465,56,133916,6,0,B|421:64|374:77|417:93|353:120|299:119,2,157.500006008148,12|10|10,2:2|2:2|2:2,0:0:0:0:
438,372,135435,2,0,B|453:281|472:221|481:221|474:210,2,157.500006008148,10|10|10,2:2|2:2|2:2,0:0:0:0:
438,372,136764,1,2,2:2:0:0:
329,294,136954,6,0,P|266:294|205:377,2,157.500006008148,8|10|8,2:2|2:2|2:2,0:0:0:0:
504,190,138473,2,0,P|431:187|402:157,1,105.000004005432,8|0,2:2|0:0,0:0:0:0:
328,180,139043,2,0,P|300:137|313:64,1,105.000004005432,10|0,2:2|0:0,0:0:0:0:
363,30,139613,2,0,L|420:16,1,52.5000020027161,8|0,2:2|0:0,0:0:0:0:
219,140,139992,6,0,P|170:131|102:119,1,105.000004005432,8|8,2:2|2:2,0:0:0:0:
338,291,140752,2,0,P|388:275|439:265,1,105.000004005432,8|10,2:2|2:2,0:0:0:0:
510,292,141321,1,2,2:2:0:0:
496,215,141511,6,0,L|511:141,2,70.0000026702882,10|8|10,2:2|2:2|2:2,0:0:0:0:
436,85,142271,2,0,L|421:11,2,70.0000026702882,8|8|10,2:2|2:2|2:2,0:0:0:0:
362,164,143030,5,8,2:2:0:0:
362,164,143220,1,8,2:2:0:0:
362,164,143410,1,10,2:2:0:0:
362,164,143600,1,8,2:2:0:0:
289,106,143790,1,8,2:2:0:0:
259,209,143980,1,8,2:2:0:0:
187,64,144170,1,8,2:2:0:0:
141,244,144359,1,8,2:2:0:0:
48,144,144549,6,0,L|96:139,1,49
96,138,145309,1,0,0:0:0:0:
96,138,145499,1,0,0:0:0:0:
96,138,145689,1,0,0:0:0:0:
471,38,146068,6,0,P|452:80|449:155,1,105.000004005432,2|0,2:2|0:0,0:0:0:0:
512,262,146638,2,0,P|492:234|417:236,1,105.000004005432,2|0,2:2|0:0,0:0:0:0:
358,287,147208,2,0,L|369:345,1,52.5000020027161,2|0,2:2|2:0,0:0:0:0:
284,242,147587,6,0,L|295:121,1,105.000004005432,2|0,2:2|0:0,0:0:0:0:
208,42,148157,2,0,L|218:114,1,52.5000020027161,2|0,2:2|2:0,0:0:0:0:
112,250,148727,1,2,2:2:0:0:
112,250,148916,1,0,2:0:0:0:
39,201,149106,6,0,P|92:201|137:148,1,105.000004005432,2|0,2:2|0:0,0:0:0:0:
211,192,149676,2,0,L|197:74,1,105.000004005432,2|0,2:2|0:0,0:0:0:0:
295,198,150246,2,0,L|286:273,1,52.5000020027161,2|0,2:2|0:0,0:0:0:0:
358,299,150625,6,0,P|409:291|472:286,1,105.000004005432,2|0,2:2|0:0,0:0:0:0:
207,217,151195,2,0,P|136:219|100:195,1,105.000004005432,2|0,2:2|2:0,0:0:0:0:
309,70,151764,2,0,L|300:121,1,52.5000020027161,2|0,2:2|2:0,0:0:0:0:
239,13,152144,5,2,2:2:0:0:
288,319,152714,1,2,2:2:0:0:
288,319,153283,2,0,L|352:312,1,52.5000020027161,2|0,2:2|2:0,0:0:0:0:
434,300,153663,6,0,P|446:245|431:178,1,105.000004005432,2|0,2:2|2:0,0:0:0:0:
318,95,154233,2,0,P|306:150|321:217,1,105.000004005432,2|0,2:2|0:0,0:0:0:0:
249,265,154802,2,0,P|222:281|194:282,1,52.5000020027161,2|0,2:2|0:0,0:0:0:0:
51,231,155182,5,2,2:2:0:0:
165,161,155372,1,8,2:2:0:0:
106,294,155562,1,8,2:2:0:0:
71,104,155752,1,2,2:2:0:0:
254,190,155942,6,0,L|322:181,1,52.5000020027161,8|8,2:2|2:2,0:0:0:0:
190,309,156321,2,0,L|179:377,1,52.5000020027161,2|8,2:2|2:2,0:0:0:0:
181,360,156606,1,0,2:0:0:0:
181,360,156701,6,0,B|163:277|95:261|44:290|44:290|83:315|170:284|184:220|184:220|165:220|137:248,1,393.750015020371,0|0,2:0|0:0,0:0:0:0:
113,122,158220,6,0,P|55:122|6:56,1,140,4|0,2:3|2:0,0:0:0:0:
189,40,158790,1,4,2:3:0:0:
153,233,158980,2,0,P|205:217|305:212,1,140,8|4,2:2|2:3,0:0:0:0:
482,256,159549,1,0,2:0:0:0:
363,297,159739,6,0,L|390:172,1,105,4|0,2:3|0:0,0:0:0:0:
404,177,160119,2,0,L|389:97,1,70,2|4,2:2|2:3,0:0:0:0:
499,22,160499,1,8,2:2:0:0:
182,25,160878,2,0,L|160:102,1,70,4|2,2:3|2:2,0:0:0:0:
127,171,161258,6,0,P|86:133|1:132,1,140,4|2,2:3|2:2,0:0:0:0:
20,335,161828,1,4,2:3:0:0:
83,241,162018,2,0,P|124:203|209:202,1,140,8|4,2:2|2:3,0:0:0:0:
272,371,162587,1,0,2:0:0:0:
163,279,162777,6,0,L|175:361,1,70,4|0,2:3|2:0,0:0:0:0:
319,273,163157,1,2,2:2:0:0:
319,273,163347,1,4,2:3:0:0:
415,367,163537,1,10,2:2:0:0:
415,367,163727,1,2,2:2:0:0:
475,296,163916,2,0,L|465:246,1,35,4|0,2:3|2:0,0:0:0:0:
380,210,164106,2,0,L|390:160,1,35,0|0,2:0|2:0,0:0:0:0:
464,94,164296,6,0,P|397:134|324:108,1,140,4|2,2:3|2:2,0:0:0:0:
127,42,164866,1,4,2:3:0:0:
225,19,165056,2,0,B|324:7|271:48|375:40,1,140,8|4,2:2|2:3,0:0:0:0:
244,119,165625,1,0,2:0:0:0:
123,154,165815,6,0,P|53:151|4:93,1,140,4|2,2:3|2:2,0:0:0:0:
127,42,166385,1,4,2:3:0:0:
209,190,166575,2,0,P|219:228|224:268,1,70,8|0,2:2|2:0,0:0:0:0:
54,353,166954,1,4,2:3:0:0:
120,250,167144,1,2,2:2:0:0:
256,368,167334,6,0,L|331:352,1,70,4|8,2:3|2:2,0:0:0:0:
502,292,167714,2,0,L|427:276,1,70,2|4,2:2|2:3,0:0:0:0:
290,209,168094,5,8,2:2:0:0:
427,125,168283,1,8,2:2:0:0:
282,21,168473,6,0,L|288:69,1,35,6|0,2:3|2:0,0:0:0:0:
303,83,168663,1,10,2:2:0:0:
380,20,168853,5,4,2:3:0:0:
121,191,170372,6,0,L|150:40,1,140,4|10,2:3|2:2,0:0:0:0:
24,160,170942,1,4,2:3:0:0:
119,291,171132,2,0,P|153:290|190:261,1,70,8|2,2:2|2:2,0:0:0:0:
343,147,171511,2,0,P|404:150|435:192,1,105,4|0,2:3|0:0,0:0:0:0:
445,169,171891,5,4,2:3:0:0:
362,242,172081,1,0,2:0:0:0:
362,242,172176,1,0,2:0:0:0:
362,242,172271,1,10,2:2:0:0:
490,315,172461,1,4,2:3:0:0:
351,367,172651,2,0,L|263:352,1,70,8|2,2:2|2:2,0:0:0:0:
192,269,173030,1,4,2:3:0:0:
72,363,173220,1,2,2:2:0:0:
209,247,173410,6,0,B|74:274|135:212|4:236,1,210,4|4,2:3|2:3,0:0:0:0:
163,167,174170,2,0,P|153:119|143:85,1,70,8|0,2:2|0:0,0:0:0:0:
4,93,174549,2,0,P|14:45|24:11,1,70,4|0,2:3|0:0,0:0:0:0:
231,20,174929,5,4,2:3:0:0:
288,103,175119,1,0,2:0:0:0:
288,103,175214,1,0,2:0:0:0:
288,103,175309,2,0,P|295:155|296:192,1,70,10|4,2:2|2:3,0:0:0:0:
251,295,175689,1,8,2:2:0:0:
372,240,175878,1,2,2:2:0:0:
341,368,176068,1,4,2:3:0:0:
341,368,176163,1,0,2:0:0:0:
341,368,176258,1,2,2:2:0:0:
178,239,176448,6,0,P|121:233|47:279,1,140,4|10,2:3|2:2,0:0:0:0:
144,346,177018,1,4,2:3:0:0:
17,167,177208,2,0,L|28:91,1,70,8|2,2:2|2:2,0:0:0:0:
168,18,177587,2,0,L|188:136,1,105,4|0,2:3|0:0,0:0:0:0:
203,105,177967,5,4,2:3:0:0:
268,209,178157,1,0,2:0:0:0:
268,209,178252,1,0,2:0:0:0:
268,209,178347,2,0,P|301:222|351:212,1,70,10|4,2:2|2:3,0:0:0:0:
512,110,178727,2,0,P|479:97|429:107,1,70,8|2,2:2|2:2,0:0:0:0:
320,109,179106,2,0,L|338:25,1,70,4|2,2:3|2:2,0:0:0:0:
429,190,179486,5,4,2:3:0:0:
457,209,179580,1,0,2:0:0:0:
472,240,179675,1,0,2:0:0:0:
470,274,179770,1,0,2:0:0:0:
451,303,179865,1,10,2:2:0:0:
319,279,180056,1,4,2:3:0:0:
480,328,180246,6,0,B|346:315|413:384|252:356,1,210,8|0,2:2|0:0,0:0:0:0:
255,113,181005,5,4,2:3:0:0:
208,303,181764,6,0,L|226:232,2,52.5000020027161,0|0|0,2:0|2:0|2:0,0:0:0:0:
