osu file format v14

[General]
AudioFilename: audio.mp3
AudioLeadIn: 0
PreviewTime: 27492
Countdown: 0
SampleSet: Soft
StackLeniency: 0.5
Mode: 0
LetterboxInBreaks: 0
WidescreenStoryboard: 1

[Editor]
Bookmarks: 30573,54877,67029,91333,115637,127788,133864,146016,158168,170320
DistanceSpacing: 1
BeatDivisor: 4
GridSize: 4
TimelineZoom: 1.7

[Metadata]
Title:Changed My Mind
TitleUnicode:Changed My Mind
Artist:Tove Styrke
ArtistUnicode:Tove Styrke
Creator:Mint
Version:Hard
Source:
Tags:sway english pop schoolboy komore appleeaterx
BeatmapID:2380859
BeatmapSetID:982452

[Difficulty]
HPDrainRate:5
CircleSize:4
OverallDifficulty:6
ApproachRate:7.3
SliderMultiplier:1.1
SliderTickRate:1

[Events]
//Background and Video events
0,0,"tove-styrke-fashionista.jpg",0,0
//Break Periods
2,128040,133062
//Storyboard Layer 0 (Background)
//Storyboard Layer 1 (Fail)
//Storyboard Layer 2 (Pass)
//Storyboard Layer 3 (Foreground)
//Storyboard Layer 4 (Overlay)
//Storyboard Sound Samples

[TimingPoints]
246,379.746835443038,4,2,0,35,1,0
6321,-111.111111111111,4,2,1,35,0,0
6700,-111.111111111111,4,2,1,35,0,0
6891,-111.111111111111,4,2,1,35,0,0
7460,-111.111111111111,4,2,1,35,0,0
7840,-111.111111111111,4,2,1,35,0,0
8979,-111.111111111111,4,2,1,35,0,0
9170,-111.111111111111,4,2,1,35,0,0
12776,-111.111111111111,4,2,1,35,0,0
12967,-111.111111111111,4,2,1,35,0,0
13536,-111.111111111111,4,2,1,35,0,0
13916,-111.111111111111,4,2,1,35,0,0
15055,-111.111111111111,4,2,1,35,0,0
15246,-111.111111111111,4,2,1,35,0,0
18473,-111.111111111111,4,2,1,30,0,0
18568,-111.111111111111,4,2,1,47,0,0
20752,-111.111111111111,4,2,2,47,0,0
21131,-111.111111111111,4,2,1,47,0,0
22271,-111.111111111111,4,2,2,47,0,0
22650,-111.111111111111,4,2,1,47,0,0
23790,-111.111111111111,4,2,2,47,0,0
24170,-111.111111111111,4,2,1,47,0,0
24549,-111.111111111111,4,2,1,50,0,0
24928,-111.111111111111,4,2,3,50,0,0
25119,-111.111111111111,4,2,1,50,0,0
25309,-111.111111111111,4,2,3,50,0,0
25689,-111.111111111111,4,2,1,50,0,0
25878,-111.111111111111,4,2,1,50,0,0
26068,-111.111111111111,4,2,1,50,0,0
26447,-111.111111111111,4,2,3,50,0,0
26638,-111.111111111111,4,2,1,50,0,0
26828,-111.111111111111,4,2,3,50,0,0
27207,-111.111111111111,4,2,1,50,0,0
27587,-111.111111111111,4,2,1,55,0,0
27776,-111.111111111111,4,2,3,55,0,0
28156,-111.111111111111,4,2,1,55,0,0
28347,-111.111111111111,4,2,3,60,0,0
29106,-111.111111111111,4,2,3,35,0,0
30625,-100,4,2,1,65,0,0
30720,-100,4,2,1,78,0,0
31194,-100,4,2,2,78,0,0
31385,-100,4,2,4,78,0,0
31574,-100,4,2,4,78,0,0
31764,-100,4,2,2,78,0,0
32144,-100,4,2,3,78,0,0
32523,-100,4,2,2,78,0,0
32713,-100,4,2,2,78,0,0
32904,-100,4,2,4,78,0,0
33283,-100,4,2,2,78,0,0
33473,-100,4,2,3,78,0,0
33663,-100,4,2,3,78,0,0
34042,-100,4,2,2,78,0,0
34232,-100,4,2,2,78,0,0
34423,-100,4,2,4,78,0,0
34802,-100,4,2,2,78,0,0
35182,-100,4,2,3,78,0,0
35561,-100,4,2,2,78,0,0
35751,-100,4,2,2,78,0,0
35942,-100,4,2,4,78,0,0
36321,-100,4,2,2,78,0,0
36701,-100,4,2,1,65,0,0
36796,-100,4,2,1,78,0,0
37080,-100,4,2,2,78,0,0
37270,-100,4,2,2,78,0,0
37461,-100,4,2,4,78,0,0
37650,-100,4,2,4,78,0,0
37840,-100,4,2,2,78,0,0
38220,-100,4,2,3,78,0,0
38599,-100,4,2,2,78,0,0
38789,-100,4,2,2,78,0,0
38980,-100,4,2,4,78,0,0
39359,-100,4,2,2,78,0,0
39549,-100,4,2,3,78,0,0
39739,-100,4,2,3,78,0,0
40118,-100,4,2,2,78,0,0
40308,-100,4,2,2,78,0,0
40499,-100,4,2,4,78,0,0
40878,-100,4,2,2,78,0,0
41258,-100,4,2,3,78,0,0
41637,-100,4,2,2,78,0,0
41827,-100,4,2,2,78,0,0
42018,-100,4,2,4,78,0,0
42207,-100,4,2,1,78,0,0
42397,-100,4,2,2,78,0,0
42777,-100,4,2,1,65,0,0
42872,-100,4,2,1,78,0,0
43156,-100,4,2,2,78,0,0
43346,-100,4,2,2,78,0,0
43537,-100,4,2,4,78,0,0
43916,-100,4,2,2,78,0,0
44105,-100,4,2,2,78,0,0
44296,-100,4,2,3,78,0,0
44675,-100,4,2,2,78,0,0
44866,-100,4,2,2,78,0,0
45056,-100,4,2,4,78,0,0
45436,-100,4,2,2,78,0,0
45625,-100,4,2,3,78,0,0
45815,-100,4,2,3,78,0,0
46194,-100,4,2,2,78,0,0
46384,-100,4,2,2,78,0,0
46575,-100,4,2,4,78,0,0
46954,-100,4,2,2,78,0,0
47143,-100,4,2,2,78,0,0
47334,-100,4,2,3,78,0,0
47524,-100,4,2,2,78,0,0
47713,-100,4,2,2,78,0,0
47904,-100,4,2,2,78,0,0
48094,-100,4,2,4,78,0,0
48473,-100,4,2,2,78,0,0
48663,-100,4,2,3,78,0,0
48853,-100,4,2,3,78,0,0
49232,-100,4,2,2,78,0,0
49422,-100,4,2,2,78,0,0
49613,-100,4,2,4,78,0,0
49802,-100,4,2,4,78,0,0
49992,-100,4,2,2,78,0,0
50372,-100,4,2,3,78,0,0
50751,-100,4,2,2,78,0,0
50942,-100,4,2,2,78,0,0
51132,-100,4,2,4,78,0,0
51511,-100,4,2,2,78,0,0
51701,-100,4,2,3,78,0,0
51891,-100,4,2,3,78,0,0
52080,-100,4,2,3,78,0,0
52461,-100,4,2,2,78,0,0
52651,-100,4,2,4,82,0,0
52840,-100,4,2,3,82,0,0
53031,-100,4,2,2,82,0,0
53221,-100,4,2,3,82,0,0
53410,-100,4,2,1,45,0,0
54929,-100,4,2,1,65,0,1
55024,-100,4,2,1,78,0,1
55309,-100,4,2,5,78,0,1
55498,-100,4,2,2,78,0,1
55689,-100,4,2,4,78,0,1
55878,-100,4,2,2,78,0,1
56068,-100,4,2,2,78,0,1
56448,-100,4,2,3,78,0,1
56828,-100,4,2,5,78,0,1
57017,-100,4,2,2,78,0,1
57208,-100,4,2,4,78,0,1
57397,-100,4,2,2,78,0,1
57587,-100,4,2,2,78,0,1
57777,-100,4,2,3,78,0,1
57967,-100,4,2,3,78,0,1
58067,-100,4,2,3,78,0,1
58156,-100,4,2,3,78,0,1
58347,-100,4,2,5,78,0,1
58536,-100,4,2,2,78,0,1
58727,-100,4,2,4,78,0,1
59106,-100,4,2,2,78,0,1
59486,-100,4,2,3,78,0,1
59865,-100,4,2,5,78,0,1
60056,-100,4,2,2,78,0,1
60246,-100,4,2,4,78,0,1
60435,-100,4,2,2,78,0,1
60625,-100,4,2,2,78,0,1
60814,-100,4,2,2,78,0,1
61005,-100,4,2,1,78,0,1
61385,-100,4,2,5,78,0,1
61574,-100,4,2,2,78,0,1
61764,-100,4,2,4,78,0,1
61953,-100,4,2,2,78,0,1
62144,-100,4,2,2,78,0,1
62334,-100,4,2,2,78,0,1
62524,-100,4,2,3,78,0,1
62904,-100,4,2,5,78,0,1
63093,-100,4,2,2,78,0,1
63283,-100,4,2,4,78,0,1
63472,-100,4,2,2,78,0,1
63662,-100,4,2,2,78,0,1
63853,-100,4,2,3,78,0,1
64043,-100,4,2,3,78,0,1
64422,-100,4,2,5,78,0,1
64613,-100,4,2,2,78,0,1
64802,-100,4,2,4,78,0,1
65181,-100,4,2,2,78,0,1
65561,-100,4,2,3,78,0,1
65942,-100,4,2,5,78,0,1
66131,-100,4,2,2,78,0,1
66321,-100,4,2,4,78,0,1
66511,-100,4,2,2,78,0,1
66701,-100,4,2,2,78,0,1
66890,-100,4,2,2,78,0,1
67081,-111.111111111111,4,2,1,58,0,0
67840,-111.111111111111,4,2,4,58,0,0
68220,-111.111111111111,4,2,1,58,0,0
69359,-111.111111111111,4,2,4,58,0,0
69739,-111.111111111111,4,2,1,58,0,0
70878,-111.111111111111,4,2,4,58,0,0
71258,-111.111111111111,4,2,1,58,0,0
72397,-111.111111111111,4,2,4,58,0,0
72777,-111.111111111111,4,2,1,58,0,0
73916,-111.111111111111,4,2,4,58,0,0
74295,-111.111111111111,4,2,1,58,0,0
75435,-111.111111111111,4,2,4,58,0,0
75814,-111.111111111111,4,2,1,58,0,0
76954,-111.111111111111,4,2,4,58,0,0
77334,-111.111111111111,4,2,1,58,0,0
77904,-111.111111111111,4,2,4,58,0,0
78283,-111.111111111111,4,2,1,58,0,0
78473,-111.111111111111,4,2,4,58,0,0
78852,-111.111111111111,4,2,1,58,0,0
79233,-111.111111111111,4,2,1,63,0,0
79992,-111.111111111111,4,2,4,63,0,0
80372,-111.111111111111,4,2,1,63,0,0
81511,-111.111111111111,4,2,4,63,0,0
81890,-111.111111111111,4,2,1,63,0,0
83030,-111.111111111111,4,2,4,63,0,0
83409,-111.111111111111,4,2,1,63,0,0
84549,-111.111111111111,4,2,4,63,0,0
84928,-111.111111111111,4,2,1,63,0,0
85688,-111.111111111111,4,2,3,63,0,0
85878,-111.111111111111,4,2,1,63,0,0
86068,-111.111111111111,4,2,3,63,0,0
86448,-111.111111111111,4,2,1,63,0,0
87081,-111.111111111111,4,2,3,63,0,0
87334,-111.111111111111,4,2,2,63,0,0
87587,-111.111111111111,4,2,3,65,0,0
87966,-111.111111111111,4,2,1,65,0,0
88094,-111.111111111111,4,2,2,65,0,0
88347,-111.111111111111,4,2,1,68,0,0
88536,-111.111111111111,4,2,3,68,0,0
88916,-111.111111111111,4,2,1,68,0,0
89106,-111.111111111111,4,2,3,70,0,0
89866,-111.111111111111,4,2,3,35,0,0
91385,-100,4,2,1,65,0,0
91480,-100,4,2,1,78,0,0
91954,-100,4,2,2,78,0,0
92144,-100,4,2,4,78,0,0
92333,-100,4,2,4,78,0,0
92524,-100,4,2,2,78,0,0
92904,-100,4,2,3,78,0,0
93283,-100,4,2,2,78,0,0
93473,-100,4,2,2,78,0,0
93663,-100,4,2,4,78,0,0
94043,-100,4,2,2,78,0,0
94233,-100,4,2,3,78,0,0
94423,-100,4,2,3,78,0,0
94802,-100,4,2,2,78,0,0
94992,-100,4,2,2,78,0,0
95182,-100,4,2,4,78,0,0
95562,-100,4,2,2,78,0,0
95942,-100,4,2,3,78,0,0
96321,-100,4,2,2,78,0,0
96511,-100,4,2,2,78,0,0
96701,-100,4,2,4,78,0,0
97081,-100,4,2,2,65,0,0
97461,-100,4,2,1,78,0,0
97840,-100,4,2,2,78,0,0
98030,-100,4,2,2,78,0,0
98220,-100,4,2,4,78,0,0
98409,-100,4,2,4,78,0,0
98600,-100,4,2,2,78,0,0
98980,-100,4,2,3,78,0,0
99359,-100,4,2,2,78,0,0
99549,-100,4,2,2,78,0,0
99739,-100,4,2,4,78,0,0
100119,-100,4,2,2,78,0,0
100309,-100,4,2,3,78,0,0
100499,-100,4,2,3,78,0,0
100878,-100,4,2,2,78,0,0
101068,-100,4,2,2,78,0,0
101258,-100,4,2,4,78,0,0
101638,-100,4,2,2,78,0,0
102018,-100,4,2,3,78,0,0
102397,-100,4,2,2,78,0,0
102587,-100,4,2,2,78,0,0
102777,-100,4,2,4,78,0,0
102966,-100,4,2,1,78,0,0
103157,-100,4,2,2,78,0,0
103537,-100,4,2,1,65,0,0
103632,-100,4,2,1,78,0,0
103916,-100,4,2,2,78,0,0
104106,-100,4,2,2,78,0,0
104296,-100,4,2,4,78,0,0
104676,-100,4,2,2,78,0,0
104865,-100,4,2,2,78,0,0
105056,-100,4,2,3,78,0,0
105435,-100,4,2,2,78,0,0
105625,-100,4,2,2,78,0,0
105815,-100,4,2,4,78,0,0
106195,-100,4,2,2,78,0,0
106385,-100,4,2,3,78,0,0
106575,-100,4,2,3,78,0,0
106954,-100,4,2,2,78,0,0
107144,-100,4,2,2,78,0,0
107334,-100,4,2,4,78,0,0
107714,-100,4,2,2,78,0,0
107903,-100,4,2,2,78,0,0
108094,-100,4,2,3,78,0,0
108283,-100,4,2,2,78,0,0
108473,-100,4,2,2,78,0,0
108663,-100,4,2,2,78,0,0
108853,-100,4,2,4,78,0,0
109233,-100,4,2,2,78,0,0
109423,-100,4,2,3,78,0,0
109613,-100,4,2,3,78,0,0
109992,-100,4,2,2,78,0,0
110182,-100,4,2,2,78,0,0
110372,-100,4,2,4,78,0,0
110561,-100,4,2,4,78,0,0
110752,-100,4,2,2,78,0,0
111132,-100,4,2,3,78,0,0
111511,-100,4,2,2,78,0,0
111606,-100,4,2,2,78,0,0
111891,-100,4,2,4,78,0,0
112270,-100,4,2,2,78,0,0
112461,-100,4,2,3,78,0,0
112651,-100,4,2,3,78,0,0
112840,-100,4,2,3,78,0,0
113220,-100,4,2,2,78,0,0
113410,-100,4,2,4,82,0,0
113599,-100,4,2,3,82,0,0
113790,-100,4,2,2,82,0,0
113980,-100,4,2,3,82,0,0
114170,-100,4,2,1,45,0,0
115689,-100,4,2,1,65,0,1
115783,-100,4,2,1,78,0,1
116068,-100,4,2,5,78,0,1
116258,-100,4,2,2,78,0,1
116448,-100,4,2,4,78,0,1
116637,-100,4,2,2,78,0,1
116828,-100,4,2,2,78,0,1
117208,-100,4,2,3,78,0,1
117587,-100,4,2,5,78,0,1
117777,-100,4,2,2,78,0,1
117967,-100,4,2,4,78,0,1
118156,-100,4,2,2,78,0,1
118347,-100,4,2,2,78,0,1
118537,-100,4,2,3,78,0,1
118727,-100,4,2,3,78,0,1
118827,-100,4,2,3,78,0,1
118916,-100,4,2,3,78,0,1
119106,-100,4,2,5,78,0,1
119295,-100,4,2,2,78,0,1
119486,-100,4,2,4,78,0,1
119865,-100,4,2,2,78,0,1
120246,-100,4,2,3,78,0,1
120625,-100,4,2,5,78,0,1
120815,-100,4,2,2,78,0,1
121005,-100,4,2,4,78,0,1
121194,-100,4,2,2,78,0,1
121385,-100,4,2,2,78,0,1
121574,-100,4,2,2,78,0,1
121764,-100,4,2,1,65,0,1
121859,-100,4,2,1,78,0,1
122144,-100,4,2,5,78,0,1
122333,-100,4,2,2,78,0,1
122524,-100,4,2,4,78,0,1
122713,-100,4,2,2,78,0,1
122904,-100,4,2,2,78,0,1
123283,-100,4,2,3,78,0,1
123663,-100,4,2,5,78,0,1
123852,-100,4,2,2,78,0,1
124043,-100,4,2,4,78,0,1
124232,-100,4,2,2,78,0,1
124422,-100,4,2,2,78,0,1
124613,-100,4,2,3,78,0,1
124802,-100,4,2,3,78,0,1
125181,-100,4,2,5,78,0,1
125372,-100,4,2,2,78,0,1
125562,-100,4,2,4,78,0,1
125941,-100,4,2,2,78,0,1
126321,-100,4,2,3,78,0,1
126701,-100,4,2,5,78,0,1
126890,-100,4,2,2,78,0,1
127081,-100,4,2,4,78,0,1
127271,-100,4,2,2,78,0,1
127461,-100,4,2,2,78,0,1
127650,-100,4,2,2,78,0,1
127840,-100,4,2,2,45,0,0
133916,-111.111111111111,4,2,3,45,0,0
139802,-111.111111111111,4,2,3,45,0,0
139992,-111.111111111111,4,2,3,45,0,0
143790,-111.111111111111,4,2,3,52,0,0
144549,-111.111111111111,4,2,3,52,0,0
146068,-111.111111111111,4,2,1,39,0,0
154992,-111.111111111111,4,2,1,39,0,0
155182,-111.111111111111,4,2,1,50,0,0
155371,-111.111111111111,4,2,3,50,0,0
155751,-111.111111111111,4,2,1,50,0,0
155942,-111.111111111111,4,2,3,55,0,0
156322,-111.111111111111,4,2,1,55,0,0
156511,-111.111111111111,4,2,3,55,0,0
156701,-111.111111111111,4,2,3,35,0,0
157840,-111.111111111111,4,2,3,35,0,0
158220,-97.0873786407767,4,2,1,70,0,0
158789,-97.0873786407767,4,2,2,83,0,0
158980,-97.0873786407767,4,2,4,83,0,0
159169,-97.0873786407767,4,2,4,83,0,0
159359,-97.0873786407767,4,2,2,83,0,0
159739,-97.0873786407767,4,2,3,83,0,0
160118,-97.0873786407767,4,2,2,83,0,0
160308,-97.0873786407767,4,2,2,83,0,0
160499,-97.0873786407767,4,2,4,83,0,0
160878,-97.0873786407767,4,2,2,83,0,0
161068,-97.0873786407767,4,2,3,83,0,0
161258,-97.0873786407767,4,2,3,83,0,0
161637,-97.0873786407767,4,2,2,83,0,0
161828,-97.0873786407767,4,2,2,83,0,0
162018,-97.0873786407767,4,2,4,83,0,0
162397,-97.0873786407767,4,2,2,83,0,0
162777,-97.0873786407767,4,2,3,83,0,0
163157,-97.0873786407767,4,2,3,83,0,0
163347,-97.0873786407767,4,2,2,83,0,0
163537,-97.0873786407767,4,2,4,83,0,0
163916,-97.0873786407767,4,2,2,83,0,0
164296,-97.0873786407767,4,2,1,70,0,0
164391,-97.0873786407767,4,2,1,83,0,0
164675,-97.0873786407767,4,2,2,83,0,0
164865,-97.0873786407767,4,2,2,83,0,0
165056,-97.0873786407767,4,2,4,83,0,0
165245,-97.0873786407767,4,2,4,83,0,0
165435,-97.0873786407767,4,2,2,83,0,0
165815,-97.0873786407767,4,2,3,83,0,0
166194,-97.0873786407767,4,2,2,83,0,0
166384,-97.0873786407767,4,2,2,83,0,0
166575,-97.0873786407767,4,2,4,83,0,0
166954,-97.0873786407767,4,2,2,83,0,0
167144,-97.0873786407767,4,2,3,83,0,0
167334,-97.0873786407767,4,2,3,83,0,0
167523,-97.0873786407767,4,2,3,83,0,0
167714,-97.0873786407767,4,2,2,83,0,0
167903,-97.0873786407767,4,2,2,83,0,0
168094,-97.0873786407767,4,2,4,87,0,0
168283,-97.0873786407767,4,2,3,87,0,0
168474,-97.0873786407767,4,2,2,75,0,0
168663,-97.0873786407767,4,2,3,75,0,0
168853,-97.0873786407767,4,2,3,50,0,0
170372,-97.0873786407767,4,2,1,70,0,1
170467,-97.0873786407767,4,2,1,83,0,1
170752,-97.0873786407767,4,2,5,83,0,1
170941,-97.0873786407767,4,2,2,83,0,1
171132,-97.0873786407767,4,2,4,83,0,1
171321,-97.0873786407767,4,2,2,83,0,1
171511,-97.0873786407767,4,2,2,83,0,1
171891,-97.0873786407767,4,2,3,83,0,1
172271,-97.0873786407767,4,2,5,83,0,1
172460,-97.0873786407767,4,2,2,83,0,1
172651,-97.0873786407767,4,2,4,83,0,1
172840,-97.0873786407767,4,2,2,83,0,1
173030,-97.0873786407767,4,2,2,83,0,1
173220,-97.0873786407767,4,2,3,83,0,1
173410,-97.0873786407767,4,2,3,83,0,1
173511,-97.0873786407767,4,2,3,83,0,1
173790,-97.0873786407767,4,2,5,83,0,1
173979,-97.0873786407767,4,2,2,83,0,1
174170,-97.0873786407767,4,2,4,83,0,1
174549,-97.0873786407767,4,2,2,83,0,1
174929,-97.0873786407767,4,2,3,83,0,1
175308,-97.0873786407767,4,2,5,83,0,1
175499,-97.0873786407767,4,2,2,83,0,1
175689,-97.0873786407767,4,2,4,83,0,1
175878,-97.0873786407767,4,2,2,83,0,1
176068,-97.0873786407767,4,2,2,83,0,1
176257,-97.0873786407767,4,2,2,83,0,1
176448,-97.0873786407767,4,2,1,70,0,1
176543,-97.0873786407767,4,2,1,83,0,1
176828,-97.0873786407767,4,2,5,83,0,1
177017,-97.0873786407767,4,2,2,83,0,1
177208,-97.0873786407767,4,2,4,83,0,1
177397,-97.0873786407767,4,2,2,83,0,1
177587,-97.0873786407767,4,2,2,83,0,1
177967,-97.0873786407767,4,2,3,83,0,1
178347,-97.0873786407767,4,2,5,83,0,1
178536,-97.0873786407767,4,2,2,83,0,1
178727,-97.0873786407767,4,2,4,83,0,1
178916,-97.0873786407767,4,2,2,83,0,1
179106,-97.0873786407767,4,2,2,83,0,1
179296,-97.0873786407767,4,2,3,83,0,1
179486,-97.0873786407767,4,2,3,83,0,1
179865,-97.0873786407767,4,2,5,83,0,1
180056,-97.0873786407767,4,2,2,83,0,1
180246,-97.0873786407767,4,2,4,83,0,1
180625,-97.0873786407767,4,2,2,83,0,1
181005,-97.0873786407767,4,2,3,83,0,0
181764,-97.0873786407767,4,2,3,35,0,0

[Colours]
Combo1 : 30,185,230
Combo2 : 247,30,128
Combo3 : 247,193,9

[HitObjects]
310,39,6321,6,0,L|418:24,1,98.9999969787599,2|0,2:2|0:0,0:0:0:0:
456,96,6891,1,2,2:2:0:0:
456,96,7081,2,0,L|356:109,1,98.9999969787599,0|0,2:0|0:0,0:0:0:0:
254,191,7840,6,0,P|219:127|144:108,1,148.49999546814,2|2,2:2|2:2,0:0:0:0:
96,50,8600,2,0,P|47:74|21:116,1,98.9999969787599,0|0,2:0|0:0,0:0:0:0:
40,193,9170,1,0,2:0:0:0:
40,193,9359,6,0,L|30:249,2,49.4999984893799,2|0|0,2:2|2:0|2:0,0:0:0:0:
121,189,9929,2,0,L|98:337,1,148.49999546814,2|2,2:2|2:2,0:0:0:0:
259,379,10878,6,0,L|273:274,1,98.9999969787599,2|0,2:2|2:0,0:0:0:0:
343,250,11448,2,0,P|417:274|481:183,1,197.99999395752,2|0,2:2|2:0,0:0:0:0:
435,127,12397,6,0,L|449:20,1,98.9999969787599,2|0,2:2|0:0,0:0:0:0:
369,17,12967,1,2,2:2:0:0:
369,17,13157,2,0,L|355:124,1,98.9999969787599,0|0,2:0|0:0,0:0:0:0:
254,199,13916,6,0,P|228:254|253:341,1,148.49999546814,2|2,2:2|2:2,0:0:0:0:
324,369,14676,2,0,P|371:369|416:340,1,98.9999969787599,0|0,2:0|0:0,0:0:0:0:
487,297,15246,1,0,2:0:0:0:
487,297,15435,6,0,L|495:352,2,49.4999984893799,2|0|0,2:2|2:0|2:0,0:0:0:0:
438,229,16005,2,0,L|419:71,1,148.49999546814,2|2,2:2|2:2,0:0:0:0:
277,4,16954,6,0,L|290:113,1,98.9999969787599,2|0,2:2|2:0,0:0:0:0:
229,151,17524,2,0,P|170:141|109:207,1,148.49999546814,2|0,2:2|2:0,0:0:0:0:
42,241,18283,1,0,2:0:0:0:
9,153,18473,6,0,L|20:54,2,98.9999969787599,4|0|0,2:2|2:0|2:0,0:0:0:0:
58,315,19613,2,0,L|111:305,1,49.4999984893799,10|0,2:2|2:0,0:0:0:0:
180,351,19992,5,10,2:2:0:0:
180,351,20182,2,0,L|199:243,1,98.9999969787599,0|10,2:0|2:2,0:0:0:0:
130,204,20752,2,0,P|168:177|229:178,1,98.9999969787599,8|10,2:2|2:2,0:0:0:0:
298,187,21321,1,0,2:0:0:0:
278,266,21511,5,10,2:2:0:0:
362,368,21891,2,0,L|415:358,1,49.4999984893799,0|10,2:0|2:2,0:0:0:0:
488,362,22271,2,0,P|486:311|457:257,1,98.9999969787599,8|10,2:2|2:2,0:0:0:0:
406,213,22840,1,0,2:0:0:0:
406,213,23030,6,0,P|408:162|437:108,1,98.9999969787599,10|0,2:2|2:0,0:0:0:0:
489,66,23600,1,10,2:2:0:0:
489,66,23790,1,8,2:2:0:0:
348,40,24170,2,0,L|292:49,1,49.4999984893799,10|0,2:2|2:0,0:0:0:0:
208,10,24549,6,0,L|188:111,2,98.9999969787599,4|8|8,2:2|2:2|2:2,0:0:0:0:
107,101,25689,2,0,L|51:110,1,49.4999984893799,10|0,2:2|0:0,0:0:0:0:
25,186,26068,6,0,P|64:211|78:267,1,98.9999969787599,10|8,2:2|2:2,0:0:0:0:
162,288,26638,1,2,2:2:0:0:
162,288,26828,2,0,P|159:334|118:374,1,98.9999969787599,8|10,2:2|2:2,0:0:0:0:
268,329,27587,6,0,L|323:323,1,49.4999984893799,10|8,2:2|2:2,0:0:0:0:
393,353,27967,2,0,L|448:347,1,49.4999984893799,8|10,2:2|2:2,0:0:0:0:
437,262,28347,6,0,L|382:268,1,49.4999984893799,8|8,2:2|2:2,0:0:0:0:
327,201,28727,1,8,2:2:0:0:
244,223,28916,1,8,2:2:0:0:
244,223,29011,1,0,2:0:0:0:
244,223,29106,1,0,2:0:0:0:
11,88,30625,6,0,L|187:61,1,165,4|4,2:3|2:3,0:0:0:0:
248,162,31385,2,0,L|237:223,1,55,8|0,2:2|0:0,0:0:0:0:
252,81,31764,1,4,2:3:0:0:
56,198,32144,6,0,P|118:209|167:304,1,165,4|4,2:3|2:3,0:0:0:0:
80,361,32904,2,0,L|23:372,1,55,8|0,2:2|2:0,0:0:0:0:
167,291,33283,1,4,2:3:0:0:
167,291,33473,1,2,2:2:0:0:
254,321,33663,6,0,P|296:362|405:348,1,165,4|4,2:3|2:3,0:0:0:0:
461,249,34423,2,0,L|475:182,1,55,8|0,2:2|2:0,0:0:0:0:
479,330,34802,1,4,2:3:0:0:
308,235,35182,6,0,L|287:57,1,165,4|4,2:3|2:3,0:0:0:0:
261,47,35847,1,0,2:0:0:0:
261,47,35942,2,0,L|198:57,1,55,8|0,2:2|2:0,0:0:0:0:
87,22,36321,2,0,L|50:28,2,27.5,4|0|0,2:3|2:0|2:0,0:0:0:0:
128,102,36701,6,0,P|80:129|60:236,1,165,4|4,2:3|2:3,0:0:0:0:
119,330,37461,2,0,L|105:389,1,55,8|0,2:2|0:0,0:0:0:0:
137,250,37840,1,4,2:3:0:0:
322,368,38220,6,0,L|302:191,1,165,4|4,2:3|2:3,0:0:0:0:
410,160,38980,2,0,L|467:170,1,55,8|0,2:2|2:0,0:0:0:0:
309,123,39359,1,4,2:3:0:0:
309,123,39549,1,2,2:2:0:0:
303,204,39739,6,0,L|129:227,1,165,4|4,2:3|2:3,0:0:0:0:
80,130,40499,2,0,L|95:65,1,55,8|0,2:2|2:0,0:0:0:0:
61,211,40878,1,4,2:3:0:0:
274,72,41258,6,0,P|348:69|409:137,1,165,4|4,2:3|2:3,0:0:0:0:
427,163,41923,1,0,2:0:0:0:
427,163,42018,2,0,L|412:225,1,55,8|8,2:2|2:3,0:0:0:0:
471,331,42397,2,0,L|463:370,2,27.5,4|0|0,2:3|2:0|2:0,0:0:0:0:
389,304,42777,6,0,P|316:302|248:366,1,165,4|4,2:3|2:3,0:0:0:0:
151,377,43537,2,0,P|166:339|184:323,1,55,8|0,2:2|2:0,0:0:0:0:
131,255,43916,2,0,P|168:238|192:240,1,55,4|2,2:3|2:2,0:0:0:0:
49,275,44296,6,0,L|28:152,1,110,4|2,2:3|2:2,0:0:0:0:
71,96,44866,1,4,2:3:0:0:
119,31,45056,1,8,2:2:0:0:
273,204,45436,2,0,L|332:196,1,55,4|2,2:3|2:2,0:0:0:0:
408,220,45815,6,0,P|460:184|467:81,1,165,4|4,2:3|2:3,0:0:0:0:
418,0,46575,2,0,P|400:26|399:56,1,55,8|0,2:2|2:0,0:0:0:0:
316,65,46954,2,0,P|321:96|342:118,1,55,4|2,2:3|2:2,0:0:0:0:
234,28,47334,6,0,L|113:49,1,110,4|2,2:3|2:2,0:0:0:0:
50,16,47904,1,4,2:3:0:0:
0,79,48094,1,8,2:2:0:0:
131,168,48473,2,0,L|120:226,1,55,4|2,2:3|2:2,0:0:0:0:
48,267,48853,6,0,P|70:337|159:363,1,165,4|4,2:3|2:3,0:0:0:0:
255,301,49613,2,0,L|314:312,1,55,8|0,2:2|0:0,0:0:0:0:
175,285,49992,1,4,2:3:0:0:
414,358,50372,6,0,L|396:230,1,110,4|2,2:3|2:2,0:0:0:0:
454,189,50942,1,4,2:3:0:0:
345,152,51132,2,0,L|360:43,1,110,8|4,2:2|2:3,0:0:0:0:
287,7,51701,1,2,2:2:0:0:
208,32,51891,6,0,L|219:94,1,55,4|8,2:3|2:2,0:0:0:0:
157,133,52271,2,0,L|168:195,1,55,8|4,2:2|2:3,0:0:0:0:
61,148,52651,6,0,L|72:210,1,55,8|8,2:2|2:2,0:0:0:0:
30,280,53030,1,4,2:3:0:0:
56,367,53220,1,8,2:2:0:0:
56,367,53315,1,0,2:0:0:0:
56,367,53410,1,8,2:3:0:0:
475,373,54929,6,0,P|419:314|339:315,1,165,4|4,2:3|2:3,0:0:0:0:
303,222,55689,2,0,P|311:188|327:169,1,55,8|2,2:2|2:2,0:0:0:0:
388,229,56068,1,4,2:3:0:0:
348,26,56448,6,0,P|267:25|212:83,1,165,4|4,2:3|2:3,0:0:0:0:
130,23,57208,2,0,P|110:49|107:73,1,55,8|2,2:2|2:2,0:0:0:0:
152,147,57587,1,4,2:3:0:0:
152,147,57777,1,2,2:2:0:0:
72,187,57967,6,0,L|57:261,1,55,4|0,2:3|2:0,0:0:0:0:
82,271,58252,1,0,2:0:0:0:
82,271,58347,2,0,L|67:345,1,55,10|4,2:2|2:3,0:0:0:0:
175,373,58727,2,0,L|199:248,1,110,8|4,2:2|2:3,0:0:0:0:
256,26,59486,6,0,L|280:151,1,110,4|10,2:3|2:2,0:0:0:0:
345,180,60056,1,4,2:3:0:0:
441,121,60246,2,0,L|513:108,1,55,8|2,2:2|2:2,0:0:0:0:
345,180,60625,2,0,L|340:219,2,27.5,4|0|2,2:3|2:0|2:2,0:0:0:0:
391,283,61005,6,0,P|339:341|257:336,1,165,4|4,2:3|2:3,0:0:0:0:
138,354,61764,2,0,P|142:320|157:296,1,55,8|2,2:2|2:2,0:0:0:0:
225,260,62144,1,4,2:3:0:0:
225,260,62334,1,2,2:2:0:0:
170,192,62524,6,0,L|102:203,1,55,4|0,2:3|2:0,0:0:0:0:
94,174,62809,1,0,2:0:0:0:
94,174,62904,2,0,L|26:185,1,55,10|4,2:2|2:3,0:0:0:0:
0,80,63283,2,0,L|123:63,1,110,8|4,2:2|2:3,0:0:0:0:
356,7,64043,6,0,L|233:24,1,110,4|10,2:3|2:2,0:0:0:0:
189,81,64613,1,4,2:3:0:0:
232,166,64802,6,0,P|291:223|357:124,1,220,8|4,2:2|2:3,0:0:0:0:
421,78,65752,1,0,2:0:0:0:
421,78,65847,1,0,2:0:0:0:
421,78,65942,6,0,L|486:92,1,55,10|4,2:2|2:3,0:0:0:0:
491,170,66321,1,8,2:2:0:0:
469,253,66511,1,2,2:2:0:0:
446,340,66701,2,0,L|381:326,1,55,4|2,2:3|2:2,0:0:0:0:
346,259,67081,6,0,P|281:278|235:353,1,148.49999546814,2|2,2:2|2:2,0:0:0:0:
237,342,67840,1,8,2:2:0:0:
124,246,68220,1,2,2:2:0:0:
35,370,68600,6,0,L|14:212,1,148.49999546814,2|2,2:2|2:2,0:0:0:0:
40,150,69359,1,8,2:2:0:0:
149,30,69739,2,0,L|157:91,1,49.4999984893799,2|0,2:2|2:0,0:0:0:0:
221,130,70119,5,2,2:2:0:0:
221,130,70309,1,0,2:0:0:0:
296,99,70499,2,0,L|411:77,1,98.9999969787599,0|8,2:0|2:2,0:0:0:0:
463,122,71068,1,0,2:0:0:0:
463,122,71258,2,0,P|439:161|437:186,1,49.4999984893799,2|0,2:2|2:0,0:0:0:0:
495,226,71638,6,0,P|405:204|352:282,1,197.99999395752,2|8,2:2|2:2,0:0:0:0:
438,283,72587,1,0,2:0:0:0:
438,283,72777,1,2,2:2:0:0:
283,368,73157,6,0,L|168:351,1,98.9999969787599,2|0,2:2|2:0,0:0:0:0:
194,274,73727,1,2,2:2:0:0:
120,305,73916,2,0,L|22:319,1,98.9999969787599,8|2,2:2|2:2,0:0:0:0:
23,127,74676,6,0,L|138:144,1,98.9999969787599,2|0,2:2|2:0,0:0:0:0:
112,221,75246,1,2,2:2:0:0:
186,190,75435,2,0,L|283:175,1,98.9999969787599,8|2,2:2|2:2,0:0:0:0:
305,100,76005,1,0,2:0:0:0:
369,153,76195,6,0,L|338:298,1,148.49999546814,2|2,2:2|2:2,0:0:0:0:
376,368,76954,1,8,2:2:0:0:
212,378,77334,2,0,L|226:321,1,49.4999984893799,2|0,2:2|2:0,0:0:0:0:
175,262,77714,5,2,2:2:0:0:
175,262,77904,2,0,P|134:286|68:288,1,98.9999969787599,8|2,2:2|2:2,0:0:0:0:
17,231,78473,2,0,P|16:183|47:125,1,98.9999969787599,8|2,2:2|2:2,0:0:0:0:
111,165,79043,1,0,2:0:0:0:
200,106,79233,6,0,L|183:-3,2,98.9999969787599,4|0|8,2:2|2:0|2:2,0:0:0:0:
284,215,80372,2,0,L|272:269,1,49.4999984893799,10|0,2:2|2:0,0:0:0:0:
233,331,80752,5,10,2:2:0:0:
302,370,80942,2,0,L|411:354,1,98.9999969787599,0|10,2:0|2:2,0:0:0:0:
478,370,81511,2,0,P|492:303|483:255,1,98.9999969787599,8|10,2:2|2:2,0:0:0:0:
459,196,82081,1,0,2:0:0:0:
387,228,82271,5,10,2:2:0:0:
233,331,82651,2,0,L|179:321,1,49.4999984893799,0|10,2:0|2:2,0:0:0:0:
139,256,83030,2,0,L|30:273,1,98.9999969787599,8|10,2:2|2:2,0:0:0:0:
7,195,83600,1,0,2:0:0:0:
7,195,83790,6,0,L|17:142,1,49.4999984893799,10|0,2:2|2:0,0:0:0:0:
96,132,84170,2,0,L|106:79,1,49.4999984893799,0|10,2:0|2:2,0:0:0:0:
175,35,84549,2,0,P|228:68|281:65,1,98.9999969787599,8|10,2:2|2:2,0:0:0:0:
325,16,85119,1,0,2:0:0:0:
416,51,85309,6,0,L|433:161,2,98.9999969787599,4|8|8,2:2|2:2|2:2,0:0:0:0:
494,207,86448,1,10,2:2:0:0:
331,196,86828,6,0,L|315:273,2,65.9999979858399,10|8|8,2:2|2:2|2:2,0:0:0:0:
419,252,87587,2,0,L|403:329,2,65.9999979858399,8|8|8,2:2|2:2|2:2,0:0:0:0:
329,342,88347,6,0,L|267:353,1,49.4999984893799,10|8,2:2|2:2,0:0:0:0:
205,313,88727,2,0,L|143:324,1,49.4999984893799,8|10,2:2|2:2,0:0:0:0:
193,224,89106,6,0,L|131:235,1,49.4999984893799,8|8,2:2|2:2,0:0:0:0:
106,144,89486,1,8,2:2:0:0:
23,168,89676,1,8,2:2:0:0:
23,168,89771,1,0,2:0:0:0:
23,168,89866,1,0,2:0:0:0:
255,378,91385,6,0,P|267:342|383:296,1,165,4|4,2:3|2:3,0:0:0:0:
485,239,92144,2,0,L|474:178,1,55,8|0,2:2|0:0,0:0:0:0:
455,317,92524,1,4,2:3:0:0:
415,129,92904,6,0,P|403:93|287:47,1,165,4|4,2:3|2:3,0:0:0:0:
184,21,93663,2,0,L|118:31,1,55,8|0,2:2|2:0,0:0:0:0:
299,49,94043,1,4,2:3:0:0:
299,49,94233,1,2,2:2:0:0:
240,119,94423,6,0,L|76:144,1,165,4|4,2:3|2:3,0:0:0:0:
52,250,95182,2,0,L|38:319,1,55,8|0,2:2|2:0,0:0:0:0:
5,182,95562,1,4,2:3:0:0:
121,373,95942,6,0,L|155:208,1,165,4|4,2:3|2:3,0:0:0:0:
176,234,96606,1,0,2:0:0:0:
176,234,96701,2,0,L|236:223,1,55,8|0,2:2|2:0,0:0:0:0:
353,197,97081,2,0,L|387:190,2,27.5,4|0|0,2:3|2:0|2:0,0:0:0:0:
300,278,97461,6,0,P|336:333|434:351,1,165,4|4,2:3|2:3,0:0:0:0:
467,257,98220,2,0,L|405:267,1,55,8|0,2:2|0:0,0:0:0:0:
512,330,98600,1,4,2:3:0:0:
353,197,98980,6,0,L|383:19,1,165,4|4,2:3|2:3,0:0:0:0:
480,78,99739,2,0,L|487:140,1,55,8|0,2:2|2:0,0:0:0:0:
380,34,100119,1,4,2:3:0:0:
380,34,100309,1,2,2:2:0:0:
293,57,100499,6,0,L|263:235,1,165,4|4,2:3|2:3,0:0:0:0:
168,289,101258,2,0,L|106:303,1,55,8|0,2:2|2:0,0:0:0:0:
253,304,101638,1,4,2:3:0:0:
90,203,102018,6,0,P|77:152|146:59,1,165,4|4,2:3|2:3,0:0:0:0:
156,82,102682,1,0,2:0:0:0:
156,82,102777,2,0,L|216:71,1,55,8|8,2:2|2:3,0:0:0:0:
370,39,103157,2,0,L|408:32,2,27.5,4|0|0,2:3|2:0|2:0,0:0:0:0:
283,21,103537,6,0,L|310:190,1,165,4|4,2:3|2:3,0:0:0:0:
394,169,104296,2,0,L|380:228,1,55,8|0,2:2|2:0,0:0:0:0:
467,231,104676,2,0,L|476:297,1,55,4|2,2:3|2:2,0:0:0:0:
373,331,105056,6,0,P|317:325|261:363,1,110,4|2,2:3|2:2,0:0:0:0:
193,376,105625,1,4,2:3:0:0:
210,293,105815,1,8,2:2:0:0:
17,326,106195,2,0,L|28:266,1,55,4|2,2:3|2:2,0:0:0:0:
106,255,106575,6,0,L|75:84,1,165,4|4,2:3|2:3,0:0:0:0:
154,63,107334,2,0,L|162:5,1,55,8|0,2:2|2:0,0:0:0:0:
240,69,107714,2,0,L|247:123,1,55,4|2,2:3|2:2,0:0:0:0:
318,32,108094,6,0,P|363:28|421:72,1,110,4|2,2:3|2:2,0:0:0:0:
461,126,108663,1,4,2:3:0:0:
510,189,108853,1,8,2:2:0:0:
324,246,109233,2,0,L|332:305,1,55,4|2,2:3|2:2,0:0:0:0:
277,362,109613,6,0,P|241:322|120:317,1,165,4|4,2:3|2:3,0:0:0:0:
27,272,110372,2,0,L|39:214,1,55,8|0,2:2|0:0,0:0:0:0:
63,349,110752,1,4,2:3:0:0:
9,138,111132,6,0,P|55:116|126:124,1,110,4|2,2:3|2:2,0:0:0:0:
161,188,111701,1,4,2:3:0:0:
192,71,111891,2,0,P|239:93|309:85,1,110,8|4,2:2|2:3,0:0:0:0:
312,11,112461,1,2,2:2:0:0:
390,29,112651,6,0,L|379:92,1,55,4|8,2:3|2:2,0:0:0:0:
481,46,113030,2,0,L|470:109,1,55,8|4,2:2|2:3,0:0:0:0:
452,201,113410,6,0,L|442:255,1,55,8|8,2:2|2:2,0:0:0:0:
349,271,113790,1,4,2:3:0:0:
338,362,113980,1,8,2:2:0:0:
338,362,114075,1,0,2:0:0:0:
338,362,114170,1,8,2:3:0:0:
36,363,115689,6,0,P|58:330|182:297,1,165,4|4,2:3|2:3,0:0:0:0:
246,233,116448,2,0,P|265:269|267:289,1,55,8|2,2:2|2:2,0:0:0:0:
162,210,116828,1,4,2:3:0:0:
279,372,117208,6,0,P|359:361|415:303,1,165,4|4,2:3|2:3,0:0:0:0:
510,254,117967,2,0,P|477:214|458:208,1,55,8|2,2:2|2:2,0:0:0:0:
393,220,118347,1,4,2:3:0:0:
393,220,118537,1,2,2:2:0:0:
324,160,118727,6,0,L|339:84,1,55,4|0,2:3|2:0,0:0:0:0:
371,104,119011,1,0,2:0:0:0:
371,104,119106,2,0,L|386:28,1,55,10|4,2:2|2:3,0:0:0:0:
277,13,119486,2,0,L|159:30,1,110,8|4,2:2|2:3,0:0:0:0:
20,143,120246,6,0,L|128:158,1,110,4|10,2:3|2:2,0:0:0:0:
218,166,120815,1,4,2:3:0:0:
136,241,121005,2,0,L|125:306,1,55,8|2,2:2|2:2,0:0:0:0:
218,166,121385,2,0,L|212:130,2,27.5,4|0|2,2:3|2:0|2:2,0:0:0:0:
152,74,121764,6,0,P|217:28|310:47,1,165,4|4,2:3|2:3,0:0:0:0:
399,25,122524,2,0,P|414:67|414:82,1,55,8|2,2:2|2:2,0:0:0:0:
337,112,122904,1,4,2:3:0:0:
462,189,123283,6,0,L|451:253,1,55,4|0,2:3|2:0,0:0:0:0:
475,269,123568,1,0,2:0:0:0:
475,269,123663,2,0,L|464:333,1,55,10|4,2:2|2:3,0:0:0:0:
373,372,124043,2,0,L|246:351,1,110,8|4,2:2|2:3,0:0:0:0:
134,244,124802,6,0,L|261:223,1,110,4|10,2:3|2:2,0:0:0:0:
316,265,125372,1,4,2:3:0:0:
343,172,125562,6,0,P|285:90|183:131,1,220,8|4,2:2|2:3,0:0:0:0:
108,92,126511,1,0,2:0:0:0:
108,92,126606,1,0,2:0:0:0:
108,92,126701,6,0,L|38:107,1,55,10|4,2:2|2:3,0:0:0:0:
26,185,127081,1,8,2:2:0:0:
41,269,127271,1,2,2:2:0:0:
58,354,127461,2,0,L|111:342,2,55,4|2|0,2:3|2:2|2:0,0:0:0:0:
65,250,133916,6,0,L|91:101,1,148.49999546814,12|10,2:2|2:2,0:0:0:0:
18,68,134676,2,0,P|52:33|100:26,1,98.9999969787599,0|10,2:0|2:2,0:0:0:0:
195,117,135435,6,0,L|184:174,2,49.4999984893799,10|0|0,2:2|2:0|2:0,0:0:0:0:
258,66,136005,1,10,2:2:0:0:
258,66,136195,2,0,P|292:97|349:104,1,98.9999969787599,0|10,2:0|2:2,0:0:0:0:
409,68,136764,1,2,2:2:0:0:
488,83,136954,6,0,L|464:230,2,148.49999546814,8|10|8,2:2|2:2|2:2,0:0:0:0:
366,179,138473,2,0,L|342:326,2,148.49999546814,8|10|8,2:2|2:2|2:2,0:0:0:0:
381,99,139802,1,0,0:0:0:0:
306,32,139992,6,0,P|255:35|213:80,1,98.9999969787599,8|8,2:2|2:2,0:0:0:0:
112,32,140752,2,0,P|78:70|80:131,1,98.9999969787599,8|10,2:2|2:2,0:0:0:0:
28,233,141511,6,0,L|114:216,2,65.9999979858399,10|8|10,2:2|2:2|2:2,0:0:0:0:
93,308,142271,2,0,L|179:291,2,65.9999979858399,8|8|10,2:2|2:2|2:2,0:0:0:0:
175,380,143030,6,0,L|235:368,1,49.4999984893799,8|8,2:2|2:2,0:0:0:0:
306,371,143410,2,0,L|366:359,1,49.4999984893799,10|8,2:2|2:2,0:0:0:0:
282,269,143790,6,0,L|342:257,1,49.4999984893799,8|8,2:2|2:2,0:0:0:0:
439,291,144170,2,0,L|499:279,2,49.4999984893799,8|8|0,2:2|2:2|0:0,0:0:0:0:
80,71,146068,6,0,P|122:26|218:37,2,148.49999546814,2|2|2,2:2|2:2|2:2,0:0:0:0:
182,115,147587,2,0,P|128:163|56:157,2,148.49999546814,2|2|2,2:2|2:2|2:2,0:0:0:0:
262,94,148916,1,0,2:0:0:0:
334,134,149106,6,0,L|306:282,1,148.49999546814,2|2,2:2|2:2,0:0:0:0:
290,359,149866,2,0,P|336:356|379:310,1,98.9999969787599,0|2,2:0|2:2,0:0:0:0:
233,243,150625,1,2,2:2:0:0:
233,243,150720,1,0,2:0:0:0:
233,243,150815,6,0,L|127:262,1,98.9999969787599,0|2,2:0|2:2,0:0:0:0:
69,305,151385,2,0,L|62:337,2,24.74999924469,2|0|0,2:2|2:0|2:0,0:0:0:0:
40,232,151764,2,0,L|55:170,1,49.4999984893799,2|0,2:2|2:0,0:0:0:0:
20,112,152144,6,0,P|53:62|137:33,2,148.49999546814,2|2|2,2:2|2:2|2:2,0:0:0:0:
164,110,153663,2,0,P|222:97|302:136,2,148.49999546814,2|2|2,2:2|2:2|2:2,0:0:0:0:
130,185,154992,1,0,0:0:0:0:
153,262,155182,6,0,L|215:252,1,49.4999984893799,2|8,2:2|2:2,0:0:0:0:
228,338,155562,2,0,L|294:326,1,49.4999984893799,8|2,2:2|2:2,0:0:0:0:
385,306,155942,6,0,L|451:294,1,49.4999984893799,8|8,2:2|2:2,0:0:0:0:
457,211,156322,2,0,L|523:199,1,49.4999984893799,2|8,2:2|2:2,0:0:0:0:
497,116,156701,6,0,P|446:72|373:219,1,296.99999093628,0|0,2:0|0:0,0:0:0:0:
245,361,158220,6,0,P|156:354|133:273,1,169.949998573723,4|4,2:3|2:3,0:0:0:0:
98,180,158980,2,0,L|34:195,1,56.6499995245743,8|0,2:2|0:0,0:0:0:0:
129,287,159359,1,4,2:3:0:0:
129,287,159549,1,0,2:0:0:0:
196,223,159739,6,0,L|224:53,1,169.949998573723,4|4,2:3|2:3,0:0:0:0:
327,15,160499,2,0,L|400:4,1,56.6499995245743,8|0,2:2|2:0,0:0:0:0:
223,55,160878,1,4,2:3:0:0:
223,55,161068,1,2,2:2:0:0:
303,114,161258,6,0,L|421:95,1,113.299999049149,4|2,2:3|2:2,0:0:0:0:
498,107,161828,1,4,2:3:0:0:
454,212,162018,2,0,L|336:193,1,113.299999049149,8|4,2:2|2:3,0:0:0:0:
290,258,162587,1,0,2:0:0:0:
328,333,162777,5,4,2:3:0:0:
131,372,163157,2,0,L|124:308,1,56.6499995245743,2|4,2:2|2:3,0:0:0:0:
21,235,163537,2,0,L|14:171,1,56.6499995245743,10|2,2:2|2:2,0:0:0:0:
92,84,163916,2,0,L|85:20,1,56.6499995245743,4|0,2:3|2:0,0:0:0:0:
172,45,164296,6,0,P|221:87|329:87,1,169.949998573723,4|4,2:3|2:3,0:0:0:0:
401,19,165056,2,0,L|464:9,1,56.6499995245743,8|0,2:2|0:0,0:0:0:0:
322,89,165435,1,4,2:3:0:0:
322,89,165625,1,0,2:0:0:0:
363,164,165815,6,0,L|334:340,1,169.949998573723,4|4,2:3|2:3,0:0:0:0:
231,310,166575,2,0,L|172:323,1,56.6499995245743,8|0,2:2|2:0,0:0:0:0:
336,332,166954,1,4,2:3:0:0:
336,332,167144,1,2,2:2:0:0:
421,370,167334,6,0,L|480:357,1,56.6499995245743,4|8,2:3|2:2,0:0:0:0:
396,269,167714,2,0,L|455:256,1,56.6499995245743,2|4,2:2|2:3,0:0:0:0:
465,169,168094,5,8,2:2:0:0:
482,81,168283,1,8,2:2:0:0:
404,48,168473,1,6,2:3:0:0:
380,183,168663,1,10,2:2:0:0:
465,169,168853,5,4,2:3:0:0:
165,23,170372,6,0,P|106:37|58:136,1,169.949998573723,4|4,2:3|2:3,0:0:0:0:
22,236,171132,2,0,P|59:230|83:214,1,56.6499995245743,8|2,2:2|2:2,0:0:0:0:
138,163,171511,1,4,2:3:0:0:
106,324,171891,6,0,L|171:313,1,56.6499995245743,4|0,2:3|2:0,0:0:0:0:
191,336,172176,1,0,2:0:0:0:
191,336,172271,2,0,L|256:325,1,56.6499995245743,10|4,2:2|2:3,0:0:0:0:
340,375,172651,2,0,L|365:246,1,113.299999049149,8|4,2:2|2:3,0:0:0:0:
502,174,173410,6,0,P|453:275|270:196,1,339.899997147446,4|4,2:3|2:3,0:0:0:0:
186,22,174929,6,0,L|159:155,1,113.299999049149,4|10,2:3|2:2,0:0:0:0:
99,187,175499,1,4,2:3:0:0:
66,87,175689,2,0,L|10:99,1,56.6499995245743,8|2,2:2|2:2,0:0:0:0:
99,187,176068,2,0,L|107:228,2,28.3249997622871,4|0|2,2:3|2:0|2:2,0:0:0:0:
42,280,176448,6,0,P|80:341|186:349,1,169.949998573723,4|4,2:3|2:3,0:0:0:0:
184,249,177208,2,0,L|196:185,1,56.6499995245743,8|2,2:2|2:2,0:0:0:0:
244,311,177587,1,4,2:3:0:0:
411,265,177967,6,0,L|426:198,1,56.6499995245743,4|0,2:3|2:0,0:0:0:0:
454,198,178252,1,0,2:0:0:0:
454,198,178347,2,0,L|469:131,1,56.6499995245743,10|4,2:2|2:3,0:0:0:0:
448,44,178727,2,0,L|319:66,1,113.299999049149,8|4,2:2|2:3,0:0:0:0:
265,12,179296,1,2,2:2:0:0:
192,48,179486,5,4,2:3:0:0:
192,48,179581,1,0,2:0:0:0:
192,48,179676,2,0,L|177:110,1,56.6499995245743,0|10,2:0|2:2,0:0:0:0:
217,173,180056,1,4,2:3:0:0:
153,251,180246,6,0,P|57:210|13:319,1,226.599998098297,8|4,2:2|2:3,0:0:0:0:
256,364,181764,6,0,L|323:355,2,56.6499995245743,0|0|0,2:0|2:0|2:0,0:0:0:0:
