osu file format v14

[General]
AudioFilename: audio.mp3
AudioLeadIn: 0
PreviewTime: 27492
Countdown: 0
SampleSet: Soft
StackLeniency: 0.3
Mode: 0
LetterboxInBreaks: 0
WidescreenStoryboard: 1

[Editor]
Bookmarks: 30573,54877,67029,91333,115637,127788,127883,127978,128073,128263,128358,128548,128738,128833,128928,129023,129118,129307,129497,129592,129782,129877,130067,130162,130257,130352,130542,130637,130731,130826,130921,131016,131111,131206,131301,131396,131491,131586,131681,131776,131966,132061,132250,132345,132535,132725,132820,133010,133105,133295,133390,133580,133769,133864,146016,158168,170320,180953
DistanceSpacing: 1
BeatDivisor: 6
GridSize: 4
TimelineZoom: 1.7

[Metadata]
Title:Changed My Mind
TitleUnicode:Changed My Mind
Artist:Tove Styrke
ArtistUnicode:Tove Styrke
Creator:Mint
Version:Expert
Source:
Tags:sway english pop schoolboy komore appleeaterx
BeatmapID:2056844
BeatmapSetID:982452

[Difficulty]
HPDrainRate:6.7
CircleSize:4
OverallDifficulty:7.7
ApproachRate:8.7
SliderMultiplier:1.4
SliderTickRate:1

[Events]
//Background and Video events
0,0,"tove-styrke-fashionista.jpg",0,0
//Break Periods
2,128040,133271
//Storyboard Layer 0 (Background)
//Storyboard Layer 1 (Fail)
//Storyboard Layer 2 (Pass)
//Storyboard Layer 3 (Foreground)
//Storyboard Layer 4 (Overlay)
//Storyboard Sound Samples

[TimingPoints]
246,379.746835443038,4,2,0,35,1,0
6321,-200,4,2,1,35,0,0
11448,-133.333333333333,4,2,1,35,0,0
12397,-200,4,2,1,35,0,0
17524,-133.333333333333,4,2,1,35,0,0
18473,-200,4,2,1,30,0,0
18568,-200,4,2,1,47,0,0
20752,-200,4,2,2,47,0,0
21131,-200,4,2,1,47,0,0
22271,-200,4,2,2,47,0,0
22651,-200,4,2,1,47,0,0
23790,-200,4,2,2,47,0,0
24169,-200,4,2,1,47,0,0
24549,-200,4,2,1,50,0,0
24929,-200,4,2,3,50,0,0
25119,-200,4,2,1,50,0,0
25309,-200,4,2,3,50,0,0
25689,-200,4,2,1,50,0,0
26448,-200,4,2,3,50,0,0
26638,-200,4,2,1,50,0,0
26828,-200,4,2,3,50,0,0
27207,-200,4,2,1,50,0,0
27587,-200,4,2,1,55,0,0
27777,-200,4,2,3,55,0,0
28157,-200,4,2,1,55,0,0
28347,-200,4,2,3,60,0,0
29106,-200,4,2,3,35,0,0
30625,-400,4,2,1,65,0,0
30720,-400,4,2,1,78,0,0
31195,-400,4,2,2,78,0,0
31385,-200,4,2,4,78,0,0
31764,-200,4,2,2,78,0,0
32144,-100,4,2,3,78,0,0
32523,-100,4,2,2,78,0,0
32714,-100,4,2,2,78,0,0
32904,-200,4,2,4,78,0,0
33283,-200,4,2,2,78,0,0
33473,-200,4,2,3,78,0,0
33663,-400,4,2,3,78,0,0
34042,-400,4,2,2,78,0,0
34233,-400,4,2,2,78,0,0
34423,-200,4,2,4,78,0,0
34802,-200,4,2,2,78,0,0
35182,-100,4,2,3,78,0,0
35561,-100,4,2,2,78,0,0
35752,-100,4,2,2,78,0,0
35942,-200,4,2,4,78,0,0
36321,-200,4,2,2,78,0,0
36701,-400,4,2,1,65,0,0
36796,-400,4,2,1,78,0,0
37080,-400,4,2,2,78,0,0
37271,-400,4,2,2,78,0,0
37461,-200,4,2,4,78,0,0
37840,-200,4,2,2,78,0,0
38220,-100,4,2,3,78,0,0
38599,-100,4,2,2,78,0,0
38790,-100,4,2,2,78,0,0
38980,-200,4,2,4,78,0,0
39359,-200,4,2,2,78,0,0
39549,-200,4,2,3,78,0,0
39739,-400,4,2,3,78,0,0
40118,-400,4,2,2,78,0,0
40309,-400,4,2,2,78,0,0
40499,-200,4,2,4,78,0,0
40878,-200,4,2,2,78,0,0
41258,-100,4,2,3,78,0,0
41637,-100,4,2,2,78,0,0
41828,-100,4,2,2,78,0,0
42018,-200,4,2,4,78,0,0
42208,-200,4,2,1,78,0,0
42397,-200,4,2,2,78,0,0
42777,-400,4,2,1,65,0,0
42872,-400,4,2,1,78,0,0
43156,-400,4,2,2,78,0,0
43347,-400,4,2,2,78,0,0
43537,-200,4,2,4,78,0,0
43916,-200,4,2,2,78,0,0
44106,-200,4,2,2,78,0,0
44296,-200,4,2,3,78,0,0
44676,-200,4,2,2,78,0,0
44866,-200,4,2,2,78,0,0
45056,-200,4,2,4,78,0,0
45435,-200,4,2,2,78,0,0
45625,-200,4,2,3,78,0,0
45815,-400,4,2,3,78,0,0
46194,-400,4,2,2,78,0,0
46385,-400,4,2,2,78,0,0
46575,-200,4,2,4,78,0,0
46954,-200,4,2,2,78,0,0
47144,-200,4,2,2,78,0,0
47334,-200,4,2,3,78,0,0
47524,-200,4,2,2,78,0,0
47904,-200,4,2,2,78,0,0
48094,-200,4,2,4,78,0,0
48473,-200,4,2,2,78,0,0
48663,-200,4,2,3,78,0,0
48853,-400,4,2,3,78,0,0
49232,-400,4,2,2,78,0,0
49423,-400,4,2,2,78,0,0
49613,-200,4,2,4,78,0,0
49992,-200,4,2,2,78,0,0
50182,-200,4,2,2,78,0,0
50372,-100,4,2,3,78,0,0
50751,-100,4,2,2,78,0,0
50942,-100,4,2,2,78,0,0
51132,-200,4,2,4,78,0,0
51511,-200,4,2,2,78,0,0
51701,-200,4,2,3,78,0,0
51891,-200,4,2,3,78,0,0
52081,-200,4,2,3,78,0,0
52461,-200,4,2,2,78,0,0
52651,-200,4,2,4,82,0,0
52841,-200,4,2,3,82,0,0
53031,-200,4,2,2,82,0,0
53221,-200,4,2,3,82,0,0
53410,-303.030303030303,4,2,1,45,0,0
54929,-303.030303030303,4,2,1,65,0,1
55024,-303.030303030303,4,2,1,78,0,1
55309,-303.030303030303,4,2,5,78,0,1
55499,-303.030303030303,4,2,2,78,0,1
55689,-80,4,2,4,78,0,1
55878,-80,4,2,2,78,0,1
56068,-80,4,2,2,78,0,1
56257,-80,4,2,2,78,0,1
56448,-303.030303030303,4,2,3,78,0,1
56828,-303.030303030303,4,2,5,78,0,1
57018,-303.030303030303,4,2,2,78,0,1
57208,-80,4,2,4,78,0,1
57397,-80,4,2,2,78,0,1
57587,-200,4,2,2,78,0,1
57777,-200,4,2,3,78,0,1
57967,-303.030303030303,4,2,3,78,0,1
58067,-100,4,2,3,78,0,1
58156,-100,4,2,3,78,0,1
58347,-100,4,2,5,78,0,1
58536,-100,4,2,2,78,0,1
58727,-100,4,2,4,78,0,1
59106,-100,4,2,2,78,0,1
59486,-100,4,2,3,78,0,1
59866,-100,4,2,5,78,0,1
60056,-100,4,2,2,78,0,1
60246,-200,4,2,4,78,0,1
60435,-200,4,2,2,78,0,1
60625,-200,4,2,2,78,0,1
60815,-200,4,2,2,78,0,1
61005,-303.030303030303,4,2,1,78,0,1
61385,-303.030303030303,4,2,5,78,0,1
61575,-303.030303030303,4,2,2,78,0,1
61764,-80,4,2,4,78,0,1
61954,-80,4,2,2,78,0,1
62144,-80,4,2,2,78,0,1
62333,-80,4,2,2,78,0,1
62524,-303.030303030303,4,2,3,78,0,1
62904,-303.030303030303,4,2,5,78,0,1
63094,-303.030303030303,4,2,2,78,0,1
63283,-80,4,2,4,78,0,1
63472,-80,4,2,2,78,0,1
63663,-200,4,2,2,78,0,1
63853,-200,4,2,3,78,0,1
64043,-303.030303030303,4,2,3,78,0,1
64423,-100,4,2,5,78,0,1
64612,-100,4,2,2,78,0,1
64802,-100,4,2,4,78,0,1
65181,-100,4,2,2,78,0,1
65561,-100,4,2,3,78,0,1
65942,-100,4,2,5,78,0,1
66132,-100,4,2,2,78,0,1
66321,-200,4,2,4,78,0,1
66511,-200,4,2,2,78,0,1
66701,-200,4,2,2,78,0,1
66891,-200,4,2,2,78,0,1
67081,-133.333333333333,4,2,1,58,0,0
67840,-133.333333333333,4,2,4,58,0,0
68219,-133.333333333333,4,2,1,58,0,0
69359,-133.333333333333,4,2,4,58,0,0
69739,-133.333333333333,4,2,1,58,0,0
70878,-133.333333333333,4,2,4,58,0,0
71258,-133.333333333333,4,2,1,58,0,0
71638,-303.030303030303,4,2,1,58,0,0
72018,-133.333333333333,4,2,1,58,0,0
72397,-133.333333333333,4,2,4,58,0,0
72777,-133.333333333333,4,2,1,58,0,0
73916,-133.333333333333,4,2,4,58,0,0
74295,-133.333333333333,4,2,1,58,0,0
75435,-133.333333333333,4,2,4,58,0,0
75815,-133.333333333333,4,2,1,58,0,0
76954,-133.333333333333,4,2,4,58,0,0
77334,-133.333333333333,4,2,1,58,0,0
77904,-133.333333333333,4,2,4,58,0,0
78284,-133.333333333333,4,2,1,58,0,0
78473,-303.030303030303,4,2,4,58,0,0
78852,-303.030303030303,4,2,1,58,0,0
79233,-200,4,2,1,63,0,0
79992,-200,4,2,4,63,0,0
80371,-200,4,2,1,63,0,0
81511,-200,4,2,4,63,0,0
81891,-200,4,2,1,63,0,0
82271,-303.030303030303,4,2,1,63,0,0
82840,-200,4,2,1,63,0,0
83030,-200,4,2,4,63,0,0
83410,-200,4,2,1,63,0,0
84549,-200,4,2,4,63,0,0
84928,-200,4,2,1,63,0,0
85689,-200,4,2,3,63,0,0
85878,-200,4,2,1,63,0,0
86068,-200,4,2,3,63,0,0
86448,-200,4,2,1,63,0,0
87081,-200,4,2,3,63,0,0
87587,-200,4,2,3,65,0,0
87966,-200,4,2,1,65,0,0
88094,-200,4,2,3,65,0,0
88347,-200,4,2,1,68,0,0
88537,-200,4,2,3,68,0,0
88916,-200,4,2,1,68,0,0
89106,-200,4,2,3,70,0,0
89866,-200,4,2,3,35,0,0
91385,-400,4,2,1,65,0,0
91480,-400,4,2,1,78,0,0
91954,-400,4,2,2,78,0,0
92144,-200,4,2,4,78,0,0
92523,-200,4,2,2,78,0,0
92904,-100,4,2,3,78,0,0
93283,-100,4,2,2,78,0,0
93473,-100,4,2,2,78,0,0
93663,-200,4,2,4,78,0,0
94043,-200,4,2,2,78,0,0
94233,-200,4,2,3,78,0,0
94423,-400,4,2,3,78,0,0
94802,-400,4,2,2,78,0,0
94992,-400,4,2,2,78,0,0
95182,-200,4,2,4,78,0,0
95562,-200,4,2,2,78,0,0
95942,-100,4,2,3,78,0,0
96321,-100,4,2,2,78,0,0
96511,-100,4,2,2,78,0,0
96701,-200,4,2,4,78,0,0
97081,-200,4,2,2,65,0,0
97461,-400,4,2,1,78,0,0
97556,-400,4,2,1,78,0,0
97840,-400,4,2,2,78,0,0
98030,-400,4,2,2,78,0,0
98220,-200,4,2,4,78,0,0
98599,-200,4,2,2,78,0,0
98980,-100,4,2,3,78,0,0
99359,-100,4,2,2,78,0,0
99549,-100,4,2,2,78,0,0
99739,-200,4,2,4,78,0,0
100119,-200,4,2,2,78,0,0
100309,-200,4,2,3,78,0,0
100499,-400,4,2,3,78,0,0
100878,-400,4,2,2,78,0,0
101068,-400,4,2,2,78,0,0
101258,-200,4,2,4,78,0,0
101638,-200,4,2,2,78,0,0
102018,-100,4,2,3,78,0,0
102397,-100,4,2,2,78,0,0
102587,-100,4,2,2,78,0,0
102777,-200,4,2,4,78,0,0
102967,-200,4,2,1,78,0,0
103157,-200,4,2,2,78,0,0
103537,-400,4,2,1,65,0,0
103632,-400,4,2,1,78,0,0
103916,-400,4,2,2,78,0,0
104106,-400,4,2,2,78,0,0
104297,-200,4,2,4,78,0,0
104676,-200,4,2,2,78,0,0
104866,-200,4,2,2,78,0,0
105056,-200,4,2,3,78,0,0
105435,-200,4,2,2,78,0,0
105625,-200,4,2,2,78,0,0
105815,-200,4,2,4,78,0,0
106195,-200,4,2,2,78,0,0
106385,-200,4,2,3,78,0,0
106575,-400,4,2,3,78,0,0
106954,-400,4,2,2,78,0,0
107144,-400,4,2,2,78,0,0
107335,-200,4,2,4,78,0,0
107714,-200,4,2,2,78,0,0
107904,-200,4,2,2,78,0,0
108094,-200,4,2,3,78,0,0
108283,-200,4,2,2,78,0,0
108663,-200,4,2,2,78,0,0
108853,-200,4,2,4,78,0,0
109233,-200,4,2,2,78,0,0
109423,-200,4,2,3,78,0,0
109613,-400,4,2,3,78,0,0
109992,-400,4,2,2,78,0,0
110182,-400,4,2,2,78,0,0
110372,-200,4,2,4,78,0,0
110751,-200,4,2,2,78,0,0
110942,-200,4,2,2,78,0,0
111132,-100,4,2,3,78,0,0
111511,-100,4,2,2,78,0,0
111701,-100,4,2,2,78,0,0
111891,-200,4,2,4,78,0,0
112271,-200,4,2,2,78,0,0
112461,-200,4,2,3,78,0,0
112651,-200,4,2,3,78,0,0
112840,-200,4,2,3,78,0,0
113220,-200,4,2,2,78,0,0
113410,-200,4,2,4,82,0,0
113600,-200,4,2,3,82,0,0
113790,-200,4,2,2,82,0,0
113980,-200,4,2,3,82,0,0
114170,-303.030303030303,4,2,1,45,0,0
115689,-303.030303030303,4,2,1,65,0,1
115783,-303.030303030303,4,2,1,78,0,1
116068,-303.030303030303,4,2,5,78,0,1
116258,-303.030303030303,4,2,2,78,0,1
116448,-80,4,2,4,78,0,1
116637,-80,4,2,2,78,0,1
116828,-80,4,2,2,78,0,1
117017,-80,4,2,2,78,0,1
117208,-303.030303030303,4,2,3,78,0,1
117587,-303.030303030303,4,2,5,78,0,1
117777,-303.030303030303,4,2,2,78,0,1
117967,-80,4,2,4,78,0,1
118156,-80,4,2,2,78,0,1
118347,-200,4,2,2,78,0,1
118537,-200,4,2,3,78,0,1
118727,-303.030303030303,4,2,3,78,0,1
118827,-100,4,2,3,78,0,1
118916,-100,4,2,3,78,0,1
119106,-100,4,2,5,78,0,1
119295,-100,4,2,2,78,0,1
119486,-100,4,2,4,78,0,1
119865,-100,4,2,2,78,0,1
120245,-100,4,2,3,78,0,1
120625,-100,4,2,5,78,0,1
120815,-100,4,2,2,78,0,1
121005,-200,4,2,4,78,0,1
121195,-200,4,2,2,78,0,1
121385,-200,4,2,2,78,0,1
121575,-200,4,2,2,78,0,1
121764,-303.030303030303,4,2,1,65,0,1
121859,-303.030303030303,4,2,1,78,0,1
122144,-303.030303030303,4,2,5,78,0,1
122334,-303.030303030303,4,2,2,78,0,1
122524,-80,4,2,4,78,0,1
122713,-80,4,2,2,78,0,1
122904,-80,4,2,2,78,0,1
123093,-80,4,2,2,78,0,1
123283,-303.030303030303,4,2,3,78,0,1
123663,-303.030303030303,4,2,5,78,0,1
123853,-303.030303030303,4,2,2,78,0,1
124043,-80,4,2,4,78,0,1
124232,-80,4,2,2,78,0,1
124423,-200,4,2,2,78,0,1
124613,-200,4,2,3,78,0,1
124802,-303.030303030303,4,2,3,78,0,1
125182,-100,4,2,5,78,0,1
125371,-100,4,2,2,78,0,1
125562,-100,4,2,4,78,0,1
125941,-100,4,2,2,78,0,1
126321,-100,4,2,3,78,0,1
126701,-100,4,2,5,78,0,1
126891,-100,4,2,2,78,0,1
127081,-200,4,2,4,78,0,1
127271,-200,4,2,2,78,0,1
127461,-200,4,2,2,78,0,1
127651,-200,4,2,2,78,0,1
127840,-200,4,2,2,45,0,0
133916,-303.030303030303,4,2,3,45,0,0
139992,-200,4,2,3,45,0,0
143790,-200,4,2,3,52,0,0
146068,-200,4,2,1,39,0,0
155182,-200,4,2,1,50,0,0
155372,-200,4,2,3,50,0,0
155752,-200,4,2,1,50,0,0
155942,-200,4,2,3,55,0,0
156322,-200,4,2,1,55,0,0
156511,-200,4,2,3,55,0,0
156701,-200,4,2,3,35,0,0
158220,-400,4,2,1,70,0,0
158790,-400,4,2,2,83,0,0
158980,-200,4,2,4,83,0,0
159359,-200,4,2,2,83,0,0
159739,-100,4,2,3,83,0,0
160118,-100,4,2,2,83,0,0
160309,-100,4,2,2,83,0,0
160499,-200,4,2,4,83,0,0
160878,-200,4,2,2,83,0,0
161068,-200,4,2,3,83,0,0
161258,-400,4,2,3,83,0,0
161637,-400,4,2,2,83,0,0
161828,-400,4,2,2,83,0,0
162018,-200,4,2,4,83,0,0
162397,-200,4,2,2,83,0,0
162777,-100,4,2,3,83,0,0
163157,-200,4,2,3,83,0,0
163347,-200,4,2,2,83,0,0
163537,-200,4,2,4,83,0,0
163916,-200,4,2,2,83,0,0
164296,-400,4,2,1,70,0,0
164391,-400,4,2,1,83,0,0
164675,-400,4,2,2,83,0,0
164866,-400,4,2,2,83,0,0
165056,-200,4,2,4,83,0,0
165435,-200,4,2,2,83,0,0
165815,-100,4,2,3,83,0,0
166194,-100,4,2,2,83,0,0
166385,-100,4,2,2,83,0,0
166575,-200,4,2,4,83,0,0
166954,-200,4,2,2,83,0,0
167144,-200,4,2,3,83,0,0
167334,-200,4,2,3,83,0,0
167524,-200,4,2,3,83,0,0
167714,-200,4,2,2,83,0,0
167904,-200,4,2,2,83,0,0
168094,-200,4,2,4,87,0,0
168283,-200,4,2,3,87,0,0
168473,-200,4,2,2,75,0,0
168663,-200,4,2,3,75,0,0
168853,-303.030303030303,4,2,3,50,0,0
170372,-303.030303030303,4,2,1,70,0,1
170467,-303.030303030303,4,2,1,83,0,1
170752,-303.030303030303,4,2,5,83,0,1
170942,-303.030303030303,4,2,2,83,0,1
171132,-80,4,2,4,83,0,1
171321,-80,4,2,2,83,0,1
171511,-80,4,2,2,83,0,1
171700,-80,4,2,2,83,0,1
171891,-303.030303030303,4,2,3,83,0,1
172271,-303.030303030303,4,2,5,83,0,1
172461,-303.030303030303,4,2,2,83,0,1
172651,-80,4,2,4,83,0,1
172840,-80,4,2,2,83,0,1
173030,-200,4,2,2,83,0,1
173220,-200,4,2,3,83,0,1
173410,-303.030303030303,4,2,3,83,0,1
173511,-100,4,2,3,83,0,1
173599,-100,4,2,3,83,0,1
173790,-100,4,2,5,83,0,1
173979,-100,4,2,2,83,0,1
174170,-100,4,2,4,83,0,1
174549,-100,4,2,2,83,0,1
174929,-100,4,2,3,83,0,1
175309,-100,4,2,5,83,0,1
175499,-100,4,2,2,83,0,1
175689,-200,4,2,4,83,0,1
175878,-200,4,2,2,83,0,1
176068,-200,4,2,2,83,0,1
176258,-200,4,2,2,83,0,1
176448,-303.030303030303,4,2,1,70,0,1
176543,-303.030303030303,4,2,1,83,0,1
176828,-303.030303030303,4,2,5,83,0,1
177018,-303.030303030303,4,2,2,83,0,1
177208,-80,4,2,4,83,0,1
177397,-80,4,2,2,83,0,1
177587,-80,4,2,2,83,0,1
177776,-80,4,2,2,83,0,1
177967,-303.030303030303,4,2,3,83,0,1
178347,-303.030303030303,4,2,5,83,0,1
178537,-303.030303030303,4,2,2,83,0,1
178727,-80,4,2,4,83,0,1
178916,-80,4,2,2,83,0,1
179106,-200,4,2,2,83,0,1
179296,-200,4,2,3,83,0,1
179486,-303.030303030303,4,2,3,83,0,1
179866,-200,4,2,5,83,0,1
180056,-200,4,2,2,83,0,1
180246,-100,4,2,4,83,0,1
180625,-100,4,2,2,83,0,1
181005,-100,4,2,3,83,0,0
181764,-303.030303030303,4,2,3,35,0,0

[Colours]
Combo1 : 30,185,230
Combo2 : 247,30,128
Combo3 : 247,193,9

[HitObjects]
174,314,6321,5,2,2:2:0:0:
44,372,6511,1,0,2:0:0:0:
51,362,6606,2,0,L|115:353,1,52.5,0|2,2:0|2:2,0:0:0:0:
171,226,7081,5,0,2:0:0:0:
41,284,7271,1,0,2:0:0:0:
48,274,7366,2,0,L|112:265,1,52.5,0|0,2:0|2:0,0:0:0:0:
169,142,7840,5,2,2:2:0:0:
39,200,8030,1,0,2:0:0:0:
46,190,8125,2,0,L|110:181,1,52.5,0|2,2:0|2:2,0:0:0:0:
161,59,8600,5,0,2:0:0:0:
31,117,8790,1,0,2:0:0:0:
38,107,8885,2,0,L|102:98,1,52.5,0|0,2:0|2:0,0:0:0:0:
240,27,9359,5,2,2:2:0:0:
320,47,9549,1,0,2:0:0:0:
399,68,9739,1,0,2:0:0:0:
476,91,9929,2,0,L|368:103,1,105,2|2,2:2|2:2,0:0:0:0:
257,238,10878,6,0,P|242:270|243:307,1,70,2|0,2:2|2:0,0:0:0:0:
276,380,11448,6,0,P|234:312|112:329,1,210.000008010865,2|0,2:2|2:0,0:0:0:0:
15,116,12397,5,2,2:2:0:0:
73,246,12587,1,0,2:0:0:0:
63,239,12682,2,0,L|54:175,1,52.5,0|2,2:0|2:2,0:0:0:0:
95,69,13157,5,0,2:0:0:0:
153,199,13347,1,0,2:0:0:0:
143,192,13442,2,0,L|134:128,1,52.5,0|0,2:0|2:0,0:0:0:0:
189,62,13916,5,2,2:2:0:0:
247,192,14106,1,0,2:0:0:0:
237,185,14201,2,0,L|228:121,1,52.5,0|2,2:0|2:2,0:0:0:0:
269,15,14676,5,0,2:0:0:0:
327,145,14866,1,0,2:0:0:0:
317,138,14961,2,0,L|308:74,1,52.5,0|0,2:0|2:0,0:0:0:0:
460,42,15435,5,2,2:2:0:0:
444,119,15625,1,0,2:0:0:0:
426,198,15815,1,0,2:0:0:0:
406,274,16005,2,0,L|424:162,1,105,2|2,2:2|2:2,0:0:0:0:
255,32,16954,6,0,P|238:66|236:107,1,70,2|0,2:2|2:0,0:0:0:0:
259,176,17524,6,0,P|225:120|133:111,1,157.500006008148,2|0,2:2|2:0,0:0:0:0:
170,187,18283,1,0,2:0:0:0:
23,235,18473,6,0,P|50:217|93:214,1,70,4|0,2:2|2:0,0:0:0:0:
81,294,19043,1,10,2:2:0:0:
261,317,19233,6,0,P|234:299|191:296,1,70,0|10,2:0|2:2,0:0:0:0:
203,376,19803,1,0,2:0:0:0:
334,279,19992,5,10,2:2:0:0:
397,334,20182,2,0,L|391:374,2,35,0|0|10,2:0|2:0|2:2,0:0:0:0:
483,312,20752,2,0,L|471:235,1,70,8|10,2:2|2:2,0:0:0:0:
396,216,21321,1,0,2:0:0:0:
462,164,21511,6,0,L|474:81,1,70,10|0,2:2|2:0,0:0:0:0:
487,17,22081,1,10,2:2:0:0:
391,87,22271,5,8,2:2:0:0:
312,59,22461,1,0,2:0:0:0:
223,51,22651,1,10,2:2:0:0:
307,84,22840,1,0,2:0:0:0:
166,148,23030,6,0,L|84:165,1,70,10|0,2:2|2:0,0:0:0:0:
30,213,23600,1,10,2:2:0:0:
114,277,23790,2,0,L|32:294,1,70,8|10,2:2|2:2,0:0:0:0:
91,367,24359,2,0,L|124:361,1,17.5,0|0,2:0|2:0,0:0:0:0:
203,293,24549,5,4,2:2:0:0:
208,278,24929,5,8,2:2:0:0:
318,314,25119,1,2,2:2:0:0:
213,263,25309,5,8,2:2:0:0:
220,248,25689,5,10,2:2:0:0:
414,28,26068,5,10,2:2:0:0:
434,101,26258,1,0,2:0:0:0:
453,176,26448,1,8,2:2:0:0:
476,252,26638,1,2,2:2:0:0:
422,318,26828,6,0,L|343:302,1,70,8|10,2:2|2:2,0:0:0:0:
294,247,27397,1,0,2:0:0:0:
239,371,27587,5,10,2:2:0:0:
294,247,27777,1,8,2:2:0:0:
221,292,27967,1,8,2:2:0:0:
353,304,28157,1,10,2:2:0:0:
204,203,28347,5,8,2:2:0:0:
132,341,28537,1,8,2:2:0:0:
221,292,28727,1,8,2:2:0:0:
64,279,28917,1,8,2:2:0:0:
69,268,29011,1,0,2:0:0:0:
75,257,29106,1,0,2:0:0:0:
98,80,30625,6,0,L|135:71,1,35,4|0,2:3|2:0,0:0:0:0:
19,42,31195,1,4,2:3:0:0:
225,70,31385,6,0,P|211:27|189:3,1,70,8|4,2:2|2:3,0:0:0:0:
25,219,31954,2,0,L|49:213,1,17.5,0|0,2:0|2:0,0:0:0:0:
121,166,32144,6,0,P|80:218|85:299,1,140,4|2,2:3|2:2,0:0:0:0:
385,301,32714,5,4,2:3:0:0:
265,330,32904,2,0,L|300:323,1,35,8|0,2:2|2:0,0:0:0:0:
161,381,33283,6,0,L|165:360,1,17.5,4|0,2:3|2:0,0:0:0:0:
187,262,33473,2,0,L|191:241,1,17.5,2|0,2:2|2:0,0:0:0:0:
413,56,33663,6,0,L|420:98,1,35,4|2,2:3|2:2,0:0:0:0:
484,0,34233,1,4,2:3:0:0:
437,110,34423,6,0,L|430:152,1,35,8|0,2:2|2:0,0:0:0:0:
353,192,34802,2,0,L|360:234,1,35,4|0,2:3|2:0,0:0:0:0:
146,38,35182,6,0,L|112:178,1,140,4|2,2:3|2:2,0:0:0:0:
39,339,35752,1,4,2:3:0:0:
58,332,35847,1,0,2:0:0:0:
138,309,35942,6,0,L|142:340,1,17.5,8|0,2:2|2:0,0:0:0:0:
22,258,36132,1,0,2:0:0:0:
339,380,36321,6,0,L|342:364,2,8.75,4|0|0,2:3|2:0|2:0,0:0:0:0:
504,288,36511,2,0,L|505:296,2,8.75,0|0|0,2:0|2:0|2:0,0:0:0:0:
401,290,36701,6,0,L|394:256,1,35,4|2,2:3|2:2,0:0:0:0:
448,378,37271,1,4,2:3:0:0:
395,167,37461,6,0,P|425:171|460:199,1,70,8|4,2:2|2:3,0:0:0:0:
206,262,38030,2,0,L|213:288,1,17.5,0|0,2:0|2:0,0:0:0:0:
296,297,38220,6,0,P|229:311|183:373,1,140,4|2,2:3|2:2,0:0:0:0:
0,308,38790,5,4,2:3:0:0:
116,280,38980,2,0,L|79:288,1,35,8|0,2:2|2:0,0:0:0:0:
53,76,39359,6,0,L|47:102,1,17.5,4|0,2:3|2:0,0:0:0:0:
28,190,39549,2,0,L|22:216,1,17.5,2|0,2:2|2:0,0:0:0:0:
296,297,39739,6,0,L|289:257,1,35,4|2,2:3|2:2,0:0:0:0:
368,360,40309,1,4,2:3:0:0:
311,251,40499,6,0,L|318:211,1,35,8|0,2:2|2:0,0:0:0:0:
405,181,40878,2,0,L|398:141,1,35,4|0,2:3|2:0,0:0:0:0:
116,280,41258,6,0,L|145:133,1,140,4|2,2:3|2:2,0:0:0:0:
336,24,41828,1,4,2:3:0:0:
341,42,41923,1,0,2:0:0:0:
261,51,42018,6,0,L|239:56,1,17.5,8|0,2:2|2:0,0:0:0:0:
420,14,42208,1,8,2:3:0:0:
44,143,42397,6,0,L|58:145,2,8.75,4|0|0,2:3|2:0|2:0,0:0:0:0:
234,177,42587,2,0,L|219:174,2,8.75,0|0|0,2:0|2:0|2:0,0:0:0:0:
143,142,42777,6,0,L|136:177,1,35,4|2,2:3|2:2,0:0:0:0:
95,68,43347,1,4,2:3:0:0:
77,384,43537,5,8,2:2:0:0:
47,304,43727,1,0,2:0:0:0:
21,224,43916,1,4,2:3:0:0:
200,58,44106,1,2,2:2:0:0:
199,66,44201,1,0,2:0:0:0:
197,74,44296,5,4,2:3:0:0:
286,190,44486,1,0,2:0:0:0:
280,99,44676,1,2,2:2:0:0:
143,142,44866,1,4,2:3:0:0:
201,216,45056,5,8,2:2:0:0:
201,216,45246,1,0,2:0:0:0:
201,216,45435,6,0,L|196:240,1,17.5,4|0,2:3|2:0,0:0:0:0:
280,99,45625,1,2,2:2:0:0:
395,318,45815,6,0,L|388:280,1,35,4|2,2:3|2:2,0:0:0:0:
474,366,46385,1,4,2:3:0:0:
489,58,46575,5,8,2:2:0:0:
474,145,46764,1,0,2:0:0:0:
456,230,46954,1,4,2:3:0:0:
285,20,47144,1,2,2:2:0:0:
284,29,47239,1,0,2:0:0:0:
282,39,47334,5,4,2:3:0:0:
400,97,47524,1,2,2:2:0:0:
370,8,47714,1,2,2:2:0:0:
309,130,47904,1,4,2:3:0:0:
221,113,48094,5,8,2:2:0:0:
221,113,48283,1,0,2:0:0:0:
244,193,48473,6,0,L|247:204,2,8.75,4|0|0,2:3|2:0|2:0,0:0:0:0:
40,79,48663,2,0,L|42:70,2,8.75,2|0|0,2:2|2:0|2:0,0:0:0:0:
134,144,48853,6,0,L|99:153,1,35,4|2,2:3|2:2,0:0:0:0:
221,113,49423,1,4,2:3:0:0:
43,227,49613,6,0,P|25:262|22:298,1,70,8|4,2:2|2:3,0:0:0:0:
282,300,50182,2,0,L|258:305,1,17.5,2|0,2:2|2:0,0:0:0:0:
224,382,50372,6,0,P|226:327|183:249,1,140,4|2,2:3|2:2,0:0:0:0:
126,31,50942,5,4,2:3:0:0:
100,152,51132,2,0,L|109:113,1,35,8|0,2:2|2:0,0:0:0:0:
378,36,51511,6,0,L|381:54,1,17.5,4|0,2:3|2:0,0:0:0:0:
397,138,51701,2,0,L|400:156,1,17.5,2|0,2:2|2:0,0:0:0:0:
469,367,51891,5,4,2:3:0:0:
381,263,52081,1,8,2:2:0:0:
466,285,52271,1,8,2:2:0:0:
334,333,52461,1,4,2:3:0:0:
192,193,52651,5,8,2:2:0:0:
381,263,52841,1,8,2:2:0:0:
320,160,53031,1,4,2:3:0:0:
188,316,53221,1,8,2:2:0:0:
196,309,53315,1,0,2:0:0:0:
203,302,53410,6,0,L|133:315,1,69.2999997885132,8|0,2:3|2:0,0:0:0:0:
129,321,54075,1,0,2:0:0:0:
123,328,54170,1,0,2:0:0:0:
101,249,54359,1,0,2:0:0:0:
83,168,54549,1,0,2:0:0:0:
457,35,54929,6,0,L|451:64,1,23.0999999295044,4|0,2:3|2:0,0:0:0:0:
466,27,55214,1,0,2:0:0:0:
475,18,55309,1,10,2:2:0:0:
386,182,55499,2,0,L|380:162,1,11.5499999647522,4|0,2:3|2:0,0:0:0:0:
369,94,55689,6,0,P|332:110|299:173,1,87.5,8|2,2:2|2:2,0:0:0:0:
448,242,55973,1,0,2:0:0:0:
457,229,56068,2,0,P|472:188|465:145,1,87.5,4|2,2:3|2:2,0:0:0:0:
196,364,56448,6,0,L|225:358,1,23.0999999295044,4|0,2:3|2:0,0:0:0:0:
188,373,56733,1,0,2:0:0:0:
180,381,56828,1,10,2:2:0:0:
381,273,57018,2,0,L|362:268,1,11.5499999647522,4|0,2:3|2:0,0:0:0:0:
277,232,57208,6,0,L|295:330,1,87.5,8|2,2:2|2:2,0:0:0:0:
36,359,57587,6,0,L|42:335,1,17.5,4|0,2:3|2:0,0:0:0:0:
62,254,57777,2,0,L|68:230,1,17.5,2|0,2:2|2:0,0:0:0:0:
299,123,57967,6,0,L|305:152,1,23.0999999295044,4|0,2:3|2:0,0:0:0:0:
290,115,58252,1,0,2:0:0:0:
281,106,58347,6,0,L|298:22,1,70,10|4,2:2|2:3,0:0:0:0:
458,140,58727,2,0,L|435:-3,2,140,8|4|4,2:2|2:3|2:3,0:0:0:0:
255,373,59676,5,0,2:0:0:0:
258,363,59771,1,0,2:0:0:0:
261,352,59866,1,10,2:2:0:0:
442,285,60056,5,4,2:3:0:0:
447,305,60151,1,0,2:0:0:0:
369,246,60246,6,0,L|341:255,1,17.5,8|0,2:2|2:0,0:0:0:0:
493,216,60435,1,2,2:2:0:0:
85,72,60625,6,0,L|99:74,2,8.75,4|0|0,2:3|2:0|2:0,0:0:0:0:
281,106,60815,2,0,L|266:103,2,8.75,2|0|0,2:2|2:0|2:0,0:0:0:0:
185,80,61005,6,0,L|179:105,1,23.0999999295044,4|0,2:3|2:0,0:0:0:0:
182,69,61290,1,0,2:0:0:0:
180,60,61385,1,10,2:2:0:0:
96,257,61575,2,0,L|88:238,1,11.5499999647522,4|0,2:3|2:0,0:0:0:0:
8,236,61765,6,0,P|11:276|59:327,1,87.5,8|2,2:2|2:2,0:0:0:0:
171,205,62049,1,0,2:0:0:0:
163,196,62144,2,0,P|129:168|86:161,1,87.5,4|2,2:3|2:2,0:0:0:0:
137,377,62524,6,0,L|163:370,1,23.0999999295044,4|0,2:3|2:0,0:0:0:0:
128,371,62809,1,0,2:0:0:0:
120,364,62904,1,10,2:2:0:0:
334,321,63094,2,0,L|313:315,1,11.5499999647522,4|0,2:3|2:0,0:0:0:0:
232,319,63283,6,0,L|251:227,1,87.5,8|2,2:2|2:2,0:0:0:0:
383,4,63663,6,0,L|388:32,1,17.5,4|0,2:3|2:0,0:0:0:0:
404,114,63853,2,0,L|409:142,1,17.5,2|0,2:2|2:0,0:0:0:0:
163,196,64043,6,0,L|170:165,1,23.0999999295044,4|0,2:3|2:0,0:0:0:0:
155,203,64328,1,0,2:0:0:0:
147,210,64423,6,0,L|158:289,1,70,10|4,2:2|2:3,0:0:0:0:
30,180,64802,2,0,L|6:328,2,140,8|4|4,2:2|2:3|2:3,0:0:0:0:
255,14,65752,5,0,2:0:0:0:
258,25,65847,1,0,2:0:0:0:
262,37,65942,1,10,2:2:0:0:
42,95,66132,5,4,2:3:0:0:
61,91,66227,1,0,2:0:0:0:
144,80,66321,6,0,L|138:113,1,17.5,8|0,2:2|2:0,0:0:0:0:
23,11,66511,1,2,2:2:0:0:
312,163,66701,6,0,L|309:177,2,8.75,4|0|0,2:3|2:0|2:0,0:0:0:0:
500,71,66891,2,0,L|498:62,2,8.75,2|0|0,2:2|2:0|2:0,0:0:0:0:
404,117,67081,5,2,2:2:0:0:
273,57,67271,1,0,2:0:0:0:
284,65,67366,2,0,L|310:62,1,26.2500010013581,0|0,2:0|2:0,0:0:0:0:
397,20,67651,1,2,2:2:0:0:
90,170,67840,5,8,2:2:0:0:
207,115,68030,1,0,2:0:0:0:
198,126,68125,2,0,L|172:122,1,26.2500010013581,0|2,2:0|2:2,0:0:0:0:
90,71,68410,1,0,2:0:0:0:
411,214,68600,5,2,2:2:0:0:
285,153,68790,1,0,2:0:0:0:
291,162,68885,2,0,L|317:159,1,26.2500010013581,0|0,2:0|2:0,0:0:0:0:
404,117,69170,1,2,2:2:0:0:
307,325,69359,5,8,2:2:0:0:
395,304,69549,1,0,2:0:0:0:
311,342,69739,1,2,2:2:0:0:
399,321,69929,1,0,2:0:0:0:
215,375,70119,5,2,2:2:0:0:
235,275,70309,1,0,2:0:0:0:
258,175,70499,1,0,2:0:0:0:
278,75,70689,1,2,2:2:0:0:
358,140,70878,1,8,2:2:0:0:
94,17,71068,6,0,L|99:49,1,26.2500010013581,0|0,2:0|2:0,0:0:0:0:
112,123,71258,2,0,L|117:155,1,26.2500010013581,2|0,2:2|2:0,0:0:0:0:
132,233,71448,2,0,L|137:265,1,26.2500010013581,0|0,2:0|2:0,0:0:0:0:
37,366,71638,6,0,L|46:331,1,34.6499998942566,2|0,2:2|2:0,0:0:0:0:
63,324,72018,6,0,L|58:298,3,26.2500010013581,0|0|2|0,2:0|2:0|2:2|2:0,0:0:0:0:
11,222,72397,1,8,2:2:0:0:
110,122,72587,6,0,L|116:148,1,26.2500010013581,0|0,2:0|2:0,0:0:0:0:
200,170,72777,5,2,2:2:0:0:
183,83,72967,1,0,2:0:0:0:
491,200,73157,5,2,2:2:0:0:
288,75,73347,1,0,2:0:0:0:
276,85,73442,2,0,L|270:110,1,26.2500010013581,0|0,2:0|2:0,0:0:0:0:
351,20,73727,1,2,2:2:0:0:
491,200,73916,5,8,2:2:0:0:
371,274,74106,1,0,2:0:0:0:
359,264,74201,2,0,L|353:238,1,26.2500010013581,0|2,2:0|2:2,0:0:0:0:
435,330,74486,1,0,2:0:0:0:
491,200,74676,5,2,2:2:0:0:
183,83,74866,1,0,2:0:0:0:
171,93,74961,2,0,L|165:118,1,26.2500010013581,0|0,2:0|2:0,0:0:0:0:
233,10,75246,1,2,2:2:0:0:
23,364,75435,5,8,2:2:0:0:
2,279,75625,1,0,2:0:0:0:
86,255,75815,1,2,2:2:0:0:
110,341,76005,1,0,2:0:0:0:
13,182,76195,5,2,2:2:0:0:
106,154,76385,1,0,2:0:0:0:
199,127,76575,1,0,2:0:0:0:
292,99,76765,1,2,2:2:0:0:
218,31,76954,1,8,2:2:0:0:
422,293,77144,6,0,L|389:284,1,26.2500010013581,0|0,2:0|2:0,0:0:0:0:
313,263,77334,2,0,L|280:254,1,26.2500010013581,2|0,2:2|2:0,0:0:0:0:
205,229,77524,2,0,L|172:220,1,26.2500010013581,0|0,2:0|2:0,0:0:0:0:
104,280,77714,5,2,2:2:0:0:
83,192,77904,1,8,2:2:0:0:
87,284,78094,1,0,2:0:0:0:
66,196,78284,1,2,2:2:0:0:
107,375,78473,6,0,L|151:363,1,46.1999998590088,8|2,2:2|2:2,0:0:0:0:
22,344,79043,1,0,2:0:0:0:
190,172,79233,6,0,P|166:147|129:140,1,70,4|0,2:2|2:0,0:0:0:0:
66,196,79802,1,10,2:2:0:0:
241,348,79992,6,0,P|265:323|302:316,1,70,8|10,2:2|2:2,0:0:0:0:
365,372,80561,1,0,2:0:0:0:
481,222,80752,5,10,2:2:0:0:
485,310,80942,2,0,L|478:348,2,35,0|0|10,2:0|2:0|2:2,0:0:0:0:
373,278,81511,2,0,L|422:267,1,35,8|0,2:2|2:0,0:0:0:0:
362,70,81891,6,0,L|358:97,1,17.5,10|0,2:2|2:0,0:0:0:0:
345,169,82081,2,0,L|341:196,1,17.5,0|0,2:0|2:0,0:0:0:0:
107,307,82271,6,0,L|155:297,1,46.1999998590088,10|0,2:2|2:0,0:0:0:0:
35,257,82840,1,10,2:2:0:0:
193,222,83030,5,8,2:2:0:0:
268,259,83220,1,0,2:0:0:0:
256,348,83410,1,10,2:2:0:0:
176,375,83600,1,0,2:0:0:0:
193,222,83790,5,10,2:2:0:0:
99,173,83980,1,0,2:0:0:0:
114,64,84170,1,0,2:0:0:0:
214,30,84360,1,10,2:2:0:0:
268,259,84549,6,0,L|343:243,1,70,8|10,2:2|2:2,0:0:0:0:
506,176,85119,2,0,L|475:169,1,17.5,0|0,2:0|2:0,0:0:0:0:
392,168,85309,5,4,2:2:0:0:
397,179,85689,5,8,2:2:0:0:
490,90,85878,1,2,2:2:0:0:
402,187,86068,5,8,2:2:0:0:
408,195,86448,1,10,2:2:0:0:
414,205,86828,6,0,L|408:238,1,23.3333333333333,10|0,2:2|2:0,0:0:0:0:
241,150,87081,6,0,L|247:183,1,23.3333333333333,8|8,2:2|2:2,0:0:0:0:
368,55,87334,6,0,L|362:88,1,23.3333333333333,8|0,2:2|2:0,0:0:0:0:
427,235,87587,6,0,L|421:268,1,23.3333333333333,8|0,2:2|2:0,0:0:0:0:
226,132,87840,6,0,L|232:165,1,23.3333333333333,8|10,2:2|2:2,0:0:0:0:
385,38,88094,6,0,L|379:71,1,23.3333333333333,8|0,2:2|2:0,0:0:0:0:
255,276,88347,5,10,2:2:0:0:
373,324,88537,1,8,2:2:0:0:
331,251,88727,1,8,2:2:0:0:
263,356,88916,1,10,2:2:0:0:
79,192,89106,5,8,2:2:0:0:
226,132,89296,1,8,2:2:0:0:
174,223,89486,1,8,2:2:0:0:
86,85,89675,1,8,2:2:0:0:
91,95,89771,1,0,2:0:0:0:
95,103,89866,1,0,2:0:0:0:
448,90,91385,6,0,L|441:130,1,35,4|0,2:3|2:0,0:0:0:0:
409,10,91954,1,4,2:3:0:0:
299,173,92144,6,0,P|330:157|378:152,1,70,8|4,2:2|2:3,0:0:0:0:
453,287,92714,2,0,L|449:314,1,17.5,0|0,2:0|2:0,0:0:0:0:
500,375,92904,6,0,P|458:349|360:346,1,140,4|2,2:3|2:2,0:0:0:0:
103,357,93473,5,4,2:3:0:0:
221,375,93663,2,0,L|172:368,1,35,8|0,2:2|2:0,0:0:0:0:
15,181,94043,6,0,L|40:176,1,17.5,4|0,2:3|2:0,0:0:0:0:
119,155,94233,2,0,L|144:150,1,17.5,2|0,2:2|2:0,0:0:0:0:
307,280,94423,6,0,L|273:272,1,35,4|2,2:3|2:2,0:0:0:0:
369,343,94992,1,4,2:3:0:0:
258,248,95182,6,0,L|217:256,1,35,8|0,2:2|2:0,0:0:0:0:
148,319,95562,2,0,L|113:312,1,35,4|0,2:3|2:0,0:0:0:0:
288,44,95942,6,0,L|140:78,1,140,4|2,2:3|2:2,0:0:0:0:
25,169,96511,1,4,2:3:0:0:
43,161,96606,1,0,2:0:0:0:
121,196,96701,6,0,L|115:224,1,17.5,8|0,2:2|2:0,0:0:0:0:
23,79,96891,1,0,2:0:0:0:
191,358,97081,6,0,L|189:372,2,8.75,4|0|0,2:3|2:0|2:0,0:0:0:0:
360,307,97271,2,0,L|358:298,2,8.75,0|0|0,2:0|2:0|2:0,0:0:0:0:
260,293,97461,6,0,L|253:259,1,35,4|2,2:3|2:2,0:0:0:0:
287,376,98030,1,4,2:3:0:0:
163,266,98220,6,0,P|165:232|184:193,1,70,8|4,2:2|2:3,0:0:0:0:
411,78,98790,2,0,L|385:84,1,17.5,0|0,2:0|2:0,0:0:0:0:
316,41,98980,6,0,P|350:77|366:176,1,140,4|2,2:3|2:2,0:0:0:0:
179,199,99549,5,4,2:3:0:0:
293,214,99739,2,0,L|243:221,1,35,8|0,2:2|2:0,0:0:0:0:
29,279,100119,6,0,L|35:246,1,17.5,4|0,2:3|2:0,0:0:0:0:
46,173,100309,2,0,L|52:140,1,17.5,2|0,2:2|2:0,0:0:0:0:
300,51,100499,6,0,L|307:90,1,35,4|2,2:3|2:2,0:0:0:0:
219,8,101068,1,4,2:3:0:0:
327,104,101258,6,0,L|320:143,1,35,8|0,2:2|2:0,0:0:0:0:
422,163,101638,2,0,L|429:202,1,35,4|0,2:3|2:0,0:0:0:0:
212,94,102018,6,0,L|179:252,1,140,4|2,2:3|2:2,0:0:0:0:
12,348,102587,1,4,2:3:0:0:
29,341,102682,1,0,2:0:0:0:
63,264,102777,6,0,L|53:232,1,17.5,8|0,2:2|2:0,0:0:0:0:
106,376,102967,1,8,2:3:0:0:
12,102,103157,6,0,L|9:115,2,8.75,4|0|0,2:3|2:0|2:0,0:0:0:0:
169,48,103347,2,0,L|166:35,2,8.75,0|0|0,2:0|2:0|2:0,0:0:0:0:
106,127,103537,6,0,L|115:165,1,35,4|2,2:3|2:2,0:0:0:0:
76,40,104106,1,4,2:3:0:0:
47,222,104296,5,8,2:2:0:0:
132,242,104486,1,0,2:0:0:0:
196,183,104676,1,4,2:3:0:0:
300,332,104866,1,2,2:2:0:0:
304,340,104961,1,0,2:0:0:0:
308,348,105056,5,4,2:3:0:0:
464,298,105246,1,0,2:0:0:0:
398,377,105435,1,2,2:2:0:0:
303,246,105625,1,4,2:3:0:0:
403,214,105815,5,8,2:2:0:0:
403,214,106005,1,0,2:0:0:0:
403,214,106195,6,0,L|397:243,1,17.5,4|0,2:3|2:0,0:0:0:0:
494,97,106385,1,2,2:2:0:0:
246,66,106575,6,0,L|251:103,1,35,4|2,2:3|2:2,0:0:0:0:
168,12,107144,1,4,2:3:0:0:
303,246,107334,5,8,2:2:0:0:
329,153,107524,1,0,2:0:0:0:
357,62,107714,1,4,2:3:0:0:
203,188,107904,1,2,2:2:0:0:
206,196,107999,1,0,2:0:0:0:
209,205,108094,5,4,2:3:0:0:
39,139,108283,1,2,2:2:0:0:
65,247,108473,1,2,2:2:0:0:
185,102,108663,1,4,2:3:0:0:
124,178,108853,5,8,2:2:0:0:
124,178,109043,1,0,2:0:0:0:
209,205,109233,6,0,L|207:219,2,8.75,4|0|0,2:3|2:0|2:0,0:0:0:0:
374,147,109423,2,0,L|372:138,2,8.75,2|0|0,2:2|2:0|2:0,0:0:0:0:
305,215,109613,6,0,L|314:252,1,35,4|2,2:3|2:2,0:0:0:0:
272,128,110182,1,4,2:3:0:0:
313,333,110372,6,0,P|274:323|244:299,1,70,8|4,2:2|2:3,0:0:0:0:
114,135,110942,2,0,L|110:158,1,17.5,2|0,2:2|2:0,0:0:0:0:
68,230,111132,6,0,P|112:198|207:189,1,140,4|2,2:3|2:2,0:0:0:0:
370,58,111701,5,4,2:3:0:0:
272,128,111891,2,0,L|316:121,1,35,8|0,2:2|2:0,0:0:0:0:
500,339,112271,6,0,L|471:333,1,17.5,4|0,2:3|2:0,0:0:0:0:
393,315,112461,2,0,L|364:309,1,17.5,2|0,2:2|2:0,0:0:0:0:
165,351,112651,5,4,2:3:0:0:
278,295,112840,1,8,2:2:0:0:
193,270,113030,1,8,2:2:0:0:
250,380,113220,1,4,2:3:0:0:
193,270,113410,5,8,2:2:0:0:
102,63,113600,1,8,2:2:0:0:
252,107,113790,1,4,2:3:0:0:
52,223,113980,1,8,2:2:0:0:
47,216,114075,1,0,2:0:0:0:
41,210,114170,6,0,L|114:200,1,69.2999997885132,8|0,2:3|2:0,0:0:0:0:
116,193,114834,1,0,2:0:0:0:
122,186,114929,1,0,2:0:0:0:
142,105,115119,1,0,2:0:0:0:
162,25,115309,1,0,2:0:0:0:
440,192,115689,6,0,L|411:186,1,23.0999999295044,4|0,2:3|2:0,0:0:0:0:
448,203,115973,1,0,2:0:0:0:
457,213,116068,1,10,2:2:0:0:
382,84,116258,2,0,L|402:81,1,11.5499999647522,4|0,2:3|2:0,0:0:0:0:
473,100,116448,6,0,P|471:54|443:17,1,87.5,8|2,2:2|2:2,0:0:0:0:
304,52,116733,1,0,2:0:0:0:
300,68,116828,2,0,P|301:112|328:149,1,87.5,4|2,2:3|2:2,0:0:0:0:
442,347,117208,6,0,L|413:341,1,23.0999999295044,4|0,2:3|2:0,0:0:0:0:
450,358,117492,1,0,2:0:0:0:
459,369,117587,1,10,2:2:0:0:
241,293,117777,2,0,L|258:289,1,11.5499999647522,4|0,2:3|2:0,0:0:0:0:
328,233,117967,6,0,L|341:329,1,87.5,8|2,2:2|2:2,0:0:0:0:
58,367,118347,6,0,L|66:335,1,17.5,4|0,2:3|2:0,0:0:0:0:
84,268,118537,2,0,L|92:236,1,17.5,2|0,2:2|2:0,0:0:0:0:
211,112,118727,6,0,L|216:144,1,23.0999999295044,4|0,2:3|2:0,0:0:0:0:
199,99,119011,1,0,2:0:0:0:
190,88,119106,6,0,L|203:19,1,70,10|4,2:2|2:3,0:0:0:0:
151,192,119486,2,0,L|2:221,2,140,8|4|4,2:2|2:3|2:3,0:0:0:0:
379,55,120435,5,0,2:0:0:0:
382,65,120530,1,0,2:0:0:0:
385,76,120625,1,10,2:2:0:0:
493,230,120815,1,4,2:3:0:0:
471,221,120910,1,0,2:0:0:0:
394,255,121005,6,0,L|388:284,1,17.5,8|0,2:2|2:0,0:0:0:0:
483,138,121195,1,2,2:2:0:0:
202,19,121385,6,0,L|200:32,2,8.75,4|0|0,2:3|2:0|2:0,0:0:0:0:
284,191,121575,2,0,L|282:178,2,8.75,2|0|0,2:2|2:0|2:0,0:0:0:0:
192,133,121764,6,0,L|169:129,1,23.0999999295044,4|0,2:3|2:0,0:0:0:0:
203,123,122049,1,0,2:0:0:0:
214,113,122144,1,10,2:2:0:0:
96,282,122334,2,0,L|116:277,1,11.5499999647522,4|0,2:3|2:0,0:0:0:0:
187,291,122524,6,0,P|181:245|151:210,1,87.5,8|2,2:2|2:2,0:0:0:0:
17,261,122809,1,0,2:0:0:0:
14,277,122904,2,0,P|18:321|48:356,1,87.5,4|2,2:3|2:2,0:0:0:0:
391,363,123283,6,0,L|366:357,1,23.0999999295044,4|0,2:3|2:0,0:0:0:0:
402,353,123568,1,0,2:0:0:0:
413,343,123663,1,10,2:2:0:0:
187,291,123853,2,0,L|200:288,1,11.5499999647522,4|0,2:3|2:0,0:0:0:0:
277,350,124043,6,0,L|293:261,1,87.5,8|2,2:2|2:2,0:0:0:0:
68,9,124423,6,0,L|72:38,1,17.5,4|0,2:3|2:0,0:0:0:0:
87,114,124613,2,0,L|91:143,1,17.5,2|0,2:2|2:0,0:0:0:0:
208,267,124802,6,0,L|213:235,1,23.0999999295044,4|0,2:3|2:0,0:0:0:0:
196,280,125086,1,0,2:0:0:0:
187,291,125182,6,0,L|198:370,1,70,10|4,2:2|2:3,0:0:0:0:
153,186,125562,2,0,L|4:157,2,140,8|4|4,2:2|2:3|2:3,0:0:0:0:
419,344,126511,5,0,2:0:0:0:
422,355,126606,1,0,2:0:0:0:
425,365,126701,1,10,2:2:0:0:
287,275,126891,1,4,2:3:0:0:
299,256,126986,1,0,2:0:0:0:
379,236,127081,6,0,L|405:247,1,17.5,8|0,2:2|2:0,0:0:0:0:
246,190,127271,1,2,2:2:0:0:
458,62,127461,6,0,L|467:65,2,8.75,4|0|0,2:3|2:0|2:0,0:0:0:0:
275,18,127651,2,0,L|267:16,2,8.75,2|0|0,2:2|2:0|2:0,0:0:0:0:
367,44,127840,5,0,2:0:0:0:
353,281,133916,6,0,L|405:273,1,46.1999998590088,12|0,2:2|2:0,0:0:0:0:
310,213,134486,1,10,2:2:0:0:
405,288,134676,6,0,L|399:319,1,23.0999999295044,0|0,2:0|2:0,0:0:0:0:
491,298,135056,2,0,L|485:329,1,23.0999999295044,10|0,2:2|2:0,0:0:0:0:
336,372,135435,5,10,2:2:0:0:
262,358,135625,1,0,2:0:0:0:
183,344,135815,1,0,2:0:0:0:
109,330,136005,1,10,2:2:0:0:
165,265,136195,6,0,L|194:261,1,23.0999999295044,0|0,2:0|2:0,0:0:0:0:
183,344,136575,1,10,2:2:0:0:
109,330,136764,1,2,2:2:0:0:
30,317,136954,5,8,2:2:0:0:
26,327,137524,5,10,2:2:0:0:
22,339,138094,5,8,2:2:0:0:
52,89,138473,5,8,2:2:0:0:
46,76,139043,5,10,2:2:0:0:
41,61,139613,5,8,2:2:0:0:
43,178,139992,6,0,L|82:172,1,35,8|0,2:2|2:0,0:0:0:0:
127,240,140372,2,0,L|166:234,1,35,8|2,2:2|2:2,0:0:0:0:
298,138,140752,5,8,2:2:0:0:
285,211,140942,1,0,2:0:0:0:
267,285,141132,1,10,2:2:0:0:
251,360,141321,1,2,2:2:0:0:
329,342,141511,6,0,L|353:337,1,23.3333333333333,10|0,2:2|2:0,0:0:0:0:
486,258,141764,6,0,L|462:253,1,23.3333333333333,8|0,2:2|2:0,0:0:0:0:
285,211,142018,6,0,L|307:206,1,23.3333333333333,10|0,2:2|2:0,0:0:0:0:
335,363,142271,6,0,L|359:358,1,23.3333333333333,8|0,2:2|2:0,0:0:0:0:
494,244,142524,6,0,L|470:239,1,23.3333333333333,8|0,2:2|2:0,0:0:0:0:
278,190,142778,6,0,L|300:185,1,23.3333333333333,10|0,2:2|2:0,0:0:0:0:
409,89,143030,5,8,2:2:0:0:
410,94,143220,1,8,2:2:0:0:
412,100,143410,1,10,2:2:0:0:
414,106,143600,1,8,2:2:0:0:
378,19,143790,5,8,2:2:0:0:
495,153,143980,1,8,2:2:0:0:
490,50,144169,1,8,2:2:0:0:
318,100,144359,1,8,2:2:0:0:
238,16,146068,6,0,P|185:31|153:76,1,105,2|2,2:2|2:2,0:0:0:0:
260,167,146828,2,0,P|258:134|235:98,1,70,0|2,2:0|2:2,0:0:0:0:
59,176,147397,2,0,L|85:170,1,17.5,0|0,2:0|2:0,0:0:0:0:
173,164,147587,5,2,2:2:0:0:
166,159,147682,1,0,2:0:0:0:
157,152,147777,2,0,L|142:223,1,70,0|2,2:0|2:2,0:0:0:0:
67,311,148347,5,0,2:0:0:0:
133,359,148727,6,0,L|155:353,1,17.5,2|0,2:2|2:0,0:0:0:0:
202,369,148916,2,0,L|224:363,1,17.5,0|0,2:0|2:0,0:0:0:0:
307,322,149106,6,0,P|343:326|399:382,1,105,2|2,2:2|2:2,0:0:0:0:
295,239,149866,2,0,P|261:246|228:275,1,70,0|2,2:0|2:2,0:0:0:0:
460,315,150625,5,2,2:2:0:0:
467,308,150720,1,0,2:0:0:0:
473,301,150815,2,0,L|465:230,1,70,0|2,2:0|2:2,0:0:0:0:
383,190,151385,6,0,L|386:168,1,17.5,2|0,2:2|2:0,0:0:0:0:
378,159,151575,1,0,2:0:0:0:
469,135,151764,6,0,L|463:113,1,17.5,2|0,2:2|2:0,0:0:0:0:
479,66,151954,2,0,L|473:44,1,17.5,0|0,2:0|2:0,0:0:0:0:
368,17,152144,6,0,P|322:18|273:69,1,105,2|2,2:2|2:2,0:0:0:0:
196,97,152904,2,0,P|215:124|254:145,1,70,0|2,2:0|2:2,0:0:0:0:
383,190,153473,2,0,L|359:194,1,17.5,0|0,2:0|2:0,0:0:0:0:
275,225,153663,5,2,2:2:0:0:
281,221,153758,1,0,2:0:0:0:
287,217,153853,2,0,L|279:259,1,35,0|0,2:0|2:0,0:0:0:0:
257,370,154233,5,2,2:2:0:0:
174,342,154423,2,0,L|93:359,1,70,0|2,2:0|2:2,0:0:0:0:
24,241,155182,5,2,2:2:0:0:
99,139,155372,1,8,2:2:0:0:
17,162,155562,1,8,2:2:0:0:
133,213,155752,1,2,2:2:0:0:
99,139,155942,5,8,2:2:0:0:
208,14,156132,1,8,2:2:0:0:
109,42,156322,1,2,2:2:0:0:
279,85,156511,1,8,2:2:0:0:
277,95,156606,1,0,2:0:0:0:
275,106,156701,1,0,2:0:0:0:
256,192,156796,12,0,158030,2:0:0:0:
105,96,158220,6,0,L|97:135,1,35,4|0,2:3|2:0,0:0:0:0:
51,25,158790,1,4,2:3:0:0:
26,236,158980,6,0,P|55:221|106:216,1,70,8|4,2:2|2:3,0:0:0:0:
282,382,159549,2,0,L|291:352,1,17.5,0|0,2:0|2:0,0:0:0:0:
243,291,159739,6,0,P|290:319|381:314,1,140,4|2,2:3|2:2,0:0:0:0:
498,146,160309,5,4,2:3:0:0:
436,248,160499,2,0,L|444:201,1,35,8|0,2:2|2:0,0:0:0:0:
253,16,160878,6,0,L|256:40,1,17.5,4|0,2:3|2:0,0:0:0:0:
272,121,161068,2,0,L|275:145,1,17.5,2|0,2:2|2:0,0:0:0:0:
119,275,161258,6,0,L|129:236,1,35,4|2,2:3|2:2,0:0:0:0:
55,336,161828,1,4,2:3:0:0:
195,186,162018,6,0,P|168:166|125:158,1,70,8|4,2:2|2:3,0:0:0:0:
82,12,162587,2,0,L|77:41,1,17.5,0|0,2:0|2:0,0:0:0:0:
10,68,162777,6,0,P|37:53|81:47,1,70,4|0,2:3|2:0,0:0:0:0:
276,127,163157,6,0,L|270:158,1,17.5,2|0,2:2|2:0,0:0:0:0:
461,80,163347,1,4,2:3:0:0:
252,168,163537,6,0,L|258:199,1,17.5,10|0,2:2|2:0,0:0:0:0:
400,15,163727,1,2,2:2:0:0:
485,294,163916,6,0,L|483:307,2,8.75,4|0|0,2:3|2:0|2:0,0:0:0:0:
318,353,164106,2,0,L|316:340,2,8.75,0|0|0,2:0|2:0|2:0,0:0:0:0:
389,283,164296,6,0,L|382:245,1,35,4|2,2:3|2:2,0:0:0:0:
414,371,164866,1,4,2:3:0:0:
452,187,165056,6,0,P|422:164|377:159,1,70,8|4,2:2|2:3,0:0:0:0:
161,16,165625,2,0,L|167:43,1,17.5,0|0,2:0|2:0,0:0:0:0:
254,42,165815,6,0,P|188:64|142:122,1,140,4|2,2:3|2:2,0:0:0:0:
17,288,166385,5,4,2:3:0:0:
79,183,166575,2,0,L|70:231,1,35,8|0,2:2|2:0,0:0:0:0:
223,364,166954,6,0,L|253:359,1,17.5,4|0,2:3|2:0,0:0:0:0:
324,343,167144,2,0,L|354:338,1,17.5,2|0,2:2|2:0,0:0:0:0:
440,217,167334,5,4,2:3:0:0:
299,258,167524,1,8,2:2:0:0:
349,188,167714,1,2,2:2:0:0:
436,310,167904,1,4,2:3:0:0:
299,258,168094,5,8,2:2:0:0:
463,68,168283,1,8,2:2:0:0:
219,30,168473,6,0,L|190:37,1,17.5,6|0,2:3|2:0,0:0:0:0:
405,129,168663,1,10,2:2:0:0:
190,49,168853,6,0,L|117:37,1,69.2999997885132,4|0,2:3|2:0,0:0:0:0:
68,96,169613,1,0,2:0:0:0:
54,169,169802,1,0,2:0:0:0:
39,245,169992,1,0,2:0:0:0:
368,343,170372,6,0,L|362:314,1,23.0999999295044,4|0,2:3|2:0,0:0:0:0:
361,355,170657,1,0,2:0:0:0:
355,366,170752,1,10,2:2:0:0:
300,227,170942,2,0,L|306:208,1,11.5499999647522,4|0,2:3|2:0,0:0:0:0:
343,138,171132,6,0,P|383:178|389:214,1,87.5,8|2,2:2|2:2,0:0:0:0:
279,315,171416,1,0,2:0:0:0:
262,304,171511,2,0,P|221:263|215:227,1,87.5,4|2,2:3|2:2,0:0:0:0:
290,34,171891,6,0,L|295:61,1,23.0999999295044,4|0,2:3|2:0,0:0:0:0:
296,23,172176,1,0,2:0:0:0:
304,10,172271,1,10,2:2:0:0:
117,74,172461,2,0,L|113:95,1,11.5499999647522,4|0,2:3|2:0,0:0:0:0:
214,110,172651,6,0,L|196:18,1,87.5,8|2,2:2|2:2,0:0:0:0:
503,86,173030,6,0,L|498:115,1,17.5,4|0,2:3|2:0,0:0:0:0:
481,191,173220,2,0,L|476:220,1,17.5,2|0,2:2|2:0,0:0:0:0:
359,289,173410,6,0,L|353:260,1,23.0999999295044,4|0,2:3|2:0,0:0:0:0:
352,301,173695,1,0,2:0:0:0:
344,312,173790,6,0,L|329:397,1,70,10|4,2:2|2:3,0:0:0:0:
255,190,174170,2,0,L|409:160,2,140,8|4|4,2:2|2:3|2:3,0:0:0:0:
32,146,175119,5,0,2:0:0:0:
35,136,175214,1,0,2:0:0:0:
38,125,175309,1,10,2:2:0:0:
128,264,175499,1,4,2:3:0:0:
131,283,175594,1,0,2:0:0:0:
74,345,175689,6,0,L|42:353,1,17.5,8|0,2:2|2:0,0:0:0:0:
216,307,175878,1,2,2:2:0:0:
142,84,176068,6,0,L|128:87,2,8.75,4|0|0,2:3|2:0|2:0,0:0:0:0:
327,33,176258,2,0,L|341:30,2,8.75,2|0|0,2:2|2:0|2:0,0:0:0:0:
244,85,176448,6,0,L|236:117,1,23.0999999295044,4|0,2:3|2:0,0:0:0:0:
237,71,176733,1,0,2:0:0:0:
230,60,176828,1,10,2:2:0:0:
153,168,177018,2,0,L|159:187,1,11.5499999647522,4|0,2:3|2:0,0:0:0:0:
196,257,177208,6,0,P|236:216|242:180,1,87.5,8|2,2:2|2:2,0:0:0:0:
126,82,177492,1,0,2:0:0:0:
109,93,177587,2,0,P|68:133|62:169,1,87.5,4|2,2:3|2:2,0:0:0:0:
287,343,177967,6,0,L|295:311,1,23.0999999295044,4|0,2:3|2:0,0:0:0:0:
294,357,178252,1,0,2:0:0:0:
299,368,178347,1,10,2:2:0:0:
470,274,178537,2,0,L|466:260,1,11.5499999647522,4|0,2:3|2:0,0:0:0:0:
370,243,178727,6,0,L|388:337,1,87.5,8|2,2:2|2:2,0:0:0:0:
49,275,179106,6,0,L|54:246,1,17.5,4|0,2:3|2:0,0:0:0:0:
69,164,179296,2,0,L|74:135,1,17.5,2|0,2:2|2:0,0:0:0:0:
210,26,179486,5,4,2:3:0:0:
206,34,179582,1,0,2:0:0:0:
202,41,179677,1,0,2:0:0:0:
199,49,179771,1,0,2:0:0:0:
195,58,179866,6,0,L|199:87,1,17.5,10|0,2:2|2:0,0:0:0:0:
41,11,180056,1,4,2:3:0:0:
174,180,180246,6,0,L|317:150,2,140,8|4|4,2:2|2:3|2:3,0:0:0:0:
57,214,181764,5,0,2:0:0:0:
42,289,181954,1,0,2:0:0:0:
26,366,182144,1,0,2:0:0:0:
