osu file format v14

[General]
AudioFilename: audio.mp3
AudioLeadIn: 0
PreviewTime: -1
Countdown: 1
SampleSet: Soft
StackLeniency: 0.7
Mode: 0
LetterboxInBreaks: 0
WidescreenStoryboard: 0

[Editor]
DistanceSpacing: 1.2
BeatDivisor: 4
GridSize: 4
TimelineZoom: 1.7

[Metadata]
Title:Kimi to Boku no Mirai
TitleUnicode:キミとボクのミライ
Artist:Touyama Nao, Kanemoto Hisako, Imai Asami, Hasegawa Akiko
ArtistUnicode:ジータ(CV.金元寿子)、ルリア(CV.東山奈央)、ヴィーラ(CV.今井麻美)、マリー(CV.長谷川明子
Creator:Mei
Version:Insane
Source:GRANBLUE FANTASY IDOL PROJECT
Tags:
BeatmapID:1162959
BeatmapSetID:549179

[Difficulty]
HPDrainRate:7
CircleSize:4
OverallDifficulty:8
ApproachRate:9
SliderMultiplier:1.7
SliderTickRate:1

[Events]
//Background and Video events
0,0,"bg.jpg",0,0
//Break Periods
2,202457,207051
//Storyboard Layer 0 (Background)
//Storyboard Layer 1 (Fail)
//Storyboard Layer 2 (Pass)
//Storyboard Layer 3 (Foreground)
//Storyboard Layer 4 (Overlay)
//Storyboard Sound Samples

[TimingPoints]
1359,337.078651685393,4,2,1,60,1,0
12145,-100,4,2,1,85,0,0
22932,-100,4,2,1,65,0,0
65403,-133.333333333333,4,2,1,50,0,0
65909,-90.9090909090909,4,2,1,80,0,1
93044,-100,4,2,1,65,0,0
146302,-133.333333333333,4,2,1,60,0,0
146808,-90.9090909090909,4,2,1,60,0,1
173943,-100,4,2,1,60,0,0
212875,-90.9090909090909,4,2,1,60,0,1
229224,-100,4,2,1,60,0,0

[Colours]
Combo1 : 175,128,255
Combo2 : 0,90,240
Combo3 : 227,205,49
Combo4 : 255,83,255

[HitObjects]
145,123,1359,6,0,P|191:56|271:69,1,170,2|0,0:0|0:0,0:0:0:0:
323,218,1864,1,2,0:0:0:0:
323,218,2033,2,0,P|263:230|223:242,1,85,0|0,0:0|0:0,0:0:0:0:
124,256,2370,1,2,0:0:0:0:
180,336,2538,1,0,0:0:0:0:
240,236,2707,6,0,P|252:164|272:68,1,170,2|0,0:0|0:0,0:0:0:0:
464,212,3381,1,2,0:0:0:0:
464,212,3550,2,0,P|456:264|452:312,1,85,0|0,0:0|0:0,0:0:0:0:
424,116,3887,1,2,0:0:0:0:
330,148,4055,6,0,P|381:212|464:212,1,170,2|0,0:0|0:0,0:0:0:0:
184,300,4729,1,2,0:0:0:0:
184,300,4898,2,0,P|116:312|80:328,1,85,0|0,0:0|0:0,0:0:0:0:
220,232,5235,6,0,P|264:300|196:376,1,170,2|2,0:0|0:0,0:0:0:0:
332,360,5741,2,0,P|348:312|364:268,1,85,0|0,0:0|0:0,0:0:0:0:
304,176,6078,2,0,P|300:112|292:0,1,170,2|2,0:0|0:0,0:0:0:0:
36,176,6752,5,2,0:0:0:0:
172,212,6920,1,0,0:0:0:0:
64,304,7089,1,2,0:0:0:0:
36,176,7257,2,0,P|32:112|32:68,1,85,0|0,0:0|0:0,0:0:0:0:
204,80,7594,1,2,0:0:0:0:
120,156,7763,1,0,0:0:0:0:
240,232,7932,6,0,P|300:216|432:184,1,170,2|0,0:0|0:0,0:0:0:0:
208,360,8606,1,2,0:0:0:0:
208,360,8774,2,0,P|152:348|100:344,1,85,0|2,0:0|0:0,0:0:0:0:
108,240,9111,2,0,P|66:249|24:254,1,85,0|2,0:0|0:0,0:0:0:0:
92,113,9448,5,2,0:0:0:0:
127,105,9532,1,0,0:0:0:0:
163,97,9616,1,0,0:0:0:0:
198,89,9700,1,0,0:0:0:0:
233,82,9785,2,0,L|274:70,3,42.5
384,144,10123,2,0,L|343:132,3,42.5
244,188,10460,2,0,L|285:200,3,42.5
324,288,10797,6,0,P|344:296|376:316,1,42.5,8|0,1:3|1:3,0:0:0:0:
443,372,10965,2,0,P|463:365|484:359,1,42.5,0|0,1:0|1:0,0:0:0:0:
504,256,11134,2,0,P|484:261|464:268,1,42.5,0|0,1:0|0:0,0:0:0:0:
380,220,11302,1,0,0:0:0:0:
496,60,11471,5,0,1:0:0:0:
460,37,11555,1,0,1:0:0:0:
419,24,11639,1,0,1:0:0:0:
377,22,11723,1,0,1:0:0:0:
336,30,11808,2,0,L|320:92,1,42.5,6|0,0:0|0:0,0:0:0:0:
245,114,11976,2,0,L|256:156,1,42.5
180,32,12145,6,0,P|124:68|44:20,1,170,4|2,0:0|1:2,0:0:0:0:
325,72,12651,1,0,0:0:0:0:
325,72,12819,2,0,P|436:88|512:100,1,170,0|2,0:0|1:2,0:0:0:0:
464,232,13325,1,0,0:0:0:0:
464,232,13493,6,0,L|352:268,1,85
183,232,13830,2,0,L|291:200,1,85,2|0,1:2|0:0,0:0:0:0:
340,144,14167,1,0,0:0:0:0:
280,304,14336,1,0,0:0:0:0:
264,207,14505,1,2,1:2:0:0:
383,258,14673,1,0,0:0:0:0:
424,144,14842,6,0,P|404:88|288:80,1,170,12|2,0:0|1:2,0:0:0:0:
152,24,15347,1,0,0:0:0:0:
152,24,15516,2,0,P|160:88|164:132,1,85
60,80,15853,1,2,1:2:0:0:
172,192,16021,1,0,0:0:0:0:
32,328,16190,6,0,P|44:260|64:156,1,170,12|2,0:0|1:2,0:0:0:0:
200,292,16696,1,0,0:0:0:0:
200,292,16780,1,0,0:0:0:0:
200,292,16864,2,0,L|184:380,1,85,2|0,0:2|0:0,0:0:0:0:
324,208,17201,2,0,P|376:192|412:168,1,85,2|8,1:2|0:0,0:0:0:0:
256,100,17538,5,12,0:0:0:0:
288,288,17707,2,0,L|272:376,1,85,12|0,0:0|0:0,0:0:0:0:
200,192,18044,1,4,1:2:0:0:
200,192,18128,1,0,0:0:0:0:
200,192,18212,1,8,0:0:0:0:
344,120,18381,1,0,1:0:0:0:
220,28,18550,2,0,P|156:44|112:64,1,85,12|12,0:0|0:0,0:0:0:0:
262,142,18887,5,0,0:0:0:0:
262,142,19055,2,0,P|303:132|344:120,1,85,4|8,1:2|0:0,0:0:0:0:
288,240,19392,1,0,1:0:0:0:
416,164,19561,2,0,P|428:108|420:68,1,85,12|8,0:0|0:0,0:0:0:0:
288,240,19898,2,0,P|276:296|280:336,1,85,12|8,0:0|0:0,0:0:0:0:
192,276,20235,5,4,1:2:0:0:
348,180,20403,1,4,1:2:0:0:
148,144,20572,1,0,1:0:0:0:
272,12,20741,2,0,L|260:120,1,85,0|0,1:0|0:0,0:0:0:0:
277,323,21078,2,0,L|286:235,1,85,4|0,1:2|0:0,0:0:0:0:
420,160,21415,6,0,P|476:136|464:32,1,170,4|0,1:2|0:0,0:0:0:0:
420,160,21920,2,0,P|428:252|432:320,1,127.5,4|0,1:2|0:0,0:0:0:0:
436,328,22257,5,4,1:2:0:0:
196,236,22426,1,0,1:0:0:0:
196,236,22932,6,0,P|192:184|192:140,1,85,4|0,0:1|0:0,0:0:0:0:
92,184,23269,2,0,P|88:132|88:88,1,85,8|0,0:0|0:0,0:0:0:0:
279,42,23606,1,8,0:0:0:0:
363,86,23774,1,0,0:0:0:0:
275,134,23943,2,0,P|227:142|179:154,1,85,8|0,0:0|0:0,0:0:0:0:
368,180,24280,6,0,P|416:172|464:160,1,85,0|0,1:0|0:0,0:0:0:0:
280,244,24617,1,8,0:0:0:0:
280,244,24785,2,0,L|272:360,2,85,2|8|0,0:0|0:0|0:0,0:0:0:0:
176,228,25291,2,0,P|108:240|24:260,1,127.5,8|0,0:0|0:0,0:0:0:0:
51,252,25628,6,0,P|48:196|44:152,1,85,2|0,1:2|0:0,0:0:0:0:
104,80,25965,1,8,0:0:0:0:
104,80,26134,1,0,0:0:0:0:
204,116,26302,2,0,P|248:104|300:80,1,85,8|2,0:0|0:0,0:0:0:0:
347,184,26639,2,0,P|336:229|330:286,1,85,8|0,0:0|0:0,0:0:0:0:
216,275,26976,6,0,P|183:242|137:209,2,85,0|0|10,1:0|0:0|0:0,0:0:0:0:
284,352,27482,1,0,0:0:0:0:
392,316,27651,2,0,P|436:300|484:288,2,85,10|0|10,0:0|0:0|0:0,0:0:0:0:
120,344,28325,6,0,P|112:284|116:156,1,170,0|8,1:0|0:0,0:0:0:0:
116,64,28830,1,0,0:0:0:0:
116,64,28999,2,0,P|64:80|24:100,1,85,10|0,0:0|0:0,0:0:0:0:
113,174,29336,2,0,P|165:158|205:138,1,85,10|0,0:0|0:0,0:0:0:0:
292,48,29673,6,0,P|344:64|384:84,1,85,0|0,1:0|0:0,0:0:0:0:
360,188,30010,2,0,P|321:170|280:159,1,85,8|0,0:0|0:0,0:0:0:0:
240,296,30347,1,10,0:0:0:0:
308,364,30516,1,0,0:0:0:0:
348,272,30684,2,0,L|360:188,1,85,10|0,0:0|0:0,0:0:0:0:
200,220,31021,6,0,P|148:240|108:256,1,85,0|0,1:0|0:0,0:0:0:0:
108,140,31358,2,0,P|68:124|28:109,1,85,8|0,0:0|0:0,0:0:0:0:
200,72,31696,2,0,P|239:87|279:102,1,85,10|0,0:0|0:0,0:0:0:0:
360,192,32033,2,0,P|408:172|416:76,1,127.5,10|0,0:0|0:0,0:0:0:0:
424,80,32370,5,2,0:0:0:0:
269,18,32538,2,0,L|279:102,1,85,0|0,1:2|0:0,0:0:0:0:
236,216,32875,1,8,0:3:0:0:
168,148,33044,1,8,0:0:0:0:
320,188,33212,1,10,0:0:0:0:
216,296,33381,2,0,P|144:304|104:320,1,85,10|8,0:0|0:3,0:0:0:0:
304,352,33718,6,0,P|360:356|484:340,1,170,10|0,0:0|1:0,0:0:0:0:
480,200,34224,1,2,0:0:0:0:
396,264,34392,1,8,0:0:0:0:
404,136,34561,2,0,P|408:88|416:28,2,85,10|0|0,0:0|1:0|0:0,0:0:0:0:
308,216,35066,6,0,P|256:188|136:240,1,170,10|0,0:0|1:0,0:0:0:0:
168,80,35572,2,0,P|232:88|272:88,1,85,0|8,0:0|0:0,0:0:0:0:
48,148,35909,1,2,0:0:0:0:
154,216,36078,2,0,L|168:304,1,85,0|0,1:0|0:0,0:0:0:0:
304,288,36415,6,0,P|352:276|340:152,1,170,10|0,0:0|1:0,0:0:0:0:
268,44,36920,1,0,0:0:0:0:
308,216,37089,1,8,0:0:0:0:
380,92,37257,1,10,0:0:0:0:
216,152,37426,2,0,P|168:132|124:116,1,85,0|0,1:0|0:0,0:0:0:0:
268,44,37763,6,0,P|316:80|330:191,1,170,10|2,0:0|1:2,0:0:0:0:
111,230,38269,1,0,0:0:0:0:
88,133,38437,2,0,L|104:41,1,85,8|0,0:0|0:0,0:0:0:0:
216,152,38774,2,0,L|205:243,1,85,0|0,1:0|0:0,0:0:0:0:
308,216,39111,6,0,P|372:192|492:212,1,170,10|0,0:0|1:0,0:0:0:0:
284,312,39617,1,4,0:0:0:0:
284,312,39701,1,0,0:0:0:0:
284,312,39785,2,0,P|236:280|216:240,1,85,2|8,0:0|0:0,0:0:0:0:
376,292,40123,2,0,P|424:324|444:364,1,85,0|0,1:0|0:0,0:0:0:0:
308,216,40460,6,0,B|292:140|344:140|312:28,1,170,10|0,0:0|1:0,0:0:0:0:
160,64,40965,2,0,P|196:84|252:96,1,85,4|0,0:0|0:0,0:0:0:0:
466,187,41302,2,0,L|470:142,1,42.5,8|8,0:0|0:0,0:0:0:0:
488,60,41471,2,0,P|446:70|409:90,1,85,2|0,1:2|0:0,0:0:0:0:
472,303,41808,6,0,L|488:187,1,85,2|0,0:0|0:0,0:0:0:0:
308,216,42145,1,4,1:2:0:0:
420,368,42314,1,8,0:3:0:0:
272,304,42482,1,8,0:0:0:0:
400,172,42651,1,8,0:0:0:0:
400,172,42735,1,8,0:0:0:0:
400,172,42819,1,4,1:2:0:0:
224,228,42988,1,2,0:0:0:0:
376,252,43156,5,10,0:0:0:0:
272,136,43325,1,0,0:0:0:0:
416,72,43493,2,0,P|456:56|496:36,2,85,0|8|0,1:0|0:3|0:0,0:0:0:0:
248,216,43999,1,2,0:0:0:0:
376,252,44167,1,2,1:2:0:0:
248,216,44336,6,0,P|168:224|52:260,1,170,4|0,0:0|0:0,0:0:0:0:
120,108,44842,1,0,1:0:0:0:
133,123,45179,2,0,P|213:115|329:79,1,170,10|0,0:0|0:0,0:0:0:0:
376,32,45684,1,0,1:0:0:0:
352,160,45853,6,0,L|380:348,1,170,2|0,0:0|1:0,0:0:0:0:
300,364,46358,1,0,0:0:0:0:
232,312,46527,2,0,L|244:212,1,85,2|0,0:0|0:0,0:0:0:0:
160,200,46864,2,0,P|112:208|60:224,1,85,8|0,0:0|0:0,0:0:0:0:
32,120,47201,5,10,0:0:0:0:
4,224,47370,1,0,0:0:0:0:
32,120,47538,2,0,P|88:108|224:72,1,170,0|8,1:0|0:0,0:0:0:0:
436,16,48212,6,0,P|424:72|420:116,1,85,2|2,0:0|1:2,0:0:0:0:
340,44,48550,1,2,0:0:0:0:
352,164,48718,2,0,P|364:220|368:264,1,85,0|0,0:0|1:0,0:0:0:0:
448,192,49056,1,2,0:0:0:0:
428,312,49224,2,0,P|472:300|516:292,1,85,8|10,0:0|0:0,0:0:0:0:
260,288,49561,1,0,1:2:0:0:
348,360,49729,1,2,0:0:0:0:
367,247,49898,6,0,P|376:148|384:64,1,170,12|0,0:0|1:0,0:0:0:0:
84,124,50572,2,0,P|16:136|-4:140,1,85,10|0,0:0|1:0,0:0:0:0:
152,200,50909,1,0,0:0:0:0:
176,100,51078,1,0,1:0:0:0:
64,212,51246,6,0,P|96:272|208:264,1,170,2|8,0:0|0:0,0:0:0:0:
448,240,51920,1,2,0:0:0:0:
428,334,52088,1,2,0:0:0:0:
347,268,52257,2,0,P|356:206|364:165,1,85,2|0,1:2|0:0,0:0:0:0:
448,64,52594,6,0,P|438:125|430:166,1,85,8|0,0:0|0:0,0:0:0:0:
256,144,52932,1,8,0:3:0:0:
256,144,53100,2,0,P|280:76|368:96,1,170,0|8,1:0|0:0,0:0:0:0:
360,184,53606,2,0,P|352:225|347:268,1,85,0|0,1:0|0:0,0:0:0:0:
256,244,53943,5,2,0:0:0:0:
380,336,54111,1,8,0:0:0:0:
240,348,54280,2,0,P|176:360|120:368,1,85,0|10,1:0|0:0,0:0:0:0:
68,284,54617,2,0,P|132:272|188:264,1,85,0|8,1:0|0:0,0:0:0:0:
304,184,54954,1,0,1:0:0:0:
333,154,55038,1,0,0:0:0:0:
345,113,55122,1,0,1:0:0:0:
338,72,55206,1,0,1:0:0:0:
311,39,55291,6,0,P|256:48|204:56,1,85,4|0,0:0|0:0,0:0:0:0:
120,120,55628,1,0,1:0:0:0:
32,8,55797,2,0,P|74:14|116:20,1,85,2|0,0:0|1:0,0:0:0:0:
120,220,56134,1,0,0:0:0:0:
120,220,56218,1,0,0:0:0:0:
120,220,56302,1,0,1:0:0:0:
212,128,56471,1,2,0:0:0:0:
40,88,56639,5,4,0:0:0:0:
112,260,56808,1,0,0:0:0:0:
136,120,56976,1,2,1:2:0:0:
20,224,57145,1,8,0:3:0:0:
215,279,57314,2,0,L|208:195,1,85,0|8,1:0|0:0,0:0:0:0:
111,259,57651,2,0,L|119:344,1,85,8|0,0:0|1:0,0:0:0:0:
216,280,57988,5,6,0:0:0:0:
116,168,58156,1,0,0:0:0:0:
116,168,58241,1,0,0:0:0:0:
116,168,58325,1,0,1:0:0:0:
300,192,58493,2,0,P|372:176|408:160,1,85,8|0,0:0|1:0,0:0:0:0:
240,48,58830,1,8,0:0:0:0:
240,48,58999,2,0,P|168:64|132:80,1,85,0|0,1:0|0:0,0:0:0:0:
232,168,59336,5,6,0:0:0:0:
332,88,59505,1,2,0:0:0:0:
157,68,59673,2,0,P|145:128|137:184,1,85,0|10,1:0|0:0,0:0:0:0:
216,300,60010,1,0,1:0:0:0:
356,224,60179,1,2,0:0:0:0:
364,192,60263,1,0,0:0:0:0:
372,160,60347,1,0,1:0:0:0:
228,216,60516,1,2,0:0:0:0:
324,340,60684,6,0,P|388:320|432:308,1,85,0|0,1:0|0:0,0:0:0:0:
453,135,61021,2,0,P|412:147|372:160,1,85,12|0,0:0|0:0,0:0:0:0:
184,252,61358,2,0,P|120:232|76:220,1,85,2|0,1:2|0:0,0:0:0:0:
54,47,61695,2,0,P|95:59|136:72,1,85,2|0,1:2|0:0,0:0:0:0:
328,100,62033,5,2,1:2:0:0:
200,184,62201,1,0,0:0:0:0:
360,256,62370,1,0,1:0:0:0:
272,48,62538,1,2,0:0:0:0:
280,216,62707,1,2,1:2:0:0:
392,164,62875,1,2,3:2:0:0:
392,164,62960,1,0,3:2:0:0:
392,164,63044,2,0,L|404:100,1,42.5,2|0,3:2|3:2,3:2:0:0:
492,88,63212,2,0,L|480:24,1,42.5,2|0,3:2|3:2,3:2:0:0:
392,16,63381,5,4,1:2:0:0:
472,244,63550,1,0,1:0:0:0:
472,264,63887,6,0,P|392:276|356:288,1,85,0|0,1:0|0:0,0:0:0:0:
288,332,64224,2,0,P|208:344|172:356,1,85,0|0,1:0|0:0,0:0:0:0:
96,292,64561,2,0,P|56:256|80:160,1,127.5,0|0,1:0|0:0,0:0:0:0:
72,156,64898,5,0,1:0:0:0:
272,48,65066,1,0,1:0:0:0:
256,60,65403,6,0,P|192:44|164:40,1,63.7500024318696,0|0,0:0|0:0,0:0:0:0:
104,56,65741,1,0,0:0:0:0:
264,156,65909,6,0,P|320:132|420:192,1,187.000005706787,6|0,0:0|0:0,0:0:0:0:
327,327,66415,1,2,1:2:0:0:
327,327,66583,2,0,P|326:280|330:234,1,93.5000028533936,2|8,0:0|0:0,0:0:0:0:
352,40,66920,1,10,0:0:0:0:
264,156,67089,1,0,1:0:0:0:
160,64,67257,6,0,L|168:264,1,187.000005706787,4|0,0:0|0:0,0:0:0:0:
16,328,67763,1,2,1:2:0:0:
140,352,67932,1,0,0:0:0:0:
72,208,68100,1,10,0:0:0:0:
140,352,68269,2,0,P|192:336|260:316,1,93.5000028533936,10|0,0:0|1:0,0:0:0:0:
388,260,68606,6,0,P|316:236|288:116,1,187.000005706787,6|8,0:0|0:0,0:0:0:0:
476,208,69111,2,0,P|492:264|480:312,1,93.5000028533936,0|0,1:0|0:0,0:0:0:0:
384,156,69448,1,10,0:0:0:0:
484,84,69617,1,10,0:0:0:0:
484,84,69701,1,0,0:0:0:0:
484,84,69785,1,0,1:0:0:0:
300,20,69954,6,0,P|240:28|88:64,1,187.000005706787,4|10,0:0|0:0,0:0:0:0:
140,228,70460,1,0,1:0:0:0:
244,160,70628,1,2,0:0:0:0:
56,140,70797,2,0,P|38:96|30:50,1,93.5000028533936,8|10,0:0|0:0,0:0:0:0:
140,228,71134,2,0,L|112:332,1,93.5000028533936,0|0,1:0|0:0,0:0:0:0:
152,136,71471,5,14,0:0:0:0:
208,288,71639,1,2,0:0:0:0:
276,68,71808,1,0,1:0:0:0:
352,188,71976,2,0,L|328:300,1,93.5000028533936,4|0,0:0|0:0,0:0:0:0:
248,196,72314,1,2,0:0:0:0:
248,196,72482,1,0,1:0:0:0:
288,368,72651,1,10,0:0:0:0:
428,228,72819,6,0,L|447:136,1,93.5000028533936,0|8,0:0|0:0,0:0:0:0:
324,20,73156,1,0,1:0:0:0:
447,136,73325,1,2,0:0:0:0:
280,176,73493,2,0,P|228:200|184:240,1,93.5000028533936,14|0,0:0|0:0,0:0:0:0:
352,128,73830,2,0,P|314:99|271:81,1,93.5000028533936,0|0,1:0|0:0,0:0:0:0:
290,296,74167,6,0,P|379:302|428:228,1,187.000005706787,4|0,0:0|1:0,0:0:0:0:
399,28,74673,1,0,0:0:0:0:
340,224,74842,1,10,0:0:0:0:
272,81,75010,1,8,0:0:0:0:
462,148,75179,1,0,0:0:0:0:
216,264,75347,6,0,P|120:244|60:236,1,140.25000428009,8|0,3:0|0:0,0:0:0:0:
78,238,75684,2,0,L|109:360,1,93.5000028533936,4|0,1:2|0:0,0:0:0:0:
280,380,76021,1,4,1:2:0:0:
400,272,76190,1,2,1:2:0:0:
406,233,76274,1,0,1:0:0:0:
411,194,76358,1,0,1:0:0:0:
413,156,76442,1,0,1:0:0:0:
412,117,76527,1,2,1:2:0:0:
409,78,76611,1,0,1:0:0:0:
404,39,76696,6,0,P|324:40|200:32,1,187.000005706787,4|8,0:0|0:0,0:0:0:0:
328,168,77201,1,2,1:2:0:0:
492,112,77370,2,0,P|496:168|496:224,1,93.5000028533936,2|8,0:0|0:0,0:0:0:0:
384,332,77707,1,10,0:0:0:0:
420,156,77875,1,0,1:0:0:0:
264,244,78044,1,6,0:0:0:0:
232,96,78212,6,0,P|228:40|228:-16,1,93.5000028533936,0|10,0:0|0:0,0:0:0:0:
496,204,78550,2,0,P|448:252|336:180,1,187.000005706787,0|10,1:0|0:0,0:0:0:0:
228,184,79055,1,2,0:0:0:0:
296,20,79224,1,0,1:0:0:0:
112,84,79392,6,0,L|300:104,1,187.000005706787,4|10,0:0|0:0,0:0:0:0:
228,184,79898,2,0,P|140:208|120:216,1,93.5000028533936,0|0,1:0|0:0,0:0:0:0:
256,352,80235,1,10,0:0:0:0:
320,232,80403,1,2,0:0:0:0:
320,232,80488,1,0,0:0:0:0:
320,232,80572,1,0,1:0:0:0:
136,208,80741,6,0,P|96:168|128:48,1,187.000005706787,4|2,0:0|0:0,0:0:0:0:
268,16,81246,2,0,L|244:128,1,93.5000028533936,0|2,1:0|0:0,0:0:0:0:
244,264,81583,1,12,0:0:0:0:
324,128,81752,1,10,0:0:0:0:
136,208,81920,1,0,1:0:0:0:
188,24,82089,1,2,0:0:0:0:
268,192,82257,5,6,1:2:0:0:
408,104,82426,2,0,L|420:-8,1,93.5000028533936,2|8,1:2|0:0,0:0:0:0:
344,216,82763,2,0,B|328:356|328:356|368:316,1,187.000005706787,2|0,1:2|0:0,0:0:0:0:
432,200,83269,1,2,1:2:0:0:
268,192,83437,6,0,P|208:208|172:220,1,93.5000028533936,2|0,1:2|0:0,0:0:0:0:
352,68,83774,1,2,1:2:0:0:
256,280,83943,2,0,L|240:376,1,93.5000028533936,0|0,0:0|0:0,0:0:0:0:
240,372,84196,1,0,0:0:0:0:
240,372,84280,2,0,P|168:348|132:324,1,93.5000028533936,4|0,1:2|0:0,0:0:0:0:
360,323,84617,2,0,P|401:302|446:290,1,93.5000028533936,4|0,1:2|0:0,0:0:0:0:
224,112,84954,5,2,1:2:0:0:
320,196,85123,2,0,L|336:80,1,93.5000028533936,2|0,1:2|0:0,0:0:0:0:
208,212,85460,2,0,P|140:180|132:76,1,187.000005706787,2|0,1:2|0:0,0:0:0:0:
272,300,85965,1,2,1:2:0:0:
272,300,86134,2,0,P|192:304|152:312,1,93.5000028533936,2|0,1:2|0:0,0:0:0:0:
224,112,86471,5,2,1:2:0:0:
224,112,86640,2,0,P|270:117|317:118,1,93.5000028533936,0|2,0:0|0:0,0:0:0:0:
424,196,86976,2,0,P|436:120|464:0,1,187.000005706787,4|4,1:2|1:2,0:0:0:0:
236,356,87651,5,6,0:0:0:0:
324,176,87819,1,2,1:2:0:0:
120,248,87988,1,2,0:0:0:0:
260,280,88156,1,2,1:2:0:0:
228,132,88325,1,2,0:0:0:0:
404,232,88493,5,2,0:0:0:0:
244,208,88662,1,2,1:2:0:0:
424,92,88830,1,2,1:2:0:0:
332,328,88999,1,0,0:0:0:0:
336,144,89167,1,2,1:2:0:0:
436,328,89336,1,0,1:0:0:0:
496,160,89505,6,0,P|504:108|512:68,2,93.5000028533936,2|2|2,0:0|1:2|0:0,0:0:0:0:
436,328,90010,2,0,P|388:336|336:348,1,93.5000028533936,2|2,1:2|0:0,0:0:0:0:
264,192,90347,5,4,1:2:0:0:
204,352,90516,1,0,1:2:0:0:
136,136,90684,1,0,1:2:0:0:
76,268,90853,1,0,1:0:0:0:
76,268,91190,6,0,L|176:240,1,93.5000028533936,0|0,1:0|0:0,0:0:0:0:
348,176,91527,2,0,P|316:116|192:144,1,187.000005706787,0|0,1:0|1:0,0:0:0:0:
264,192,92033,1,0,1:0:0:0:
228,16,92201,1,2,0:0:0:0:
264,192,92370,2,0,B|236:256|292:256|248:376,1,187.000005706787,4|0,0:0|0:0,0:0:0:0:
172,296,92875,1,0,0:0:0:0:
344,244,93044,6,0,P|408:252|460:264,1,85,4|0,0:0|0:0,0:0:0:0:
424,368,93381,2,0,P|360:360|308:348,1,85,2|0,1:2|0:0,0:0:0:0:
172,296,93718,2,0,P|100:308|-8:352,1,170,0|2,1:0|1:2,0:0:0:0:
180,184,94224,1,0,0:0:0:0:
180,184,94392,6,0,P|236:200|272:224,1,85,0|0,1:0|0:0,0:0:0:0:
88,228,94729,2,0,P|80:172|92:124,1,85,2|0,1:2|0:0,0:0:0:0:
44,32,95066,2,0,L|148:4,1,85,0|0,1:0|0:0,0:0:0:0:
236,92,95403,2,0,L|132:120,1,85,2|0,1:2|0:0,0:0:0:0:
328,144,95741,6,0,P|392:120|400:0,1,170,12|2,0:0|1:2,0:0:0:0:
328,48,96246,1,0,0:0:0:0:
456,168,96415,1,0,1:0:0:0:
456,168,96583,2,0,P|464:240|468:276,1,85,0|2,0:0|1:2,0:0:0:0:
384,340,96920,1,0,0:0:0:0:
284,288,97089,6,0,P|236:236|276:144,1,170,12|2,0:0|1:2,0:0:0:0:
380,224,97594,1,0,0:0:0:0:
348,220,97679,1,0,0:0:0:0:
316,216,97763,1,2,1:2:0:0:
152,264,97932,2,0,P|104:292|72:324,2,85,0|2|8,0:0|1:2|0:0,0:0:0:0:
324,132,98437,6,0,P|332:80|332:40,1,85,12|12,0:0|0:0,0:0:0:0:
220,16,98774,1,0,0:0:0:0:
256,164,98943,1,4,1:2:0:0:
408,84,99111,1,8,0:0:0:0:
240,200,99280,5,0,1:0:0:0:
312,52,99448,1,12,0:0:0:0:
348,216,99617,1,12,0:0:0:0:
348,216,99701,1,0,0:0:0:0:
348,216,99785,6,0,L|364:312,1,85,0|4,0:0|1:2,0:0:0:0:
264,364,100123,1,8,0:0:0:0:
152,196,100291,1,0,1:0:0:0:
272,256,100460,1,12,0:0:0:0:
144,328,100628,1,8,0:0:0:0:
144,328,100797,2,0,P|88:352|48:368,1,85,12|8,0:0|0:0,0:0:0:0:
152,196,101134,5,4,1:2:0:0:
264,364,101302,1,0,1:0:0:0:
340,120,101471,1,0,1:0:0:0:
440,232,101639,2,0,P|348:244|248:260,1,170,0|4,1:0|1:2,0:0:0:0:
36,24,102314,2,0,P|119:37|204:47,1,170,4|0,1:2|0:0,0:0:0:0:
340,48,102819,1,0,1:0:0:0:
340,48,103156,5,4,1:2:0:0:
232,244,103325,1,0,1:0:0:0:
232,244,103830,6,0,P|176:256|52:312,1,170,4|8,0:1|0:0,0:0:0:0:
224,356,104336,1,0,0:0:0:0:
324,300,104505,2,0,P|336:256|340:200,1,85,8|0,0:0|0:0,0:0:0:0:
248,160,104842,2,0,P|236:204|232:260,1,85,8|0,0:0|0:0,0:0:0:0:
324,300,105179,6,0,L|424:284,1,85,0|0,1:0|0:0,0:0:0:0:
484,192,105516,1,8,0:0:0:0:
428,112,105684,1,2,0:0:0:0:
392,204,105853,2,0,P|397:246|407:287,1,85,8|0,0:0|0:0,0:0:0:0:
316,132,106190,2,0,P|304:172|298:214,1,85,8|0,0:0|0:0,0:0:0:0:
368,56,106527,6,0,P|280:56|216:136,1,170,2|8,1:2|0:0,0:0:0:0:
156,208,107033,1,0,0:0:0:0:
224,112,107201,1,8,0:0:0:0:
112,75,107370,2,0,P|64:95|24:111,2,85,2|8|0,0:0|0:0|0:0,0:0:0:0:
224,112,107875,6,0,P|276:120|404:136,1,170,0|10,1:0|0:0,0:0:0:0:
508,200,108381,1,0,0:0:0:0:
392,136,108550,2,0,P|384:84|392:32,1,85,10|0,0:0|0:0,0:0:0:0:
500,4,108887,2,0,P|508:56|500:108,1,85,10|0,0:0|0:0,0:0:0:0:
472,284,109224,6,0,P|416:304|344:232,1,170,0|8,1:0|0:0,0:0:0:0:
420,224,109729,1,0,0:0:0:0:
300,352,109898,2,0,P|252:344|208:336,1,85,10|0,0:0|0:0,0:0:0:0:
172,240,110235,2,0,P|213:247|255:254,1,85,10|0,0:0|0:0,0:0:0:0:
351,132,110572,5,0,1:0:0:0:
240,160,110741,1,0,0:0:0:0:
280,0,110909,2,0,L|288:104,1,85,8|0,0:0|0:0,0:0:0:0:
152,144,111246,2,0,P|104:120|80:80,1,85,10|0,0:0|0:0,0:0:0:0:
286,84,111583,2,0,P|334:108|358:148,1,85,10|0,0:0|0:0,0:0:0:0:
436,232,111920,6,0,L|456:128,1,85,0|0,1:0|0:0,0:0:0:0:
316,240,112257,2,0,L|296:344,1,85,8|0,0:0|0:0,0:0:0:0:
351,132,112594,2,0,L|371:28,1,85,10|0,0:0|0:0,0:0:0:0:
231,140,112931,2,0,L|211:244,1,85,10|0,0:0|0:0,0:0:0:0:
120,200,113269,5,2,0:0:0:0:
200,316,113437,1,0,1:2:0:0:
68,276,113606,1,0,0:0:0:0:
216,224,113774,1,8,0:3:0:0:
96,104,113943,2,0,P|36:124|4:136,1,85,8|10,0:0|0:0,0:0:0:0:
208,132,114280,2,0,P|268:112|300:100,1,85,10|8,0:0|0:3,0:0:0:0:
120,200,114617,6,0,P|108:252|212:320,1,170,10|0,0:0|1:0,0:0:0:0:
296,376,115123,1,2,0:0:0:0:
388,292,115291,2,0,P|396:232|408:184,1,85,8|10,0:0|0:0,0:0:0:0:
288,104,115628,2,0,P|296:145|301:187,1,85,0|0,1:0|0:0,0:0:0:0:
208,120,115965,6,0,P|220:56|340:48,1,170,10|0,0:0|1:0,0:0:0:0:
444,76,116471,1,0,0:0:0:0:
444,76,116639,2,0,P|496:40|520:12,1,85,8|2,0:0|0:0,0:0:0:0:
483,225,116976,2,0,P|442:211|400:207,1,85,0|0,1:0|0:0,0:0:0:0:
214,289,117314,6,0,P|206:221|210:97,1,170,10|0,0:0|1:0,0:0:0:0:
312,224,117819,1,0,0:0:0:0:
214,289,117988,1,8,0:0:0:0:
320,364,118156,2,0,P|384:344|432:332,2,85,10|0|0,0:0|1:0|0:0,0:0:0:0:
412,248,118662,6,0,P|460:268|480:300,1,85,10|0,0:0|0:0,0:0:0:0:
312,224,118999,2,0,L|328:128,1,85,2|0,1:2|0:0,0:0:0:0:
456,32,119336,2,0,L|440:128,1,85,8|0,0:0|0:0,0:0:0:0:
325,140,119673,2,0,P|277:120|257:88,1,85,0|0,1:0|0:0,0:0:0:0:
152,20,120010,6,0,P|160:88|168:208,1,170,10|0,0:0|1:0,0:0:0:0:
76,148,120516,1,4,0:0:0:0:
112,308,120684,2,0,P|168:280|268:352,1,170,2|0,0:0|1:0,0:0:0:0:
380,352,121190,1,0,0:0:0:0:
388,320,121274,1,0,0:0:0:0:
396,288,121358,6,0,L|388:104,1,170,10|0,0:0|1:0,0:0:0:0:
280,168,121864,1,4,0:0:0:0:
372,48,122033,1,0,0:0:0:0:
228,16,122201,1,8,0:0:0:0:
228,16,122285,1,8,0:0:0:0:
228,16,122370,2,0,P|176:40|140:60,1,85,2|0,1:2|0:0,0:0:0:0:
160,224,122707,5,2,0:0:0:0:
284,112,122875,1,0,0:0:0:0:
296,272,123044,1,4,1:2:0:0:
148,144,123212,1,8,0:3:0:0:
308,188,123381,1,8,0:0:0:0:
176,304,123550,1,8,0:0:0:0:
148,144,123718,2,0,L|144:56,1,85,4|2,1:2|0:0,0:0:0:0:
76,236,124055,5,10,0:0:0:0:
224,172,124224,1,0,0:0:0:0:
64,104,124392,1,0,1:0:0:0:
160,223,124561,1,8,0:3:0:0:
160,223,124645,1,0,0:0:0:0:
160,223,124729,5,0,0:0:0:0:
252,92,124898,1,2,0:0:0:0:
284,280,125066,1,2,1:2:0:0:
388,172,125235,6,0,P|392:116|404:-4,1,170,4|0,0:0|0:0,0:0:0:0:
280,204,125741,1,0,1:0:0:0:
304,196,126078,2,0,P|300:252|288:372,1,170,10|0,0:0|0:0,0:0:0:0:
244,104,126752,6,0,P|192:92|140:60,1,85,2|0,0:0|0:0,0:0:0:0:
72,32,127089,2,0,P|64:84|76:136,1,85,0|0,1:0|0:0,0:0:0:0:
80,228,127426,2,0,P|136:208|264:212,1,170,2|8,0:0|0:0,0:0:0:0:
328,280,127932,1,0,0:0:0:0:
228,336,128100,6,0,P|164:344|136:356,1,85,10|0,0:0|0:0,0:0:0:0:
48,328,128437,1,0,1:0:0:0:
80,228,128606,2,0,P|88:176|96:132,1,85,0|8,0:0|0:0,0:0:0:0:
320,44,129111,5,2,0:0:0:0:
320,44,129280,2,0,P|312:96|304:140,1,85,2|2,1:2|0:0,0:0:0:0:
368,208,129617,2,0,P|416:192|476:184,1,85,0|0,0:0|1:0,0:0:0:0:
364,344,129954,2,0,P|322:335|282:321,1,85,2|8,0:0|0:0,0:0:0:0:
212,208,130291,2,0,P|216:152|224:112,1,85,10|0,0:0|1:2,0:0:0:0:
232,24,130628,1,2,0:0:0:0:
116,160,130797,6,0,P|103:244|92:328,1,170,12|0,0:0|1:0,0:0:0:0:
364,344,131471,2,0,P|432:332|460:332,1,85,10|0,0:0|1:0,0:0:0:0:
447,331,131808,1,0,0:0:0:0:
380,164,132145,6,0,L|360:256,1,85,2|0,0:0|0:0,0:0:0:0:
260,192,132482,2,0,P|236:144|292:40,1,170,8|2,0:0|0:0,0:0:0:0:
396,56,132988,2,0,P|464:44|492:28,1,85,2|2,0:0|1:2,0:0:0:0:
281,45,133325,1,0,0:0:0:0:
281,45,133493,6,0,P|241:29|199:26,1,85,8|0,0:0|0:0,0:0:0:0:
48,92,133830,1,8,0:3:0:0:
130,152,133999,2,0,P|198:107|199:26,1,170,0|8,1:0|0:0,0:0:0:0:
128,64,134505,1,0,1:0:0:0:
244,172,134673,1,0,0:0:0:0:
114,235,134842,6,0,P|119:193|130:152,1,85,2|8,0:0|0:0,0:0:0:0:
200,272,135179,1,0,1:0:0:0:
88,328,135347,1,10,0:0:0:0:
200,272,135516,2,0,P|256:284|300:296,1,85,0|8,1:0|0:0,0:0:0:0:
404,352,135853,1,0,1:0:0:0:
409,309,135937,1,0,0:0:0:0:
414,267,136021,1,0,1:0:0:0:
419,225,136105,1,0,1:0:0:0:
424,183,136190,6,0,L|432:88,1,85,4|0,0:0|0:0,0:0:0:0:
328,128,136527,1,0,1:0:0:0:
400,32,136696,1,2,0:0:0:0:
240,52,136864,2,0,P|164:76|136:92,1,85,0|0,1:0|0:0,0:0:0:0:
248,184,137201,1,0,1:0:0:0:
328,36,137370,1,2,0:0:0:0:
159,78,137538,5,4,0:0:0:0:
300,120,137707,1,0,0:0:0:0:
144,192,137875,2,0,P|136:252|132:296,1,85,2|8,1:2|0:3,0:0:0:0:
296,344,138212,1,0,1:0:0:0:
392,292,138381,1,8,0:0:0:0:
300,236,138550,2,0,P|240:244|188:256,1,85,8|0,0:0|1:0,0:0:0:0:
116,360,138887,5,6,0:0:0:0:
32,232,139055,1,0,0:0:0:0:
36,200,139139,1,0,0:0:0:0:
40,168,139224,1,0,1:0:0:0:
156,96,139392,2,0,P|224:80|276:68,1,85,8|0,0:0|1:0,0:0:0:0:
72,40,139729,1,8,0:0:0:0:
143,192,139898,2,0,P|185:182|226:172,1,85,0|0,1:0|0:0,0:0:0:0:
372,120,140235,5,6,0:0:0:0:
300,252,140403,1,2,0:0:0:0:
296,76,140572,1,0,1:0:0:0:
416,220,140741,1,10,0:0:0:0:
416,220,140825,1,0,0:0:0:0:
416,220,140909,1,0,1:0:0:0:
488,96,141078,2,0,L|500:12,2,85,2|0|2,0:0|1:0|0:0,0:0:0:0:
484,308,141583,6,0,P|412:336|392:336,1,85,0|0,1:0|0:0,0:0:0:0:
188,264,141920,2,0,P|260:236|280:236,1,85,12|0,0:0|0:0,0:0:0:0:
508,176,142257,2,0,P|436:204|416:204,1,85,2|0,1:2|0:0,0:0:0:0:
212,132,142594,2,0,P|284:104|304:104,1,85,2|0,1:2|0:0,0:0:0:0:
281,196,142932,5,2,1:2:0:0:
126,126,143100,1,0,0:0:0:0:
265,27,143269,1,0,1:0:0:0:
212,132,143437,1,2,0:0:0:0:
290,103,143606,1,2,1:2:0:0:
281,196,143774,2,0,L|269:288,1,85,2|2,3:2|3:2,0:0:0:0:
256,357,144111,1,2,3:2:0:0:
162,225,144280,5,4,1:2:0:0:
399,177,144448,1,0,1:0:0:0:
400,199,144785,2,0,L|408:283,1,85,0|0,1:0|0:0,0:0:0:0:
247,272,145123,2,0,L|255:356,1,85,0|0,1:0|0:0,0:0:0:0:
481,219,145460,2,0,P|525:155|501:103,1,127.5,0|0,1:0|0:0,0:0:0:0:
485,95,145797,5,0,1:0:0:0:
272,136,145965,1,0,1:0:0:0:
263,155,146302,6,0,P|232:162|201:167,1,63.7500024318696,0|0,0:0|0:0,0:0:0:0:
112,120,146639,1,0,0:0:0:0:
312,80,146808,6,0,P|352:120|300:240,1,187.000005706787,6|0,0:0|0:0,0:0:0:0:
200,264,147314,1,2,1:2:0:0:
280,360,147482,1,2,0:0:0:0:
317,232,147651,1,8,0:0:0:0:
176,260,147819,1,10,0:0:0:0:
263,155,147988,1,0,1:0:0:0:
352,324,148156,6,0,P|356:264|368:132,1,187.000005706787,6|0,0:0|0:0,0:0:0:0:
328,24,148662,2,0,P|268:40|236:52,1,93.5000028533936,2|0,1:2|0:0,0:0:0:0:
140,128,148999,1,10,0:0:0:0:
172,4,149167,1,10,0:0:0:0:
172,4,149252,1,0,0:0:0:0:
172,4,149336,1,0,1:0:0:0:
68,156,149505,6,0,P|116:204|216:148,1,187.000005706787,6|8,0:0|0:0,0:0:0:0:
352,140,150010,2,0,P|352:208|348:256,1,93.5000028533936,0|0,1:0|0:0,0:0:0:0:
196,316,150347,1,10,0:0:0:0:
280,208,150516,1,10,0:0:0:0:
140,128,150684,1,0,1:0:0:0:
200,340,150853,6,0,P|272:324|404:304,1,187.000005706787,4|10,0:0|0:0,0:0:0:0:
496,228,151358,2,0,P|424:208|384:184,1,93.5000028533936,0|2,1:0|0:0,0:0:0:0:
368,44,151696,1,8,0:0:0:0:
468,8,151864,1,10,0:0:0:0:
452,112,152033,1,0,1:0:0:0:
292,12,152201,1,0,0:0:0:0:
292,12,152285,1,0,0:0:0:0:
292,12,152370,6,0,L|280:132,1,93.5000028533936,14|2,0:0|0:0,0:0:0:0:
264,260,152707,1,0,1:0:0:0:
164,152,152875,2,0,L|176:32,1,93.5000028533936,4|0,0:0|0:0,0:0:0:0:
96,224,153212,1,2,0:0:0:0:
252,168,153381,1,0,1:0:0:0:
72,108,153550,5,10,0:0:0:0:
112,312,153718,1,0,0:0:0:0:
184,216,153887,1,8,0:0:0:0:
184,216,153971,1,0,0:0:0:0:
184,216,154055,2,0,L|196:96,1,93.5000028533936,0|2,1:0|0:0,0:0:0:0:
372,216,154392,2,0,P|420:232|476:268,1,93.5000028533936,14|0,0:0|0:0,0:0:0:0:
220,308,154729,2,0,P|179:330|134:345,1,93.5000028533936,0|0,1:0|0:0,0:0:0:0:
300,156,155066,6,0,B|260:260|332:260|301:337,1,187.000005706787,4|0,0:0|1:0,0:0:0:0:
320,64,155572,1,0,0:0:0:0:
320,64,155656,1,0,0:0:0:0:
320,64,155741,2,0,P|260:72|216:88,1,93.5000028533936,10|8,0:0|0:0,0:0:0:0:
132,192,156078,1,0,0:0:0:0:
114,37,156246,6,0,P|160:87|228:82,1,140.25000428009,8|0,3:0|0:0,0:0:0:0:
228,81,156583,2,0,L|212:200,1,93.5000028533936,4|0,1:2|0:0,0:0:0:0:
200,336,156920,1,4,1:2:0:0:
316,192,157089,1,2,1:2:0:0:
345,167,157173,1,0,1:0:0:0:
383,158,157257,1,0,1:0:0:0:
420,168,157341,1,0,1:0:0:0:
449,194,157426,1,2,1:2:0:0:
462,231,157510,1,0,1:0:0:0:
457,269,157594,6,0,P|376:288|264:304,1,187.000005706787,4|8,0:0|0:0,0:0:0:0:
92,356,158100,2,0,P|88:296|92:248,1,93.5000028533936,2|2,1:2|0:0,0:0:0:0:
200,256,158437,1,8,0:0:0:0:
76,152,158606,1,10,0:0:0:0:
268,112,158774,1,0,1:0:0:0:
140,100,158943,6,0,P|72:68|0:156,1,187.000005706787,6|10,0:0|0:0,0:0:0:0:
200,256,159448,2,0,P|208:180|212:144,1,93.5000028533936,0|0,1:0|0:0,0:0:0:0:
208,40,159785,1,10,0:0:0:0:
304,204,159954,1,2,0:0:0:0:
412,128,160123,1,0,1:0:0:0:
209,163,160291,6,0,P|149:167|17:195,1,187.000005706787,4|10,0:0|0:0,0:0:0:0:
176,360,160797,2,0,P|240:352|308:336,1,93.5000028533936,0|0,1:0|0:0,0:0:0:0:
400,292,161134,1,10,0:0:0:0:
240,236,161302,1,2,0:0:0:0:
344,364,161471,1,0,1:0:0:0:
448,212,161639,6,0,P|460:96|468:24,1,187.000005706787,4|2,0:0|0:0,0:0:0:0:
236,56,162145,1,0,1:0:0:0:
384,120,162314,1,2,0:0:0:0:
260,184,162482,1,12,0:0:0:0:
328,24,162651,1,10,0:0:0:0:
144,120,162819,1,0,1:0:0:0:
344,212,162988,1,2,0:0:0:0:
204,260,163156,5,6,1:2:0:0:
292,112,163325,1,2,1:2:0:0:
292,112,163409,1,0,0:0:0:0:
292,112,163493,1,8,0:0:0:0:
320,336,163662,2,0,P|404:296|504:256,1,187.000005706787,2|0,1:2|0:0,0:0:0:0:
444,140,164167,1,2,1:2:0:0:
444,140,164336,6,0,P|388:164|344:184,1,93.5000028533936,2|0,1:2|0:0,0:0:0:0:
128,120,164673,2,0,P|170:100|213:82,1,93.5000028533936,2|0,1:2|0:0,0:0:0:0:
256,216,165010,1,0,0:0:0:0:
252,252,165094,1,0,0:0:0:0:
248,288,165179,2,0,L|236:384,1,93.5000028533936,4|0,1:2|0:0,0:0:0:0:
144,216,165516,2,0,L|132:312,1,93.5000028533936,4|0,1:2|0:0,0:0:0:0:
72,176,165853,5,2,1:2:0:0:
132,308,166021,1,2,1:2:0:0:
216,136,166190,1,0,0:0:0:0:
192,348,166358,2,0,P|136:384|64:296,1,187.000005706787,2|0,1:2|0:0,0:0:0:0:
288,240,166864,1,2,1:2:0:0:
288,240,167033,6,0,P|372:252|416:256,1,93.5000028533936,2|0,1:2|0:0,0:0:0:0:
363,103,167370,1,2,1:2:0:0:
363,103,167538,2,0,P|409:110|456:116,1,93.5000028533936,0|2,0:0|0:0,0:0:0:0:
244,24,167875,2,0,P|232:84|240:124,1,93.5000028533936,4|0,1:2|0:0,0:0:0:0:
287,239,168212,2,0,P|292:285|281:331,1,93.5000028533936,4|0,1:2|0:0,0:0:0:0:
96,352,168550,5,6,0:0:0:0:
216,280,168718,1,2,1:2:0:0:
56,200,168887,1,2,0:0:0:0:
128,264,169055,1,2,1:2:0:0:
128,264,169139,1,0,0:0:0:0:
128,264,169224,5,2,0:0:0:0:
208,160,169392,1,2,0:0:0:0:
220,360,169560,1,2,1:2:0:0:
288,208,169729,1,2,1:2:0:0:
120,132,169897,5,0,0:0:0:0:
272,40,170066,1,2,1:2:0:0:
288,208,170235,2,0,P|292:276|292:324,1,93.5000028533936,0|2,1:0|0:0,0:0:0:0:
384,140,170572,1,2,1:2:0:0:
384,140,170741,2,0,P|380:72|380:24,2,93.5000028533936,2|2|2,0:0|1:2|0:0,0:0:0:0:
392,368,171246,5,4,1:2:0:0:
292,301,171415,1,0,1:2:0:0:
444,196,171583,1,0,1:2:0:0:
384,280,171752,1,0,1:0:0:0:
384,280,172089,6,0,P|320:276|264:268,1,93.5000028533936,0|0,1:0|0:0,0:0:0:0:
136,180,172426,2,0,P|160:128|288:168,1,187.000005706787,0|0,1:0|1:0,0:0:0:0:
188,316,172932,1,0,1:0:0:0:
212,184,173100,1,2,0:0:0:0:
92,256,173269,2,0,L|80:356,1,93.5000028533936,4|0,0:0|0:0,0:0:0:0:
288,268,173606,2,0,P|348:248|380:224,1,93.5000028533936,0|0,0:0|0:0,0:0:0:0:
372,230,173858,1,0,0:0:0:0:
372,230,173943,6,0,P|372:156|376:60,1,170,6|0,0:0|0:0,0:0:0:0:
380,44,174617,2,0,P|324:88|204:56,1,170
220,64,175291,6,0,L|236:256,1,170
236,248,175965,2,0,P|184:260|136:272,1,85
76,332,176302,1,0,0:0:0:0:
4,260,176471,1,0,0:0:0:0:
76,188,176639,6,0,P|148:168|256:140,1,170
340,156,177145,1,0,0:0:0:0:
340,156,177314,2,0,P|392:164|440:176,1,85
439,255,177651,2,0,P|398:246|356:240,1,85
280,308,177988,6,0,P|240:344|120:304,1,170
48,272,178493,1,0,0:0:0:0:
48,272,178662,1,0,0:0:0:0:
132,216,178830,1,0,0:0:0:0:
132,216,178999,2,0,P|184:220|224:232,1,85
44,168,179336,6,0,P|32:112|36:76,1,85
136,24,179673,2,0,P|148:80|144:116,1,85
240,160,180010,2,0,P|296:140|352:128,1,85
416,56,180347,2,0,P|375:44|335:29,1,85
240,160,180684,6,0,L|228:264,1,85
299,331,181021,1,0,0:0:0:0:
395,291,181190,1,0,0:0:0:0:
311,219,181358,2,0,P|247:239|195:255,1,85
128,276,181696,2,0,L|137:191,1,85
256,192,182033,12,0,182875,0:0:0:0:
344,96,183212,5,0,0:0:0:0:
344,96,183381,2,0,P|392:136|356:232,1,170
292,308,183887,1,0,0:0:0:0:
208,208,184055,2,0,P|200:160|216:104,1,85
292,16,184392,2,0,L|188:40,1,85
40,112,184729,5,0,0:0:0:0:
40,112,184898,1,0,0:0:0:0:
40,112,185066,2,0,L|122:131,1,85
208,208,185403,2,0,P|196:264|192:308,1,85
104,372,185741,2,0,P|98:329|88:288,1,85
288,276,186078,6,0,P|336:328|444:304,1,170
488,232,186583,1,0,0:0:0:0:
488,232,186752,2,0,L|504:140,1,85
392,164,187089,2,0,L|408:72,1,85
284,48,187426,6,0,P|236:96|252:216,2,170
392,164,188269,1,0,0:0:0:0:
392,164,188437,2,0,L|392:272,1,85
268,268,188774,6,0,L|268:376,1,85
140,232,189111,2,0,L|140:124,1,85
284,48,189448,2,0,L|284:156,1,85
140,148,189785,1,0,0:0:0:0:
48,108,189954,1,0,0:0:0:0:
56,224,190123,6,0,P|140:252|224:284,1,170
384,340,190628,1,0,0:0:0:0:
384,340,190797,2,0,P|388:284|392:232,1,85
284,133,191134,2,0,P|280:189|276:241,1,85
484,308,191471,6,0,P|496:240|416:152,1,170
390,255,191976,1,0,0:0:0:0:
390,255,192145,2,0,P|386:297|384:340,1,85
252,284,192482,2,0,P|248:326|245:368,1,85
96,300,192819,6,0,P|72:240|136:160,1,170
164,244,193325,1,0,0:0:0:0:
16,140,193493,2,0,P|56:100|96:68,1,85
284,160,193830,2,0,P|352:188|392:208,1,85
312,64,194167,6,0,P|376:96|472:28,1,170
232,4,194673,2,0,P|220:68|220:120,1,85
268,256,195010,1,0,0:0:0:0:
372,168,195179,1,0,0:0:0:0:
268,256,195347,1,0,0:0:0:0:
176,184,195516,6,0,P|100:164|72:160,1,85
268,256,195853,2,0,P|309:264|350:277,1,85
172,320,196190,1,0,0:0:0:0:
268,160,196358,1,0,0:0:0:0:
96,232,196527,1,0,0:0:0:0:
104,56,196696,1,0,0:0:0:0:
320,92,196864,6,0,P|356:144|296:232,1,170
172,320,197370,1,0,0:0:0:0:
172,320,197538,2,0,P|112:336|80:352,1,85
96,232,197875,2,0,P|135:215|176:206,1,85
308,228,198212,5,0,0:0:0:0:
338,245,198296,1,0,0:0:0:0:
373,251,198380,1,0,0:0:0:0:
408,247,198464,1,0,0:0:0:0:
440,231,198549,1,0,0:0:0:0:
465,207,198633,1,0,0:0:0:0:
481,176,198717,1,0,0:0:0:0:
486,141,198801,1,0,0:0:0:0:
481,106,198886,1,0,0:0:0:0:
464,75,198970,1,0,0:0:0:0:
438,50,199054,1,0,0:0:0:0:
407,35,199138,1,0,0:0:0:0:
372,31,199224,2,0,L|360:92,1,42.5
284,144,199392,2,0,L|275:102,1,42.5
224,24,199561,5,0,0:0:0:0:
204,348,199785,1,0,0:0:0:0:
396,172,200010,1,0,0:0:0:0:
68,84,200235,1,0,0:0:0:0:
356,276,200460,1,0,0:0:0:0:
76,272,200684,1,0,0:0:0:0:
324,32,200909,1,0,0:0:0:0:
344,48,202257,5,0,0:0:0:0:
272,95,207651,6,0,P|231:109|191:124,2,85,2|0|2,0:0|0:0|0:0,0:0:0:0:
404,132,208156,2,0,P|460:116|484:-4,1,170,2|2,0:0|0:0,0:0:0:0:
404,40,208662,1,2,0:0:0:0:
480,204,208830,6,0,B|464:328|464:328|408:296,1,170,2|0,0:0|0:0,0:0:0:0:
344,188,209336,1,2,0:0:0:0:
224,244,209505,1,2,0:0:0:0:
224,244,209589,1,0,0:0:0:0:
224,244,209673,2,0,L|208:327,1,85
180,20,210010,1,2,0:0:0:0:
212,22,210094,1,0,0:0:0:0:
244,24,210178,1,0,0:0:0:0:
276,26,210262,1,0,0:0:0:0:
308,28,210347,6,0,P|364:40|496:56,1,170,2|0,0:0|1:0,0:0:0:0:
448,168,210853,2,0,P|436:224|432:268,1,85
364,336,211190,1,0,1:0:0:0:
252,248,211358,1,0,1:0:0:0:
360,144,211527,1,0,0:0:0:0:
148,184,211696,1,0,0:0:0:0:
248,352,211864,6,0,L|276:176,1,170,0|0,1:0|1:0,0:0:0:0:
100,296,212370,1,0,0:0:0:0:
100,296,212454,1,0,0:0:0:0:
100,296,212538,1,0,0:0:0:0:
100,296,212623,1,0,0:0:0:0:
100,296,212707,2,0,L|88:228,1,42.5
36,184,212875,6,0,P|44:120|68:-4,1,187.000005706787,4|8,0:0|0:0,0:0:0:0:
280,56,213381,1,2,1:2:0:0:
120,156,213550,1,2,0:0:0:0:
252,220,213718,1,8,0:0:0:0:
200,80,213887,1,10,0:0:0:0:
200,292,214055,1,0,1:0:0:0:
384,152,214224,6,0,P|396:236|408:368,1,187.000005706787,6|10,0:0|0:0,0:0:0:0:
200,292,214729,2,0,P|212:228|224:188,1,93.5000028533936,0|0,1:0|0:0,0:0:0:0:
280,268,215066,1,10,0:0:0:0:
144,172,215235,1,2,0:0:0:0:
312,84,215403,1,0,1:0:0:0:
280,268,215572,6,0,P|264:348|148:360,1,187.000005706787,4|10,0:0|0:0,0:0:0:0:
40,256,216078,2,0,P|36:204|32:152,1,93.5000028533936,0|0,1:0|0:0,0:0:0:0:
88,320,216415,1,10,0:0:0:0:
196,112,216583,1,2,0:0:0:0:
196,112,216667,1,0,0:0:0:0:
196,112,216752,1,0,1:0:0:0:
463,234,216920,6,0,P|371:249|279:268,1,187.000005706787,4|2,0:0|0:0,0:0:0:0:
372,148,217426,2,0,P|432:136|480:124,1,93.5000028533936,0|2,1:0|0:0,0:0:0:0:
316,60,217763,1,12,0:0:0:0:
280,268,217932,1,10,0:0:0:0:
200,196,218100,1,0,1:0:0:0:
372,148,218269,1,2,0:0:0:0:
204,20,218437,5,6,1:2:0:0:
204,20,218606,2,0,L|200:120,1,93.5000028533936,2|8,1:2|0:0,0:0:0:0:
196,332,218943,2,0,P|248:304|392:320,1,187.000005706787,2|0,1:2|0:0,0:0:0:0:
92,168,219448,1,2,1:2:0:0:
220,212,219617,1,2,1:2:0:0:
88,296,219785,6,0,P|40:316|0:336,1,93.5000028533936,0|2,0:0|1:2,0:0:0:0:
2,334,220038,1,0,0:0:0:0:
2,334,220123,1,0,0:0:0:0:
220,212,220291,1,0,0:0:0:0:
92,168,220460,2,0,P|44:148|4:128,1,93.5000028533936,4|0,1:2|0:0,0:0:0:0:
244,100,220797,2,0,P|236:40|236:-4,1,93.5000028533936,4|0,1:2|0:0,0:0:0:0:
384,176,221134,5,2,1:2:0:0:
472,92,221302,1,2,1:2:0:0:
288,176,221471,1,0,0:0:0:0:
400,276,221639,2,0,P|408:212|412:60,1,187.000005706787,2|0,1:2|0:0,0:0:0:0:
288,264,222145,1,2,1:2:0:0:
288,264,222314,6,0,P|288:336|296:372,1,93.5000028533936,2|0,1:2|0:0,0:0:0:0:
164,200,222651,1,2,1:2:0:0:
164,200,222819,2,0,P|104:208|68:224,1,93.5000028533936,0|2,0:0|0:0,0:0:0:0:
324,136,223156,2,0,P|380:152|420:176,1,93.5000028533936,4|0,1:2|0:0,0:0:0:0:
164,80,223493,2,0,P|108:64|68:40,1,93.5000028533936,4|0,1:2|0:0,0:0:0:0:
248,152,223830,5,6,0:0:0:0:
312,32,223999,1,2,1:2:0:0:
288,220,224167,1,2,0:0:0:0:
156,148,224336,1,2,1:2:0:0:
156,148,224420,1,0,0:0:0:0:
156,148,224505,5,2,0:0:0:0:
280,308,224673,1,2,0:0:0:0:
372,104,224841,1,2,1:2:0:0:
200,232,225010,1,2,1:2:0:0:
400,184,225179,1,0,0:0:0:0:
268,32,225347,1,2,1:2:0:0:
312,232,225516,1,0,1:0:0:0:
444,104,225684,1,2,0:0:0:0:
444,104,225769,1,0,0:0:0:0:
444,104,225853,5,2,1:2:0:0:
408,300,226021,1,2,0:0:0:0:
244,136,226190,2,0,P|244:76|248:20,1,93.5000028533936,2|2,1:2|0:0,0:0:0:0:
180,296,226527,5,4,1:2:0:0:
152,116,226696,1,0,1:2:0:0:
332,88,226865,1,0,1:2:0:0:
360,268,227033,1,0,1:0:0:0:
352,280,227370,6,0,P|280:256|228:240,1,93.5000028533936,0|0,1:0|0:0,0:0:0:0:
388,180,227707,2,0,P|444:160|460:36,1,187.000005706787,0|0,1:0|1:0,0:0:0:0:
280,96,228212,1,0,1:0:0:0:
388,180,228381,1,2,0:0:0:0:
280,96,228550,6,0,P|224:72|172:64,1,93.5000028533936,4|0,0:0|0:0,0:0:0:0:
28,184,228887,2,0,P|73:173|115:153,1,93.5000028533936,0|0,0:0|0:0,0:0:0:0:
252,200,229224,6,0,L|240:376,1,170,4|2,0:0|1:2,0:0:0:0:
392,280,229729,1,0,0:0:0:0:
392,280,229898,2,0,P|424:236|388:116,1,170,0|2,1:0|1:2,0:0:0:0:
320,52,230403,1,0,0:0:0:0:
240,120,230572,6,0,P|172:92|140:80,1,85,0|0,1:0|0:0,0:0:0:0:
56,192,230909,2,0,L|64:292,1,85,2|0,1:2|0:0,0:0:0:0:
208,260,231246,2,0,L|196:360,1,85,0|0,1:0|0:0,0:0:0:0:
352,296,231583,2,0,L|341:211,1,85,2|0,1:2|0:0,0:0:0:0:
472,232,231920,6,0,P|496:176|432:76,1,170,12|2,0:0|1:2,0:0:0:0:
336,32,232426,1,0,0:0:0:0:
244,120,232594,2,0,L|232:172,1,42.5,0|0,1:0|0:0,0:0:0:0:
156,252,232763,2,0,L|146:210,1,42.5,0|0,0:0|0:0,0:0:0:0:
120,108,232932,2,0,P|108:52|108:8,1,85,2|0,1:2|0:0,0:0:0:0:
324,180,233269,6,0,L|296:368,1,170,12|2,0:0|1:2,0:0:0:0:
176,376,233774,1,0,0:0:0:0:
244,140,233943,2,0,P|276:104|392:132,1,170,2|2,1:2|1:2,0:0:0:0:
448,240,234448,1,8,0:0:0:0:
448,240,234533,1,0,0:0:0:0:
448,240,234617,5,12,0:0:0:0:
324,180,234785,1,12,0:0:0:0:
500,112,234954,1,0,0:0:0:0:
392,312,235123,1,4,1:2:0:0:
404,84,235291,1,8,0:0:0:0:
256,256,235460,1,0,1:0:0:0:
440,168,235628,1,12,0:0:0:0:
264,60,235797,1,12,0:0:0:0:
264,60,235965,6,0,L|252:160,1,85,0|4,0:0|1:2,0:0:0:0:
245,340,236302,2,0,L|255:255,1,85,8|0,0:0|1:0,0:0:0:0:
168,256,236639,1,12,0:0:0:0:
344,164,236808,1,8,0:0:0:0:
128,132,236976,1,12,0:0:0:0:
127,100,237060,1,0,0:0:0:0:
126,68,237144,1,8,0:0:0:0:
125,36,237228,1,0,0:0:0:0:
124,4,237313,5,4,1:2:0:0:
48,188,237482,1,0,1:0:0:0:
296,108,237651,1,0,1:0:0:0:
232,324,237819,1,0,1:0:0:0:
236,344,238156,6,0,P|288:320|344:296,1,85,4|0,1:2|0:0,0:0:0:0:
432,268,238493,2,0,P|460:312|368:376,1,170,4|0,1:2|0:0,0:0:0:0:
136,356,238999,2,0,P|76:344|40:328,1,85,0|0,1:0|0:0,0:0:0:0:
168,136,239336,1,4,1:2:0:0:
236,344,239505,1,0,1:0:0:0:
168,136,240010,6,0,P|232:144|280:152,1,85,4|0,1:2|0:0,0:0:0:0:
364,232,240347,1,0,1:2:0:0:
456,120,240516,1,0,1:0:0:0:
216,216,240685,1,2,0:0:0:0:
340,116,240853,1,0,1:2:0:0:
332,344,241022,1,2,0:2:0:0:
460,232,241190,1,2,1:2:0:0:
252,147,241359,1,0,0:0:0:0:
420,24,241527,1,0,1:2:0:0:
392,280,241696,1,4,0:0:0:0:
256,192,241864,12,0,246921,0:0:0:0:
