osu file format v14

[General]
AudioFilename: audio.mp3
AudioLeadIn: 0
PreviewTime: 50872
Countdown: 0
SampleSet: Soft
StackLeniency: 0.7
Mode: 3
LetterboxInBreaks: 0
SpecialStyle: 0
WidescreenStoryboard: 1

[Editor]
DistanceSpacing: 0.7
BeatDivisor: 4
GridSize: 32
TimelineZoom: 2.2

[Metadata]
Title:Souzou Diary (TV Size)
TitleUnicode:想像ダイアリー (TV Size)
Artist:Touyama Nao, Hanazawa Kana, Komatsu Mikako, Asumi Kana
ArtistUnicode:東山奈央, 花澤香菜, 小松未可子, 阿澄佳奈
Creator:ML-ysg
Version:Easy
Source:ニセコイ
Tags:False Love nisekoi Imagination anime japanese j-pop jpop pop ed ending short ver version female vocal 桐崎 千棘 Kirisaki Chitoge 小野寺 小咲 Onodera Kosaki 橘 万里花 Tachibana Marika 鶫 誠士郎 Tsugumi Seishiro ANZX-6262 SVWC-70061~2 NISEKOI BEST SONGS
BeatmapID:3790154
BeatmapSetID:1845117

[Difficulty]
HPDrainRate:6.5
CircleSize:4
OverallDifficulty:6.5
ApproachRate:5
SliderMultiplier:1.4
SliderTickRate:1

[Events]
//Background and Video events
0,0,"Souzou.jpg",0,0
//Break Periods
//Storyboard Layer 0 (Background)
//Storyboard Layer 1 (Fail)
//Storyboard Layer 2 (Pass)
//Storyboard Layer 3 (Foreground)
//Storyboard Layer 4 (Overlay)
//Storyboard Sound Samples
Sample,3220,0,"Tom3.wav",50
Sample,3386,0,"Tom3.wav",50
Sample,4215,0,"Hat open.wav",50
Sample,4546,0,"Hat open.wav",50
Sample,4712,0,"Hat open.wav",50
Sample,4878,0,"Hat open.wav",50
Sample,5209,0,"Hat open.wav",50
Sample,5541,0,"Hat open.wav",50
Sample,5872,0,"Hat open.wav",50
Sample,6038,0,"Hat open.wav",50
Sample,6204,0,"Hat open.wav",50
Sample,6535,0,"Hat open.wav",50
Sample,6867,0,"Hat open.wav",50
Sample,7198,0,"Hat open.wav",50
Sample,7364,0,"Hat open.wav",50
Sample,7530,0,"Hat open.wav",50
Sample,7861,0,"Hat open.wav",50
Sample,8193,0,"Hat open.wav",50
Sample,8359,0,"Hat open.wav",50
Sample,8690,0,"Hat open.wav",50
Sample,8856,0,"Hat open.wav",50
Sample,9519,0,"Hat open.wav",50
Sample,10016,0,"Hat open.wav",50
Sample,10182,0,"Hat open.wav",50
Sample,10845,0,"Hat open.wav",50
Sample,11010,0,"Tom1.wav",50
Sample,12171,0,"Hat close.wav",60
Sample,12502,0,"Hat close.wav",60
Sample,12834,0,"Hat close.wav",60
Sample,14160,0,"Hat close.wav",60
Sample,14823,0,"Hat close.wav",60
Sample,15154,0,"Hat close.wav",60
Sample,15486,0,"Hat open.wav",70
Sample,16480,0,"Hat open.wav",50
Sample,17143,0,"LR_Ride Low.wav",100
Sample,17475,0,"Hat close.wav",60
Sample,17806,0,"Hat close.wav",60
Sample,18138,0,"Hat close.wav",60
Sample,18469,0,"Hat close.wav",60
Sample,18801,0,"Hat close.wav",60
Sample,19132,0,"Hat close.wav",60
Sample,19464,0,"Hat close.wav",60
Sample,19795,0,"Hat close.wav",60
Sample,20126,0,"Hat close.wav",60
Sample,20458,0,"Hat close.wav",60
Sample,20789,0,"Hat close.wav",60
Sample,21121,0,"Hat close.wav",60
Sample,21452,0,"Hat close.wav",60
Sample,21784,0,"Hat close.wav",60
Sample,22778,0,"Hat close.wav",60
Sample,23110,0,"Hat close.wav",60
Sample,23441,0,"Hat close.wav",60
Sample,23773,0,"Hat close.wav",60
Sample,24104,0,"Hat close.wav",60
Sample,24436,0,"Hat close.wav",60
Sample,24767,0,"Hat close.wav",60
Sample,25099,0,"Hat close.wav",60
Sample,25430,0,"Hat close.wav",60
Sample,25762,0,"Hat close.wav",60
Sample,26093,0,"Hat close.wav",60
Sample,26425,0,"Tom3.wav",50
Sample,26591,0,"Tom3.wav",50
Sample,26756,0,"Tom3.wav",50
Sample,26922,0,"Tom3.wav",50
Sample,27254,0,"Tom3.wav",50
Sample,27585,0,"Tom3.wav",50
Sample,28082,0,"Hat close.wav",60
Sample,28414,0,"Hat close.wav",60
Sample,28745,0,"Hat close.wav",60
Sample,29077,0,"Hat close.wav",60
Sample,29408,0,"Hat close.wav",60
Sample,29740,0,"Hat close.wav",60
Sample,30071,0,"Hat close.wav",60
Sample,30403,0,"Hat close.wav",60
Sample,30734,0,"Hat close.wav",60
Sample,31066,0,"Hat close.wav",60
Sample,31397,0,"Hat close.wav",60
Sample,31729,0,"Hat close.wav",60
Sample,32060,0,"Hat close.wav",60
Sample,32392,0,"Hat close.wav",60
Sample,32557,0,"Hat open.wav",50
Sample,32723,0,"Hat open.wav",50
Sample,33055,0,"Hat close.wav",60
Sample,33386,0,"Hat close.wav",60
Sample,33718,0,"Hat close.wav",60
Sample,33883,0,"Hat close.wav",60
Sample,34049,0,"Hat close.wav",60
Sample,34381,0,"Hat close.wav",60
Sample,34712,0,"Hat close.wav",60
Sample,35044,0,"Hat close.wav",60
Sample,35375,0,"Hat close.wav",60
Sample,36038,0,"Hat open.wav",50
Sample,36701,0,"Hat open.wav",50
Sample,37198,0,"Tom1.wav",50
Sample,40016,0,"Hat close.wav",60
Sample,40513,0,"Hat close.wav",60
Sample,40845,0,"Hat open.wav",50
Sample,41010,0,"Hat close.wav",60
Sample,42336,0,"Hat close.wav",60
Sample,42668,0,"Hat close.wav",60
Sample,43165,0,"Tom2.wav",50
Sample,43994,0,"Hat close.wav",60
Sample,44325,0,"Hat close.wav",60
Sample,44491,0,"Hat close.wav",60
Sample,44657,0,"Hat close.wav",60
Sample,44988,0,"Hat close.wav",60
Sample,45651,0,"Hat close.wav",60
Sample,46646,0,"Hat close.wav",60
Sample,46977,0,"Hat close.wav",60
Sample,47143,0,"Hat close.wav",60
Sample,47309,0,"Hat close.wav",60
Sample,47972,0,"Hat close.wav",60
Sample,48303,0,"Hat close.wav",60
Sample,48635,0,"Hat close.wav",60
Sample,51950,0,"Hat open.wav",50
Sample,52281,0,"Hat open.wav",50
Sample,52613,0,"Hat open.wav",50
Sample,52944,0,"Hat open.wav",50
Sample,53276,0,"Hat open.wav",50
Sample,53607,0,"Hat open.wav",50
Sample,53939,0,"Hat open.wav",50
Sample,54270,0,"Hat open.wav",50
Sample,54602,0,"Hat open.wav",50
Sample,54933,0,"Hat open.wav",50
Sample,55265,0,"Hat open.wav",50
Sample,55596,0,"Hat open.wav",50
Sample,55928,0,"Hat open.wav",50
Sample,56259,0,"Hat open.wav",50
Sample,56591,0,"Hat open.wav",50
Sample,57254,0,"Hat open.wav",50
Sample,57751,0,"Hat open.wav",50
Sample,57917,0,"Hat open.wav",50
Sample,58414,0,"Hat open.wav",50
Sample,58580,0,"Hat open.wav",50
Sample,58745,0,"Hat open.wav",50
Sample,59905,0,"Hat open.wav",50
Sample,60237,0,"Hat open.wav",50
Sample,60403,0,"Hat open.wav",50
Sample,60734,0,"Hat open.wav",50
Sample,61066,0,"Hat open.wav",50
Sample,61397,0,"Hat open.wav",50
Sample,62557,0,"Hat open.wav",50
Sample,62889,0,"Hat open.wav",50
Sample,63220,0,"Hat open.wav",50
Sample,63552,0,"Hat open.wav",50
Sample,63883,0,"Hat open.wav",50
Sample,64215,0,"Hat open.wav",50
Sample,65209,0,"Hat close.wav",60
Sample,65872,0,"Hat close.wav",60
Sample,66535,0,"Hat close.wav",60
Sample,67198,0,"Hat close.wav",60
Sample,67861,0,"Hat open.wav",50
Sample,68359,0,"Hat open.wav",50
Sample,68524,0,"Hat open.wav",50
Sample,69022,0,"Hat open.wav",50
Sample,69187,0,"Hat open.wav",50
Sample,69353,0,"Hat open.wav",50
Sample,70513,0,"Hat open.wav",50
Sample,70845,0,"Hat open.wav",50
Sample,71176,0,"Hat open.wav",50
Sample,73331,0,"Hat open.wav",50
Sample,73662,0,"Hat open.wav",50
Sample,74491,0,"Hat close.wav",60
Sample,74823,0,"Hat close.wav",60
Sample,75154,0,"Hat close.wav",60
Sample,77475,0,"Tom3.wav",50
Sample,77640,0,"Tom3.wav",50
Sample,78469,0,"Hat open.wav",50
Sample,78801,0,"Hat open.wav",50
Sample,78966,0,"Hat open.wav",50
Sample,79132,0,"Hat open.wav",50
Sample,79464,0,"Hat open.wav",50
Sample,79795,0,"Hat open.wav",50
Sample,80126,0,"Hat open.wav",50
Sample,80292,0,"Hat open.wav",50
Sample,80458,0,"Hat open.wav",50
Sample,80789,0,"Hat open.wav",50
Sample,81121,0,"Hat open.wav",50
Sample,81452,0,"Hat open.wav",50
Sample,81618,0,"Hat open.wav",50
Sample,81784,0,"Hat open.wav",50
Sample,82447,0,"Hat open.wav",50
Sample,83773,0,"Hat open.wav",50
Sample,84436,0,"Hat open.wav",50
Sample,84933,0,"Tom3.wav",50
Sample,85099,0,"Tom3.wav",50
Sample,85265,0,"Hat open.wav",50
Sample,85596,0,"Hat open.wav",50

[TimingPoints]
-94,331.491712707182,4,2,1,60,1,0
51618,-100.0,4,2,1,60,0,1
77640,-100.0,4,2,1,60,0,0

[HitObjects]
64,192,237,1,0,0:0:0:0:
448,192,568,1,0,0:0:0:0:
192,192,900,1,0,0:0:0:0:
64,192,1231,1,2,0:0:0:0:
448,192,1231,128,4,2557:0:0:0:0:
192,192,2557,128,4,3220:0:0:0:0:
320,192,2557,1,2,0:0:0:0:
448,192,3220,1,8,0:0:0:0:
64,192,3386,1,8,0:0:0:0:
320,192,3883,1,2,0:0:0:0:
448,192,3883,1,4,0:0:0:0:
64,192,4215,1,8,0:0:0:0:
192,192,4546,1,2,0:0:0:0:
320,192,4712,1,2,0:0:0:0:
448,192,4878,1,8,0:0:0:0:
64,192,5209,1,2,0:0:0:0:
448,192,5541,1,8,0:0:0:0:
320,192,5872,1,2,0:0:0:0:
192,192,6038,1,2,0:0:0:0:
64,192,6204,1,8,0:0:0:0:
448,192,6535,1,2,0:0:0:0:
192,192,6867,1,8,0:0:0:0:
320,192,7198,1,2,0:0:0:0:
64,192,7364,1,2,0:0:0:0:
448,192,7530,1,8,0:0:0:0:
192,192,7861,1,2,0:0:0:0:
448,192,8193,1,8,0:0:0:0:
64,192,8359,1,2,0:0:0:0:
320,192,8690,1,8,0:0:0:0:
192,192,8856,1,8,0:0:0:0:
320,192,9022,1,2,0:0:0:0:
64,192,9187,1,2,0:0:0:0:
448,192,9187,1,4,0:0:0:0:
192,192,9519,1,8,0:0:0:0:
320,192,9685,1,2,0:0:0:0:
448,192,9685,1,4,0:0:0:0:
192,192,10016,1,2,0:0:0:0:
320,192,10182,1,8,0:0:0:0:
64,192,10347,1,2,0:0:0:0:
192,192,10347,1,4,0:0:0:0:
320,192,10679,1,2,0:0:0:0:
192,192,10845,1,8,0:0:0:0:
448,192,11010,1,8,0:0:0:0:
64,192,11176,128,0,11508:0:0:0:50:Tom2.wav
192,192,11508,128,4,11839:0:0:0:0:
448,192,11508,1,8,0:0:0:0:
64,192,11839,1,4,0:0:0:0:
320,192,11839,128,2,12834:0:0:0:0:
448,192,12171,1,2,0:0:0:0:
192,192,12502,1,2,0:0:0:0:
64,192,12834,1,8,0:0:0:0:
448,192,12999,128,8,13331:0:0:0:0:
192,192,13331,128,8,13662:0:0:0:0:
320,192,13662,128,8,13994:0:0:0:0:
64,192,13994,1,8,0:0:0:0:
448,192,14160,128,10,14491:0:0:0:0:
192,192,14491,128,2,15154:0:0:0:0:
320,192,14491,1,4,0:0:0:0:
448,192,14823,1,2,0:0:0:0:
64,192,15154,128,2,15817:0:0:0:0:
320,192,15486,1,2,0:0:0:0:
192,192,15817,1,2,0:0:0:0:
448,192,15817,128,4,16480:0:0:0:0:
320,192,16480,128,2,17143:0:0:0:0:
64,192,17143,1,2,0:0:0:0:
448,192,17475,1,2,0:0:0:0:
192,192,17806,1,2,0:0:0:0:
320,192,18138,1,2,0:0:0:0:
64,192,18469,1,2,0:0:0:0:
192,192,18801,1,2,0:0:0:0:
320,192,19132,1,2,0:0:0:0:
448,192,19464,1,2,0:0:0:0:
64,192,19795,128,2,20126:0:0:0:0:
448,192,20126,1,2,0:0:0:0:
192,192,20292,1,0,0:0:0:0:
320,192,20458,128,2,21121:0:0:0:0:
192,192,20789,1,2,0:0:0:0:
64,192,21121,1,2,0:0:0:0:
192,192,21452,128,10,21784:0:0:0:0:
448,192,21784,128,2,22115:0:0:0:0:
64,192,22115,128,2,22447:0:0:0:0:
192,192,22447,1,2,0:0:0:0:
320,192,22447,1,4,0:0:0:0:
448,192,22778,1,2,0:0:0:0:
64,192,23110,1,2,0:0:0:0:
192,192,23441,1,2,0:0:0:0:
448,192,23773,1,2,0:0:0:0:
64,192,24104,1,2,0:0:0:0:
320,192,24436,1,2,0:0:0:0:
192,192,24767,1,2,0:0:0:0:
448,192,25099,128,2,25430:0:0:0:0:
64,192,25430,1,2,0:0:0:0:
320,192,25596,1,0,0:0:0:0:
192,192,25762,128,2,26093:0:0:0:0:
448,192,26093,128,2,26425:0:0:0:0:
64,192,26425,1,8,0:0:0:0:
320,192,26591,1,8,0:0:0:0:
192,192,26756,1,8,0:0:0:0:
448,192,26922,1,8,0:0:0:0:
64,192,27254,1,8,0:0:0:0:
448,192,27585,1,8,0:0:0:0:
192,192,27751,1,4,0:0:0:0:
320,192,27751,1,2,0:0:0:0:
64,192,28082,1,8,0:0:0:0:
448,192,28414,1,2,0:0:0:0:
320,192,28580,1,2,0:0:0:0:
192,192,28745,1,8,0:0:0:0:
64,192,29077,1,2,0:0:0:0:
448,192,29408,1,8,0:0:0:0:
64,192,29740,1,2,0:0:0:0:
192,192,29905,1,2,0:0:0:0:
320,192,30071,1,8,0:0:0:0:
192,192,30403,1,2,0:0:0:0:
448,192,30734,1,8,0:0:0:0:
192,192,31066,1,2,0:0:0:0:
320,192,31231,1,2,0:0:0:0:
64,192,31397,1,8,0:0:0:0:
448,192,31729,1,2,0:0:0:0:
192,192,32060,1,8,0:0:0:0:
448,192,32392,1,2,0:0:0:0:
64,192,32557,1,10,0:0:0:0:
320,192,32723,1,8,0:0:0:0:
192,192,33055,1,2,0:0:0:0:
448,192,33386,1,8,0:0:0:0:
64,192,33718,1,2,0:0:0:0:
320,192,33883,1,2,0:0:0:0:
192,192,34049,1,8,0:0:0:0:
320,192,34381,1,2,0:0:0:0:
64,192,34712,1,8,0:0:0:0:
448,192,35044,1,2,0:0:0:0:
192,192,35209,1,2,0:0:0:0:
320,192,35375,1,8,0:0:0:0:
64,192,35707,1,4,0:0:0:0:
448,192,35707,1,2,0:0:0:0:
192,192,36038,1,8,0:0:0:0:
320,192,36370,1,2,0:0:0:0:
448,192,36370,1,4,0:0:0:0:
64,192,36701,1,8,0:0:0:0:
192,192,36867,1,2,0:0:0:0:
320,192,36867,1,4,0:0:0:0:
64,192,37198,1,2,0:0:0:0:
192,192,37364,1,0,0:0:0:50:Tom1.wav
320,192,37530,1,0,0:0:0:50:Tom2.wav
64,192,37696,1,4,0:0:0:0:
448,192,37696,128,2,38027:0:0:0:0:
192,192,38027,128,2,38359:0:0:0:0:
320,192,38027,1,4,0:0:0:0:
64,192,38359,1,4,0:0:0:0:
320,192,38359,128,2,38690:0:0:0:0:
192,192,39022,128,8,39353:0:0:0:0:
448,192,39022,1,0,0:0:0:60:Hat close.wav
320,192,39685,1,2,0:0:0:0:
64,192,39850,1,8,0:0:0:0:
448,192,40016,1,2,0:0:0:0:
192,192,40182,128,0,40513:0:0:0:60:Hat close.wav
320,192,40513,128,2,40845:0:0:0:0:
64,192,40845,1,8,0:0:0:0:
448,192,41010,128,2,41342:0:0:0:0:
192,192,41673,128,8,42005:0:0:0:0:
320,192,41673,1,0,0:0:0:60:Hat close.wav
64,192,42336,1,2,0:0:0:0:
448,192,42502,1,8,0:0:0:0:
192,192,42668,1,2,0:0:0:0:
320,192,42834,128,0,43165:0:0:0:0:
64,192,43165,128,0,43662:0:0:0:60:Hat close.wav
192,192,43662,1,2,0:0:0:0:
448,192,43662,1,4,0:0:0:0:
64,192,43994,1,8,0:0:0:0:
320,192,44325,1,2,0:0:0:0:
192,192,44491,1,2,0:0:0:0:
448,192,44657,1,8,0:0:0:0:
64,192,44988,128,2,45320:0:0:0:0:
192,192,45320,1,4,0:0:0:0:
320,192,45320,1,8,0:0:0:0:
448,192,45651,128,2,45983:0:0:0:0:
192,192,45983,1,8,0:0:0:0:
320,192,45983,1,4,0:0:0:0:
64,192,46314,1,2,0:0:0:0:
448,192,46314,1,4,0:0:0:0:
192,192,46646,1,8,0:0:0:0:
320,192,46977,1,2,0:0:0:0:
64,192,47143,1,2,0:0:0:0:
448,192,47309,1,8,0:0:0:0:
192,192,47640,1,2,0:0:0:0:
320,192,47640,1,4,0:0:0:0:
448,192,47972,1,8,0:0:0:0:
64,192,48303,1,2,0:0:0:0:
320,192,48469,1,2,0:0:0:0:
192,192,48635,1,8,0:0:0:0:
320,192,48966,1,6,0:0:0:0:
448,192,48966,1,8,0:0:0:0:
320,192,49298,1,10,0:0:0:0:
192,192,49629,1,10,0:0:0:0:
192,192,49961,1,10,0:0:0:0:
448,192,50126,1,0,0:0:0:50:Tom1.wav
64,192,50292,1,0,0:0:0:50:Tom3.wav
192,192,50624,1,10,0:0:0:0:
448,192,50624,1,4,0:0:0:0:
320,192,50955,1,8,0:0:0:0:
192,192,51121,1,2,0:0:0:0:
64,192,51287,1,0,0:0:0:50:Tom3.wav
192,192,51618,1,2,0:0:0:0:
448,192,51618,128,4,51950:0:0:0:0:
64,192,51950,1,8,0:0:0:0:
320,192,52115,1,0,0:0:0:50:Hat open.wav
192,192,52281,128,2,52613:0:0:0:0:
448,192,52613,1,8,0:0:0:0:
320,192,52944,1,2,0:0:0:0:
192,192,53110,1,0,0:0:0:50:Hat open.wav
448,192,53276,1,8,0:0:0:0:
64,192,53441,1,0,0:0:0:50:Hat open.wav
320,192,53607,128,2,53939:0:0:0:0:
192,192,53939,128,8,54270:0:0:0:0:
448,192,54270,128,2,54602:0:0:0:0:
64,192,54602,1,8,0:0:0:0:
320,192,54767,1,0,0:0:0:50:Hat open.wav
192,192,54933,128,2,55265:0:0:0:0:
320,192,55265,1,8,0:0:0:0:
64,192,55596,128,2,55928:0:0:0:0:
448,192,55928,128,8,56259:0:0:0:0:
192,192,56259,128,2,56591:0:0:0:0:
320,192,56591,128,8,56922:0:0:0:0:
64,192,56922,1,2,0:0:0:0:
448,192,56922,1,4,0:0:0:0:
192,192,57254,1,8,0:0:0:0:
320,192,57419,1,4,0:0:0:0:
448,192,57419,1,2,0:0:0:0:
64,192,57751,1,2,0:0:0:0:
320,192,57917,1,8,0:0:0:0:
64,192,58082,1,4,0:0:0:0:
192,192,58082,1,2,0:0:0:0:
320,192,58414,1,2,0:0:0:0:
64,192,58580,1,8,0:0:0:0:
448,192,58745,1,10,0:0:0:0:
192,192,58911,1,2,0:0:0:0:
320,192,58911,1,4,0:0:0:0:
64,192,59243,1,4,0:0:0:0:
448,192,59243,1,8,0:0:0:0:
192,192,59574,1,2,0:0:0:0:
320,192,59574,128,4,59905:0:0:0:0:
64,192,59905,128,8,60237:0:0:0:0:
448,192,60237,1,2,0:0:0:0:
192,192,60403,1,2,0:0:0:0:
320,192,60568,1,8,0:0:0:0:
64,192,60734,1,2,0:0:0:0:
320,192,61066,1,2,0:0:0:0:
64,192,61231,1,8,0:0:0:0:
448,192,61397,1,2,0:0:0:0:
192,192,61563,128,4,61894:0:0:0:0:
320,192,61563,1,2,0:0:0:0:
448,192,61894,1,8,0:0:0:0:
64,192,62226,128,4,62557:0:0:0:0:
320,192,62226,1,2,0:0:0:0:
448,192,62557,1,8,0:0:0:0:
192,192,62723,1,0,0:0:0:50:Hat open.wav
320,192,62889,128,2,63220:0:0:0:0:
192,192,63220,1,8,0:0:0:0:
64,192,63552,1,2,0:0:0:0:
448,192,63718,1,0,0:0:0:50:Hat open.wav
192,192,63883,1,8,0:0:0:0:
320,192,64049,1,0,0:0:0:50:Hat open.wav
64,192,64215,128,2,64546:0:0:0:0:
320,192,64546,1,8,0:0:0:0:
448,192,64546,128,4,64878:0:0:0:0:
64,192,64878,1,2,0:0:0:0:
192,192,64878,128,4,65209:0:0:0:0:
320,192,65209,1,2,0:0:0:0:
192,192,65375,1,0,0:0:0:0:
64,192,65541,1,2,0:0:0:0:
448,192,65541,128,4,65872:0:0:0:0:
192,192,65872,1,2,0:0:0:0:
64,192,66204,1,2,0:0:0:0:
320,192,66204,128,4,66535:0:0:0:0:
192,192,66535,128,2,66867:0:0:0:0:
320,192,66867,1,2,0:0:0:0:
448,192,66867,128,4,67198:0:0:0:0:
64,192,67198,1,2,0:0:0:0:
192,192,67530,1,4,0:0:0:0:
320,192,67530,1,2,0:0:0:0:
448,192,67861,1,8,0:0:0:0:
64,192,68027,1,2,0:0:0:0:
320,192,68027,1,4,0:0:0:0:
192,192,68359,1,2,0:0:0:0:
320,192,68524,1,8,0:0:0:0:
64,192,68690,1,2,0:0:0:0:
448,192,68690,1,4,0:0:0:0:
192,192,69022,1,2,0:0:0:0:
320,192,69187,1,8,0:0:0:0:
64,192,69353,1,10,0:0:0:0:
192,192,69519,1,4,0:0:0:0:
448,192,69519,1,2,0:0:0:0:
64,192,69850,1,4,0:0:0:0:
320,192,69850,1,8,0:0:0:0:
192,192,70182,1,2,0:0:0:0:
320,192,70182,1,4,0:0:0:0:
448,192,70347,1,0,0:0:0:50:Hat open.wav
64,192,70513,1,8,0:0:0:0:
320,192,70679,1,0,0:0:0:50:Hat open.wav
192,192,70845,128,2,71176:0:0:0:0:
448,192,71176,128,8,71508:0:0:0:0:
64,192,71508,128,0,71839:0:0:0:0:
320,192,71839,1,6,0:0:0:0:
448,192,71839,1,8,0:0:0:0:
192,192,72171,1,0,0:0:0:0:
64,192,72336,1,2,0:0:0:0:
448,192,72336,128,4,72834:0:0:0:0:
192,192,72834,1,4,0:0:0:0:
320,192,72834,1,2,0:0:0:0:
64,192,72999,1,8,0:0:0:0:
448,192,73165,1,8,0:0:0:0:
320,192,73331,1,2,0:0:0:0:
192,192,73662,1,2,0:0:0:0:
64,192,73994,128,2,74491:0:0:0:0:
448,192,73994,1,4,0:0:0:0:
320,192,74491,128,2,74823:0:0:0:0:
448,192,74823,128,2,75154:0:0:0:0:
64,192,75154,128,2,75486:0:0:0:0:
192,192,75486,128,2,75817:0:0:0:0:
320,192,75486,1,4,0:0:0:0:
448,192,76149,128,8,76480:0:0:0:0:
64,192,76480,1,2,0:0:0:0:
192,192,76812,128,2,77143:0:0:0:0:
320,192,76812,1,4,0:0:0:0:
64,192,77475,1,8,0:0:0:0:
448,192,77640,1,8,0:0:0:0:
64,192,78138,1,2,0:0:0:0:
192,192,78138,1,4,0:0:0:0:
448,192,78469,1,8,0:0:0:0:
64,192,78801,1,2,0:0:0:0:
192,192,78966,1,2,0:0:0:0:
320,192,79132,1,8,0:0:0:0:
448,192,79464,1,2,0:0:0:0:
64,192,79795,1,8,0:0:0:0:
448,192,80126,1,2,0:0:0:0:
320,192,80292,1,2,0:0:0:0:
192,192,80458,1,8,0:0:0:0:
64,192,80789,1,2,0:0:0:0:
448,192,81121,1,8,0:0:0:0:
192,192,81452,1,2,0:0:0:0:
320,192,81618,1,2,0:0:0:0:
64,192,81784,1,8,0:0:0:0:
192,192,82115,1,2,0:0:0:0:
448,192,82115,1,4,0:0:0:0:
64,192,82447,1,8,0:0:0:0:
320,192,82613,1,2,0:0:0:0:
192,192,82778,1,8,0:0:0:0:
448,192,83110,1,8,0:0:0:0:
64,192,83276,1,8,0:0:0:0:
192,192,83441,1,2,0:0:0:0:
320,192,83441,1,4,0:0:0:0:
64,192,83773,1,12,0:0:0:0:
320,192,83939,1,4,0:0:0:0:
448,192,83939,1,2,0:0:0:0:
192,192,84270,1,2,0:0:0:0:
448,192,84436,1,8,0:0:0:0:
64,192,84602,1,4,0:0:0:0:
320,192,84602,1,2,0:0:0:0:
192,192,84933,1,8,0:0:0:0:
320,192,85099,1,8,0:0:0:0:
64,192,85265,1,2,0:0:0:0:
192,192,85596,1,2,0:0:0:0:
320,192,85928,128,2,87254:0:0:0:0:
448,192,85928,1,4,0:0:0:0:
64,192,87254,1,0,0:0:0:0:
