osu file format v14

[General]
AudioFilename: rakuyoudensefuk.mp3
AudioLeadIn: 0
PreviewTime: 71542
Countdown: 0
SampleSet: Soft
StackLeniency: 0.3
Mode: 0
LetterboxInBreaks: 0
WidescreenStoryboard: 1

[Editor]
Bookmarks: 13771,38801,44286,162914
DistanceSpacing: 0.5
BeatDivisor: 4
GridSize: 8
TimelineZoom: 1.960002

[Metadata]
Title:Taisetsu no Tsukurikata (Asterisk remix)
TitleUnicode:Taisetsu no Tsukurikata (Asterisk remix)
Artist:Touyama Nao & Hanazawa Kana
ArtistUnicode:Touyama Nao & Hanazawa Kana
Creator:N0thingSpecial
Version:Undecided
Source:Nisekoi
Tags:Kosaki Onodera Chitoge Kirisaki ニセコイ false love raku why you so dense muu chan
BeatmapID:944354
BeatmapSetID:388825

[Difficulty]
HPDrainRate:7
CircleSize:4
OverallDifficulty:7.5
ApproachRate:9
SliderMultiplier:1.8
SliderTickRate:2

[Events]
//Background and Video events
0,0,"pink_pixel_wallpaper_full_desktop_1920x1080_by_cupcakekitten20-d5ck0ul.jpg",0,0
//Break Periods
2,165171,179457
2,187113,189057
//Storyboard Layer 0 (Background)
//Storyboard Layer 1 (Fail)
//Storyboard Layer 2 (Pass)
//Storyboard Layer 3 (Foreground)
//Storyboard Sound Samples

[TimingPoints]
400,342.857142857143,4,3,0,20,1,0
11371,-133.333333333333,4,2,1,50,0,0
20971,-133.333333333333,4,3,0,50,0,0
22342,-100,4,2,1,60,0,0
44285,-133.333333333333,4,2,1,50,0,0
71714,-100,4,2,1,60,0,1
71971,-100,4,2,1,5,0,1
72057,-100,4,2,1,60,0,1
74714,-100,4,2,1,5,0,1
74800,-100,4,2,1,60,0,1
77457,-100,4,2,1,5,0,1
77542,-100,4,2,1,60,0,1
85685,-100,4,2,1,5,0,1
85771,-100,4,2,1,60,0,1
93657,-76.9230769230769,4,2,1,60,0,0
97942,-66.6666666666667,4,2,1,60,0,0
101542,-76.9230769230769,4,2,1,60,0,0
103857,-76.9230769230769,4,2,1,5,0,0
103942,-76.9230769230769,4,2,1,60,0,0
104200,-76.9230769230769,4,2,1,5,0,0
104285,-76.9230769230769,4,2,1,60,0,0
104542,-76.9230769230769,4,2,1,5,0,0
104628,-76.9230769230769,4,2,1,60,0,0
114228,-100,4,2,1,60,0,0
115600,-133.333333333333,4,2,1,60,0,0
120571,-133.333333333333,4,1,1,60,0,0
120657,-133.333333333333,4,2,1,60,0,0
126057,-133.333333333333,4,1,1,60,0,0
126142,-133.333333333333,4,2,1,60,0,0
131542,-133.333333333333,4,1,1,60,0,0
131628,-133.333333333333,4,2,1,60,0,0
137542,-100,4,2,1,60,0,0
141657,-100,4,3,0,60,0,0
143028,-100,4,2,1,60,0,1
143285,-100,4,2,1,5,0,1
143371,-100,4,2,1,60,0,1
152542,-100,4,2,1,5,0,1
152628,-100,4,2,1,60,0,1
157000,-100,4,2,1,5,0,1
157085,-100,4,2,1,60,0,1
164971,-133.333333333333,4,2,1,60,0,0
210228,-133.333333333333,4,2,1,60,0,0
211600,-66.6666666666667,4,2,1,60,0,1
221800,-66.6666666666667,4,2,1,5,0,1
221885,-66.6666666666667,4,2,1,60,0,1
222142,-66.6666666666667,4,2,1,5,0,1
222228,-66.6666666666667,4,2,1,60,0,1
222485,-66.6666666666667,4,2,1,5,0,1
222571,-66.6666666666667,4,2,1,60,0,1
227714,-100,4,2,1,60,0,1
230800,-100,4,2,1,60,0,1
232085,-100,4,2,1,60,0,1
233542,-133.333333333333,4,2,0,35,0,0
239028,-133.333333333333,4,2,0,35,0,0
241771,-133.333333333333,4,2,0,30,0,0
243485,-166.666666666667,4,2,0,30,0,0
243828,-200,4,2,0,30,0,0
244514,-200,4,2,0,25,0,0
247257,-200,4,2,0,20,0,0
250000,-200,4,2,0,15,0,0

[Colours]
Combo1 : 255,192,0
Combo2 : 255,0,255
Combo3 : 255,17,130
Combo4 : 0,255,255

[HitObjects]
256,192,10000,12,0,11028,0:0:0:0:
352,112,11371,6,0,P|316:144|280:156,1,67.5000025749208,2|0,0:0|0:0,0:0:0:0:
164,208,11714,2,0,P|159:160|141:126,2,67.5000025749208
80,192,12228,1,0,0:0:0:0:
79,197,12400,2,0,P|88:248|113:280,1,67.5000025749208
127,338,12742,6,0,P|168:306|181:267,1,67.5000025749208
127,152,13085,2,0,P|86:184|72:222,1,67.5000025749208
159,229,13428,1,0,0:0:0:0:
178,85,13600,1,0,0:0:0:0:
210,162,13771,1,0,0:0:0:0:
262,95,13942,1,0,0:0:0:0:
327,251,14114,6,0,P|307:296|276:319,1,67.5000025749208,2|0,0:0|0:0,0:0:0:0:
355,351,14457,2,0,P|315:379|276:384,1,67.5000025749208
233,228,14800,2,0,P|253:183|284:160,1,67.5000025749208
205,128,15143,2,0,P|244:99|283:94,1,67.5000025749208
378,184,15485,6,0,P|383:232|368:268,2,67.5000025749208
346,107,16000,1,0,0:0:0:0:
209,155,16171,1,0,0:0:0:0:
275,317,16342,1,0,0:0:0:0:
192,306,16514,1,0,0:0:0:0:
324,244,16685,1,0,0:0:0:0:
326,250,16857,6,0,L|387:297,1,67.5000025749208,2|0,0:0|0:0,0:0:0:0:
360,181,17200,2,0,L|294:173,1,67.5000025749208
289,95,17542,2,0,L|227:122,1,67.5000025749208
184,56,17885,2,0,L|144:111,1,67.5000025749208
208,265,18228,5,2,0:0:0:0:
330,342,18400,1,0,0:0:0:0:
285,233,18571,1,0,0:0:0:0:
240,342,18742,1,0,0:0:0:0:
362,265,18914,2,0,P|358:199|342:174,1,67.5000025749208
152,265,19257,2,0,P|152:331|168:358,1,67.5000025749208
285,233,19600,5,2,0:0:0:0:
171,146,19771,1,0,0:0:0:0:
234,299,19942,1,0,0:0:0:0:
367,243,20114,1,0,0:0:0:0:
152,289,20285,1,2,0:0:0:0:
317,310,20457,1,0,0:0:0:0:
173,124,20628,1,0,0:0:0:0:
70,279,20800,1,0,0:0:0:0:
184,365,20971,5,2,0:2:0:0:
207,350,21056,1,0,0:0:0:0:
233,343,21142,1,0,0:0:0:0:
261,343,21228,1,0,0:0:0:0:
288,346,21313,1,0,0:0:0:0:
316,345,21399,1,0,0:0:0:0:
342,337,21485,1,0,0:0:0:0:
365,322,21571,1,0,0:0:0:0:
382,300,21657,6,0,P|394:263|395:246,1,33.7500012874604,2|0,0:0|0:0,0:0:0:0:
326,125,21828,2,0,P|321:163|323:180,1,33.7500012874604,0|0,0:0|0:0,0:0:0:0:
464,293,22000,1,10,0:2:0:0:
294,48,22342,6,0,P|255:78|239:121,1,90,0|0,1:0|0:0,1:0:0:0:
185,178,22685,2,0,P|229:195|275:189,1,90,8|0,0:0|0:0,0:0:0:0:
102,168,23028,2,0,P|109:211|138:245,1,90,0|0,0:0|1:0,0:0:0:0:
361,202,23371,2,0,P|356:154|323:117,1,90,8|0,0:0|0:0,0:0:0:0:
310,268,23714,5,0,1:0:0:0:
341,345,23885,1,0,0:0:0:0:
444,214,24057,1,8,0:0:0:0:
330,125,24228,1,0,0:0:0:0:
393,280,24400,2,0,L|431:363,1,90,0|0,0:0|1:0,0:0:0:0:
413,137,24742,2,0,L|450:55,1,90,8|0,0:0|0:0,0:0:0:0:
311,269,25085,6,0,L|273:350,1,90,0|0,1:0|0:0,0:0:0:0:
191,176,25428,2,0,L|228:257,1,90,8|0,0:0|0:0,0:0:0:0:
330,125,25771,2,0,L|292:206,1,90,0|0,0:0|1:0,0:0:0:0:
247,113,26114,2,0,L|210:32,1,90,8|0,0:0|0:0,0:0:0:0:
78,89,26457,5,0,1:0:0:0:
161,100,26628,1,0,0:0:0:0:
146,245,26800,1,8,0:0:0:0:
191,176,26971,1,0,0:0:0:0:
259,334,27142,2,0,P|298:302|312:257,1,90,0|0,0:0|1:0,0:0:0:0:
161,100,27485,2,0,L|197:189,1,90,8|0,0:0|0:0,0:0:0:0:
334,134,27828,5,0,1:0:0:0:
345,52,28000,1,0,0:0:0:0:
416,146,28171,2,0,P|398:187|351:216,1,90,8|0,0:0|0:0,0:0:0:0:
251,123,28514,1,0,0:0:0:0:
283,201,28685,1,0,1:0:0:0:
168,112,28857,2,0,L|182:1,1,90,8|0,0:0|0:0,0:0:0:0:
116,178,29200,5,0,1:0:0:0:
148,255,29371,1,0,0:0:0:0:
251,123,29542,2,0,L|262:23,1,90,8|0,0:0|0:0,0:0:0:0:
283,201,29885,1,0,0:0:0:0:
233,268,30057,1,0,1:0:0:0:
366,212,30228,2,0,L|460:172,1,90,8|0,0:0|0:0,0:0:0:0:
384,68,30571,5,0,1:0:0:0:
334,135,30742,1,0,0:0:0:0:
398,289,30914,1,8,0:0:0:0:
416,145,31085,1,0,0:0:0:0:
366,212,31257,1,0,0:0:0:0:
257,167,31428,1,0,1:0:0:0:
289,244,31600,1,8,0:0:0:0:
307,100,31771,1,0,0:0:0:0:
352,297,31942,6,0,P|369:256|366:212,1,90,0|0,1:0|0:0,0:0:0:0:
200,228,32285,2,0,L|300:248,1,90,8|0,0:0|0:0,0:0:0:0:
280,72,32628,2,0,L|260:172,1,90,0|0,1:0|1:0,0:0:0:0:
232,305,32971,1,8,0:0:0:0:
168,151,33142,1,0,0:0:0:0:
363,83,33314,6,4,L|383:183,1,90,0|0,1:0|0:0,0:0:0:0:
494,255,33657,2,0,P|424:240|381:276,1,90,8|0,0:0|0:0,0:0:0:0:
354,341,34000,2,0,L|454:321,1,90,0|0,0:0|1:0,0:0:0:0:
330,238,34342,2,0,L|241:255,1,90,8|0,0:0|0:0,0:0:0:0:
271,332,34685,5,0,1:0:0:0:
410,246,34857,1,0,0:0:0:0:
204,280,35028,1,8,0:0:0:0:
354,341,35200,1,0,0:0:0:0:
281,246,35371,2,0,P|244:208|180:196,1,90,0|0,0:0|1:0,0:0:0:0:
204,280,35714,1,8,0:0:0:0:
331,179,35885,1,0,0:0:0:0:
177,119,36057,6,0,L|88:144,1,90,0|0,1:0|0:0,0:0:0:0:
69,288,36400,2,0,P|90:243|142:212,1,90,8|0,0:0|0:0,0:0:0:0:
236,357,36742,2,0,L|140:288,1,90,0|0,0:0|1:0,0:0:0:0:
336,223,37085,2,0,P|301:251|283:292,1,90,8|0,0:0|0:0,0:0:0:0:
368,300,37428,5,0,1:0:0:0:
418,233,37600,1,0,0:0:0:0:
304,146,37771,1,8,0:0:0:0:
336,223,37942,1,0,0:0:0:0:
468,166,38114,1,0,0:0:0:0:
381,114,38285,1,0,1:0:0:0:
418,233,38457,1,8,0:0:0:0:
304,146,38628,1,0,0:0:0:0:
326,306,38800,6,0,L|400:376,1,90,0|0,1:0|0:0,0:0:0:0:
260,257,39142,2,0,L|236:356,1,90,0|0,1:0|0:0,0:0:0:0:
271,175,39485,1,0,1:0:0:0:
177,246,39657,1,0,0:0:0:0:
145,169,39828,1,0,1:0:0:0:
126,312,40000,1,0,0:0:0:0:
63,159,40171,6,0,P|88:112|148:88,1,90,0|0,1:0|0:0,0:0:0:0:
251,37,40514,2,0,B|236:84|236:84|248:140,1,90,0|0,1:0|0:0,0:0:0:0:
193,189,40857,1,0,1:0:0:0:
351,272,41028,1,0,0:0:0:0:
225,266,41200,1,0,1:0:0:0:
402,206,41371,1,0,0:0:0:0:
340,354,41542,5,0,1:0:0:0:
214,348,41714,1,0,1:0:0:0:
193,189,41885,1,0,1:0:0:0:
351,272,42057,1,0,1:0:0:0:
182,271,42228,1,0,1:0:0:0:
402,206,42400,1,0,1:0:0:0:
299,337,42571,1,0,1:0:0:0:
231,118,42742,1,0,1:0:0:0:
453,140,42914,5,2,3:0:0:0:
471,161,42999,1,0,3:0:0:0:
482,186,43085,1,0,3:0:0:0:
483,214,43171,1,0,3:0:0:0:
475,241,43256,1,0,3:0:0:0:
459,264,43342,1,0,3:0:0:0:
436,280,43428,1,0,3:0:0:0:
409,288,43513,1,0,3:0:0:0:
384,288,43600,1,0,3:0:0:0:
358,279,43685,1,0,3:0:0:0:
331,275,43771,1,0,3:0:0:0:
304,277,43857,1,0,3:0:0:0:
280,288,43942,1,4,3:0:0:0:
172,30,44285,6,0,L|252:60,1,67.5000025749208,2|0,0:0|0:0,0:0:0:0:
245,214,44628,1,0,0:0:0:0:
240,208,44800,1,0,0:0:0:0:
234,201,44971,2,0,P|222:161|234:113,1,67.5000025749208,2|0,0:0|0:0,0:0:0:0:
316,211,45314,2,0,L|291:287,1,67.5000025749208
176,354,45657,2,0,L|254:337,1,67.5000025749208,2|0,0:0|0:0,0:0:0:0:
443,272,46000,2,0,L|376:285,1,67.5000025749208
284,134,46342,2,0,P|326:129|373:154,1,67.5000025749208,2|0,0:0|0:0,0:0:0:0:
252,279,46685,5,0,0:0:0:0:
260,278,46857,1,0,0:0:0:0:
266,278,47028,2,0,L|314:199,1,67.5000025749208,2|0,0:0|0:0,0:0:0:0:
201,141,47371,2,0,L|293:143,1,67.5000025749208
100,61,47714,2,0,L|136:4,1,67.5000025749208,2|0,0:0|0:0,0:0:0:0:
201,141,48057,2,0,L|108:138,1,67.5000025749208
292,185,48400,6,0,L|210:229,1,67.5000025749208,2|0,0:0|0:0,0:0:0:0:
434,228,48742,2,0,L|375:196,1,67.5000025749208
425,129,49085,1,2,0:0:0:0:
343,119,49257,1,2,0:0:0:0:
325,263,49428,1,2,0:0:0:0:
375,196,49600,1,2,0:0:0:0:
357,340,49771,6,0,P|314:345|269:321,1,67.5000025749208,2|0,0:0|0:0,0:0:0:0:
132,176,50114,1,0,0:0:0:0:
138,173,50285,1,0,0:0:0:0:
144,172,50457,2,0,P|187:167|232:191,1,67.5000025749208,2|0,0:0|0:0,0:0:0:0:
170,250,50800,1,0,0:0:0:0:
61,163,50971,2,0,P|75:123|105:97,1,67.5000025749208,0|2,0:0|0:0,0:0:0:0:
170,250,51314,1,0,0:0:0:0:
144,44,51485,1,0,0:0:0:0:
148,35,51657,1,0,0:0:0:0:
94,239,51828,2,0,L|71:307,2,67.5000025749208,2|0|0,0:0|0:0|0:0,0:0:0:0:
186,106,52342,1,0,0:0:0:0:
204,327,52514,6,0,B|277:305|290:345|351:325,1,135.000005149842,2|0,0:0|0:0,0:0:0:0:
170,250,53028,1,0,0:0:0:0:
166,254,53200,2,0,P|133:291|144:379,1,135.000005149842,2|0,0:0|0:0,0:0:0:0:
136,173,53714,1,0,0:0:0:0:
141,172,53885,2,0,B|189:156|233:194|233:194|278:176,1,135.000005149842,2|0,0:0|0:0,0:0:0:0:
316,113,54400,1,0,0:0:0:0:
350,190,54571,1,2,0:0:0:0:
360,48,54742,1,2,0:0:0:0:
483,133,54914,1,2,0:0:0:0:
442,12,55085,1,2,0:0:0:0:
433,199,55257,6,0,L|429:276,1,67.5000025749208,0|0,1:0|0:0,0:0:0:0:
293,153,55600,2,0,L|357:194,2,67.5000025749208,8|0|0,0:0|0:0|0:0,0:0:0:0:
299,256,56114,1,0,1:0:0:0:
259,76,56285,2,0,P|280:28|302:10,1,67.5000025749208,8|0,0:0|0:0,0:0:0:0:
426,95,56628,2,0,P|405:143|383:161,1,67.5000025749208,0|0,1:0|0:0,0:0:0:0:
278,220,56971,2,0,P|330:214|356:224,1,67.5000025749208,8|0,0:0|0:0,0:0:0:0:
261,364,57314,2,0,P|228:370|195:366,1,67.5000025749208,0|0,0:0|1:0,0:0:0:0:
195,211,57657,1,8,1:0:0:0:
312,297,57828,1,0,0:0:0:0:
245,144,58000,6,0,P|262:97|292:76,1,67.5000025749208,0|0,1:0|0:0,0:0:0:0:
229,288,58342,2,0,L|142:279,1,67.5000025749208,8|0,0:0|0:0,0:0:0:0:
99,142,58685,2,0,L|134:221,1,67.5000025749208,0|0,0:0|1:0,0:0:0:0:
91,333,59028,2,0,P|74:284|85:243,1,67.5000025749208,8|0,2:0|0:0,0:0:0:0:
184,129,59371,2,0,P|172:98|149:75,1,67.5000025749208,0|0,1:0|0:0,0:0:0:0:
326,129,59714,2,0,P|338:98|363:75,1,67.5000025749208,8|0,2:0|0:0,0:0:0:0:
360,206,60057,1,0,0:0:0:0:
428,360,60228,1,0,1:0:0:0:
444,216,60400,1,8,0:0:0:0:
262,342,60571,1,0,0:0:0:0:
326,129,60742,6,0,P|371:123|409:134,1,67.5000025749208,0|0,1:0|0:0,0:0:0:0:
360,206,61085,1,0,1:0:0:0:
228,265,61257,1,0,0:0:0:0:
293,53,61428,2,0,P|244:39|200:49,1,67.5000025749208,0|0,1:0|0:0,0:0:0:0:
243,120,61771,1,0,1:0:0:0:
311,274,61942,2,0,L|342:339,1,67.5000025749208,0|0,0:0|1:0,0:0:0:0:
394,283,62285,1,0,0:0:0:0:
278,198,62457,1,0,1:0:0:0:
158,314,62628,1,0,0:0:0:0:
239,337,62800,1,0,1:0:0:0:
138,234,62971,1,0,0:0:0:0:
299,279,63142,6,0,P|342:257|364:222,1,67.5000025749208,0|0,1:0|0:0,0:0:0:0:
278,198,63485,1,0,1:0:0:0:
138,234,63657,1,0,1:0:0:0:
239,337,63828,1,0,1:0:0:0:
162,149,64000,1,0,1:0:0:0:
78,292,64171,1,0,1:0:0:0:
218,256,64342,1,0,1:0:0:0:
221,96,64514,5,0,1:0:0:0:
159,315,64685,2,0,L|176:389,1,67.5000025749208,2|8,0:1|0:0,0:0:0:0:
314,213,65028,2,0,L|297:287,1,67.5000025749208,2|8,0:1|0:0,0:0:0:0:
121,167,65371,2,0,L|138:241,1,67.5000025749208,2|8,0:1|0:0,0:0:0:0:
219,241,65714,1,2,0:0:0:0:
403,117,65885,1,8,0:0:0:0:
403,125,66057,1,8,0:0:0:0:
436,193,66228,5,0,1:0:0:0:
319,107,66400,1,0,0:0:0:0:
319,107,66485,1,0,0:0:0:0:
319,107,66571,1,0,1:0:0:0:
309,190,66742,1,0,0:0:0:0:
396,74,66914,2,0,L|435:10,1,67.5000025749208,2|0,1:0|0:0,0:0:0:0:
432,152,67257,1,0,1:0:0:0:
236,98,67428,1,0,0:0:0:0:
259,257,67600,5,0,1:0:0:0:
309,190,67771,1,0,0:0:0:0:
309,190,67857,1,0,0:0:0:0:
309,190,67942,1,0,1:0:0:0:
292,333,68114,1,0,0:0:0:0:
145,158,68285,1,2,1:1:0:0:
95,225,68457,1,0,0:0:0:0:
213,208,68628,1,0,1:0:0:0:
246,284,68800,1,0,0:0:0:0:
263,141,68971,5,0,1:0:0:0:
162,274,69142,1,0,0:1:0:0:
230,65,69314,1,0,1:0:0:0:
296,217,69485,1,0,0:1:0:0:
313,74,69657,1,0,1:0:0:0:
331,295,69828,1,0,0:1:0:0:
129,198,70000,1,0,1:0:0:0:
347,151,70171,1,0,0:1:0:0:
191,344,70342,5,2,3:0:0:0:
180,323,70427,1,0,3:0:0:0:
175,301,70513,1,0,3:0:0:0:
177,278,70599,1,0,3:0:0:0:
184,256,70684,1,0,3:0:0:0:
191,235,70770,1,0,3:0:0:0:
200,214,70856,1,0,3:0:0:0:
207,192,70942,1,0,3:0:0:0:
210,171,71028,2,0,L|209:146,7,16.8750006437302,2|0|0|0|0|0|0|0,3:0|3:0|3:0|3:0|3:0|3:0|3:0|3:0,3:0:0:0:
186,126,71370,1,4,3:0:0:0:
415,305,71714,6,0,B|348:292|348:292|276:304,1,135,4|0,3:0|0:0,0:0:0:0:
224,352,72057,2,0,P|232:304|208:244,1,90,4|0,1:0|0:0,0:0:0:0:
187,187,72400,1,0,0:0:0:0:
87,321,72571,1,0,1:0:0:0:
104,178,72742,1,8,0:0:0:0:
304,273,72914,1,0,0:0:0:0:
297,61,73085,6,0,P|344:56|396:80,1,90,2|0,1:0|0:0,1:0:0:0:
363,213,73428,1,10,0:1:0:0:
214,52,73600,2,0,L|120:32,1,90,0|2,0:0|1:0,0:0:0:0:
104,178,73942,1,0,1:0:0:0:
297,61,74114,1,10,1:0:0:0:
281,205,74285,1,0,0:0:0:0:
114,186,74457,6,0,P|76:220|84:316,1,135,4|0,3:0|0:0,0:0:0:0:
98,330,74800,2,0,L|196:330,1,90,4|0,0:0|0:0,0:0:0:0:
271,339,75142,1,0,0:0:0:0:
371,205,75314,1,0,1:0:0:0:
204,289,75485,1,8,0:0:0:0:
338,129,75657,1,0,0:0:0:0:
405,282,75828,6,2,L|440:365,1,90,2|0,1:0|0:0,1:0:0:0:
271,339,76171,1,10,0:1:0:0:
371,205,76342,2,0,P|432:202|464:223,1,90,0|2,0:0|1:0,0:0:0:0:
355,349,76685,1,0,1:0:0:0:
338,129,76857,2,0,L|331:34,1,90,10|0,1:0|0:0,0:0:0:0:
89,102,77200,6,0,P|164:90|244:114,1,135,4|0,3:0|0:0,0:0:0:0:
255,120,77542,2,0,L|261:209,1,90,4|0,0:0|0:0,0:0:0:0:
295,286,77885,1,0,0:0:0:0:
141,354,78057,1,0,1:0:0:0:
227,132,78228,1,8,0:0:0:0:
378,295,78400,1,0,0:0:0:0:
191,287,78571,6,2,P|135:273|95:285,1,90,2|0,1:0|0:0,1:0:0:0:
141,354,78914,1,10,0:1:0:0:
157,195,79085,2,0,L|166:92,1,90,0|2,0:0|1:0,0:0:0:0:
130,28,79428,1,0,1:0:0:0:
107,262,79600,2,0,P|169:279|209:265,1,90,10|0,1:0|0:0,0:0:0:0:
405,122,79942,6,0,P|343:105|303:119,1,90,2|0,1:0|0:0,0:0:0:0:
216,245,80285,2,0,P|261:199|269:158,1,90,10|0,1:0|0:0,0:0:0:0:
201,19,80628,2,0,P|217:81|249:108,1,90,2|0,1:0|1:0,0:0:0:0:
439,199,80971,1,8,0:0:0:0:
473,276,81142,1,0,0:0:0:0:
268,176,81314,6,0,B|141:158|141:158|74:181,1,180,0|8,1:0|0:0,0:0:0:0:
146,240,81828,1,0,0:0:0:0:
318,109,82000,2,0,B|100:79,1,180,0|8,1:0|0:0,0:0:0:0:
146,240,82514,1,0,0:0:0:0:
352,186,82685,6,0,P|393:150|402:92,1,90,4|0,3:0|0:0,0:0:0:0:
302,253,83028,2,0,L|344:348,1,90,4|0,0:0|0:0,0:0:0:0:
385,262,83371,1,0,0:0:0:0:
318,109,83542,1,0,1:0:0:0:
252,320,83714,1,8,0:0:0:0:
419,339,83885,1,0,0:0:0:0:
267,175,84057,6,0,B|239:166|239:166|181:181,1,90,2|0,1:0|0:0,0:0:0:0:
335,329,84400,1,10,0:1:0:0:
404,114,84571,2,0,B|346:99|346:99|312:110,1,90,0|2,0:0|1:0,0:0:0:0:
385,262,84914,1,0,1:0:0:0:
452,52,85085,2,0,L|349:25,1,90,10|0,1:0|0:0,0:0:0:0:
468,271,85428,6,0,P|444:319|361:342,1,135,4|0,3:0|0:0,0:0:0:0:
335,329,85771,2,0,L|295:229,1,90,4|0,0:0|0:0,0:0:0:0:
252,320,86114,1,0,0:0:0:0:
184,166,86285,1,0,1:0:0:0:
84,300,86457,1,8,0:0:0:0:
266,174,86628,1,0,0:0:0:0:
117,13,86800,6,0,L|20:7,1,90,2|0,1:0|0:0,0:0:0:0:
232,97,87142,1,8,0:0:0:0:
135,234,87314,2,0,L|231:240,1,90,0|2,2:0|1:0,2:0:0:0:
177,351,87657,1,0,1:0:0:0:
269,177,87828,2,0,P|320:172|364:192,1,90,10|0,1:0|0:0,0:0:0:0:
303,254,88171,5,0,1:0:0:0:
253,321,88342,1,0,0:0:0:0:
219,244,88514,1,0,1:0:0:0:
142,278,88685,1,0,0:0:0:0:
269,177,88857,1,0,1:0:0:0:
151,193,89028,1,0,0:0:0:0:
253,321,89200,1,0,1:0:0:0:
351,185,89371,1,0,0:0:0:0:
219,244,89542,2,0,L|112:228,1,90,0|0,1:0|0:0,0:0:0:0:
185,167,89885,5,0,1:0:0:0:
302,253,90057,1,0,0:0:0:0:
401,118,90228,1,2,1:0:0:0:
268,176,90400,1,0,0:0:0:0:
385,262,90571,2,0,L|462:314,1,90,2|0,1:0|0:0,0:0:0:0:
302,253,90914,5,0,1:0:0:0:
435,195,91085,1,0,1:0:0:0:
268,176,91257,1,0,1:0:0:0:
252,320,91428,1,0,1:0:0:0:
317,108,91600,1,0,1:0:0:0:
218,243,91771,1,0,1:0:0:0:
385,262,91942,1,0,1:0:0:0:
283,31,92114,1,0,1:0:0:0:
218,243,92285,5,2,3:0:0:0:
191,244,92370,1,0,3:0:0:0:
165,246,92456,1,0,3:0:0:0:
139,248,92542,1,0,3:0:0:0:
113,250,92627,1,0,3:0:0:0:
87,252,92713,1,0,3:0:0:0:
60,254,92799,1,0,3:0:0:0:
34,256,92885,1,0,3:0:0:0:
13,259,92971,2,0,L|37:303,3,45,0|0|0|0,3:0|3:0|3:0|3:0,3:0:0:0:
45,169,93314,2,0,L|14:125,3,45,0|0|0|0,3:0|3:0|3:0|3:0,3:0:0:0:
95,102,93657,6,0,B|179:73|179:73|175:108,2,116.999994644165,6|0|8,1:0|0:0|0:0,0:0:0:0:
168,310,94171,1,0,0:0:0:0:
258,109,94342,2,0,B|271:27|271:27|297:54,2,116.999994644165,2|0|8,0:1|1:0|0:0,0:0:0:0:
329,274,94857,1,0,0:0:0:0:
212,188,95028,5,0,1:0:0:0:
378,206,95200,1,0,0:0:0:0:
162,255,95371,1,8,0:0:0:0:
412,283,95542,1,0,0:0:0:0:
196,332,95714,2,0,B|144:335|144:335|139:342|139:342|132:336|132:336|73:340,1,116.999994644165,0|0,0:0|1:0,0:0:0:0:
296,198,96057,1,8,0:0:0:0:
363,351,96228,1,0,0:0:0:0:
379,207,96400,5,0,1:0:0:0:
412,283,96571,1,0,0:0:0:0:
455,173,96742,1,8,0:0:0:0:
494,292,96914,1,0,0:0:0:0:
387,124,97085,1,0,0:0:0:0:
412,283,97257,1,0,1:0:0:0:
304,115,97428,1,8,0:0:0:0:
329,274,97600,1,0,0:0:0:0:
353,47,97771,5,0,1:0:0:0:
202,180,97942,2,0,P|162:207|211:189,2,135.000005149842,0|8|0,0:0|0:0|0:0,0:0:0:0:
304,115,98457,1,0,0:0:0:0:
329,274,98628,1,0,1:0:0:0:
118,129,98800,1,8,1:0:0:0:
98,156,98885,1,0,1:0:0:0:
88,189,98971,1,0,1:0:0:0:
89,223,99057,1,0,1:0:0:0:
99,254,99142,5,0,1:0:0:0:
296,198,99314,1,0,0:0:0:0:
462,216,99485,1,8,0:0:0:0:
363,351,99657,1,0,0:0:0:0:
202,180,99828,2,0,P|171:210|224:202,2,135.000005149842,2|0|8,0:1|1:0|0:0,0:0:0:0:
378,206,100342,1,0,0:0:0:0:
363,351,100514,5,0,1:0:0:0:
184,207,100685,1,0,0:0:0:0:
344,129,100857,2,0,B|394:126|394:126|401:119|401:119|408:125|408:125|475:121,1,135.000005149842,8|0,0:0|0:0,0:0:0:0:
412,283,101200,1,0,0:0:0:0:
310,52,101371,1,0,1:0:0:0:
246,265,101542,2,0,B|194:268|194:268|189:275|189:275|182:269|182:269|123:273,1,116.999994644165,10|0,1:0|0:0,0:0:0:0:
204,77,101885,6,0,B|208:124|208:124|202:131|202:131|209:136|209:136|212:188,1,116.999994644165,0|0,1:0|0:0,0:0:0:0:
412,283,102228,1,8,0:0:0:0:
344,129,102400,2,0,P|281:86|228:103,1,116.999994644165
128,179,102742,1,0,1:0:0:0:
388,34,102914,2,0,B|389:60|389:60|433:92|427:138,1,116.999994644165,8|0,0:0|0:0,0:0:0:0:
378,206,103257,5,0,1:0:0:0:
247,266,103428,1,0,0:0:0:0:
179,112,103600,2,0,P|213:54|329:70,1,175.499991966248,10|0,0:1|0:0,0:0:0:0:
346,131,103942,2,0,P|277:125|330:56,1,175.499991966248,2|0,1:0|0:0,0:0:0:0:
346,131,104285,2,0,B|247:181|247:181|239:194|239:194|222:193|222:193|185:212,1,175.499991966248,10|0,1:0|0:0,0:0:0:0:
164,257,104628,6,0,B|164:348|164:348|205:326,2,116.999994644165,6|0|8,0:1|0:0|0:0,0:0:0:0:
227,45,105142,1,0,0:0:0:0:
247,266,105314,2,0,B|269:303|269:303|270:383,2,116.999994644165,2|0|8,0:1|1:0|0:0,0:0:0:0:
130,180,105828,1,0,0:0:0:0:
263,122,106000,5,0,1:0:0:0:
164,257,106170,1,0,0:0:0:0:
96,103,106342,1,8,0:0:0:0:
297,199,106514,1,0,0:0:0:0:
87,291,106685,1,0,0:0:0:0:
180,113,106857,1,0,1:0:0:0:
248,267,107028,2,0,P|268:329|322:361,1,116.999994644165,8|0,0:0|0:0,0:0:0:0:
448,362,107371,5,0,1:0:0:0:
362,163,107542,2,0,L|320:313,2,116.999994644165,2|8|0,0:1|0:0|0:0,0:0:0:0:
448,362,108057,1,0,0:0:0:0:
214,190,108228,1,0,1:0:0:0:
445,172,108400,2,0,L|403:322,1,116.999994644165,8|0,0:0|0:0,0:0:0:0:
411,95,108742,5,0,1:0:0:0:
248,267,108914,1,0,0:0:0:0:
229,150,109085,1,8,0:0:0:0:
297,199,109257,1,0,0:0:0:0:
195,74,109428,2,0,B|148:47|102:74|102:74|56:75,1,116.999994644165,2|0,0:1|1:0,0:0:0:0:
142,281,109771,1,8,1:0:0:0:
143,246,109857,1,0,1:0:0:0:
144,211,109943,1,0,1:0:0:0:
145,176,110028,1,0,1:0:0:0:
145,141,110114,5,0,1:0:0:0:
362,92,110285,1,0,0:0:0:0:
229,150,110457,1,0,1:0:0:0:
210,33,110628,1,0,0:0:0:0:
297,199,110800,2,0,P|356:218|412:184,1,116.999994644165,0|0,1:0|0:0,0:0:0:0:
347,132,111142,1,0,1:0:0:0:
219,233,111314,1,0,0:0:0:0:
365,353,111485,5,0,1:0:0:0:
381,209,111657,1,0,0:0:0:0:
253,310,111828,1,0,1:0:0:0:
415,286,112000,1,0,0:0:0:0:
269,166,112171,2,0,P|193:152|148:185,2,116.999994644165,0|0|0,1:0|0:0|1:0,0:0:0:0:
365,353,112685,1,0,0:0:0:0:
219,233,112857,5,0,1:0:0:0:
395,166,113028,1,0,1:0:0:0:
253,310,113200,1,0,1:0:0:0:
186,133,113372,1,0,1:0:0:0:
332,253,113542,1,0,1:0:0:0:
155,319,113714,1,0,1:0:0:0:
269,166,113885,1,0,1:0:0:0:
386,333,114057,1,0,1:0:0:0:
136,200,114228,6,0,L|84:168,3,45,2|0|0|0,3:0|3:0|3:0|3:0,3:0:0:0:
319,99,114571,2,0,L|358:50,1,45,0|0,3:0|3:0,3:0:0:0:
303,243,114742,2,0,L|361:220,1,45,0|0,3:0|3:0,3:0:0:0:
186,157,114914,2,0,L|235:196,1,45,0|0,3:0|3:0,3:0:0:0:
217,359,115085,2,0,L|278:368,1,45,0|0,3:0|3:0,3:0:0:0:
353,176,115257,1,4,3:0:0:0:
134,350,115600,5,0,1:0:0:0:
102,273,115942,1,8,0:0:0:0:
92,279,116113,1,0,0:0:0:0:
84,285,116285,2,0,L|62:188,1,67.5000025749208,0|0,0:0|1:0,0:0:0:0:
132,86,116628,2,0,L|110:183,1,67.5000025749208,8|0,0:0|0:0,0:0:0:0:
210,52,116971,2,0,L|305:22,1,67.5000025749208,0|0,1:0|0:0,0:0:0:0:
201,136,117314,2,0,L|179:233,1,67.5000025749208,8|0,0:0|0:0,0:0:0:0:
339,236,117657,5,0,0:0:0:0:
270,186,117828,1,0,1:0:0:0:
417,202,118000,1,8,0:0:0:0:
429,204,118171,1,0,0:0:0:0:
442,206,118342,2,0,L|416:128,1,67.5000025749208,0|0,1:0|0:0,0:0:0:0:
258,38,118685,2,0,L|284:116,1,67.5000025749208,8|0,0:0|0:0,0:0:0:0:
207,207,119028,2,0,P|242:188|293:191,1,67.5000025749208,0|0,0:0|1:0,0:0:0:0:
281,333,119371,2,0,L|255:255,1,67.5000025749208,8|0,0:0|0:0,0:0:0:0:
407,285,119714,5,0,1:0:0:0:
356,351,119885,1,0,0:0:0:0:
198,323,120057,1,8,0:0:0:0:
300,191,120228,1,0,0:0:0:0:
134,167,120400,2,2,L|108:245,1,67.5000025749208,2|2,0:0|0:2,0:0:0:0:
47,51,120742,2,2,L|73:129,1,67.5000025749208,10|2,0:0|0:0,0:0:0:0:
251,114,121085,6,0,L|170:97,1,67.5000025749208,0|0,1:0|0:0,0:0:0:0:
244,254,121428,1,8,0:0:0:0:
332,127,121600,1,0,0:0:0:0:
326,267,121771,2,0,L|411:283,1,67.5000025749208,0|0,0:0|1:0,0:0:0:0:
437,356,122114,5,8,0:0:0:0:
413,148,122285,2,0,P|384:178|378:224,2,67.5000025749208,0|0|0,0:0|1:0|0:0,0:0:0:0:
383,70,122800,1,8,0:0:0:0:
279,198,122971,1,0,0:0:0:0:
464,83,123142,2,0,P|454:31|428:4,2,67.5000025749208,0|0|8,0:0|1:0|0:0,0:0:0:0:
249,120,123657,5,0,0:0:0:0:
255,120,123828,2,0,B|306:128|306:128|383:175,1,135.000005149842,0|8,1:0|0:0,0:0:0:0:
203,184,124342,1,0,0:0:0:0:
198,180,124514,2,0,P|172:123|223:43,1,135.000005149842,2|8,0:0|0:0,0:0:0:0:
279,198,125028,1,0,0:0:0:0:
276,203,125200,6,0,L|198:318,1,135.000005149842,0|8,1:0|0:0,0:0:0:0:
152,250,125714,1,0,0:0:0:0:
120,174,125885,1,2,0:0:0:0:
252,118,126057,1,2,0:2:0:0:
358,213,126228,1,10,0:0:0:0:
202,184,126400,1,2,0:0:0:0:
185,327,126571,6,0,L|274:344,1,67.5000025749208,0|0,1:0|0:0,0:0:0:0:
316,271,126914,1,8,0:0:0:0:
202,184,127085,1,0,0:0:0:0:
152,250,127257,2,0,L|105:301,1,67.5000025749208,0|0,0:0|1:0,0:0:0:0:
170,108,127600,2,0,L|215:58,1,67.5000025749208,8|0,0:0|0:0,0:0:0:0:
234,260,127942,6,0,L|234:341,1,67.5000025749208,0|0,1:0|0:0,0:0:0:0:
399,283,128285,1,8,0:0:0:0:
419,140,128457,2,0,P|372:125|324:134,1,67.5000025749208
316,271,128800,1,0,1:0:0:0:
305,51,128971,1,8,0:0:0:0:
305,43,129142,1,0,0:0:0:0:
233,259,129314,6,0,P|215:303|182:327,1,67.5000025749208,0|0,1:0|0:0,0:0:0:0:
150,247,129657,1,8,0:0:0:0:
348,349,129828,1,0,0:0:0:0:
284,192,130000,2,0,L|208:177,1,67.5000025749208,0|0,0:0|1:0,0:0:0:0:
266,336,130342,1,8,0:0:0:0:
367,201,130514,1,0,0:0:0:0:
183,327,130685,6,0,L|107:312,1,67.5000025749208,0|0,1:0|0:0,0:0:0:0:
84,93,131028,2,0,P|129:89|176:108,1,67.5000025749208,8|0,0:0|0:0,0:0:0:0:
117,170,131371,5,2,0:0:0:0:
51,16,131542,1,2,0:2:0:0:
251,115,131714,1,10,0:0:0:0:
150,247,131885,1,2,0:0:0:0:
316,265,132057,6,0,P|367:261|404:279,1,67.5000025749208,0|0,1:0|0:0,0:0:0:0:
349,341,132400,1,0,1:0:0:0:
447,207,132571,1,0,0:0:0:0:
481,151,132742,2,0,P|470:182|448:207,1,67.5000025749208,0|0,1:0|0:0,0:0:0:0:
466,63,133085,1,0,1:0:0:0:
365,198,133257,6,0,P|382:260|406:282,1,67.5000025749208,0|0,0:0|1:0,0:0:0:0:
481,284,133600,1,0,0:0:0:0:
332,121,133771,2,0,L|237:103,1,67.5000025749208,0|0,1:0|0:0,0:0:0:0:
185,225,134114,2,0,L|203:130,1,67.5000025749208,0|0,1:0|0:0,0:0:0:0:
297,43,134457,1,0,1:0:0:0:
268,234,134628,1,0,0:0:0:0:
266,241,134800,5,0,1:0:0:0:
102,216,134971,1,0,1:0:0:0:
202,82,135142,1,0,1:0:0:0:
169,265,135314,1,0,1:0:0:0:
351,243,135485,1,0,1:0:0:0:
194,166,135657,1,0,1:0:0:0:
202,341,135828,5,0,1:0:0:0:
270,132,136000,2,0,L|296:70,1,67.5000025749208,2|0,1:0|0:0,0:0:0:0:
345,247,136342,2,0,L|336:180,1,67.5000025749208,2|0,1:0|0:0,0:0:0:0:
467,309,136685,2,0,L|426:255,1,67.5000025749208,2|0,1:0|0:0,0:0:0:0:
320,324,137028,1,0,1:0:0:0:
121,230,137200,1,8,0:0:0:0:
115,227,137371,1,8,0:0:0:0:
219,94,137542,5,0,1:0:0:0:
254,171,137714,1,0,0:0:0:0:
254,171,137800,1,0,0:0:0:0:
254,171,137885,1,0,1:0:0:0:
268,26,138057,1,0,0:0:0:0:
385,111,138228,2,0,P|414:149|420:192,1,90,0|0,1:0|0:0,0:0:0:0:
206,239,138571,1,0,1:0:0:0:
337,179,138742,1,0,0:0:0:0:
289,247,138914,5,0,1:0:0:0:
172,164,139085,1,0,0:0:0:0:
172,164,139171,1,0,0:0:0:0:
172,164,139257,1,0,1:0:0:0:
323,322,139428,1,0,0:0:0:0:
385,111,139600,2,0,P|304:105|257:181,1,180,0|0,1:0|1:0,0:0:0:0:
406,330,140114,1,0,0:0:0:0:
331,239,140285,5,0,1:0:0:0:
199,297,140457,1,0,1:0:0:0:
296,163,140628,1,0,1:0:0:0:
365,314,140800,1,0,1:0:0:0:
221,198,140971,1,0,1:0:0:0:
406,204,141142,1,0,1:0:0:0:
304,82,141314,1,0,1:0:0:0:
282,306,141485,1,0,1:0:0:0:
85,214,141657,6,0,L|37:192,3,45
217,155,142000,2,0,L|212:102,3,45
109,90,142342,2,0,L|101:70,6,22.5
168,222,142685,1,0,0:0:0:0:
168,222,143028,6,0,L|224:344,1,135,4|0,3:0|0:0,0:0:0:0:
275,278,143371,2,0,P|226:262|180:275,1,90,4|0,0:0|0:0,0:0:0:0:
309,355,143714,1,0,0:0:0:0:
325,211,143885,1,0,1:0:0:0:
392,364,144057,1,8,0:0:0:0:
192,269,144228,1,0,0:0:0:0:
375,144,144400,6,0,P|407:183|408:233,1,90,2|0,1:0|0:0,0:0:0:0:
192,269,144742,2,0,P|209:221|252:195,2,90,10|0|2,1:0|0:0|0:1,0:0:0:0:
359,288,145257,1,0,1:0:0:0:
464,151,145428,2,0,L|374:143,1,90,10|0,0:1|0:0,0:0:0:0:
123,113,145771,6,0,P|156:56|208:41,1,90,4|0,3:0|0:0,0:0:0:0:
191,267,146114,2,0,L|98:272,1,90,4|0,0:0|0:0,0:0:0:0:
225,344,146457,1,0,0:0:0:0:
157,190,146628,1,0,1:0:0:0:
323,208,146800,1,8,0:0:0:0:
142,335,146971,1,0,0:0:0:0:
289,131,147142,6,0,L|399:145,1,90,2|0,1:0|0:0,0:0:0:0:
239,198,147485,1,10,0:1:0:0:
428,75,147657,2,0,P|457:125|457:170,1,90,0|2,0:0|0:1,0:0:0:0:
255,54,148000,1,0,1:0:0:0:
323,208,148171,2,0,L|365:310,1,90,10|0,0:1|0:0,0:0:0:0:
157,190,148514,6,0,L|266:203,1,90,4|0,3:0|0:0,0:0:0:0:
174,45,148857,2,0,P|132:28|89:36,1,90,4|0,0:0|0:0,0:0:0:0:
246,200,149200,1,0,0:0:0:0:
107,257,149371,1,0,1:0:0:0:
40,104,149542,1,8,0:0:0:0:
208,122,149714,1,0,0:0:0:0:
223,342,149885,6,0,L|124:332,1,90,2|0,1:0|0:0,0:0:0:0:
240,199,150228,1,10,0:1:0:0:
257,54,150400,2,0,P|212:40|159:59,1,90,0|2,0:0|0:1,0:0:0:0:
190,266,150742,1,0,1:0:0:0:
406,217,150914,1,10,0:1:0:0:
372,140,151085,1,0,0:0:0:0:
356,284,151257,6,0,L|396:376,1,90,4|0,3:0|0:0,0:0:0:0:
422,73,151600,2,0,P|362:57|310:84,1,90,4|0,0:0|0:0,0:0:0:0:
156,189,151942,2,0,P|215:204|267:177,1,90,0|0,0:0|1:0,0:0:0:0:
135,68,152285,2,0,P|120:132|155:188,1,135,8|0,0:0|0:0,0:0:0:0:
202,119,152628,6,0,L|20:149,1,180,0|10,1:0|0:0,0:0:0:0:
186,263,153142,1,0,0:3:0:0:
252,52,153314,2,0,B|382:79|382:79|331:90,1,180,0|8,1:0|0:0,0:0:0:0:
354,283,153828,1,0,0:0:0:0:
354,283,154000,6,0,L|264:272,1,90,4|0,3:0|0:0,0:0:0:0:
388,361,154342,2,0,P|428:332|440:272,1,90,4|0,0:0|0:0,0:0:0:0:
236,194,154685,1,0,0:0:0:0:
303,350,154857,1,0,1:0:0:0:
404,215,155028,1,8,0:0:0:0:
202,117,155200,1,0,0:0:0:0:
270,273,155371,6,0,L|368:288,1,90,2|0,1:0|0:0,0:0:0:0:
338,59,155714,2,0,P|296:43|252:49,1,90,10|0,0:1|0:0,0:0:0:0:
236,196,156057,2,0,P|228:152|201:116,1,90,2|0,0:1|1:0,0:0:0:0:
138,332,156400,2,0,L|233:342,1,90,10|0,0:1|0:0,0:0:0:0:
152,186,156742,6,0,B|122:251|122:251|82:260|62:303,1,135,4|0,3:0|0:0,0:0:0:0:
68,372,157085,2,0,P|58:333|76:279,1,90,4|0,0:0|0:0,0:0:0:0:
236,196,157428,1,0,0:0:0:0:
138,332,157600,1,0,1:0:0:0:
68,176,157771,1,8,0:0:0:0:
251,88,157942,1,0,0:0:0:0:
354,284,158114,6,0,L|298:359,1,90,2|0,1:0|0:0,0:0:0:0:
189,265,158457,1,10,0:1:0:0:
405,217,158628,2,0,P|437:263|429:325,1,90,0|2,0:0|1:0,0:0:0:0:
388,362,158971,1,0,1:0:0:0:
371,140,159142,2,0,L|431:68,1,90,10|0,0:1|0:0,0:0:0:0:
405,217,159485,6,0,P|352:225|311:197,1,90,0|0,1:0|0:0,0:0:0:0:
337,63,159828,1,0,1:0:0:0:
321,208,160000,1,0,0:0:0:0:
254,54,160171,1,0,1:0:0:0:
239,199,160342,1,0,0:0:0:0:
177,88,160514,1,0,1:0:0:0:
372,140,160685,1,0,0:0:0:0:
273,276,160857,6,0,L|316:367,2,90,0|0|0,1:0|0:0|1:0,0:0:0:0:
288,131,161371,1,0,0:0:0:0:
273,276,161543,1,0,1:0:0:0:
322,208,161714,1,0,2:0:0:0:
224,344,161885,2,0,L|120:331,1,90,0|0,1:0|0:0,0:0:0:0:
308,354,162228,5,0,1:0:0:0:
322,208,162400,1,0,1:0:0:0:
190,267,162571,1,0,1:0:0:0:
356,285,162742,1,0,1:0:0:0:
288,131,162914,1,0,1:0:0:0:
224,344,163085,1,0,1:0:0:0:
439,293,163257,1,0,1:0:0:0:
272,275,163428,1,0,1:0:0:0:
140,335,163600,5,2,3:0:0:0:
131,314,163685,1,0,3:0:0:0:
122,293,163771,1,0,3:0:0:0:
113,273,163857,1,0,3:0:0:0:
104,252,163942,1,0,3:0:0:0:
95,231,164028,1,0,3:0:0:0:
86,211,164114,1,0,3:0:0:0:
77,190,164200,1,0,3:0:0:0:
67,170,164285,2,0,L|124:176,1,45,0|0,3:0|3:0,3:0:0:0:
272,275,164457,2,0,L|215:281,1,45,0|0,3:0|3:0,3:0:0:0:
400,104,164628,1,4,3:0:0:0:
213,28,164971,5,0,1:0:0:0:
256,192,180057,12,0,181428,0:0:0:0:
288,160,181600,6,0,L|316:119,2,33.7500012874604
239,228,181942,1,0,0:0:0:0:
254,84,182114,2,0,P|164:57|107:78,1,135.000005149842
119,71,182628,1,0,0:0:0:0:
239,228,182971,5,0,0:0:0:0:
239,228,183057,1,0,0:0:0:0:
239,228,183142,1,0,0:0:0:0:
273,304,183314,1,0,0:0:0:0:
288,160,183485,2,0,P|378:133|435:154,1,135.000005149842
300,53,184000,1,0,0:0:0:0:
239,228,184171,6,0,B|190:205|190:205|87:216,1,135.000005149842,2|0,0:0|0:0,0:0:0:0:
190,296,184685,1,0,0:0:0:0:
8,90,184857,2,0,P|80:134|144:128,1,135.000005149842,2|0,0:0|0:0,0:0:0:0:
261,73,185371,1,0,0:0:0:0:
363,301,185542,2,0,B|313:319|255:296|244:243|193:167|119:210|58:302|115:395|212:371|248:377|300:214,1,540.000020599366,2|0,0:0|0:0,0:0:0:0:
288,124,189657,6,0,P|344:120|372:132,1,67.5000025749208,2|0,0:0|0:0,0:0:0:0:
320,66,190000,2,0,P|351:112|355:142,1,67.5000025749208
239,191,190342,1,2,0:0:0:0:
205,115,190514,1,0,0:0:0:0:
322,200,190685,1,0,0:0:0:0:
273,267,190857,1,0,0:0:0:0:
288,124,191028,6,0,L|337:59,1,67.5000025749208,2|0,0:0|0:0,0:0:0:0:
273,267,191371,2,0,L|232:320,1,67.5000025749208
370,132,191714,2,0,P|400:167|407:201,1,67.5000025749208,2|0,0:0|0:0,0:0:0:0:
190,258,192057,2,0,P|160:223|153:189,1,67.5000025749208
205,115,192400,6,0,L|155:170,1,67.5000025749208,2|0,0:0|0:0,0:0:0:0:
171,39,192742,2,0,L|121:94,1,67.5000025749208
239,191,193085,1,2,0:0:0:0:
322,200,193257,1,0,0:0:0:0:
205,115,193428,1,0,0:0:0:0:
157,183,193600,1,0,0:0:0:0:
288,124,193771,6,0,L|356:92,1,67.5000025749208,2|0,0:0|0:0,0:0:0:0:
283,255,194114,2,0,L|325:193,1,67.5000025749208
157,183,194457,2,0,L|89:151,1,67.5000025749208,2|0,0:0|0:0,0:0:0:0:
162,314,194800,2,0,L|119:252,1,67.5000025749208
300,284,195142,6,0,L|238:326,1,67.5000025749208,2|0,0:0|0:0,0:0:0:0:
266,208,195485,2,0,P|319:202|351:216,1,67.5000025749208
334,360,195828,1,2,0:0:0:0:
218,276,196000,1,0,0:0:0:0:
300,284,196171,1,0,0:0:0:0:
142,310,196342,1,0,0:0:0:0:
276,73,196514,2,0,L|264:221,2,135.000005149842,2|0|2,0:0|0:0|0:0,0:0:0:0:
276,73,197542,5,0,0:0:0:0:
318,78,197714,1,0,0:0:0:0:
359,82,197885,2,0,L|347:230,2,135.000005149842,2|0|2,0:0|0:0|0:0,0:0:0:0:
359,82,198914,1,0,0:0:0:0:
348,216,199086,1,0,0:0:0:0:
246,36,199257,2,0,P|311:35|358:81,1,135.000005149842,2|0,2:0|2:0,2:0:0:0:
441,90,199771,1,0,2:0:0:0:
281,114,199942,2,0,L|261:266,1,135.000005149842,2|0,0:0|0:0,0:0:0:0:
246,36,200628,6,0,L|236:107,1,67.5000025749208,2|0,0:0|0:0,0:0:0:0:
141,216,200971,2,0,P|159:187|187:169,1,67.5000025749208
221,245,201314,1,2,0:0:0:0:
270,177,201485,1,0,0:0:0:0:
255,322,201657,1,0,0:0:0:0:
187,168,201828,1,0,0:0:0:0:
353,186,202000,6,0,P|398:204|423:241,1,67.5000025749208,2|0,0:0|0:0,0:0:0:0:
312,353,202342,2,0,P|267:335|242:298,1,67.5000025749208
356,169,202685,2,0,P|410:191|431:221,1,67.5000025749208,2|0,0:0|0:0,0:0:0:0:
308,369,203028,2,0,P|254:347|232:316,1,67.5000025749208
78,208,203371,6,0,P|131:229|154:261,1,67.5000025749208,2|0,0:0|0:0,0:0:0:0:
58,357,203714,2,0,L|68:291,1,67.5000025749208
88,125,204057,1,2,0:0:0:0:
156,175,204228,1,0,0:0:0:0:
10,158,204400,1,0,0:0:0:0:
224,225,204571,1,0,0:0:0:0:
88,125,204742,6,0,L|33:85,1,67.5000025749208,2|0,0:0|0:0,0:0:0:0:
173,24,205085,2,0,L|166:92,1,67.5000025749208
295,114,205428,2,0,L|233:141,1,67.5000025749208,2|0,0:0|0:0,0:0:0:0:
278,264,205771,2,0,L|223:224,1,67.5000025749208
327,195,206114,5,0,1:0:0:0:
345,314,206285,1,0,0:0:0:0:
394,245,206457,1,0,1:0:0:0:
227,331,206628,1,0,0:0:0:0:
211,214,206800,2,0,L|266:140,2,67.5000025749208,0|0|0,1:0|0:0|1:0,0:0:0:0:
160,281,207314,1,0,0:0:0:0:
185,111,207485,6,0,L|144:164,1,67.5000025749208,0|0,1:0|0:0,0:0:0:0:
278,264,207828,1,0,1:0:0:0:
260,145,208000,1,0,0:0:0:0:
328,195,208171,1,0,1:0:0:0:
336,111,208342,1,0,0:0:0:0:
211,214,208514,2,0,P|194:268|204:304,1,67.5000025749208,0|0,1:0|0:0,0:0:0:0:
144,164,208857,5,0,1:0:0:0:
278,264,209028,1,0,1:0:0:0:
221,131,209200,1,0,1:0:0:0:
126,330,209371,1,0,1:0:0:0:
278,264,209542,1,0,1:0:0:0:
134,248,209713,1,0,1:0:0:0:
313,340,209885,1,0,1:0:0:0:
296,98,210056,1,0,1:0:0:0:
99,169,210228,6,0,P|51:216|183:276,1,270.000010299683,0|0,1:0|3:0,0:0:0:0:
185,343,211000,1,0,2:0:0:0:
207,347,211085,1,0,2:0:0:0:
231,349,211171,1,0,2:0:0:0:
255,348,211257,1,0,2:0:0:0:
279,343,211342,1,0,2:0:0:0:
302,336,211428,1,0,2:0:0:0:
324,326,211514,1,0,2:0:0:0:
353,299,211600,6,0,P|277:264|199:273,2,135.000005149842,6|0|8,1:0|0:0|0:0,0:0:0:0:
251,178,212114,1,0,0:0:0:0:
328,88,212285,2,0,P|335:171|382:234,2,135.000005149842,2|0|8,0:1|1:0|0:0,0:0:0:0:
251,178,212800,1,0,0:0:0:0:
174,211,212971,5,0,1:0:0:0:
260,94,213142,1,0,0:0:0:0:
107,161,213314,1,8,0:0:0:0:
319,229,213485,1,0,0:0:0:0:
184,128,213657,1,0,0:0:0:0:
187,323,213828,2,0,P|250:342|308:311,1,135.000005149842,0|8,1:0|0:0,0:0:0:0:
260,94,214171,1,0,0:0:0:0:
318,228,214342,5,0,1:0:0:0:
327,144,214514,1,0,0:0:0:0:
402,238,214685,1,8,0:0:0:0:
411,154,214857,1,0,0:0:0:0:
352,305,215028,1,0,0:0:0:0:
376,76,215200,1,0,1:0:0:0:
484,316,215371,2,0,B|443:312|443:312|436:316|436:316|428:311|428:311|352:305,1,135.000005149842,8|0,0:0|0:0,0:0:0:0:
258,94,215714,5,0,1:0:0:0:
146,307,215885,2,0,P|125:352|161:319,2,135.000005149842,2|8|0,0:1|0:0|0:0,0:0:0:0:
268,138,216400,2,0,P|277:68|235:14,1,135.000005149842,2|0,0:1|1:0,0:0:0:0:
288,293,216742,1,0,1:0:0:0:
321,290,216827,1,0,1:0:0:0:
350,274,216913,1,0,1:0:0:0:
371,248,216999,1,0,1:0:0:0:
379,215,217084,5,0,1:0:0:0:
201,88,217257,2,0,B|194:143|194:143|189:149|189:149|193:155|193:155|184:224,2,135.000005149842,2|8|0,0:1|0:0|0:0,0:0:0:0:
82,182,217771,1,0,2:0:0:0:
299,211,217942,1,0,1:0:0:0:
314,65,218114,2,0,P|251:47|194:112,1,135.000005149842,10|0,0:1|0:0,0:0:0:0:
433,154,218457,5,0,0:0:0:0:
451,11,218628,1,0,1:0:0:0:
267,134,218800,1,8,0:0:0:0:
400,77,218971,1,0,0:0:0:0:
332,288,219142,2,0,P|311:333|347:300,2,135.000005149842,2|0|8,0:1|1:0|0:0,0:0:0:0:
443,346,219657,1,0,0:0:0:0:
198,344,219828,6,0,B|156:336|156:336|131:343|131:343|106:337|106:337|43:352,1,135.000005149842,0|0,1:0|0:0,0:0:0:0:
249,278,220171,1,8,0:0:0:0:
50,181,220342,2,0,P|73:255|165:267,1,135.000005149842
300,212,220685,1,0,1:0:0:0:
152,49,220857,2,0,B|80:49|80:49|60:85|55:107,1,135.000005149842,8|0,0:0|0:0,0:0:0:0:
352,149,221200,2,0,L|486:164,1,135.000005149842,0|0,1:0|0:0,0:0:0:0:
297,285,221542,6,0,B|257:301|257:301|216:275|216:275|96:261,1,202.500007724762,10|0,0:1|0:0,0:0:0:0:
51,316,221885,2,0,P|42:223|131:192,1,202.500007724762,2|0,1:0|0:0,0:0:0:0:
128,297,222228,2,0,B|107:262|107:262|156:282|156:282|264:294,1,202.500007724762,10|0,1:0|0:0,0:0:0:0:
295,359,222571,6,0,B|326:263|326:263|290:282,2,135.000005149842,6|0|8,1:0|0:0|0:0,0:0:0:0:
342,165,223085,1,0,0:0:0:0:
448,334,223257,2,0,B|473:357|473:357|372:357,2,135.000005149842,2|0|8,0:1|1:0|0:0,0:0:0:0:
265,199,223771,1,0,0:0:0:0:
343,163,223942,5,0,1:0:0:0:
258,284,224114,1,0,0:0:0:0:
195,151,224285,1,8,0:0:0:0:
350,78,224457,1,0,0:0:0:0:
188,236,224628,1,0,0:0:0:0:
22,88,224800,2,0,P|78:53|143:68,1,135.000005149842,0|8,1:0|0:0,0:0:0:0:
259,155,225142,1,0,0:0:0:0:
92,134,225314,5,0,1:0:0:0:
204,356,225485,1,0,0:0:0:0:
335,365,225657,2,0,B|282:361|282:361|271:366|271:366|262:360|262:360|204:356,1,135.000005149842,8|0,0:0|0:0,0:0:0:0:
407,155,226000,1,0,0:0:0:0:
137,261,226171,1,0,1:0:0:0:
268,270,226342,2,0,B|215:266|215:266|204:271|204:271|195:265|195:265|137:261,1,135.000005149842,8|0,0:0|0:0,0:0:0:0:
137,70,226685,5,0,1:0:0:0:
60,234,226857,2,0,P|61:290|130:345,2,135.000005149842,0|8|0,0:0|0:0|0:0,0:0:0:0:
250,360,227371,2,0,P|177:348|83:340,1,135.000005149842,0|0,0:0|1:0,0:0:0:0:
236,138,227714,1,8,1:0:0:0:
231,171,227799,1,0,1:0:0:0:
227,205,227885,1,0,1:0:0:0:
223,238,227971,1,0,1:0:0:0:
219,272,228056,5,0,1:0:0:0:
346,218,228228,1,0,0:0:0:0:
294,283,228400,1,0,1:0:0:0:
236,138,228571,1,0,0:0:0:0:
397,152,228742,1,0,1:0:0:0:
282,62,228914,1,0,0:0:0:0:
448,86,229085,2,0,P|478:130|478:177,1,90,0|0,1:0|0:0,0:0:0:0:
263,206,229428,5,0,1:0:0:0:
365,74,229600,1,0,0:0:0:0:
346,218,229771,1,0,1:0:0:0:
231,128,229942,1,0,0:0:0:0:
295,284,230114,2,0,L|404:307,2,90,2|0|0,1:0|0:0|1:0,0:0:0:0:
314,140,230628,1,0,0:0:0:0:
212,272,230800,5,0,1:0:0:0:
346,218,230971,1,0,1:0:0:0:
327,362,231142,1,0,1:0:0:0:
263,206,231314,1,0,1:0:0:0:
160,337,231485,1,0,1:0:0:0:
378,296,231657,1,0,1:0:0:0:
231,128,231828,1,0,1:0:0:0:
244,349,232000,1,0,1:0:0:0:
429,229,232171,6,0,P|398:212|355:214,1,45,2|0,3:0|3:0,3:0:0:0:
226,180,232342,2,0,P|253:202|296:207,1,45,0|0,3:0|3:0,3:0:0:0:
414,246,232514,6,0,P|404:226|388:210,1,45,0|0,3:0|3:0,3:0:0:0:
209,238,232685,2,0,P|242:249|284:239,1,45,0|0,3:0|3:0,3:0:0:0:
392,254,232857,6,0,P|394:232|388:210,1,45,0|0,3:0|3:0,3:0:0:0:
209,301,233028,2,0,P|244:300|280:276,1,45,0|0,3:0|3:0,3:0:0:0:
429,229,233200,1,4,3:0:0:0:
429,229,233542,6,0,P|398:246|347:242,1,67.5000025749208
199,304,233885,2,0,P|230:287|281:291,1,67.5000025749208
381,184,234228,2,0,P|380:219|351:261,1,67.5000025749208
199,304,234571,2,0,P|217:273|263:251,1,67.5000025749208
381,184,234914,6,0,L|293:199,1,67.5000025749208
186,112,235257,2,0,L|274:127,1,67.5000025749208
243,256,235600,2,0,L|155:271,1,67.5000025749208
48,184,235943,2,0,L|136:199,1,67.5000025749208
199,75,236285,6,0,L|184:163,1,67.5000025749208
282,97,236628,2,0,L|297:185,1,67.5000025749208
384,72,236971,1,0,0:0:0:0:
384,72,237142,1,0,0:0:0:0:
384,72,237314,2,0,L|369:160,1,67.5000025749208
459,232,237657,6,0,L|444:144,1,67.5000025749208
360,282,238000,2,0,L|391:198,1,67.5000025749208
249,275,238342,2,0,L|317:218,1,67.5000025749208
156,213,238685,2,0,L|244:198,1,67.5000025749208
168,64,239028,6,0,L|183:152,1,67.5000025749208
89,212,239371,2,0,P|143:216|173:204,1,67.5000025749208
245,131,239714,2,0,P|191:127|161:139,1,67.5000025749208
166,279,240057,2,0,L|151:191,1,67.5000025749208
190,63,240400,6,0,L|175:151,1,67.5000025749208
322,63,240742,2,0,L|337:151,1,67.5000025749208
190,63,241085,6,0,L|175:151,1,67.5000025749208
322,63,241428,2,0,L|337:151,1,67.5000025749208
469,172,241771,6,0,P|422:187|378:181,1,67.5000025749208
268,144,242114,2,0,P|315:129|359:135,1,67.5000025749208
467,206,242457,2,0,P|418:195|383:168,1,67.5000025749208
219,189,242800,2,0,P|252:152|293:135,1,67.5000025749208
277,287,243142,6,0,P|292:244|283:204,1,67.5000025749208
277,287,243485,6,0,P|302:307|324:311,1,53.9999983520508
277,287,243828,6,0,P|234:268|185:260,1,90
192,261,244514,6,0,B|174:234|174:234|140:242|140:242|56:219|56:219|88:163|192:157|192:157|247:187,1,360
235,180,247257,2,0,B|302:215|302:215|333:268|303:319,2,180
204,156,250000,2,0,B|230:88|105:2|31:116|84:190|84:190|137:264|217:252|278:359|278:359|297:239|378:226|408:147|408:147|434:65|336:-34|222:94|293:149,1,1080
256,192,254200,12,0,255485,0:0:0:0:
