osu file format v14

[General]
AudioFilename: rakuyoudensefuk.mp3
AudioLeadIn: 0
PreviewTime: 71542
Countdown: 0
SampleSet: Soft
StackLeniency: 0.4
Mode: 0
LetterboxInBreaks: 0
WidescreenStoryboard: 1

[Editor]
Bookmarks: 38801,44286
DistanceSpacing: 0.6
BeatDivisor: 4
GridSize: 4
TimelineZoom: 1.7

[Metadata]
Title:Taisetsu no Tsukurikata (Asterisk remix)
TitleUnicode:Taisetsu no Tsukurikata (Asterisk remix)
Artist:Touyama Nao & Hanazawa Kana
ArtistUnicode:Touyama Nao & Hanazawa Kana
Creator:N0thingSpecial
Version:Another
Source:Nisekoi
Tags:Kosaki Onodera Chitoge Kirisaki ニセコイ false love raku why you so dense muu chan
BeatmapID:944347
BeatmapSetID:388825

[Difficulty]
HPDrainRate:6
CircleSize:4
OverallDifficulty:7
ApproachRate:9
SliderMultiplier:1.7
SliderTickRate:2

[Events]
//Background and Video events
0,0,"pink_pixel_wallpaper_full_desktop_1920x1080_by_cupcakekitten20-d5ck0ul.jpg",0,0
//Break Periods
2,165171,179457
2,187113,189057
//Storyboard Layer 0 (Background)
//Storyboard Layer 1 (Fail)
//Storyboard Layer 2 (Pass)
//Storyboard Layer 3 (Foreground)
//Storyboard Sound Samples

[TimingPoints]
400,342.857142857143,4,3,0,20,1,0
11371,-133.333333333333,4,2,0,35,0,0
22342,-100,4,2,0,35,0,0
47200,-100,4,2,0,5,0,0
47371,-100,4,2,0,35,0,0
47542,-100,4,2,0,5,0,0
47714,-100,4,2,0,35,0,0
47885,-100,4,2,0,5,0,0
48057,-100,4,2,0,35,0,0
48228,-100,4,2,0,5,0,0
48400,-100,4,2,0,35,0,0
58685,-111.111111111111,4,2,0,35,0,0
59371,-125,4,2,0,35,0,0
60057,-100,4,2,0,35,0,0
93657,-66.6666666666667,4,2,0,35,0,1
114571,-100,4,2,0,35,0,1
115942,-100,4,2,0,35,0,0
189657,-133.333333333333,4,2,0,35,0,0
211600,-66.6666666666667,4,2,0,35,0,1
232514,-100,4,2,0,35,0,1
233371,-100,4,2,0,35,0,0
241771,-133.333333333333,4,2,0,35,0,0
244514,-166.666666666667,4,2,0,35,0,0

[Colours]
Combo1 : 255,192,0
Combo2 : 255,0,255
Combo3 : 255,17,130
Combo4 : 0,255,255

[HitObjects]
372,84,11371,6,0,P|356:124|357:161,1,63.7500024318696,2|0,0:0|0:0,0:0:0:0:
353,291,11714,2,0,P|320:244|321:213,2,63.7500024318696,0|0|0,0:0|0:0|0:0,0:0:0:0:
404,224,12228,1,0,0:0:0:0:
354,148,12400,1,0,0:0:0:0:
272,152,12571,1,0,0:0:0:0:
236,228,12742,6,0,B|178:281,1,63.7500024318696,0|0,0:0|0:0,0:0:0:0:
164,200,13085,2,0,B|89:179,1,63.7500024318696,0|0,0:0|0:0,0:0:0:0:
184,100,13428,1,0,0:0:0:0:
280,60,13600,1,0,0:0:0:0:
264,164,13771,1,0,0:0:0:0:
184,100,13942,1,0,0:0:0:0:
356,228,14114,6,0,P|372:184|372:154,1,63.7500024318696,2|0,0:0|0:0,0:0:0:0:
344,324,14457,2,0,P|390:315|417:299,2,67.5000025749208,0|0|0,0:0|0:0|0:0,0:0:0:0:
264,164,14971,2,0,P|217:172|194:187,1,63.7500024318696,0|0,0:0|0:0,0:0:0:0:
304,244,15314,1,0,0:0:0:0:
360,172,15485,5,0,0:0:0:0:
408,100,15657,1,0,0:0:0:0:
264,164,15828,1,0,0:0:0:0:
304,244,16000,1,0,0:0:0:0:
452,180,16171,2,0,P|480:152|495:115,1,63.7500024318696,0|0,0:0|0:0,0:0:0:0:
392,260,16514,2,0,P|430:270|467:265,1,63.7500024318696,0|0,0:0|0:0,0:0:0:0:
304,244,16857,6,0,P|310:276|336:310,1,63.7500024318696,2|0,0:0|0:0,0:0:0:0:
464,352,17200,2,0,P|425:341|387:346,1,63.7500024318696,0|0,0:0|0:0,0:0:0:0:
392,260,17542,1,0,0:0:0:0:
410,269,17714,1,0,0:0:0:0:
368,172,17885,1,0,0:0:0:0:
388,170,18057,1,0,0:0:0:0:
332,80,18228,6,0,B|296:104|296:104|281:149,1,63.7500024318696,2|0,0:0|0:0,0:0:0:0:
332,80,18571,2,0,B|329:36|329:36|298:2,1,63.7500024318696,0|0,0:0|0:0,0:0:0:0:
428,96,18914,1,0,0:0:0:0:
446,104,19086,1,0,0:0:0:0:
368,172,19257,1,0,0:0:0:0:
379,188,19428,1,0,0:0:0:0:
284,116,19599,5,2,0:0:0:0:
208,60,19771,1,0,0:0:0:0:
294,22,19942,1,0,0:0:0:0:
274,210,20114,1,2,0:0:0:0:
198,154,20285,1,0,0:0:0:0:
370,78,20457,1,2,0:0:0:0:
360,172,20628,1,2,0:0:0:0:
284,116,20800,1,2,0:0:0:0:
256,192,20971,12,10,22000,0:2:0:0:
256,280,22342,6,0,B|280:264|296:240|296:240|345:252|372:242|408:200,1,170,0|8,1:0|0:0,0:0:0:0:
328,160,22857,1,0,0:0:0:0:
304,76,23028,2,0,B|244:76|208:52|208:52|148:116,1,180,0|0,0:0|0:0,0:0:0:0:
68,140,23542,1,0,0:0:0:0:
120,300,23714,5,0,1:0:0:0:
141,307,23799,1,0,0:0:0:0:
162,310,23885,1,0,0:0:0:0:
184,307,23971,1,0,0:0:0:0:
208,304,24057,2,0,B|252:308|272:292|272:292|316:284,1,85,8|0,0:0|0:0,0:0:0:0:
404,280,24400,2,0,P|392:228|360:196,2,90,0|0|0,0:0|0:0|0:0,0:0:0:0:
348,376,24914,1,0,0:0:0:0:
292,284,25085,6,0,B|260:220|260:220|220:208|220:208|192:152,1,170,0|8,1:0|0:0,0:0:0:0:
128,72,25600,1,0,0:0:0:0:
36,104,25771,2,0,B|12:144|12:144|48:232|48:232|16:288,1,180,0|0,0:0|0:0,0:0:0:0:
124,304,26285,1,0,0:0:0:0:
208,256,26457,5,0,1:0:0:0:
226,242,26542,1,0,0:0:0:0:
246,234,26628,1,0,0:0:0:0:
269,230,26714,1,0,0:0:0:0:
291,231,26799,1,8,0:0:0:0:
408,288,26971,1,0,0:0:0:0:
392,152,27142,2,0,P|394:110|416:68,2,85,0|0|8,0:0|1:0|0:0,0:0:0:0:
512,204,27657,1,0,0:0:0:0:
356,224,27828,6,0,B|320:192|320:192|312:148,1,85,0|0,1:0|0:0,0:0:0:0:
392,152,28171,1,8,0:0:0:0:
401,292,28342,1,0,0:0:0:0:
446,360,28514,2,0,B|398:370|398:370|354:354,1,85,0|0,0:0|1:0,0:0:0:0:
481,287,28857,1,8,0:0:0:0:
345,350,29028,1,0,0:0:0:0:
241,302,29200,6,0,B|249:254|249:254|281:226,2,85,0|0|8,1:0|0:0|0:0,0:0:0:0:
401,292,29714,1,0,0:0:0:0:
205,374,29885,2,0,B|173:342|173:342|161:290,1,85,0|0,0:0|1:0,0:0:0:0:
285,369,30228,1,8,0:0:0:0:
196,234,30400,1,0,0:0:0:0:
151,166,30571,6,0,P|117:208|116:252,1,85,0|0,1:0|0:0,0:0:0:0:
160,306,30914,1,8,0:0:0:0:
276,229,31086,1,0,0:0:0:0:
232,162,31257,2,0,P|216:118|187:92,1,85,0|0,0:0|1:0,0:0:0:0:
106,98,31600,1,8,0:0:0:0:
196,234,31771,1,0,0:0:0:0:
276,229,31942,6,0,P|308:193|312:145,1,85,0|0,1:0|0:0,0:0:0:0:
232,162,32286,1,8,0:0:0:0:
240,301,32457,1,0,0:0:0:0:
321,297,32628,2,0,P|349:261|357:221,1,85,0|0,1:0|1:0,0:0:0:0:
196,234,32971,1,8,0:0:0:0:
285,369,33142,1,0,0:0:0:0:
113,235,33314,6,0,L|85:179,2,42.5,0|0|0,1:0|0:0|0:0,0:0:0:0:
240,301,33657,2,0,L|205:353,2,42.5,8|0|0,0:0|0:0|0:0,0:0:0:0:
368,243,34000,2,0,L|430:246,2,42.5,0|0|0,0:0|0:0|1:0,0:0:0:0:
244,172,34342,2,0,L|201:169,2,42.5,8|0|0,0:0|0:0|0:0,0:0:0:0:
364,104,34685,2,0,P|404:152|360:248,1,170,0|8,1:0|0:0,0:0:0:0:
320,172,35200,1,0,0:0:0:0:
276,104,35371,1,0,0:0:0:0:
364,104,35542,1,0,1:0:0:0:
368,243,35714,2,0,L|288:271,1,85,8|0,0:0|0:0,0:0:0:0:
169,307,36057,6,0,L|123:390,1,85,0|0,1:0|0:0,0:0:0:0:
111,244,36400,2,0,L|62:162,1,85,8|0,0:0|0:0,0:0:0:0:
91,58,36742,2,0,L|134:130,1,85,0|0,0:0|1:0,0:0:0:0:
248,171,37085,2,0,L|204:98,1,85,8|0,0:0|0:0,0:0:0:0:
216,243,37428,6,0,B|244:288|244:288|296:328|296:328|324:372,1,170,0|8,1:0|0:0,0:0:0:0:
294,232,37942,1,0,0:0:0:0:
324,161,38114,1,0,0:0:0:0:
248,171,38285,1,0,1:0:0:0:
278,100,38457,2,0,L|312:20,1,85,8|0,0:0|0:0,0:0:0:0:
294,232,38800,5,0,1:0:0:0:
202,110,38971,2,0,L|176:72,2,42.5,0|0|0,0:0|0:0|1:0,0:0:0:0:
172,181,39314,1,0,0:0:0:0:
324,161,39485,1,0,1:0:0:0:
279,99,39657,1,0,0:0:0:0:
218,241,39828,1,0,1:0:0:0:
248,171,40000,1,0,0:0:0:0:
370,222,40171,5,0,1:0:0:0:
265,302,40342,2,0,L|223:336,2,42.5,0|0|0,0:0|0:0|1:0,0:0:0:0:
416,280,40685,1,0,0:0:0:0:
324,161,40857,1,0,1:0:0:0:
446,210,41028,1,0,0:0:0:0:
294,232,41200,1,0,1:0:0:0:
400,152,41371,1,0,0:0:0:0:
279,99,41542,5,0,1:0:0:0:
248,171,41714,1,0,1:0:0:0:
324,161,41885,1,0,1:0:0:0:
233,38,42057,1,0,1:0:0:0:
172,181,42228,1,0,1:0:0:0:
294,232,42400,1,0,1:0:0:0:
205,107,42571,1,0,1:0:0:0:
141,253,42742,1,0,1:0:0:0:
248,171,42914,5,2,3:0:0:0:
266,153,43000,1,0,3:0:0:0:
284,136,43085,1,0,3:0:0:0:
303,119,43171,1,0,3:0:0:0:
320,100,43257,2,0,L|366:56,3,42.5,0|0|0|0,3:0|3:0|3:0|0:0,0:0:0:0:
372,155,43600,2,0,L|416:201,3,42.5,0|0|0|0,3:0|3:0|3:0|3:0,0:0:0:0:
322,210,43942,1,4,3:0:0:0:
141,253,44285,6,0,L|57:334,1,85,2|0,0:0|0:0,0:0:0:0:
249,194,44628,1,0,0:0:0:0:
382,232,44800,1,0,0:0:0:0:
394,225,44971,2,0,L|487:248,1,85,2|0,0:0|0:0,0:0:0:0:
372,156,45314,2,0,L|345:63,1,85
344,280,45657,2,0,L|367:361,1,85,2|0,0:0|0:0,0:0:0:0:
322,210,46000,2,0,P|287:234|269:284,1,85
299,139,46342,2,0,P|346:141|390:183,1,85
399,232,46685,1,4,3:0:0:0:
276,68,46857,1,0,0:0:0:0:
249,194,47028,6,0,P|202:193|155:101,1,127.5,2|0,0:0|0:0,0:0:0:0:
205,233,47371,2,0,P|164:209|170:105,1,127.5,0|0,0:0|0:0,0:0:0:0:
148,246,47714,2,0,P|124:205|180:118,1,127.5,2|0,0:0|0:0,0:0:0:0:
92,228,48057,2,0,P|92:181|184:134,1,127.5,0|0,0:0|0:0,0:0:0:0:
194,125,48400,1,2,0:0:0:0:
164,312,48742,1,0,0:0:0:0:
194,125,49085,5,2,0:0:0:0:
248,262,49257,1,2,0:0:0:0:
188,130,49428,1,2,0:0:0:0:
242,267,49599,1,2,0:0:0:0:
194,125,49771,6,0,L|251:49,1,85,2|0,0:0|0:0,0:0:0:0:
248,262,50114,1,0,0:0:0:0:
337,151,50285,1,0,0:0:0:0:
194,125,50457,2,0,B|154:116|154:116|87:129,1,85,2|0,0:0|0:0,0:0:0:0:
47,240,50800,1,0,0:0:0:0:
177,256,50971,2,0,B|240:266|240:266|291:254|291:254|373:269,1,170
273,98,51485,1,0,0:0:0:0:
265,80,51657,1,0,0:0:0:0:
343,263,51828,2,0,B|327:351,2,85
177,256,52342,5,0,0:0:0:0:
343,263,52514,2,0,B|386:266|443:303|443:303|427:251|465:195|465:195|409:208|350:169,1,340,2|2,0:0|0:0,0:0:0:0:
168,184,53714,1,0,0:0:0:0:
219,319,53885,2,0,B|284:305|316:270|316:270|386:285|428:246|428:246|404:178|332:166,1,340,2|2,0:0|0:0,0:0:0:0:
181,102,54742,1,0,0:0:0:0:
232,237,54914,1,0,0:0:0:0:
259,74,55085,1,0,0:0:0:0:
117,49,55257,6,0,P|97:104|113:153,1,85
232,237,55600,1,0,0:0:0:0:
181,102,55771,1,0,0:0:0:0:
154,265,55942,2,0,L|136:355,1,85
310,209,56285,2,0,L|328:299,1,85
184,99,56628,6,0,L|166:189,1,85
341,81,56971,2,0,P|303:64|262:71,1,85
310,209,57314,2,0,P|348:225|389:219,1,85
436,315,57657,1,0,0:0:0:0:
358,149,57828,1,0,0:0:0:0:
295,290,58000,6,0,L|275:374,1,85
198,155,58342,2,0,L|178:239,1,85
320,267,58685,6,0,L|314:352,1,76.4999976654053
208,145,59027,2,0,L|202:229,1,76.4999976654053
344,241,59371,6,0,L|353:325,1,68
218,135,59713,2,0,L|227:217,1,68
358,159,60057,5,0,0:0:0:0:
232,53,60228,1,0,0:0:0:0:
365,152,60400,5,0,0:0:0:0:
239,46,60571,1,0,0:0:0:0:
140,163,60742,2,0,L|150:252,1,85
221,177,61085,1,0,0:0:0:0:
59,149,61257,1,0,0:0:0:0:
96,311,61428,2,0,P|147:330|198:315,1,85
302,191,61771,5,0,0:0:0:0:
314,209,61942,2,0,L|303:309,1,85
394,78,62286,1,0,0:0:0:0:
382,96,62457,2,0,L|393:196,1,85
301,82,62800,2,0,B|251:71|251:71|182:92|182:92|129:79,1,170
305,193,63314,1,0,0:0:0:0:
217,325,63485,2,0,L|137:354,1,85
287,293,63828,2,0,L|302:210,1,85
330,46,64171,1,0,0:0:0:0:
162,186,64342,1,0,0:0:0:0:
288,292,64514,1,0,0:0:0:0:
316,128,64685,6,0,B|316:108|316:108|316:72|272:28|240:28|240:28|240:72,1,170,2|2,0:1|0:1,0:0:0:0:
240,336,65371,1,2,0:1:0:0:
240,256,65714,1,2,0:0:0:0:
240,96,65885,1,8,0:0:0:0:
240,96,66057,1,8,0:0:0:0:
308,216,66228,5,0,1:0:0:0:
168,132,66400,2,0,L|124:108,2,42.5,0|0|0,0:0|0:0|1:0,0:0:0:0:
172,296,66742,1,0,0:0:0:0:
380,252,66914,2,0,P|380:180|288:136,1,170,2|0,1:0|1:0,0:0:0:0:
308,212,67428,1,0,0:0:0:0:
168,132,67600,1,0,1:0:0:0:
244,260,67771,2,0,L|280:312,2,42.5,0|0|0,0:0|0:0|1:0,0:0:0:0:
304,132,68114,1,0,0:0:0:0:
100,88,68285,2,0,B|84:152|84:152|113:263,1,170,2|0,1:1|1:0,0:0:0:0:
236,92,68800,1,0,0:0:0:0:
312,212,68971,6,0,P|360:244|448:184,1,170,0|0,1:0|1:0,0:0:0:0:
416,56,69485,1,0,0:1:0:0:
304,136,69657,2,0,P|248:170|289:287,1,170,0|0,1:0|1:0,0:0:0:0:
361,97,70171,1,0,0:1:0:0:
492,96,70342,5,2,3:0:0:0:
476,128,70427,1,0,3:0:0:0:
456,159,70513,1,0,3:0:0:0:
432,187,70599,1,0,3:0:0:0:
406,212,70685,2,0,L|364:248,3,42.5,0|0|0|0,3:0|3:0|3:0|3:0,0:0:0:0:
456,288,71028,2,0,L|456:320,6,21.25,2|0|0|0|0|0|0,3:0|3:0|3:0|3:0|3:0|3:0|3:0,0:0:0:0:
456,331,71371,1,0,3:0:0:0:
100,84,71714,6,0,P|131:40|165:16,1,85,4|0,3:0|0:0,0:0:0:0:
124,164,72057,2,0,P|70:158|33:141,1,85,4|0,1:0|0:0,0:0:0:0:
184,104,72400,1,0,0:0:0:0:
264,124,72571,1,0,1:0:0:0:
144,240,72742,1,8,0:0:0:0:
264,124,72914,1,0,0:0:0:0:
104,84,73085,6,0,B|112:136|112:136|136:172,1,85,2|0,1:0|0:0,0:0:0:0:
72,224,73428,2,0,B|121:243|121:243|164:240,1,85,10|0,0:1|0:0,0:0:0:0:
264,336,73771,2,0,B|255:283|255:283|231:248,1,85,2|0,1:0|1:0,0:0:0:0:
259,122,74114,2,0,B|217:154|217:154|198:193,1,85,10|0,1:0|0:0,0:0:0:0:
232,44,74457,6,0,P|284:44|320:64,1,85,4|0,3:0|0:0,0:0:0:0:
176,104,74800,2,0,P|137:87|95:89,1,85,4|0,0:0|0:0,0:0:0:0:
200,180,75142,1,0,0:0:0:0:
336,132,75314,1,0,1:0:0:0:
284,196,75485,1,8,0:0:0:0:
416,144,75657,1,0,0:0:0:0:
312,268,75828,6,0,P|255:267|229:252,1,85,2|0,1:0|0:0,0:0:0:0:
388,72,76171,2,0,P|445:73|471:88,1,85,10|0,0:1|0:0,0:0:0:0:
396,284,76514,2,0,P|366:332|340:347,1,85,2|0,1:0|1:0,0:0:0:0:
284,196,76857,2,0,P|313:147|339:132,1,85,10|0,1:0|0:0,0:0:0:0:
312,272,77200,6,0,P|256:272|220:248,1,85,4|0,3:0|0:0,0:0:0:0:
72,224,77542,2,0,P|113:220|152:237,1,85,4|0,0:0|0:0,0:0:0:0:
12,280,77885,1,0,0:0:0:0:
132,160,78057,1,0,1:0:0:0:
104,300,78228,1,8,0:0:0:0:
48,144,78400,1,0,0:0:0:0:
216,180,78571,6,0,B|192:216|192:216|148:240,1,85,2|0,1:0|0:0,0:0:0:0:
264,332,78914,2,0,B|220:329|220:329|178:303,1,85,10|0,0:1|0:0,0:0:0:0:
292,204,79257,2,0,B|335:206|335:206|370:228,1,85,2|0,1:0|1:0,0:0:0:0:
280,128,79600,1,10,1:0:0:0:
236,256,79771,1,0,0:0:0:0:
200,104,79942,6,0,P|228:72|272:48,1,85,2|0,1:0|0:0,0:0:0:0:
312,280,80285,2,0,P|284:312|240:336,1,85,10|0,1:0|0:0,0:0:0:0:
136,156,80628,2,0,P|122:115|123:65,1,85,2|0,1:0|1:0,0:0:0:0:
216,180,80971,1,8,0:0:0:0:
216,180,81142,1,0,0:0:0:0:
336,60,81314,6,0,B|356:116|356:116|393:156|393:156|395:214,1,170,0|0,1:0|0:0,0:0:0:0:
291,192,81828,1,0,0:0:0:0:
296,204,82000,2,0,B|285:256|285:256|238:287|238:287|190:356,1,170,0|0,1:0|0:0,0:0:0:0:
280,124,82685,6,0,P|328:136|364:164,1,85,4|0,3:0|0:0,0:0:0:0:
220,176,83028,2,0,P|206:128|212:83,1,85,4|0,0:0|0:0,0:0:0:0:
296,200,83371,1,0,0:0:0:0:
236,252,83542,1,0,1:0:0:0:
312,280,83714,1,8,0:0:0:0:
280,124,83885,1,0,0:0:0:0:
176,304,84057,6,0,P|220:328|268:328,1,85,2|0,1:0|0:0,0:0:0:0:
220,176,84400,2,0,P|177:202|153:243,1,85,10|0,0:1|0:0,0:0:0:0:
84,200,84742,2,0,P|85:250|109:291,1,85,2|0,1:0|1:0,0:0:0:0:
296,200,85085,2,0,P|296:148|272:112,1,85,10|0,1:0|0:0,0:0:0:0:
152,156,85428,6,0,B|108:128|108:128|64:124,1,85,4|0,3:0|0:0,0:0:0:0:
236,252,85771,2,0,B|280:280|280:280|324:284,1,85,4|0,0:0|0:0,0:0:0:0:
400,300,86114,1,0,0:0:0:0:
296,200,86285,1,0,1:0:0:0:
376,220,86457,1,8,0:0:0:0:
272,124,86628,1,0,0:0:0:0:
236,256,86800,6,0,L|208:356,1,85,2|0,1:0|0:0,0:0:0:0:
196,104,87142,2,0,L|168:204,1,85,8|0,0:0|2:0,0:0:0:0:
348,140,87485,2,0,L|275:65,1,85,2|0,1:0|1:0,0:0:0:0:
460,40,87828,2,0,L|432:140,1,85,10|0,1:0|0:0,0:0:0:0:
296,200,88171,6,0,B|256:160|272:100|272:100|216:128|216:128|116:128,1,255,0|0,1:0|0:0,0:0:0:0:
348,136,88857,1,0,1:0:0:0:
348,136,89371,1,0,0:0:0:0:
248,268,89542,2,0,B|304:264|356:208|356:208|410:256|472:250,1,255,0|0,1:0|0:0,0:0:0:0:
300,336,90228,2,0,P|228:352|192:340,1,85,2|0,1:0|0:0,0:0:0:0:
272,184,90571,2,0,L|308:100,1,85,2|0,1:0|0:0,0:0:0:0:
240,264,90914,5,0,1:0:0:0:
184,200,91085,1,0,1:0:0:0:
272,184,91257,1,0,1:0:0:0:
152,280,91428,1,0,1:0:0:0:
212,120,91600,1,0,1:0:0:0:
324,248,91771,1,0,1:0:0:0:
184,200,91942,1,0,1:0:0:0:
352,164,92114,1,0,1:0:0:0:
240,264,92285,5,2,3:0:0:0:
203,284,92370,1,0,3:0:0:0:
161,286,92456,1,0,3:0:0:0:
123,267,92542,1,0,3:0:0:0:
99,233,92627,1,0,3:0:0:0:
93,191,92713,1,0,3:0:0:0:
108,152,92799,1,0,3:0:0:0:
140,124,92885,1,0,3:0:0:0:
181,115,92971,2,0,P|217:108|242:128,3,42.5,0|0|0|0,3:0|3:0|3:0|3:0,0:0:0:0:
296,100,93314,1,0,3:0:0:0:
384,88,93657,6,0,B|416:60|424:20|424:20|440:72,2,127.500004863739,6|0|8,1:0|0:0|0:0,0:0:0:0:
356,164,94171,1,0,0:0:0:0:
324,244,94342,2,0,B|292:272|284:312|284:312|268:260,2,127.500004863739,2|0|8,0:1|1:0|0:0,0:0:0:0:
404,232,94857,1,0,0:0:0:0:
356,164,95028,5,0,1:0:0:0:
304,96,95200,1,0,0:0:0:0:
440,156,95371,1,8,0:0:0:0:
404,232,95542,1,0,0:0:0:0:
372,308,95714,1,0,0:0:0:0:
356,164,95885,2,0,P|348:76|400:164,1,255.000009727478,0|0,1:0|0:0,0:0:0:0:
404,232,96400,1,0,1:0:0:0:
272,176,96571,6,0,L|220:300,2,127.500004863739,0|8|0,0:0|0:0|0:0,0:0:0:0:
300,100,97085,1,0,0:0:0:0:
220,112,97257,1,0,1:0:0:0:
272,176,97428,1,8,0:0:0:0:
380,88,97600,1,0,0:0:0:0:
248,36,97771,1,0,1:0:0:0:
272,176,97942,2,0,B|260:212|260:212|224:260|224:260|216:296,2,127.500004863739,0|8|0,0:0|0:0|0:0,0:0:0:0:
328,24,98457,1,0,0:0:0:0:
300,104,98628,1,0,1:0:0:0:
356,168,98800,5,8,1:0:0:0:
381,186,98885,1,0,1:0:0:0:
397,214,98971,1,0,1:0:0:0:
401,245,99057,1,0,1:0:0:0:
391,275,99142,1,0,1:0:0:0:
244,252,99314,1,0,0:0:0:0:
308,104,99485,2,0,B|360:88|360:88|432:124,1,127.500004863739,8|0,0:0|0:0,0:0:0:0:
196,188,99828,2,0,B|130:155|130:155|78:171,1,127.500004863739,2|0,0:1|1:0,0:0:0:0:
224,112,100171,1,8,0:0:0:0:
248,248,100342,1,0,0:0:0:0:
276,176,100514,1,0,1:0:0:0:
196,188,100685,6,0,B|163:276|163:276|135:230,2,127.500004863739,0|8|0,0:0|0:0|0:0,0:0:0:0:
220,116,101200,2,0,B|236:68|236:68|212:16|212:16|188:64,2,127.500004863739,0|0|10,0:0|1:0|1:0,0:0:0:0:
236,256,101714,1,0,0:0:0:0:
156,264,101885,6,0,B|120:328|120:328|180:328|180:328|200:328,1,127.500004863739,0|0,1:0|0:0,0:0:0:0:
316,252,102228,2,0,B|352:187|352:187|292:187|292:187|168:188,1,255.000009727478,8|0,0:0|0:0,0:0:0:0:
236,256,102742,1,0,1:0:0:0:
232,116,102914,2,0,B|144:116|144:116|80:172,1,127.500004863739,8|0,0:0|0:0,0:0:0:0:
280,328,103257,2,0,B|348:328|348:328|396:284,1,127.500004863739,0|0,1:0|0:0,0:0:0:0:
320,252,103600,2,0,B|286:193|286:193|223:173,1,127.500004863739,10|0,0:1|0:0,0:0:0:0:
304,104,103942,2,0,B|236:104|236:104|188:147,1,127.500004863739,2|0,1:0|0:0,0:0:0:0:
176,56,104285,2,0,B|132:108|132:108|135:173,1,127.500004863739,10|0,1:0|0:0,0:0:0:0:
304,104,104628,6,0,B|400:68|400:68|388:100,2,127.500004863739,6|0|8,0:1|0:0|0:0,0:0:0:0:
280,180,105142,1,0,0:0:0:0:
176,56,105314,2,0,B|159:157|159:157|137:130,2,127.500004863739,2|0|8,0:1|1:0|0:0,0:0:0:0:
100,64,105828,1,0,0:0:0:0:
24,72,106000,5,0,1:0:0:0:
68,136,106171,1,0,0:0:0:0:
148,128,106342,1,8,0:0:0:0:
84,280,106514,1,0,0:0:0:0:
116,204,106685,1,0,0:0:0:0:
188,332,106857,2,0,B|171:298|171:298|233:310|233:310|259:265|313:256|355:287|363:322,1,255.000009727478,0|0,1:0|0:0,0:0:0:0:
296,344,107371,1,0,1:0:0:0:
276,184,107542,6,0,L|412:168,2,127.500004863739,2|8|0,0:1|0:0|0:0,0:0:0:0:
116,204,108057,1,0,0:0:0:0:
196,196,108228,1,0,1:0:0:0:
248,48,108400,1,8,0:0:0:0:
312,108,108571,1,0,0:0:0:0:
144,128,108742,1,0,1:0:0:0:
64,140,108914,2,0,B|16:156|16:156|88:204,2,127.500004863739,0|8|0,0:0|0:0|0:0,0:0:0:0:
196,196,109428,1,2,0:1:0:0:
100,76,109600,1,0,1:0:0:0:
312,104,109771,5,8,1:0:0:0:
312,104,109857,1,0,1:0:0:0:
312,104,109942,1,0,1:0:0:0:
312,104,110028,1,0,1:0:0:0:
312,104,110114,1,0,1:0:0:0:
284,184,110285,1,0,0:0:0:0:
196,196,110457,1,0,1:0:0:0:
340,248,110628,1,0,0:0:0:0:
256,260,110800,2,0,B|216:268|216:268|208:260|208:260|212:276|212:276|204:268|204:268|136:280,2,127.500004863739,0|0|0,1:0|0:0|1:0,0:0:0:0:
340,248,111314,1,0,0:0:0:0:
484,284,111485,1,0,1:0:0:0:
364,168,111657,5,0,0:0:0:0:
416,232,111828,1,0,1:0:0:0:
256,260,112000,1,0,0:0:0:0:
280,180,112171,2,0,B|253:149|253:149|255:138|255:138|244:149|244:149|247:138|247:138|202:86,2,127.500004863739,0|0|0,1:0|0:0|1:0,0:0:0:0:
340,244,112685,1,0,0:0:0:0:
444,152,112857,5,0,1:0:0:0:
392,92,113028,1,0,1:0:0:0:
364,164,113200,1,0,1:0:0:0:
412,224,113371,1,0,1:0:0:0:
464,76,113542,1,0,1:0:0:0:
340,240,113714,1,0,1:0:0:0:
488,212,113885,1,0,1:0:0:0:
444,152,114057,1,0,1:0:0:0:
468,280,114228,5,2,3:0:0:0:
458,310,114313,1,0,3:0:0:0:
440,336,114399,1,0,3:0:0:0:
414,354,114485,1,0,3:0:0:0:
383,363,114571,2,0,L|336:368,3,42.5,0|0|0|0,3:0|3:0|3:0|3:0,0:0:0:0:
280,280,114914,2,0,L|322:276,3,42.5,0|0|0|0,3:0|3:0|3:0|3:0,0:0:0:0:
416,220,115257,1,4,3:0:0:0:
272,180,115600,5,0,1:0:0:0:
392,92,115942,1,8,0:0:0:0:
392,92,116113,1,0,0:0:0:0:
392,92,116285,2,0,B|348:84|348:84|300:124,1,85,0|0,0:0|1:0,0:0:0:0:
340,236,116628,2,0,B|368:201|368:201|358:140,1,85,8|0,0:0|0:0,0:0:0:0:
312,312,116971,2,0,B|356:320|356:320|404:280,1,85,0|0,1:0|0:0,0:0:0:0:
236,328,117314,2,0,B|229:288|229:288|258:254,1,85,8|0,0:0|0:0,0:0:0:0:
280,180,117657,1,0,0:0:0:0:
257,254,118000,5,8,0:0:0:0:
360,164,118171,1,0,0:0:0:0:
304,104,118342,2,0,L|252:32,2,85,0|0|8,1:0|0:0|0:0,0:0:0:0:
204,196,118857,1,0,0:0:0:0:
360,164,119028,2,0,L|396:82,2,85,0|0|8,0:0|1:0|0:0,0:0:0:0:
236,124,119542,1,0,0:0:0:0:
102,83,119714,2,0,L|65:164,2,85,0|0|8,1:0|0:0|0:0,0:0:0:0:
124,208,120228,1,0,0:0:0:0:
256,192,120400,1,2,0:0:0:0:
204,332,120571,1,2,0:2:0:0:
136,288,120742,2,0,P|88:276|56:248,1,85,10|2,0:0|0:0,0:0:0:0:
204,332,121085,5,0,1:0:0:0:
196,144,121428,1,8,0:0:0:0:
196,144,121600,1,0,0:0:0:0:
196,144,121771,2,0,P|232:112|276:96,1,85,0|0,0:0|1:0,0:0:0:0:
344,44,122114,1,8,0:0:0:0:
360,128,122285,2,0,P|324:160|280:176,1,85,0|0,0:0|1:0,0:0:0:0:
208,228,122628,1,0,0:0:0:0:
128,196,122800,1,8,0:0:0:0:
112,116,122971,1,0,0:0:0:0:
140,276,123142,2,0,B|184:308|184:308|244:304,2,85,0|0|8,0:0|1:0|0:0,0:0:0:0:
196,148,123657,5,0,0:0:0:0:
288,256,123828,2,0,B|376:324|372:232|468:320,1,170,0|8,1:0|0:0,0:0:0:0:
344,200,124342,1,0,0:0:0:0:
400,144,124514,2,0,B|424:124|424:124|448:104|444:40|444:40|440:36|504:92,1,170,2|8,0:0|0:0,0:0:0:0:
424,220,125028,1,0,0:0:0:0:
324,124,125200,2,0,B|280:80|280:48|280:48|256:44|180:36,1,170,0|8,1:0|0:0,0:0:0:0:
268,176,125714,1,0,0:0:0:0:
240,300,125885,1,2,0:0:0:0:
216,232,126057,1,2,0:2:0:0:
348,196,126228,2,0,P|368:232|360:284,1,85,10|2,0:0|0:0,0:0:0:0:
292,252,126571,5,0,1:0:0:0:
144,200,126914,1,8,0:0:0:0:
180,352,127085,1,0,0:0:0:0:
144,200,127257,2,0,P|176:144|196:128,1,85,0|0,0:0|1:0,0:0:0:0:
191,131,127600,2,0,P|159:187|139:203,1,85,8|0,0:0|0:0,0:0:0:0:
148,52,127942,2,0,P|212:51|236:61,1,85,0|0,1:0|0:0,0:0:0:0:
372,128,128285,2,0,P|341:98|303:80,1,85,8|0,0:0|0:0,0:0:0:0:
104,128,128628,2,0,P|159:95|185:91,1,85,0|0,0:0|1:0,0:0:0:0:
112,128,128971,1,8,0:0:0:0:
100,212,129142,1,0,0:0:0:0:
248,136,129314,6,0,L|328:180,1,85,0|0,1:0|0:0,0:0:0:0:
244,220,129657,2,0,L|164:264,1,85,8|0,0:0|0:0,0:0:0:0:
240,48,130000,2,0,L|160:92,1,85,0|0,0:0|1:0,0:0:0:0:
169,260,130342,2,0,L|89:304,1,85,8|0,0:0|0:0,0:0:0:0:
176,168,130685,5,0,1:0:0:0:
244,220,130857,1,0,0:0:0:0:
316,264,131028,2,0,B|324:216|324:216|312:172,1,85,8|0,0:0|0:0,0:0:0:0:
244,56,131371,1,2,0:0:0:0:
244,136,131542,1,2,0:2:0:0:
244,220,131714,1,10,0:0:0:0:
248,308,131885,1,2,0:0:0:0:
244,220,132057,6,0,L|244:128,1,85,0|0,1:0|0:0,0:0:0:0:
168,96,132400,1,0,1:0:0:0:
244,56,132571,1,0,0:0:0:0:
168,180,132742,2,0,P|116:160|92:128,1,85,0|0,1:0|0:0,0:0:0:0:
244,144,133085,1,0,1:0:0:0:
244,220,133257,2,0,P|200:255|160:259,2,85,0|0|0,0:0|1:0|0:0,0:0:0:0:
316,100,133771,2,0,P|359:64|399:60,1,85,0|0,1:0|0:0,0:0:0:0:
388,224,134114,2,0,L|388:124,1,85,0|0,1:0|0:0,0:0:0:0:
388,304,134457,1,0,1:0:0:0:
316,180,134628,1,0,0:0:0:0:
456,176,134800,5,0,1:0:0:0:
320,260,134971,1,0,1:0:0:0:
456,256,135142,1,0,1:0:0:0:
388,220,135314,1,0,1:0:0:0:
324,340,135485,1,0,1:0:0:0:
388,296,135657,1,0,1:0:0:0:
256,296,135828,1,0,1:0:0:0:
396,368,136000,2,0,B|419:378|419:378|428:317|470:260|470:260|426:235,1,170,2|2,1:0|1:0,0:0:0:0:
316,256,136685,1,2,1:0:0:0:
248,296,137028,1,0,1:0:0:0:
176,180,137200,1,8,0:0:0:0:
176,180,137371,1,8,0:0:0:0:
248,304,137542,5,0,1:0:0:0:
104,220,137714,2,0,L|60:184,2,42.5,0|0|0,0:0|0:0|1:0,0:0:0:0:
180,184,138057,1,0,0:0:0:0:
252,228,138228,2,0,P|264:168|156:104,1,170,0|0,1:0|1:0,0:0:0:0:
180,184,138742,1,0,0:0:0:0:
176,260,138914,1,0,1:0:0:0:
316,188,139086,2,0,L|356:164,2,42.5,0|0|0,0:0|0:0|1:0,0:0:0:0:
176,260,139428,1,0,0:0:0:0:
312,264,139600,2,0,B|376:244|376:244|392:232|392:232|408:244|408:244|492:276,1,170,0|0,1:0|1:0,0:0:0:0:
392,316,140114,1,0,0:0:0:0:
316,348,140285,5,0,1:0:0:0:
176,268,140457,1,0,1:0:0:0:
312,184,140628,1,0,1:0:0:0:
248,304,140800,1,0,1:0:0:0:
244,144,140971,1,0,1:0:0:0:
312,184,141142,1,0,1:0:0:0:
388,224,141314,1,0,1:0:0:0:
316,264,141485,1,0,1:0:0:0:
320,184,141657,5,0,0:0:0:0:
320,146,141742,1,0,0:0:0:0:
320,107,141828,1,0,0:0:0:0:
351,87,141913,1,0,0:0:0:0:
382,73,142000,2,0,L|420:48,3,42.5,0|0|0|0,0:0|0:0|0:0|0:0,0:0:0:0:
392,144,142342,2,0,L|426:164,6,21.25,0|0|0|0|0|0|0,0:0|0:0|0:0|0:0|0:0|0:0|0:0,0:0:0:0:
428,165,142685,1,0,0:0:0:0:
252,72,143028,6,0,P|200:80|160:104,1,85,4|0,3:0|0:0,0:0:0:0:
248,144,143371,2,0,P|290:147|328:164,1,85,4|0,0:0|0:0,0:0:0:0:
184,180,143714,1,0,0:0:0:0:
120,216,143885,1,0,1:0:0:0:
248,292,144057,1,8,0:0:0:0:
184,256,144228,1,0,0:0:0:0:
248,216,144400,6,0,B|296:236|296:236|324:280,1,85,2|0,1:0|0:0,0:0:0:0:
376,144,144742,2,0,B|382:195|382:195|358:241,1,85,10|0,1:0|0:0,0:0:0:0:
308,104,145085,2,0,B|349:72|349:72|401:70,1,85,2|0,0:1|1:0,0:0:0:0:
244,144,145428,2,0,B|237:92|237:92|261:46,1,85,10|0,0:1|0:0,0:0:0:0:
248,292,145771,6,0,B|206:323|206:323|154:325,1,85,4|0,3:0|0:0,0:0:0:0:
316,264,146114,2,0,B|298:236|298:236|250:216,1,85,4|0,0:0|0:0,0:0:0:0:
304,344,146457,1,0,0:0:0:0:
244,292,146628,1,0,1:0:0:0:
384,312,146800,1,8,0:0:0:0:
324,180,146971,1,0,0:0:0:0:
456,272,147142,6,0,P|464:212|448:172,1,85,2|0,1:0|0:0,0:0:0:0:
392,68,147485,2,0,P|384:128|400:168,1,85,10|0,0:1|0:0,0:0:0:0:
456,272,147828,2,0,P|396:264|356:280,1,85,2|0,0:1|1:0,0:0:0:0:
392,68,148171,2,0,P|452:76|492:60,1,85,10|0,0:1|0:0,0:0:0:0:
333,198,148514,6,0,P|356:253|389:280,1,85,4|0,3:0|0:0,0:0:0:0:
264,160,148857,2,0,P|227:207|220:250,1,85,4|0,0:0|0:0,0:0:0:0:
328,120,149200,1,0,0:0:0:0:
192,128,149371,1,0,1:0:0:0:
328,196,149542,1,8,0:0:0:0:
328,40,149714,1,0,0:0:0:0:
184,52,149885,6,0,P|136:76|112:120,1,85,2|0,1:0|0:0,0:0:0:0:
52,144,150228,2,0,P|96:173|146:172,1,85,10|0,0:1|0:0,0:0:0:0:
140,252,150571,2,0,P|187:228|212:183,1,85,2|0,0:1|1:0,0:0:0:0:
64,224,150914,1,10,0:1:0:0:
64,224,151085,1,0,0:0:0:0:
216,280,151257,6,0,B|260:260|260:260|288:212,1,85,4|0,3:0|0:0,0:0:0:0:
267,151,151600,2,0,B|223:171|223:171|204:202,1,85,4|0,0:0|0:0,0:0:0:0:
352,256,151942,2,0,B|356:207|356:207|338:176,1,85,0|0,0:0|1:0,0:0:0:0:
140,252,152285,2,0,L|140:344,1,85,8|0,0:0|0:0,0:0:0:0:
72,208,152628,2,0,P|120:176|216:216,1,170,0|10,1:0|0:0,0:0:0:0:
64,284,153142,1,0,0:3:0:0:
119,108,153314,2,0,P|175:119|215:215,1,170,0|8,1:0|0:0,0:0:0:0:
352,256,154000,6,0,P|317:290|275:306,1,85,4|0,3:0|0:0,0:0:0:0:
352,256,154342,2,0,P|364:303|357:347,1,85,4|0,0:0|0:0,0:0:0:0:
296,380,154685,1,0,0:0:0:0:
272,228,154857,1,0,1:0:0:0:
208,280,155028,1,8,0:0:0:0:
364,324,155200,1,0,0:0:0:0:
332,176,155371,6,0,B|296:148|296:148|232:148,1,85,2|0,1:0|0:0,0:0:0:0:
348,248,155714,2,0,B|390:230|390:230|422:175,1,85,10|0,0:1|0:0,0:0:0:0:
452,76,156057,2,0,B|409:93|409:93|377:148,1,85,2|0,0:1|1:0,0:0:0:0:
452,76,156400,2,0,B|445:121|445:121|477:176,1,85,10|0,0:1|0:0,0:0:0:0:
452,308,156742,6,0,B|445:262|445:262|477:207,1,85,4|0,3:0|0:0,0:0:0:0:
364,324,157085,2,0,B|321:306|321:306|289:251,1,85,4|0,0:0|0:0,0:0:0:0:
420,380,157428,1,0,0:0:0:0:
392,248,157600,1,0,1:0:0:0:
328,196,157771,1,8,0:0:0:0:
404,168,157942,1,0,0:0:0:0:
312,272,158114,6,0,P|272:248|252:204,1,85,2|0,1:0|0:0,0:0:0:0:
346,111,158457,2,0,P|386:135|406:179,1,85,10|0,0:1|0:0,0:0:0:0:
233,293,158800,2,0,P|233:246|261:207,1,85,2|0,1:0|1:0,0:0:0:0:
273,136,159142,2,0,P|272:182|244:221,1,85,10|0,0:1|0:0,0:0:0:0:
208,96,159485,2,0,B|248:44|304:64|304:64|364:116|444:80,1,255,0|0,1:0|0:0,0:0:0:0:
439,81,160171,1,0,1:0:0:0:
439,81,160685,1,0,0:0:0:0:
400,272,160857,2,0,B|388:268|388:268|400:260|400:260|388:256|388:256|344:236|320:164|376:96|460:124,1,255,0|0,1:0|0:0,0:0:0:0:
424,192,161542,1,0,1:0:0:0:
360,344,161885,1,0,1:0:0:0:
442,334,162228,5,0,1:0:0:0:
474,260,162400,1,0,1:0:0:0:
393,271,162571,1,0,1:0:0:0:
343,205,162742,1,0,1:0:0:0:
278,355,162914,1,0,1:0:0:0:
443,337,163085,1,0,1:0:0:0:
311,282,163257,1,0,1:0:0:0:
294,139,163428,1,0,1:0:0:0:
256,192,163600,12,0,164971,1:0:0:0:
256,192,180057,12,0,181429,0:0:0:0:
256,192,181600,5,0,0:0:0:0:
256,192,181685,1,0,0:0:0:0:
256,192,181771,1,0,0:0:0:0:
294,258,181942,1,0,0:0:0:0:
294,125,182114,2,0,P|243:123|183:219,1,170,0|0,0:0|0:0,0:0:0:0:
336,192,182628,1,0,0:0:0:0:
256,56,182971,5,0,0:0:0:0:
256,56,183056,1,0,0:0:0:0:
256,56,183142,1,0,0:0:0:0:
256,196,183313,1,0,0:0:0:0:
384,116,183485,2,0,L|180:132,1,170,0|0,0:0|0:0,0:0:0:0:
348,196,184000,5,0,0:0:0:0:
420,40,184171,2,0,B|472:64|472:64|452:104|456:152|492:208,1,170,2|0,0:0|0:0,0:0:0:0:
384,116,184685,5,0,0:0:0:0:
420,40,184857,2,0,B|376:44|316:16|316:16|324:68|300:112,1,170,2|0,0:0|0:0,0:0:0:0:
384,116,185371,5,0,0:0:0:0:
344,192,185542,2,0,B|301:131|231:177|252:231|252:231|273:290|338:301|343:378|343:378|380:309|435:318|476:278|476:278|528:225|473:145|403:202,1,680,2|0,0:0|0:0,0:0:0:0:
160,80,189657,6,0,B|128:88|128:88|108:136,1,63.7500024318696,2|0,0:0|0:0,0:0:0:0:
160,80,190000,2,0,B|192:72|192:72|212:24,1,63.7500024318696,0|0,0:0|0:0,0:0:0:0:
160,80,190342,2,0,B|182:103|182:103|234:97,2,63.7500024318696,2|0|0,0:0|0:0|0:0,0:0:0:0:
264,20,190857,1,0,0:0:0:0:
344,148,191028,2,0,P|368:120|376:72,1,63.7500024318696,2|0,0:0|0:0,0:0:0:0:
406,149,191371,2,0,P|393:114|356:83,1,63.7500024318696,0|0,0:0|0:0,0:0:0:0:
407,41,191714,2,0,P|383:69|375:117,1,63.7500024318696,2|0,0:0|0:0,0:0:0:0:
345,40,192057,2,0,P|357:74|394:105,1,63.7500024318696,0|0,0:0|0:0,0:0:0:0:
374,202,192400,6,0,P|398:174|405:126,1,63.7500024318696,2|0,0:0|0:0,0:0:0:0:
436,203,192743,2,0,P|423:168|386:137,1,63.7500024318696,0|0,0:0|0:0,0:0:0:0:
304,208,193085,1,2,0:0:0:0:
152,212,193257,1,0,0:0:0:0:
268,276,193428,1,0,0:0:0:0:
192,144,193600,1,0,0:0:0:0:
112,280,193771,2,0,L|76:340,1,63.7500024318696,2|0,0:0|0:0,0:0:0:0:
112,144,194114,2,0,L|144:89,1,63.7500024318696,0|0,0:0|0:0,0:0:0:0:
78,270,194457,2,0,L|16:304,1,63.7500024318696,2|0,0:0|0:0,0:0:0:0:
146,153,194800,2,0,L|201:122,1,63.7500024318696,0|0,0:0|0:0,0:0:0:0:
53,246,195142,6,0,L|-16:244,1,63.7500024318696,2|0,0:0|0:0,0:0:0:0:
170,178,195485,2,0,L|234:179,1,63.7500024318696,0|0,0:0|0:0,0:0:0:0:
168,312,195828,1,2,0:0:0:0:
128,248,196000,1,0,0:0:0:0:
128,116,196171,1,0,0:0:0:0:
92,180,196342,1,0,0:0:0:0:
96,52,196514,2,0,P|144:48|180:64,1,63.7500024318696,2|0,0:0|0:0,0:0:0:0:
204,112,196857,2,0,P|231:151|235:190,1,63.7500024318696,0|0,0:0|0:0,0:0:0:0:
336,112,197200,2,0,P|315:154|283:177,1,63.7500024318696,2|0,0:0|0:0,0:0:0:0:
416,112,197542,5,0,0:0:0:0:
376,180,197714,1,0,0:0:0:0:
452,180,197885,2,0,P|476:152|492:112,1,63.7500024318696,2|0,0:0|0:0,0:0:0:0:
336,252,198228,2,0,P|372:258|414:252,1,63.7500024318696,0|0,0:0|0:0,0:0:0:0:
416,112,198571,2,0,P|379:105|337:111,1,63.7500024318696,2|0,0:0|0:0,0:0:0:0:
336,252,198914,1,0,0:0:0:0:
336,252,199085,1,0,0:0:0:0:
384,40,199257,2,0,B|348:40|308:20|308:20|276:48|276:80,1,127.500004863739,2|0,2:0|2:0,0:0:0:0:
488,120,199771,1,0,2:0:0:0:
360,176,199942,2,0,B|352:208|352:208|308:232|308:232|292:288,1,127.500004863739,2|0,0:0|0:0,0:0:0:0:
296,132,200628,6,0,B|324:108|324:108|376:104,1,63.7500024318696,2|0,0:0|0:0,0:0:0:0:
228,168,200971,2,0,B|221:131|221:131|243:84,1,63.7500024318696,0|0,0:0|0:0,0:0:0:0:
228,244,201314,2,0,L|228:312,2,63.7500024318696,2|0|0,0:0|0:0|0:0,0:0:0:0:
364,176,201828,1,0,0:0:0:0:
160,212,202000,2,0,L|104:248,1,63.7500024318696,2|0,0:0|0:0,0:0:0:0:
164,128,202342,2,0,L|217:93,1,63.7500024318696,0|0,0:0|0:0,0:0:0:0:
304,244,202685,2,0,L|250:278,1,63.7500024318696,2|0,0:0|0:0,0:0:0:0:
388,260,203028,2,0,L|441:225,1,63.7500024318696,0|0,0:0|0:0,0:0:0:0:
408,340,203371,6,0,P|364:336|336:316,1,63.7500024318696,2|0,0:0|0:0,0:0:0:0:
292,168,203714,2,0,P|336:172|364:192,1,63.7500024318696,0|0,0:0|0:0,0:0:0:0:
312,248,204057,1,2,0:0:0:0:
256,304,204228,1,0,0:0:0:0:
216,144,204400,1,0,0:0:0:0:
160,200,204571,1,0,0:0:0:0:
120,48,204742,2,0,P|156:19|184:11,1,63.7500024318696,2|0,0:0|0:0,0:0:0:0:
216,144,205085,2,0,P|172:126|152:106,1,63.7500024318696,0|0,0:0|0:0,0:0:0:0:
84,180,205428,2,0,P|77:133|84:106,1,63.7500024318696,2|0,0:0|0:0,0:0:0:0:
224,68,205771,2,0,P|267:85|287:105,1,63.7500024318696,0|0,0:0|0:0,0:0:0:0:
160,200,206114,6,0,P|120:228|216:228,1,255.000009727478,0|0,1:0|1:0,0:0:0:0:
224,68,207314,1,0,0:0:0:0:
222,248,207485,2,0,P|201:292|284:244,1,255,0|0,1:0|1:0,0:0:0:0:
148,72,208514,2,0,P|92:68|60:80,1,63.7500024318696,0|0,1:0|0:0,0:0:0:0:
192,140,208857,5,0,1:0:0:0:
312,208,209028,1,0,1:0:0:0:
232,68,209200,1,0,1:0:0:0:
388,64,209371,1,0,1:0:0:0:
312,208,209542,1,0,1:0:0:0:
428,140,209714,1,0,1:0:0:0:
312,68,209885,1,0,1:0:0:0:
316,212,210057,1,0,1:0:0:0:
192,144,210228,2,0,B|148:128|112:72|112:72|112:152|112:152|76:112|0:80,1,318.750012159348,0|0,1:0|2:0,0:0:0:0:
160,224,211257,1,0,2:0:0:0:
224,64,211600,6,0,B|234:107|227:152|227:152|276:108,2,127.500004863739,6|0|8,1:0|0:0|0:0,0:0:0:0:
332,188,212114,1,0,0:0:0:0:
160,224,212285,2,0,B|125:203|129:145|129:145|77:157,2,127.500004863739,2|0|8,0:1|1:0|0:0,0:0:0:0:
180,364,212800,1,0,0:0:0:0:
304,288,212971,2,0,P|336:236|332:172,1,127.500004863739,0|0,1:0|0:0,0:0:0:0:
418,253,213314,2,0,P|388:199|331:170,1,127.500004863739,8|0,0:0|0:0,0:0:0:0:
216,296,213657,1,0,0:0:0:0:
268,124,213828,2,0,B|320:92|376:104|376:104|328:24|328:24|280:44|224:32,1,255.000009727478,0|0,1:0|0:0,0:0:0:0:
200,72,214342,1,0,1:0:0:0:
200,156,214514,5,0,0:0:0:0:
328,172,214685,1,8,0:0:0:0:
248,272,214857,1,0,0:0:0:0:
268,124,215028,2,0,B|312:92|312:92|388:100,1,127.500004863739,0|0,0:0|1:0,0:0:0:0:
260,202,215371,2,0,B|216:234|216:234|140:226,1,127.500004863739,8|0,0:0|0:0,0:0:0:0:
216,88,215714,1,0,1:0:0:0:
336,176,215885,1,2,0:1:0:0:
320,252,216057,1,8,0:0:0:0:
280,128,216228,1,0,0:0:0:0:
180,236,216400,2,0,B|156:280|156:280|160:292|160:292|144:280|144:280|148:292|148:292|124:328,1,127.500004863739,2|0,0:1|1:0,0:0:0:0:
256,204,216742,5,0,1:0:0:0:
232,182,216827,1,0,1:0:0:0:
209,160,216913,1,0,1:0:0:0:
177,161,216999,1,0,1:0:0:0:
145,163,217085,2,0,B|208:160|208:160|240:104,1,127.500004863739,0|2,1:0|0:1,0:0:0:0:
276,32,217428,2,0,B|328:84|328:84|400:84,1,127.500004863739,8|0,0:0|0:0,0:0:0:0:
336,176,217771,1,0,2:0:0:0:
252,276,217942,1,0,1:0:0:0:
272,128,218114,2,0,B|270:77|270:77|261:69|261:69|281:71|281:71|271:63|271:63|274:20,1,127.500004863739,10|0,0:1|0:0,0:0:0:0:
268,204,218457,5,0,0:0:0:0:
400,220,218628,1,0,1:0:0:0:
264,276,218800,1,8,0:0:0:0:
208,160,218971,1,0,0:0:0:0:
336,164,219142,2,0,P|384:184|348:152,2,127.500004863739,2|0|8,0:1|1:0|0:0,0:0:0:0:
184,224,219657,1,0,0:0:0:0:
280,108,219828,2,0,B|340:48|340:48|280:44,1,127.500004863739,0|0,1:0|0:0,0:0:0:0:
120,168,220171,2,0,B|93:197|93:197|114:258|114:258|245:141,1,255.000009727478,8|0,0:0|0:0,0:0:0:0:
368,36,220685,1,0,1:0:0:0:
360,156,220857,2,0,B|356:204|356:204|295:263,1,127.500004863739,8|0,0:0|0:0,0:0:0:0:
232,344,221200,6,0,B|192:316|192:316|192:236,1,127.500004863739,0|0,1:0|0:0,0:0:0:0:
211,49,221542,2,0,B|277:85|277:85|277:268,1,255.000009727478,10|2,0:1|1:0,0:0:0:0:
164,188,222057,1,0,0:0:0:0:
56,136,222228,2,0,P|48:204|84:264,1,127.500004863739,10|0,1:0|0:0,0:0:0:0:
182,306,222571,6,0,P|190:238|154:178,2,127.500004863739,6|0|8,1:0|0:0|0:0,0:0:0:0:
76,248,223085,1,0,0:0:0:0:
276,356,223257,2,0,P|338:328|372:267,2,127.500004863739,2|0|8,0:1|1:0|0:0,0:0:0:0:
76,248,223771,1,0,0:0:0:0:
144,196,223942,1,0,1:0:0:0:
64,168,224114,1,0,0:0:0:0:
152,280,224285,1,8,0:0:0:0:
208,148,224457,1,0,0:0:0:0:
64,168,224628,1,0,0:0:0:0:
144,196,224800,2,0,B|196:240|268:216|268:216|232:264|232:264|288:256|300:280,1,255.000009727478,0|0,1:0|0:0,0:0:0:0:
208,148,225314,1,0,1:0:0:0:
128,112,225485,6,0,B|84:80|84:80|144:80|180:44,1,127.500004863739,0|8,0:0|0:0,0:0:0:0:
276,104,225828,1,0,0:0:0:0:
208,232,226000,1,0,0:0:0:0:
344,144,226171,1,0,1:0:0:0:
208,76,226342,2,0,B|128:32|128:32|228:40,1,127.500004863739,8|0,0:0|0:0,0:0:0:0:
344,64,226685,1,0,1:0:0:0:
276,188,226857,1,0,0:0:0:0:
212,312,227028,2,0,P|281:333|338:312,1,127.500004863739,8|0,0:0|0:0,0:0:0:0:
200,232,227371,2,0,P|146:281|136:341,1,127.500004863739,0|0,0:0|1:0,0:0:0:0:
272,260,227714,5,8,1:0:0:0:
271,228,227799,1,0,1:0:0:0:
261,198,227885,1,0,1:0:0:0:
242,172,227971,1,0,1:0:0:0:
216,154,228056,1,0,1:0:0:0:
140,180,228228,1,0,0:0:0:0:
148,96,228400,1,0,1:0:0:0:
56,212,228571,1,0,0:0:0:0:
72,48,228742,1,0,1:0:0:0:
140,180,228914,1,0,0:0:0:0:
220,52,229085,2,0,P|256:12|236:64,1,127.500004863739,0|0,1:0|0:0,0:0:0:0:
296,184,229428,5,0,1:0:0:0:
140,260,229600,1,0,0:0:0:0:
216,128,229771,1,0,1:0:0:0:
296,264,229942,1,0,0:0:0:0:
216,224,230114,2,0,B|136:188|136:188|148:240,2,127.500004863739,2|0|0,1:0|0:0|1:0,0:0:0:0:
296,264,230628,1,0,0:0:0:0:
364,208,230800,5,0,1:0:0:0:
208,144,230971,1,0,1:0:0:0:
296,264,231142,1,0,1:0:0:0:
360,132,231314,1,0,1:0:0:0:
216,228,231485,1,0,1:0:0:0:
372,208,231657,1,0,1:0:0:0:
280,92,231828,1,0,1:0:0:0:
296,268,232000,1,0,1:0:0:0:
400,160,232171,5,2,3:0:0:0:
369,164,232256,1,0,3:0:0:0:
339,169,232342,1,0,3:0:0:0:
309,173,232428,1,0,3:0:0:0:
278,178,232514,2,0,L|228:184,3,42.5,0|0|0|0,3:0|3:0|3:0|3:0,0:0:0:0:
115,204,232857,2,0,L|157:197,3,42.5,0|0|0|0,3:0|3:0|3:0|3:0,0:0:0:0:
180,64,233200,1,4,3:0:0:0:
232,304,233542,6,0,L|256:388,1,85,0|0,0:0|0:0,0:0:0:0:
309,293,233885,2,0,L|381:342,1,85,0|0,0:0|0:0,0:0:0:0:
362,235,234228,2,0,L|449:226,1,85,0|0,0:0|0:0,0:0:0:0:
364,156,234571,2,0,L|425:93,1,85,0|0,0:0|0:0,0:0:0:0:
87,95,234914,6,0,L|147:156,1,85,0|0,0:0|0:0,0:0:0:0:
65,226,235257,2,0,L|149:235,1,85,0|0,0:0|0:0,0:0:0:0:
131,340,235600,2,0,L|202:293,1,85,0|0,0:0|0:0,0:0:0:0:
256,385,235943,2,0,L|280:304,1,85,0|0,0:0|0:0,0:0:0:0:
364,312,236285,6,0,P|352:260|308:224,1,85,0|0,0:0|0:0,0:0:0:0:
350,230,236628,2,0,P|362:282|406:318,1,85,0|0,0:0|0:0,0:0:0:0:
148,72,236971,6,0,P|160:124|204:160,1,85,0|0,0:0|0:0,0:0:0:0:
162,154,237314,2,0,P|150:102|106:66,1,85,0|0,0:0|0:0,0:0:0:0:
232,80,237657,6,0,L|256:-1,1,85,0|0,0:0|0:0,0:0:0:0:
310,91,238000,2,0,L|381:44,1,85,0|0,0:0|0:0,0:0:0:0:
363,149,238343,2,0,L|447:158,1,85,0|0,0:0|0:0,0:0:0:0:
365,228,238686,2,0,L|425:289,1,85,0|0,0:0|0:0,0:0:0:0:
292,194,239028,6,0,L|269:276,1,85,0|0,0:0|0:0,0:0:0:0:
185,140,239371,2,0,L|207:222,1,85,0|0,0:0|0:0,0:0:0:0:
107,106,239714,2,0,L|84:188,1,85,0|0,0:0|0:0,0:0:0:0:
0,52,240057,2,0,L|22:134,1,85,0|0,0:0|0:0,0:0:0:0:
202,35,240400,6,0,L|284:57,1,85,0|0,0:0|0:0,0:0:0:0:
147,149,240742,2,0,L|229:127,1,85,0|0,0:0|0:0,0:0:0:0:
158,275,241085,2,0,L|219:214,1,85,0|0,0:0|0:0,0:0:0:0:
230,379,241428,2,0,L|252:296,1,85,0|0,0:0|0:0,0:0:0:0:
413,138,241771,6,0,L|392:212,1,63.7500024318696,0|0,0:0|0:0,0:0:0:0:
99,246,242114,2,0,L|116:172,1,63.7500024318696,0|0,0:0|0:0,0:0:0:0:
413,138,242457,2,0,L|336:116,1,63.7500024318696,0|0,0:0|0:0,0:0:0:0:
99,246,242800,2,0,L|172:264,1,63.7500024318696,0|0,0:0|0:0,0:0:0:0:
256,267,243142,1,0,0:0:0:0:
180,192,243314,1,0,0:0:0:0:
256,116,243485,1,0,0:0:0:0:
331,192,243657,1,0,0:0:0:0:
217,230,243828,5,0,0:0:0:0:
217,153,244000,1,0,0:0:0:0:
294,153,244171,1,0,0:0:0:0:
294,230,244342,1,0,0:0:0:0:
256,192,244514,6,0,B|212:192|152:232|152:232|168:172|168:172|96:224|12:196|-8:116|16:80,1,407.999987548829,0|0,0:0|0:0,0:0:0:0:
100,104,247257,2,0,B|156:104|192:140|192:140|256:136|304:184|304:184|292:88|248:44|188:56,1,407.999987548829,0|0,0:0|0:0,0:0:0:0:
328,24,250000,2,0,B|380:84|311:144|311:144|412:132|412:132|282:221|248:361|248:361|148:290|100:326|57:301|57:301|13:275|29:176|127:199|127:199|125:106|221:106|240:165|240:165|250:208|210:243|231:298,1,1223.99996264649,0|0,0:0|0:0,0:0:0:0:
256,192,254200,12,0,255485,0:0:0:0:
