osu file format v14

[General]
AudioFilename: audio.mp3
AudioLeadIn: 0
PreviewTime: -1
Countdown: 1
SampleSet: Normal
StackLeniency: 0.4
Mode: 3
LetterboxInBreaks: 0
SpecialStyle: 0
WidescreenStoryboard: 0

[Editor]
DistanceSpacing: 0.5
BeatDivisor: 12
GridSize: 4
TimelineZoom: 3.499999

[Metadata]
Title:Taisetsu no Tsukurikata (Asterisk remix)
TitleUnicode:Taisetsu no Tsukurikata (Asterisk remix)
Artist:Touyama Nao & Hanazawa Kana
ArtistUnicode:Touyama Nao & Hanazawa Kana
Creator:Anatoly
Version:Usachii x Anatoly Insane
Source:Nisekoi
Tags:Chitoge and Odera^^
BeatmapID:939148
BeatmapSetID:435980

[Difficulty]
HPDrainRate:8
CircleSize:4
OverallDifficulty:8
ApproachRate:5
SliderMultiplier:1.60000000596046
SliderTickRate:1

[Events]
//Background and Video events
0,0,"bg.jpg",0,0
//Break Periods
2,187114,188485
//Storyboard Layer 0 (Background)
//Storyboard Layer 1 (Fail)
//Storyboard Layer 2 (Pass)
//Storyboard Layer 3 (Foreground)
//Storyboard Sound Samples

[TimingPoints]
400,342.857142857143,4,1,1,50,1,0

[HitObjects]
64,192,400,5,0,3:1:0:0:
192,192,400,1,0,3:3:0:0:
448,192,1085,1,8,3:3:0:0:
192,192,1771,1,0,3:3:0:0:
64,192,1771,1,0,3:3:0:0:
448,192,2457,1,8,3:3:0:0:
320,192,3142,1,0,3:3:0:0:
448,192,3142,1,0,3:3:0:0:
64,192,3828,1,8,3:3:0:0:
320,192,4514,1,0,3:3:0:0:
448,192,4514,1,0,3:3:0:0:
64,192,4857,1,8,2:2:0:0:
320,192,5200,1,8,2:2:0:0:
64,192,5542,1,8,2:2:0:0:
320,192,5885,1,0,3:3:0:0:
448,192,5885,1,0,3:3:0:0:
64,192,5885,1,0,3:3:0:0:
192,192,5885,1,0,3:3:0:0:
320,192,6571,1,8,3:3:0:0:
448,192,6571,1,8,3:3:0:0:
64,192,7257,1,0,3:3:0:0:
320,192,7942,1,8,3:3:0:0:
448,192,7942,1,8,3:3:0:0:
64,192,8628,1,0,3:3:0:0:
448,192,8971,1,8,2:2:0:0:
192,192,9314,1,8,2:2:0:0:
64,192,9657,1,8,2:2:0:0:
448,192,10000,1,8,2:2:0:0:
64,192,10342,1,8,3:3:0:0:
448,192,10685,1,0,3:3:0:0:
64,192,11028,1,0,3:3:0:0:
320,192,11371,1,0,3:3:0:0:
448,192,11371,1,0,3:3:0:0:
64,192,11371,1,0,3:3:0:0:
192,192,11371,1,0,3:3:0:0:
320,192,11714,1,8,3:3:0:0:
448,192,11714,1,8,3:3:0:0:
64,192,11885,1,0,3:3:0:0:
192,192,11971,1,0,3:3:0:0:
320,192,12057,1,0,3:3:0:0:
64,192,12228,1,0,0:0:0:0:
192,192,12228,1,0,0:0:0:0:
448,192,12400,1,0,0:0:0:0:
320,192,12742,1,0,3:3:0:0:
448,192,12742,1,0,3:3:0:0:
64,192,12914,1,0,3:3:0:0:
320,192,13085,1,8,3:3:0:0:
448,192,13257,1,0,3:3:0:0:
320,192,13428,1,0,3:3:0:0:
64,192,13600,1,0,3:3:0:0:
192,192,13685,1,0,3:3:0:0:
320,192,13771,1,0,3:3:0:0:
320,192,13942,1,0,3:3:0:0:
64,192,13942,1,0,3:3:0:0:
192,192,13942,1,0,3:3:0:0:
192,192,14114,1,0,3:3:0:0:
320,192,14114,1,0,3:3:0:0:
448,192,14285,1,0,0:0:0:0:
320,192,14285,1,0,0:0:0:0:
64,192,14457,1,0,0:0:0:0:
448,192,14800,1,8,3:2:0:0:
320,192,14971,1,8,3:2:0:0:
192,192,15142,1,8,3:2:0:0:
64,192,15314,1,8,3:2:0:0:
320,192,15485,1,0,3:3:0:0:
192,192,15485,1,0,3:3:0:0:
448,192,15485,1,0,0:0:0:0:
64,192,15657,1,0,0:0:0:0:
64,192,15828,1,8,3:3:0:0:
192,192,16000,1,0,3:3:0:0:
320,192,16171,1,0,3:3:0:0:
448,192,16342,1,0,3:3:0:0:
448,192,16514,1,8,3:3:0:0:
192,192,16514,1,8,3:3:0:0:
64,192,16514,1,8,3:3:0:0:
320,192,16857,1,0,3:3:0:0:
64,192,16857,1,0,0:0:0:0:
448,192,17028,1,0,3:3:0:0:
192,192,17028,1,0,0:0:0:0:
320,192,17200,1,0,3:3:0:0:
64,192,17200,1,0,0:0:0:0:
192,192,17371,1,0,3:3:0:0:
320,192,17371,1,0,0:0:0:0:
64,192,17542,1,0,3:3:0:0:
448,192,17542,1,0,0:0:0:0:
448,192,17714,1,8,3:2:0:0:
320,192,17714,1,8,3:2:0:0:
192,192,17885,1,8,3:2:0:0:
64,192,17885,1,8,3:2:0:0:
320,192,18057,1,8,3:2:0:0:
192,192,18057,1,0,0:0:0:0:
448,192,18228,1,0,0:0:0:0:
320,192,18228,1,0,0:0:0:0:
64,192,18400,1,0,0:0:0:0:
320,192,18400,1,0,0:0:0:0:
448,192,18571,1,0,3:3:0:0:
192,192,18571,1,0,0:0:0:0:
192,192,18742,1,0,0:0:0:0:
320,192,18742,1,0,0:0:0:0:
64,192,18914,1,0,3:3:0:0:
320,192,18914,1,0,0:0:0:0:
192,192,19085,1,0,0:0:0:0:
448,192,19085,1,0,0:0:0:0:
192,192,19257,1,0,0:0:0:0:
320,192,19257,1,0,0:0:0:0:
64,192,19428,1,8,3:2:0:0:
320,192,19428,1,0,0:0:0:0:
448,192,19600,1,0,3:2:0:0:
320,192,19600,1,0,0:0:0:0:
192,192,19600,1,0,0:0:0:0:
192,192,19771,1,0,3:3:0:0:
64,192,19771,1,0,3:3:0:0:
448,192,19771,1,0,0:0:0:0:
448,192,19942,1,0,3:3:0:0:
64,192,19942,1,0,0:0:0:0:
320,192,19942,1,0,0:0:0:0:
448,192,20114,1,0,3:3:0:0:
64,192,20114,1,0,0:0:0:0:
192,192,20114,1,0,0:0:0:0:
192,192,20285,1,0,0:0:0:0:
320,192,20285,1,0,0:0:0:0:
448,192,20285,1,0,0:0:0:0:
192,192,20457,1,0,3:3:0:0:
448,192,20457,1,0,0:0:0:0:
64,192,20457,1,0,0:0:0:0:
320,192,20628,1,0,3:3:0:0:
64,192,20628,1,0,0:0:0:0:
448,192,20628,1,0,0:0:0:0:
448,192,20800,1,0,0:0:0:0:
320,192,20800,1,0,0:0:0:0:
64,192,20800,1,0,0:0:0:0:
64,192,20942,1,0,0:0:0:0:
192,192,20942,1,0,0:0:0:0:
320,192,21028,1,0,0:0:0:0:
448,192,21028,1,0,0:0:0:0:
64,192,21114,1,0,0:0:0:0:
192,192,21114,1,0,0:0:0:0:
320,192,21200,1,0,0:0:0:0:
448,192,21200,1,0,0:0:0:0:
64,192,21285,1,0,0:0:0:0:
192,192,21285,1,0,0:0:0:0:
320,192,21371,1,0,0:0:0:0:
448,192,21371,1,0,0:0:0:0:
192,192,21457,1,0,0:0:0:0:
64,192,21457,1,0,0:0:0:0:
320,192,21542,1,0,0:0:0:0:
448,192,21542,1,0,0:0:0:0:
192,192,21628,1,0,0:0:0:0:
64,192,21628,1,0,0:0:0:0:
320,192,21714,1,0,0:0:0:0:
448,192,21714,1,0,0:0:0:0:
64,192,21800,1,0,0:0:0:0:
192,192,21800,1,0,0:0:0:0:
320,192,21885,1,0,0:0:0:0:
448,192,21885,1,0,0:0:0:0:
320,192,22342,1,0,3:3:0:0:
448,192,22342,1,0,0:0:0:0:
64,192,22342,1,0,0:0:0:0:
192,192,22514,1,8,3:2:0:0:
448,192,22514,1,0,0:0:0:0:
448,192,22685,1,8,3:2:0:0:
64,192,22685,1,0,0:0:0:0:
192,192,22857,1,8,3:2:0:0:
320,192,22857,1,0,0:0:0:0:
192,192,23028,1,0,3:3:0:0:
64,192,23028,1,0,3:3:0:0:
320,192,23200,1,0,3:3:0:0:
64,192,23200,1,0,0:0:0:0:
192,192,23371,1,0,0:0:0:0:
448,192,23371,1,0,0:0:0:0:
448,192,23542,1,0,3:3:0:0:
192,192,23542,1,0,3:3:0:0:
64,192,23542,1,0,3:3:0:0:
320,192,23714,1,8,3:2:0:0:
192,192,23714,1,0,0:0:0:0:
320,192,23885,1,8,3:2:0:0:
64,192,24057,1,8,3:2:0:0:
320,192,24228,1,8,3:2:0:0:
192,192,24400,1,0,3:3:0:0:
64,192,24400,1,0,3:3:0:0:
448,192,24400,1,0,0:0:0:0:
192,192,24571,1,0,0:0:0:0:
320,192,24571,1,0,0:0:0:0:
448,192,24742,1,0,3:3:0:0:
320,192,24742,1,0,0:0:0:0:
192,192,24914,1,8,3:3:0:0:
64,192,24914,1,8,3:3:0:0:
320,192,25085,1,0,3:3:0:0:
448,192,25257,1,0,3:3:0:0:
192,192,25428,1,0,3:3:0:0:
64,192,25428,1,0,3:3:0:0:
448,192,25600,1,8,3:2:0:0:
320,192,25600,1,0,0:0:0:0:
192,192,25771,1,0,0:0:0:0:
64,192,25771,1,0,0:0:0:0:
320,192,25942,1,0,0:0:0:0:
448,192,25942,1,0,0:0:0:0:
448,192,26114,1,0,3:3:0:0:
320,192,26114,1,0,3:3:0:0:
64,192,26285,1,8,2:2:0:0:
320,192,26457,1,8,2:2:0:0:
320,192,26628,1,0,0:0:0:0:
64,192,26800,1,0,0:0:0:0:
192,192,26800,1,0,0:0:0:0:
192,192,26971,1,0,3:3:0:0:
64,192,26971,1,0,3:3:0:0:
448,192,27142,1,0,3:3:0:0:
192,192,27142,1,0,3:3:0:0:
64,192,27142,1,0,3:3:0:0:
448,192,27314,1,0,3:3:0:0:
448,192,27485,1,0,3:3:0:0:
320,192,27657,1,0,3:3:0:0:
448,192,27828,1,0,3:3:0:0:
64,192,27828,1,0,3:3:0:0:
320,192,28000,1,0,3:3:0:0:
320,192,28171,1,0,3:3:0:0:
448,192,28171,1,0,3:3:0:0:
64,192,28171,1,0,3:3:0:0:
192,192,28171,1,0,3:3:0:0:
448,192,28342,1,0,3:3:0:0:
64,192,28514,1,0,3:3:0:0:
192,192,28685,1,0,3:3:0:0:
320,192,28685,1,0,3:3:0:0:
448,192,28857,1,8,2:2:0:0:
192,192,29028,1,8,2:2:0:0:
192,192,29200,1,8,2:2:0:0:
320,192,29200,1,0,0:0:0:0:
448,192,29371,1,0,3:3:0:0:
320,192,29371,1,0,3:3:0:0:
192,192,29542,1,0,3:3:0:0:
320,192,29714,1,0,0:0:0:0:
448,192,29885,1,0,0:0:0:0:
448,192,30057,1,0,3:3:0:0:
192,192,30057,1,0,0:0:0:0:
192,192,30228,1,0,3:3:0:0:
64,192,30228,1,0,0:0:0:0:
192,192,30400,1,0,3:3:0:0:
320,192,30400,1,0,0:0:0:0:
448,192,30571,1,0,3:3:0:0:
320,192,30571,1,0,0:0:0:0:
448,192,30742,1,0,3:3:0:0:
64,192,30742,1,0,3:3:0:0:
320,192,30914,1,0,3:3:0:0:
448,192,31085,1,0,0:0:0:0:
320,192,31257,1,0,0:0:0:0:
192,192,31257,1,0,0:0:0:0:
64,192,31257,1,0,0:0:0:0:
448,192,31428,1,0,0:0:0:0:
320,192,31600,1,0,3:3:0:0:
64,192,31771,1,0,3:3:0:0:
64,192,31942,1,0,3:3:0:0:
448,192,31942,1,0,3:3:0:0:
320,192,31942,1,0,3:3:0:0:
320,192,32114,1,0,3:3:0:0:
64,192,32285,128,0,33314:3:3:0:0:
448,192,32285,1,0,0:0:0:0:
192,192,32285,1,0,0:0:0:0:
448,192,32457,128,0,32971:3:3:0:0:
320,192,32628,1,0,0:0:0:0:
192,192,32800,1,0,3:3:0:0:
192,192,32971,1,0,3:3:0:0:
320,192,33057,1,0,3:3:0:0:
448,192,33142,1,0,3:3:0:0:
320,192,33228,1,0,3:3:0:0:
448,192,33314,1,0,3:3:0:0:
320,192,33485,1,0,3:3:0:0:
448,192,33485,1,0,3:3:0:0:
64,192,33485,1,0,3:3:0:0:
320,192,33657,1,0,3:3:0:0:
448,192,33657,1,0,3:3:0:0:
64,192,33828,1,0,3:3:0:0:
192,192,33828,1,0,3:3:0:0:
64,192,34000,1,0,3:3:0:0:
448,192,34000,1,0,3:3:0:0:
320,192,34171,1,0,3:3:0:0:
448,192,34342,1,0,0:0:0:0:
320,192,34514,1,0,0:0:0:0:
320,192,34685,1,0,3:3:0:0:
64,192,34685,1,0,0:0:0:0:
320,192,34857,1,0,3:3:0:0:
192,192,34857,1,0,0:0:0:0:
320,192,35028,1,0,0:0:0:0:
448,192,35028,1,0,0:0:0:0:
320,192,35200,1,0,3:3:0:0:
64,192,35371,1,0,3:3:0:0:
192,192,35371,1,0,0:0:0:0:
64,192,35542,1,0,0:0:0:0:
320,192,35542,1,0,0:0:0:0:
320,192,35714,1,0,3:3:0:0:
448,192,35885,1,0,3:3:0:0:
64,192,35885,1,0,3:3:0:0:
192,192,36057,1,0,3:3:0:0:
320,192,36228,1,0,0:0:0:0:
448,192,36228,1,0,0:0:0:0:
448,192,36400,1,0,3:3:0:0:
64,192,36400,1,0,0:0:0:0:
192,192,36571,1,0,3:3:0:0:
320,192,36571,1,0,0:0:0:0:
448,192,36742,1,0,3:3:0:0:
192,192,36742,1,0,3:3:0:0:
192,192,36914,1,0,3:3:0:0:
64,192,37085,1,0,0:0:0:0:
192,192,37257,1,0,3:3:0:0:
64,192,37428,1,0,0:0:0:0:
320,192,37428,1,0,0:0:0:0:
448,192,37428,1,0,0:0:0:0:
448,192,37600,1,0,3:3:0:0:
64,192,37771,1,0,3:3:0:0:
192,192,37771,1,0,0:0:0:0:
320,192,37942,1,0,3:3:0:0:
448,192,37942,1,0,0:0:0:0:
320,192,38114,1,0,3:3:0:0:
192,192,38285,1,0,0:0:0:0:
448,192,38457,1,0,0:0:0:0:
64,192,38457,1,0,0:0:0:0:
320,192,38628,1,0,3:3:0:0:
192,192,38800,1,0,3:3:0:0:
64,192,38800,1,0,3:3:0:0:
448,192,38800,1,0,0:0:0:0:
320,192,38971,1,8,3:3:0:0:
448,192,38971,1,8,3:3:0:0:
64,192,38971,1,0,0:0:0:0:
64,192,39142,1,0,3:3:0:0:
192,192,39142,1,0,0:0:0:0:
448,192,39142,1,0,0:0:0:0:
320,192,39314,1,8,3:3:0:0:
448,192,39314,1,8,3:3:0:0:
192,192,39485,1,0,0:0:0:0:
64,192,39485,1,0,0:0:0:0:
320,192,39657,1,0,0:0:0:0:
448,192,39657,1,0,0:0:0:0:
192,192,39828,1,0,0:0:0:0:
64,192,39828,1,0,0:0:0:0:
448,192,40028,1,0,0:0:0:0:
320,192,40028,1,0,0:0:0:0:
64,192,40200,1,0,0:0:0:0:
192,192,40200,1,0,0:0:0:0:
448,192,40200,1,0,0:0:0:0:
64,192,40371,1,0,0:0:0:0:
320,192,40371,1,0,0:0:0:0:
448,192,40371,1,0,0:0:0:0:
64,192,40542,1,0,0:0:0:0:
192,192,40542,1,0,0:0:0:0:
448,192,40542,1,0,0:0:0:0:
64,192,40714,1,0,0:0:0:0:
320,192,40714,1,0,0:0:0:0:
448,192,40714,1,0,0:0:0:0:
192,192,40885,1,0,0:0:0:0:
448,192,40885,1,0,0:0:0:0:
320,192,41057,1,0,0:0:0:0:
64,192,41057,1,0,0:0:0:0:
192,192,41228,1,0,0:0:0:0:
448,192,41228,1,0,0:0:0:0:
320,192,41400,1,0,0:0:0:0:
64,192,41400,1,0,0:0:0:0:
448,192,41600,1,0,0:0:0:0:
64,192,41600,1,0,0:0:0:0:
192,192,41600,1,0,0:0:0:0:
320,192,41771,1,0,0:0:0:0:
448,192,41771,1,0,0:0:0:0:
64,192,41771,1,0,0:0:0:0:
192,192,41942,1,0,0:0:0:0:
320,192,41942,1,0,0:0:0:0:
448,192,41942,1,0,0:0:0:0:
64,192,42114,1,0,0:0:0:0:
192,192,42114,1,0,0:0:0:0:
448,192,42114,1,0,0:0:0:0:
64,192,42285,1,0,0:0:0:0:
320,192,42285,1,0,0:0:0:0:
448,192,42285,1,0,0:0:0:0:
192,192,42457,1,0,0:0:0:0:
320,192,42457,1,0,0:0:0:0:
320,192,42657,1,0,3:3:0:0:
64,192,42657,1,0,0:0:0:0:
448,192,42657,1,0,3:3:0:0:
192,192,42828,1,0,0:0:0:0:
320,192,42828,1,0,0:0:0:0:
192,192,43000,1,0,3:3:0:0:
64,192,43000,1,0,0:0:0:0:
320,192,43085,1,0,0:0:0:0:
448,192,43085,1,0,0:0:0:0:
64,192,43171,1,0,0:0:0:0:
192,192,43171,1,0,0:0:0:0:
320,192,43257,1,0,0:0:0:0:
448,192,43257,1,0,0:0:0:0:
64,192,43342,1,0,0:0:0:0:
192,192,43342,1,0,0:0:0:0:
320,192,43428,1,0,0:0:0:0:
448,192,43514,1,0,3:3:0:0:
320,192,43600,1,0,3:3:0:0:
192,192,43685,1,0,3:3:0:0:
64,192,43771,1,0,3:3:0:0:
192,192,43857,1,0,3:3:0:0:
320,192,43942,1,0,3:3:0:0:
64,192,44028,1,0,3:3:0:0:
448,192,44028,1,0,3:3:0:0:
192,192,44114,1,0,3:3:0:0:
320,192,44200,1,0,3:3:0:0:
320,192,44285,1,0,3:3:0:0:
448,192,44285,1,0,3:3:0:0:
64,192,44285,1,0,3:3:0:0:
192,192,44285,1,0,3:3:0:0:
320,192,44457,1,0,3:3:0:0:
448,192,44628,1,0,3:3:0:0:
192,192,44800,1,0,3:3:0:0:
192,192,44971,1,0,3:3:0:0:
64,192,44971,1,0,3:3:0:0:
320,192,45142,1,0,3:3:0:0:
448,192,45228,1,0,3:3:0:0:
320,192,45314,1,0,3:3:0:0:
64,192,45485,1,0,3:3:0:0:
320,192,45657,1,0,3:3:0:0:
448,192,45828,1,0,3:3:0:0:
192,192,46000,1,0,3:3:0:0:
64,192,46000,1,0,3:3:0:0:
320,192,46171,1,0,3:3:0:0:
448,192,46257,1,0,3:3:0:0:
448,192,46342,1,0,3:3:0:0:
320,192,46428,1,0,3:3:0:0:
192,192,46514,1,0,3:3:0:0:
320,192,46685,1,0,3:3:0:0:
192,192,46857,1,0,3:3:0:0:
64,192,46857,1,0,3:3:0:0:
64,192,47028,1,0,3:3:0:0:
448,192,47028,1,0,3:3:0:0:
320,192,47028,1,0,3:3:0:0:
192,192,47200,1,0,3:3:0:0:
64,192,47200,1,0,3:3:0:0:
320,192,47371,1,0,3:3:0:0:
64,192,47542,1,0,3:3:0:0:
448,192,47542,1,0,3:3:0:0:
320,192,47542,1,0,3:3:0:0:
320,192,47714,1,0,3:3:0:0:
320,192,47885,1,0,3:3:0:0:
448,192,47885,1,0,3:3:0:0:
64,192,47885,1,0,3:3:0:0:
320,192,48057,1,0,3:3:0:0:
448,192,48228,1,0,3:3:0:0:
192,192,48228,1,0,3:3:0:0:
64,192,48228,1,0,3:3:0:0:
320,192,48400,1,0,3:3:0:0:
448,192,48571,1,0,3:3:0:0:
320,192,48571,1,0,3:3:0:0:
192,192,48571,1,0,3:3:0:0:
64,192,48742,1,0,3:3:0:0:
320,192,48914,1,0,3:3:0:0:
192,192,48914,1,0,3:3:0:0:
64,192,48914,1,0,3:3:0:0:
320,192,49085,1,0,3:3:0:0:
448,192,49085,1,0,3:3:0:0:
64,192,49085,1,0,3:3:0:0:
192,192,49085,1,0,3:3:0:0:
320,192,49257,1,0,3:3:0:0:
448,192,49428,1,0,3:3:0:0:
320,192,49600,1,0,3:3:0:0:
192,192,49771,1,0,3:3:0:0:
64,192,49771,1,0,3:3:0:0:
320,192,49942,1,0,3:3:0:0:
192,192,50114,1,0,3:3:0:0:
64,192,50285,1,0,3:3:0:0:
192,192,50457,1,0,3:3:0:0:
320,192,50628,1,0,3:3:0:0:
320,192,50800,1,0,3:3:0:0:
448,192,50800,1,0,3:3:0:0:
192,192,50885,1,0,3:3:0:0:
64,192,50971,1,0,3:3:0:0:
192,192,51057,1,0,3:3:0:0:
448,192,51142,1,0,3:3:0:0:
320,192,51142,1,0,3:3:0:0:
448,192,51314,1,0,3:3:0:0:
64,192,51314,1,0,3:3:0:0:
320,192,51400,1,0,3:3:0:0:
192,192,51485,1,0,3:3:0:0:
64,192,51571,1,0,3:3:0:0:
448,192,51657,1,0,3:3:0:0:
320,192,51657,1,0,3:3:0:0:
320,192,51828,1,0,3:3:0:0:
64,192,52000,1,0,3:3:0:0:
320,192,52171,1,0,3:3:0:0:
192,192,52342,1,0,3:3:0:0:
192,192,52514,1,0,3:3:0:0:
64,192,52514,1,0,3:3:0:0:
448,192,52685,1,0,3:3:0:0:
320,192,52685,1,0,3:3:0:0:
192,192,52857,1,0,3:3:0:0:
64,192,52857,1,0,3:3:0:0:
320,192,53028,1,0,3:3:0:0:
64,192,53028,1,0,3:3:0:0:
320,192,53200,1,0,3:3:0:0:
320,192,53371,1,0,3:3:0:0:
448,192,53371,1,0,3:3:0:0:
192,192,53457,1,0,3:3:0:0:
64,192,53542,1,0,3:3:0:0:
192,192,53628,1,0,3:3:0:0:
320,192,53714,1,0,3:3:0:0:
192,192,53800,1,0,3:3:0:0:
448,192,53885,128,0,55257:3:3:0:0:
64,192,53885,1,0,3:3:0:0:
64,192,54057,1,0,3:3:0:0:
320,192,54228,1,0,3:3:0:0:
64,192,54400,1,0,3:3:0:0:
192,192,54571,1,0,3:3:0:0:
64,192,54742,1,0,3:3:0:0:
320,192,54828,1,0,3:3:0:0:
192,192,54914,1,0,3:3:0:0:
64,192,54914,1,0,3:3:0:0:
192,192,55085,1,0,3:3:0:0:
64,192,55085,1,0,3:3:0:0:
192,192,55257,1,0,3:3:0:0:
64,192,55257,1,0,3:3:0:0:
320,192,55428,1,0,3:3:0:0:
448,192,55428,1,0,3:3:0:0:
64,192,55428,1,0,3:3:0:0:
192,192,55428,1,0,3:3:0:0:
448,192,55600,1,0,3:3:0:0:
192,192,55771,1,0,3:3:0:0:
64,192,55771,1,0,3:3:0:0:
320,192,55942,1,0,3:3:0:0:
192,192,56028,1,0,3:3:0:0:
64,192,56114,1,0,3:3:0:0:
192,192,56285,1,0,3:3:0:0:
64,192,56285,1,0,3:3:0:0:
320,192,56457,1,0,0:0:0:0:
448,192,56457,1,0,0:0:0:0:
192,192,56628,1,0,3:3:0:0:
448,192,56628,1,0,0:0:0:0:
320,192,56800,1,0,0:0:0:0:
192,192,56800,1,0,0:0:0:0:
192,192,56971,1,0,3:3:0:0:
64,192,56971,1,0,3:3:0:0:
448,192,57142,1,0,3:3:0:0:
320,192,57142,1,0,3:3:0:0:
192,192,57314,1,0,3:3:0:0:
64,192,57314,1,0,3:3:0:0:
320,192,57400,1,0,3:3:0:0:
448,192,57485,1,0,3:3:0:0:
320,192,57571,1,0,3:3:0:0:
192,192,57657,1,0,3:3:0:0:
64,192,57742,1,0,3:3:0:0:
192,192,57828,1,0,3:3:0:0:
448,192,58000,1,0,3:3:0:0:
320,192,58000,1,0,3:3:0:0:
192,192,58171,1,0,3:3:0:0:
64,192,58171,1,0,3:3:0:0:
448,192,58342,1,0,3:3:0:0:
320,192,58342,1,0,3:3:0:0:
320,192,58685,1,0,3:3:0:0:
448,192,58685,1,0,3:3:0:0:
64,192,58685,1,0,3:3:0:0:
192,192,58685,1,0,3:3:0:0:
448,192,58857,1,0,3:3:0:0:
320,192,59028,1,0,3:3:0:0:
448,192,59028,1,0,3:3:0:0:
64,192,59028,1,0,3:3:0:0:
192,192,59028,1,0,3:3:0:0:
64,192,59200,1,0,3:3:0:0:
192,192,59371,1,0,3:3:0:0:
320,192,59457,1,0,3:3:0:0:
448,192,59542,1,0,3:3:0:0:
320,192,59628,1,0,3:3:0:0:
192,192,59714,1,0,3:3:0:0:
64,192,59714,1,0,3:3:0:0:
320,192,59885,1,0,3:3:0:0:
448,192,59971,1,0,3:3:0:0:
320,192,60057,1,0,3:3:0:0:
192,192,60142,1,0,3:3:0:0:
64,192,60228,1,0,3:3:0:0:
192,192,60400,1,0,3:3:0:0:
448,192,60571,1,0,3:3:0:0:
448,192,60742,1,0,3:3:0:0:
192,192,60742,1,0,3:3:0:0:
64,192,60742,1,0,3:3:0:0:
320,192,60914,1,0,3:3:0:0:
448,192,61085,1,0,3:3:0:0:
64,192,61257,1,0,3:3:0:0:
448,192,61428,1,0,3:3:0:0:
320,192,61600,1,0,3:3:0:0:
192,192,61685,1,0,3:3:0:0:
64,192,61771,1,0,3:3:0:0:
192,192,61857,1,0,3:3:0:0:
320,192,61942,1,0,3:3:0:0:
448,192,62028,1,0,3:3:0:0:
192,192,62114,1,0,3:3:0:0:
64,192,62114,1,0,3:3:0:0:
320,192,62285,1,0,3:3:0:0:
192,192,62457,1,0,3:3:0:0:
64,192,62457,1,0,3:3:0:0:
320,192,62628,1,0,3:3:0:0:
448,192,62800,1,0,3:3:0:0:
320,192,62800,1,0,3:3:0:0:
64,192,62971,1,0,3:3:0:0:
192,192,63142,1,0,3:3:0:0:
64,192,63142,1,0,3:3:0:0:
320,192,63314,1,0,3:3:0:0:
192,192,63485,1,0,3:3:0:0:
320,192,63485,1,0,3:3:0:0:
64,192,63657,1,0,3:3:0:0:
192,192,63742,1,0,3:3:0:0:
320,192,63828,1,0,3:3:0:0:
448,192,63914,1,0,3:3:0:0:
320,192,64000,1,0,3:3:0:0:
192,192,64085,1,0,3:3:0:0:
64,192,64171,1,0,3:3:0:0:
192,192,64257,1,0,0:0:0:0:
64,192,64342,1,0,0:0:0:0:
448,192,64428,1,0,0:0:0:0:
320,192,64514,1,0,3:3:0:0:
192,192,64600,1,0,3:3:0:0:
320,192,64685,1,0,3:3:0:0:
448,192,64771,1,0,3:3:0:0:
192,192,64857,1,0,3:3:0:0:
320,192,64857,1,0,3:3:0:0:
64,192,65028,1,0,3:3:0:0:
192,192,65114,1,0,3:3:0:0:
320,192,65200,1,0,3:3:0:0:
448,192,65285,1,0,3:3:0:0:
64,192,65371,1,0,3:3:0:0:
192,192,65371,1,0,3:3:0:0:
320,192,65371,1,0,3:3:0:0:
320,192,65542,1,0,3:3:0:0:
320,192,65714,1,0,3:3:0:0:
448,192,65714,1,0,3:3:0:0:
192,192,65714,1,0,3:3:0:0:
64,192,65714,1,0,3:3:0:0:
320,192,65885,1,0,3:3:0:0:
192,192,66057,1,0,3:3:0:0:
320,192,66228,1,0,3:3:0:0:
64,192,66228,1,0,0:0:0:0:
320,192,66400,1,0,3:3:0:0:
448,192,66571,1,0,3:3:0:0:
320,192,66742,1,0,3:3:0:0:
64,192,66914,1,0,3:3:0:0:
192,192,66914,1,0,3:3:0:0:
320,192,67085,1,0,3:3:0:0:
448,192,67257,1,0,3:3:0:0:
320,192,67257,1,0,3:3:0:0:
192,192,67428,1,0,3:3:0:0:
192,192,67600,1,0,3:3:0:0:
64,192,67600,1,0,3:3:0:0:
320,192,67771,1,0,3:3:0:0:
448,192,67942,1,0,3:3:0:0:
320,192,67942,1,0,3:3:0:0:
448,192,68114,1,0,3:3:0:0:
320,192,68285,1,0,3:3:0:0:
192,192,68457,1,0,3:3:0:0:
64,192,68628,1,0,3:3:0:0:
320,192,68800,1,0,0:0:0:0:
192,192,68971,1,0,0:0:0:0:
64,192,68971,1,0,0:0:0:0:
448,192,69057,1,0,3:3:0:0:
320,192,69142,1,0,3:3:0:0:
192,192,69228,1,0,3:3:0:0:
64,192,69314,1,0,3:3:0:0:
192,192,69400,1,0,3:3:0:0:
320,192,69485,1,0,3:3:0:0:
64,192,69485,1,0,0:0:0:0:
192,192,69571,1,0,3:3:0:0:
448,192,69571,1,0,0:0:0:0:
64,192,69657,1,0,3:3:0:0:
320,192,69657,1,0,0:0:0:0:
192,192,69742,1,0,0:0:0:0:
448,192,69828,1,0,0:0:0:0:
320,192,69914,1,0,3:3:0:0:
192,192,70000,1,0,0:0:0:0:
64,192,70085,1,0,0:0:0:0:
320,192,70171,1,0,3:3:0:0:
448,192,70171,1,0,3:3:0:0:
192,192,70257,1,0,3:3:0:0:
64,192,70342,1,0,3:3:0:0:
192,192,70400,1,0,3:3:0:0:
320,192,70457,1,0,3:3:0:0:
448,192,70514,1,0,3:3:0:0:
64,192,70571,1,0,3:3:0:0:
192,192,70628,1,0,3:3:0:0:
320,192,70685,1,0,3:3:0:0:
448,192,70742,1,0,3:3:0:0:
64,192,70800,1,0,3:3:0:0:
192,192,70857,1,0,3:3:0:0:
320,192,70914,1,0,3:3:0:0:
448,192,70971,1,0,3:3:0:0:
320,192,71028,1,0,0:0:0:0:
192,192,71085,1,0,0:0:0:0:
64,192,71142,1,0,0:0:0:0:
64,192,71314,1,0,0:0:0:0:
192,192,71314,1,0,0:0:0:0:
320,192,71314,1,0,0:0:0:0:
448,192,71314,1,0,0:0:0:0:
320,192,71714,1,8,2:2:0:0:
192,192,71714,1,0,0:0:0:0:
192,192,71885,1,8,2:2:0:0:
64,192,71885,1,0,0:0:0:0:
192,192,72057,1,0,0:0:0:0:
320,192,72057,1,0,0:0:0:0:
320,192,72228,1,0,3:3:0:0:
448,192,72228,1,0,0:0:0:0:
448,192,72400,1,0,3:3:0:0:
320,192,72571,1,8,3:3:0:0:
448,192,72571,1,8,3:3:0:0:
64,192,72571,1,8,3:3:0:0:
192,192,72571,1,8,3:3:0:0:
320,192,72742,1,0,3:3:0:0:
192,192,72742,1,0,0:0:0:0:
448,192,72914,1,0,3:3:0:0:
320,192,72914,1,0,0:0:0:0:
192,192,73085,1,8,3:3:0:0:
64,192,73085,1,0,0:0:0:0:
320,192,73171,1,0,3:3:0:0:
192,192,73257,1,0,3:3:0:0:
64,192,73342,1,0,3:3:0:0:
192,192,73428,1,8,3:3:0:0:
320,192,73428,1,8,3:3:0:0:
320,192,73600,1,0,3:3:0:0:
448,192,73771,1,0,3:3:0:0:
192,192,73771,1,0,0:0:0:0:
320,192,73857,1,0,3:3:0:0:
192,192,73942,1,0,3:3:0:0:
64,192,74028,1,0,3:3:0:0:
448,192,74114,1,8,3:3:0:0:
192,192,74114,1,8,3:3:0:0:
320,192,74114,1,0,0:0:0:0:
448,192,74285,1,0,3:3:0:0:
448,192,74457,1,0,3:3:0:0:
192,192,74457,1,0,3:3:0:0:
64,192,74457,1,0,3:3:0:0:
448,192,74628,1,0,3:3:0:0:
320,192,74628,1,0,3:3:0:0:
64,192,74628,1,0,3:3:0:0:
320,192,74800,1,8,2:2:0:0:
192,192,74800,1,0,0:0:0:0:
192,192,74971,1,8,2:2:0:0:
64,192,74971,1,0,0:0:0:0:
320,192,75142,1,0,0:0:0:0:
448,192,75142,1,0,0:0:0:0:
320,192,75314,1,0,3:3:0:0:
192,192,75314,1,0,0:0:0:0:
64,192,75485,1,8,3:3:0:0:
320,192,75485,1,8,3:3:0:0:
448,192,75485,1,8,3:3:0:0:
448,192,75657,1,0,3:3:0:0:
192,192,75657,1,0,3:3:0:0:
64,192,75657,1,0,3:3:0:0:
64,192,75828,1,0,3:3:0:0:
448,192,75828,1,0,3:3:0:0:
320,192,75828,1,0,3:3:0:0:
448,192,76000,1,8,3:3:0:0:
64,192,76000,1,8,3:3:0:0:
448,192,76171,1,8,2:2:0:0:
192,192,76342,1,8,3:3:0:0:
320,192,76342,1,8,3:3:0:0:
64,192,76428,1,0,3:3:0:0:
192,192,76514,1,0,3:3:0:0:
320,192,76600,1,0,3:3:0:0:
448,192,76685,1,0,3:3:0:0:
64,192,76857,1,0,3:3:0:0:
192,192,76857,1,0,3:3:0:0:
320,192,76857,1,0,3:3:0:0:
448,192,77028,1,0,3:3:0:0:
320,192,77028,1,0,3:3:0:0:
64,192,77200,1,0,3:3:0:0:
448,192,77200,1,0,0:0:0:0:
192,192,77200,1,0,0:0:0:0:
192,192,77371,1,0,3:3:0:0:
320,192,77371,1,0,3:3:0:0:
192,192,77542,1,0,3:3:0:0:
448,192,77542,1,0,0:0:0:0:
448,192,77714,1,0,3:3:0:0:
64,192,77714,1,0,0:0:0:0:
320,192,77885,1,0,3:3:0:0:
192,192,77885,1,0,3:3:0:0:
320,192,78057,1,0,3:3:0:0:
320,192,78228,1,0,3:3:0:0:
192,192,78228,1,0,3:3:0:0:
192,192,78400,1,0,3:3:0:0:
448,192,78400,1,0,0:0:0:0:
448,192,78571,1,0,0:0:0:0:
64,192,78571,1,0,0:0:0:0:
320,192,78742,1,0,3:3:0:0:
192,192,78742,1,0,3:3:0:0:
448,192,78828,1,0,3:3:0:0:
320,192,78914,1,0,3:3:0:0:
320,192,79085,1,0,3:3:0:0:
192,192,79085,1,0,3:3:0:0:
192,192,79257,1,0,3:3:0:0:
320,192,79257,1,0,3:3:0:0:
448,192,79428,1,0,3:3:0:0:
64,192,79428,1,0,3:3:0:0:
448,192,79600,1,0,3:3:0:0:
64,192,79600,1,0,3:3:0:0:
192,192,79600,1,0,3:3:0:0:
192,192,79771,1,0,3:3:0:0:
320,192,79771,1,0,3:3:0:0:
64,192,79942,1,0,3:3:0:0:
448,192,80114,1,0,3:3:0:0:
320,192,80114,1,0,3:3:0:0:
192,192,80285,1,0,3:3:0:0:
64,192,80285,1,0,3:3:0:0:
320,192,80485,1,0,0:0:0:0:
192,192,80485,1,0,0:0:0:0:
448,192,80657,1,0,0:0:0:0:
64,192,80657,1,0,0:0:0:0:
192,192,80828,1,0,0:0:0:0:
320,192,80828,1,0,0:0:0:0:
448,192,81000,1,0,0:0:0:0:
192,192,81000,1,0,0:0:0:0:
64,192,81171,1,0,0:0:0:0:
320,192,81171,1,0,0:0:0:0:
192,192,81342,1,0,0:0:0:0:
448,192,81514,1,0,0:0:0:0:
320,192,81685,1,0,0:0:0:0:
192,192,81857,1,0,0:0:0:0:
64,192,82028,1,0,0:0:0:0:
448,192,82171,1,0,0:0:0:0:
448,192,82257,1,0,0:0:0:0:
64,192,82342,1,0,0:0:0:0:
192,192,82342,1,0,0:0:0:0:
192,192,82685,1,0,3:3:0:0:
64,192,82685,1,0,0:0:0:0:
320,192,82857,1,0,3:3:0:0:
192,192,82857,1,0,0:0:0:0:
320,192,83028,1,0,3:3:0:0:
448,192,83028,1,0,0:0:0:0:
192,192,83200,1,0,3:3:0:0:
64,192,83285,1,0,3:3:0:0:
192,192,83371,1,0,3:3:0:0:
320,192,83457,1,0,3:3:0:0:
448,192,83542,1,0,3:3:0:0:
320,192,83714,1,0,3:3:0:0:
64,192,83714,1,0,0:0:0:0:
192,192,83800,1,0,0:0:0:0:
320,192,83885,1,0,0:0:0:0:
192,192,83971,1,0,0:0:0:0:
320,192,84057,1,0,0:0:0:0:
64,192,84057,1,0,0:0:0:0:
320,192,84228,1,0,3:3:0:0:
192,192,84228,1,0,3:3:0:0:
192,192,84400,1,0,3:3:0:0:
64,192,84400,1,0,3:3:0:0:
448,192,84571,1,0,3:3:0:0:
320,192,84571,1,0,3:3:0:0:
192,192,84742,1,0,3:3:0:0:
448,192,84742,1,0,0:0:0:0:
320,192,84914,1,0,3:3:0:0:
64,192,84914,1,0,3:3:0:0:
192,192,84914,1,0,3:3:0:0:
320,192,85085,1,0,3:3:0:0:
448,192,85085,1,0,3:3:0:0:
192,192,85085,1,0,3:3:0:0:
320,192,85257,1,0,3:3:0:0:
64,192,85257,1,0,0:0:0:0:
64,192,85428,1,0,3:3:0:0:
320,192,85600,1,0,3:3:0:0:
448,192,85685,1,0,3:3:0:0:
320,192,85771,1,0,3:3:0:0:
192,192,85857,1,0,3:3:0:0:
64,192,85942,1,0,3:3:0:0:
448,192,86114,1,0,3:3:0:0:
320,192,86114,1,0,3:3:0:0:
192,192,86285,1,0,3:3:0:0:
64,192,86285,1,0,3:3:0:0:
320,192,86457,1,0,3:3:0:0:
448,192,86457,1,0,3:3:0:0:
64,192,86457,1,0,0:0:0:0:
192,192,86628,1,0,3:3:0:0:
320,192,86628,1,0,0:0:0:0:
448,192,86800,1,0,3:3:0:0:
320,192,86800,1,0,0:0:0:0:
192,192,86971,1,0,3:3:0:0:
64,192,86971,1,0,0:0:0:0:
192,192,87142,1,0,3:3:0:0:
320,192,87142,1,0,0:0:0:0:
448,192,87314,1,0,3:3:0:0:
64,192,87314,1,0,3:3:0:0:
192,192,87314,1,0,3:3:0:0:
320,192,87485,1,0,3:3:0:0:
448,192,87485,1,0,3:3:0:0:
448,192,87657,1,0,3:3:0:0:
64,192,87657,1,0,3:3:0:0:
64,192,87828,1,0,3:3:0:0:
192,192,87828,1,0,3:3:0:0:
320,192,87828,1,0,3:3:0:0:
448,192,87828,1,0,3:3:0:0:
64,192,88228,1,0,0:0:0:0:
320,192,88228,1,0,0:0:0:0:
192,192,88228,1,0,0:0:0:0:
448,192,88228,1,0,0:0:0:0:
192,192,88542,1,0,0:0:0:0:
320,192,88542,1,0,0:0:0:0:
448,192,88542,1,0,0:0:0:0:
320,192,88885,1,0,0:0:0:0:
448,192,88885,1,0,0:0:0:0:
64,192,88885,1,0,0:0:0:0:
192,192,89228,1,0,0:0:0:0:
64,192,89228,1,0,0:0:0:0:
448,192,89228,1,0,0:0:0:0:
320,192,89571,1,0,0:0:0:0:
192,192,89571,1,0,0:0:0:0:
448,192,89571,1,0,0:0:0:0:
64,192,89657,1,0,0:0:0:0:
192,192,89742,1,0,0:0:0:0:
320,192,89828,1,0,0:0:0:0:
448,192,89914,1,0,0:0:0:0:
64,192,90000,1,0,0:0:0:0:
192,192,90085,1,0,0:0:0:0:
320,192,90171,1,0,0:0:0:0:
448,192,90257,1,0,0:0:0:0:
192,192,90257,1,0,0:0:0:0:
64,192,90257,1,0,0:0:0:0:
64,192,90657,1,0,0:0:0:0:
192,192,90657,1,0,0:0:0:0:
448,192,90657,1,0,0:0:0:0:
448,192,90914,1,0,3:3:0:0:
64,192,90914,1,0,3:3:0:0:
192,192,90914,1,0,3:3:0:0:
320,192,90914,128,0,91257:0:0:0:0:
448,192,91085,1,0,0:0:0:0:
64,192,91085,1,0,0:0:0:0:
448,192,91257,1,0,3:3:0:0:
192,192,91257,1,0,3:3:0:0:
64,192,91257,128,0,91600:0:0:0:0:
192,192,91428,1,0,0:0:0:0:
320,192,91428,1,0,0:0:0:0:
320,192,91600,1,0,3:3:0:0:
192,192,91600,128,0,91942:0:0:0:0:
448,192,91600,1,0,0:0:0:0:
320,192,91771,1,0,0:0:0:0:
64,192,91771,1,0,0:0:0:0:
320,192,91942,1,0,3:3:0:0:
448,192,91942,1,0,3:3:0:0:
64,192,91942,1,0,3:3:0:0:
320,192,92114,1,0,0:0:0:0:
192,192,92114,1,0,0:0:0:0:
448,192,92285,1,8,2:2:0:0:
320,192,92285,1,0,0:0:0:0:
192,192,92371,1,0,0:0:0:0:
64,192,92371,1,0,0:0:0:0:
320,192,92457,1,0,0:0:0:0:
448,192,92457,1,0,0:0:0:0:
192,192,92542,1,0,0:0:0:0:
64,192,92542,1,0,0:0:0:0:
320,192,92628,1,0,0:0:0:0:
448,192,92628,1,0,0:0:0:0:
192,192,92714,1,0,0:0:0:0:
64,192,92714,1,0,0:0:0:0:
320,192,92800,1,0,0:0:0:0:
448,192,92800,1,0,0:0:0:0:
192,192,92885,1,0,0:0:0:0:
64,192,92885,1,0,0:0:0:0:
320,192,92971,1,0,0:0:0:0:
448,192,92971,1,0,0:0:0:0:
192,192,93057,1,0,0:0:0:0:
64,192,93057,1,0,0:0:0:0:
320,192,93142,1,0,0:0:0:0:
448,192,93142,1,0,0:0:0:0:
192,192,93228,1,0,0:0:0:0:
64,192,93228,1,0,0:0:0:0:
320,192,93314,1,0,0:0:0:0:
448,192,93314,1,0,0:0:0:0:
64,192,93657,1,0,3:3:0:0:
192,192,93657,1,0,0:0:0:0:
320,192,93657,1,0,0:0:0:0:
448,192,93657,1,0,0:0:0:0:
320,192,93828,1,8,2:2:0:0:
64,192,93828,1,0,0:0:0:0:
192,192,93914,1,8,2:2:0:0:
64,192,94000,1,8,2:2:0:0:
192,192,94085,1,8,2:2:0:0:
320,192,94171,1,8,2:2:0:0:
64,192,94171,1,0,0:0:0:0:
448,192,94257,1,8,2:2:0:0:
320,192,94342,1,8,2:2:0:0:
192,192,94428,1,8,2:2:0:0:
448,192,94428,1,0,0:0:0:0:
64,192,94428,1,0,0:0:0:0:
320,192,94514,1,8,2:2:0:0:
448,192,94600,1,8,2:2:0:0:
320,192,94685,1,8,2:2:0:0:
64,192,94685,1,0,0:0:0:0:
448,192,94771,1,0,0:0:0:0:
64,192,94857,1,8,2:2:0:0:
192,192,94857,1,0,0:0:0:0:
448,192,94942,1,8,2:2:0:0:
320,192,95028,1,8,2:2:0:0:
64,192,95028,1,0,0:0:0:0:
192,192,95114,1,8,2:2:0:0:
64,192,95200,1,8,2:2:0:0:
448,192,95200,1,0,0:0:0:0:
192,192,95285,1,8,2:2:0:0:
320,192,95371,1,8,2:2:0:0:
64,192,95371,1,0,0:0:0:0:
448,192,95457,1,8,2:2:0:0:
320,192,95542,1,8,2:2:0:0:
192,192,95628,1,8,2:2:0:0:
320,192,95714,1,8,2:2:0:0:
448,192,95714,1,0,0:0:0:0:
192,192,95800,1,8,2:2:0:0:
64,192,95885,1,8,2:2:0:0:
448,192,95885,1,0,0:0:0:0:
320,192,95885,1,0,0:0:0:0:
192,192,95971,1,8,2:2:0:0:
320,192,96057,1,8,2:2:0:0:
448,192,96142,1,8,2:2:0:0:
320,192,96228,1,8,2:2:0:0:
192,192,96314,1,8,2:2:0:0:
64,192,96314,1,0,0:0:0:0:
448,192,96314,1,0,0:0:0:0:
320,192,96400,1,8,2:2:0:0:
448,192,96485,1,8,2:2:0:0:
320,192,96571,1,8,2:2:0:0:
64,192,96571,1,0,0:0:0:0:
192,192,96657,1,8,2:2:0:0:
64,192,96742,1,8,2:2:0:0:
448,192,96742,1,0,0:0:0:0:
192,192,96828,1,8,2:2:0:0:
320,192,96914,1,8,2:2:0:0:
64,192,96914,1,0,0:0:0:0:
448,192,97000,1,8,2:2:0:0:
320,192,97085,1,8,2:2:0:0:
64,192,97085,1,0,0:0:0:0:
192,192,97171,1,8,2:2:0:0:
64,192,97257,1,8,2:2:0:0:
448,192,97257,1,0,0:0:0:0:
192,192,97342,1,8,2:2:0:0:
320,192,97428,1,8,3:3:0:0:
64,192,97428,1,0,0:0:0:0:
448,192,97514,1,0,3:3:0:0:
320,192,97600,1,0,3:3:0:0:
192,192,97685,1,0,3:3:0:0:
64,192,97685,1,0,0:0:0:0:
448,192,97685,1,0,0:0:0:0:
320,192,97771,1,0,3:3:0:0:
448,192,97857,1,0,3:3:0:0:
192,192,97857,1,0,0:0:0:0:
320,192,97942,1,0,3:3:0:0:
192,192,98028,1,0,3:3:0:0:
64,192,98114,1,8,3:3:0:0:
320,192,98114,1,0,0:0:0:0:
448,192,98114,1,0,0:0:0:0:
192,192,98200,1,0,3:3:0:0:
320,192,98285,1,0,3:3:0:0:
448,192,98371,1,0,3:3:0:0:
192,192,98371,1,0,0:0:0:0:
320,192,98457,1,0,3:3:0:0:
192,192,98542,1,0,3:3:0:0:
64,192,98542,1,0,0:0:0:0:
320,192,98628,1,0,3:3:0:0:
448,192,98714,1,0,3:3:0:0:
320,192,98800,1,0,3:3:0:0:
192,192,98885,1,0,3:3:0:0:
448,192,98885,1,0,0:0:0:0:
64,192,98971,1,0,3:3:0:0:
320,192,98971,1,0,0:0:0:0:
192,192,99057,1,0,3:3:0:0:
448,192,99142,1,0,3:3:0:0:
64,192,99142,1,0,0:0:0:0:
320,192,99228,1,8,2:2:0:0:
192,192,99314,1,8,2:2:0:0:
64,192,99400,1,8,2:2:0:0:
192,192,99485,1,8,2:2:0:0:
448,192,99485,1,0,0:0:0:0:
320,192,99571,1,8,2:2:0:0:
448,192,99657,1,8,2:2:0:0:
320,192,99742,1,8,2:2:0:0:
192,192,99828,1,0,3:3:0:0:
64,192,99828,1,0,3:3:0:0:
320,192,99914,1,8,2:2:0:0:
448,192,100000,1,8,2:2:0:0:
320,192,100085,1,8,2:2:0:0:
192,192,100171,1,8,2:2:0:0:
64,192,100257,1,8,2:2:0:0:
192,192,100342,1,8,2:2:0:0:
320,192,100428,1,8,2:2:0:0:
64,192,100514,1,0,3:3:0:0:
448,192,100514,1,0,0:0:0:0:
192,192,100600,1,8,2:2:0:0:
320,192,100685,1,8,2:2:0:0:
192,192,100771,1,0,0:0:0:0:
448,192,100771,1,0,0:0:0:0:
320,192,100857,1,8,2:2:0:0:
192,192,100942,1,8,2:2:0:0:
64,192,101028,1,8,2:2:0:0:
192,192,101114,1,8,2:2:0:0:
448,192,101200,1,0,3:3:0:0:
320,192,101200,1,0,3:3:0:0:
320,192,101371,1,8,3:3:0:0:
192,192,101371,1,0,0:0:0:0:
192,192,101542,1,0,3:3:0:0:
64,192,101542,1,0,0:0:0:0:
192,192,101714,1,0,0:0:0:0:
320,192,101714,1,0,0:0:0:0:
448,192,101885,1,0,3:3:0:0:
448,192,102057,1,0,3:3:0:0:
320,192,102142,1,0,3:3:0:0:
192,192,102228,1,0,3:3:0:0:
64,192,102314,1,0,3:3:0:0:
448,192,102400,1,0,3:3:0:0:
320,192,102400,1,0,0:0:0:0:
192,192,102400,1,0,0:0:0:0:
64,192,102571,1,0,3:3:0:0:
192,192,102571,1,0,0:0:0:0:
320,192,102571,1,0,0:0:0:0:
448,192,102742,1,0,3:3:0:0:
320,192,102742,1,0,0:0:0:0:
192,192,102742,1,0,0:0:0:0:
64,192,102914,1,0,3:3:0:0:
192,192,102914,1,0,0:0:0:0:
320,192,102914,1,0,0:0:0:0:
320,192,103085,1,0,3:3:0:0:
448,192,103085,1,0,3:3:0:0:
192,192,103257,1,0,3:3:0:0:
64,192,103257,1,0,3:3:0:0:
448,192,103428,1,0,3:3:0:0:
320,192,103428,1,0,3:3:0:0:
448,192,103600,1,0,3:3:0:0:
320,192,103600,1,0,3:3:0:0:
192,192,103771,1,0,3:3:0:0:
64,192,103771,1,0,3:3:0:0:
448,192,103942,1,0,3:3:0:0:
320,192,103942,1,0,3:3:0:0:
192,192,104114,1,0,3:3:0:0:
64,192,104114,1,0,3:3:0:0:
192,192,104285,1,0,3:3:0:0:
64,192,104285,1,0,3:3:0:0:
448,192,104457,1,8,3:3:0:0:
320,192,104457,1,8,3:3:0:0:
320,192,104628,1,0,3:3:0:0:
448,192,104628,1,0,3:3:0:0:
64,192,104628,1,0,3:3:0:0:
192,192,104628,1,0,3:3:0:0:
192,192,104800,1,0,3:3:0:0:
320,192,104800,1,0,3:3:0:0:
448,192,104885,1,0,3:3:0:0:
320,192,104971,1,0,3:3:0:0:
192,192,105057,1,0,3:3:0:0:
448,192,105057,1,0,0:0:0:0:
64,192,105142,1,0,3:3:0:0:
192,192,105228,1,0,3:3:0:0:
320,192,105314,1,0,3:3:0:0:
64,192,105314,1,0,0:0:0:0:
448,192,105400,1,0,3:3:0:0:
192,192,105400,1,0,0:0:0:0:
320,192,105485,1,0,3:3:0:0:
192,192,105571,1,0,3:3:0:0:
64,192,105657,1,0,3:3:0:0:
448,192,105657,1,0,0:0:0:0:
192,192,105742,1,8,2:2:0:0:
320,192,105828,1,8,2:2:0:0:
64,192,105828,1,0,0:0:0:0:
192,192,105914,1,0,0:0:0:0:
320,192,106000,1,8,2:2:0:0:
192,192,106085,1,8,2:2:0:0:
64,192,106171,1,8,2:2:0:0:
192,192,106257,1,8,2:2:0:0:
448,192,106342,1,0,3:3:0:0:
320,192,106342,1,0,3:3:0:0:
64,192,106342,1,0,0:0:0:0:
192,192,106428,1,0,0:0:0:0:
320,192,106514,1,8,2:2:0:0:
192,192,106600,1,8,2:2:0:0:
64,192,106685,1,8,2:2:0:0:
448,192,106685,1,0,0:0:0:0:
192,192,106771,1,8,2:2:0:0:
448,192,106857,1,0,3:3:0:0:
320,192,106857,1,0,3:3:0:0:
192,192,106942,1,0,0:0:0:0:
320,192,107028,1,0,0:0:0:0:
64,192,107114,1,8,2:2:0:0:
192,192,107200,1,8,2:2:0:0:
320,192,107285,1,8,2:2:0:0:
64,192,107371,1,0,0:0:0:0:
448,192,107457,1,8,2:2:0:0:
192,192,107457,1,0,0:0:0:0:
320,192,107542,1,8,2:2:0:0:
192,192,107628,1,8,2:2:0:0:
320,192,107714,1,8,2:2:0:0:
448,192,107800,1,8,2:2:0:0:
192,192,107800,1,0,0:0:0:0:
320,192,107885,1,8,2:2:0:0:
192,192,107971,1,8,2:2:0:0:
64,192,108057,1,0,3:3:0:0:
320,192,108057,1,0,0:0:0:0:
192,192,108142,1,0,0:0:0:0:
320,192,108228,1,0,0:0:0:0:
192,192,108314,1,0,0:0:0:0:
64,192,108400,1,8,2:2:0:0:
192,192,108485,1,8,2:2:0:0:
448,192,108485,1,0,0:0:0:0:
320,192,108571,1,0,0:0:0:0:
448,192,108657,1,0,0:0:0:0:
64,192,108742,1,0,3:3:0:0:
192,192,108742,1,0,3:3:0:0:
320,192,108828,1,0,0:0:0:0:
448,192,108914,1,0,0:0:0:0:
192,192,108914,1,0,0:0:0:0:
320,192,109000,1,0,0:0:0:0:
192,192,109085,1,0,0:0:0:0:
64,192,109171,1,0,0:0:0:0:
192,192,109257,1,0,0:0:0:0:
320,192,109342,1,0,0:0:0:0:
192,192,109428,1,0,0:0:0:0:
64,192,109428,1,0,0:0:0:0:
448,192,109428,1,0,0:0:0:0:
192,192,109600,1,8,3:3:0:0:
64,192,109600,1,8,3:3:0:0:
448,192,109771,1,0,3:3:0:0:
320,192,109771,1,0,3:3:0:0:
448,192,109942,1,0,3:3:0:0:
64,192,109942,1,0,3:3:0:0:
192,192,110028,1,8,2:2:0:0:
320,192,110114,1,8,2:2:0:0:
448,192,110200,1,8,2:2:0:0:
64,192,110200,1,0,0:0:0:0:
192,192,110200,1,0,0:0:0:0:
320,192,110285,1,8,2:2:0:0:
192,192,110371,1,8,2:2:0:0:
64,192,110457,1,8,2:2:0:0:
320,192,110457,1,0,0:0:0:0:
192,192,110542,1,8,2:2:0:0:
448,192,110628,1,0,3:3:0:0:
320,192,110628,1,0,3:3:0:0:
64,192,110628,1,0,0:0:0:0:
192,192,110714,1,0,0:0:0:0:
320,192,110800,1,8,2:2:0:0:
192,192,110885,1,8,2:2:0:0:
64,192,110971,1,8,2:2:0:0:
320,192,110971,1,0,0:0:0:0:
448,192,110971,1,0,0:0:0:0:
192,192,111057,1,8,2:2:0:0:
320,192,111142,1,8,2:2:0:0:
64,192,111228,1,0,0:0:0:0:
448,192,111314,1,0,3:3:0:0:
192,192,111314,1,0,0:0:0:0:
320,192,111400,1,0,0:0:0:0:
64,192,111485,1,8,2:2:0:0:
192,192,111571,1,0,0:0:0:0:
448,192,111657,1,0,0:0:0:0:
64,192,111657,1,0,0:0:0:0:
320,192,111742,1,0,0:0:0:0:
64,192,111885,1,0,0:0:0:0:
192,192,111942,1,0,0:0:0:0:
320,192,112000,1,0,0:0:0:0:
64,192,112057,1,0,3:3:0:0:
448,192,112057,1,0,0:0:0:0:
192,192,112114,1,0,3:3:0:0:
320,192,112171,1,0,3:3:0:0:
448,192,112228,1,0,3:3:0:0:
64,192,112285,1,0,3:3:0:0:
192,192,112371,1,0,0:0:0:0:
320,192,112457,1,0,0:0:0:0:
448,192,112542,1,0,0:0:0:0:
64,192,112628,1,0,3:3:0:0:
64,192,112742,1,0,3:3:0:0:
320,192,112857,1,0,3:3:0:0:
448,192,112857,1,0,3:3:0:0:
192,192,112857,1,0,3:3:0:0:
320,192,113028,1,8,3:3:0:0:
192,192,113028,1,8,3:3:0:0:
448,192,113200,1,0,3:3:0:0:
64,192,113200,1,0,3:3:0:0:
192,192,113371,1,0,3:3:0:0:
320,192,113371,1,0,3:3:0:0:
64,192,113542,1,0,3:3:0:0:
448,192,113542,1,0,3:3:0:0:
320,192,113714,1,8,3:3:0:0:
192,192,113714,1,8,3:3:0:0:
64,192,113885,1,0,3:3:0:0:
448,192,113885,1,0,3:3:0:0:
320,192,114057,1,0,3:3:0:0:
192,192,114057,1,0,3:3:0:0:
320,192,114228,1,0,3:3:0:0:
448,192,114228,1,0,3:3:0:0:
64,192,114314,1,0,0:0:0:0:
192,192,114314,1,0,0:0:0:0:
320,192,114400,1,0,0:0:0:0:
448,192,114400,1,0,0:0:0:0:
64,192,114485,1,0,0:0:0:0:
192,192,114485,1,0,0:0:0:0:
320,192,114571,1,0,0:0:0:0:
448,192,114571,1,0,0:0:0:0:
64,192,114657,1,0,0:0:0:0:
192,192,114657,1,0,0:0:0:0:
320,192,114742,1,0,0:0:0:0:
448,192,114742,1,0,0:0:0:0:
192,192,114828,1,0,0:0:0:0:
64,192,114828,1,0,0:0:0:0:
320,192,114914,1,0,0:0:0:0:
448,192,114914,1,0,0:0:0:0:
192,192,115000,1,0,0:0:0:0:
64,192,115000,1,0,0:0:0:0:
320,192,115085,1,0,0:0:0:0:
448,192,115085,1,0,0:0:0:0:
192,192,115171,1,0,0:0:0:0:
64,192,115171,1,0,0:0:0:0:
320,192,115257,1,0,0:0:0:0:
448,192,115257,1,0,0:0:0:0:
320,192,115600,1,0,3:3:0:0:
448,192,115600,1,0,3:3:0:0:
64,192,115600,1,0,3:3:0:0:
192,192,115600,1,0,3:3:0:0:
64,192,115942,1,0,3:3:0:0:
448,192,116114,1,0,3:3:0:0:
320,192,116114,1,0,3:3:0:0:
192,192,116285,1,0,3:3:0:0:
64,192,116285,1,0,3:3:0:0:
448,192,116457,1,0,3:3:0:0:
64,192,116628,128,0,117314:3:3:0:0:
192,192,116628,1,0,0:0:0:0:
320,192,116628,1,0,0:0:0:0:
192,192,116800,1,0,0:0:0:0:
448,192,116971,128,0,117314:3:3:0:0:
320,192,116971,1,0,0:0:0:0:
192,192,117142,1,0,3:3:0:0:
320,192,117485,1,8,3:3:0:0:
64,192,117657,1,0,3:3:0:0:
192,192,117657,1,0,0:0:0:0:
448,192,117828,1,0,3:3:0:0:
320,192,117828,1,0,3:3:0:0:
64,192,118000,1,8,3:3:0:0:
192,192,118000,1,0,0:0:0:0:
192,192,118342,1,0,3:3:0:0:
64,192,118342,1,0,3:3:0:0:
448,192,118685,1,0,3:3:0:0:
320,192,118685,1,0,3:3:0:0:
192,192,119028,1,0,3:3:0:0:
64,192,119028,1,0,3:3:0:0:
448,192,119371,1,0,3:3:0:0:
320,192,119371,1,0,3:3:0:0:
192,192,119714,1,0,3:3:0:0:
64,192,119714,1,0,3:3:0:0:
448,192,120057,1,0,3:3:0:0:
320,192,120057,1,0,3:3:0:0:
192,192,120228,1,8,2:2:0:0:
64,192,120400,1,8,2:2:0:0:
320,192,120571,1,8,2:2:0:0:
448,192,120742,1,8,2:2:0:0:
320,192,120914,1,8,2:2:0:0:
192,192,121085,1,8,2:2:0:0:
192,192,121257,1,0,3:3:0:0:
64,192,121257,1,0,3:3:0:0:
320,192,121428,1,8,3:3:0:0:
192,192,121600,1,0,3:3:0:0:
64,192,121600,1,0,3:3:0:0:
448,192,121771,1,0,3:3:0:0:
320,192,121771,1,0,3:3:0:0:
448,192,121942,1,0,3:3:0:0:
320,192,121942,1,0,3:3:0:0:
192,192,122028,1,0,3:3:0:0:
64,192,122114,1,8,3:3:0:0:
192,192,122200,1,0,3:3:0:0:
320,192,122285,1,0,3:3:0:0:
448,192,122371,1,0,3:3:0:0:
192,192,122457,1,0,3:3:0:0:
64,192,122457,1,0,3:3:0:0:
448,192,122628,1,0,3:3:0:0:
320,192,122628,1,0,3:3:0:0:
192,192,122800,1,0,3:3:0:0:
64,192,122800,1,0,3:3:0:0:
320,192,122885,1,0,3:3:0:0:
448,192,122971,1,0,3:3:0:0:
320,192,123057,1,0,3:3:0:0:
192,192,123142,1,0,3:3:0:0:
64,192,123228,1,0,3:3:0:0:
192,192,123314,1,0,3:3:0:0:
320,192,123400,1,0,3:3:0:0:
192,192,123485,1,0,3:3:0:0:
448,192,123485,1,0,0:0:0:0:
320,192,123657,1,0,3:3:0:0:
64,192,123828,128,0,124000:3:3:0:0:
448,192,124000,1,0,3:3:0:0:
320,192,124171,1,0,3:3:0:0:
192,192,124171,1,0,3:3:0:0:
448,192,124342,1,0,3:3:0:0:
320,192,124514,1,0,3:3:0:0:
448,192,124514,1,0,3:3:0:0:
64,192,124514,1,0,3:3:0:0:
192,192,124514,1,0,3:3:0:0:
448,192,124685,128,0,125200:3:3:0:0:
64,192,124857,1,0,3:3:0:0:
64,192,125028,1,0,3:3:0:0:
64,192,125200,1,0,3:3:0:0:
320,192,125371,1,0,3:3:0:0:
64,192,125542,128,0,126571:3:3:0:0:
192,192,125542,1,0,0:0:0:0:
448,192,125542,1,0,0:0:0:0:
320,192,125742,1,0,0:0:0:0:
192,192,125914,1,0,0:0:0:0:
448,192,126057,1,0,3:3:0:0:
448,192,126228,1,0,3:3:0:0:
448,192,126400,1,0,3:3:0:0:
448,192,126571,1,0,3:3:0:0:
192,192,126742,1,0,3:3:0:0:
448,192,126914,1,0,3:3:0:0:
64,192,127085,1,0,3:3:0:0:
448,192,127085,1,0,0:0:0:0:
320,192,127257,1,0,3:3:0:0:
192,192,127428,1,0,3:3:0:0:
64,192,127428,1,0,0:0:0:0:
320,192,127600,1,0,0:0:0:0:
192,192,127771,1,0,0:0:0:0:
320,192,127942,1,0,3:3:0:0:
64,192,127942,1,0,0:0:0:0:
448,192,128114,1,0,3:3:0:0:
64,192,128114,1,0,3:3:0:0:
320,192,128285,1,0,3:3:0:0:
192,192,128285,1,0,3:3:0:0:
320,192,128457,1,0,3:3:0:0:
192,192,128457,1,0,3:3:0:0:
448,192,128628,1,0,3:3:0:0:
64,192,128628,1,0,3:3:0:0:
192,192,128800,1,0,3:3:0:0:
320,192,128800,1,0,0:0:0:0:
320,192,128971,1,0,3:3:0:0:
448,192,129142,1,0,3:3:0:0:
192,192,129314,1,0,3:3:0:0:
320,192,129314,1,0,3:3:0:0:
448,192,129657,1,0,3:3:0:0:
64,192,129657,1,0,3:3:0:0:
320,192,130000,1,0,3:3:0:0:
192,192,130000,1,0,3:3:0:0:
448,192,130342,1,0,3:3:0:0:
64,192,130342,1,0,3:3:0:0:
320,192,130685,1,0,3:3:0:0:
192,192,130685,1,0,3:3:0:0:
448,192,131028,1,0,3:3:0:0:
64,192,131028,1,0,3:3:0:0:
320,192,131200,1,0,3:3:0:0:
192,192,131371,1,0,3:3:0:0:
64,192,131542,1,0,3:3:0:0:
320,192,131714,1,0,3:3:0:0:
320,192,131885,1,0,3:3:0:0:
192,192,131971,1,0,3:3:0:0:
64,192,132057,1,0,3:3:0:0:
448,192,132142,1,0,0:0:0:0:
192,192,132142,1,0,0:0:0:0:
64,192,132228,1,0,0:0:0:0:
320,192,132314,1,0,3:3:0:0:
192,192,132400,1,0,3:3:0:0:
320,192,132485,1,0,3:3:0:0:
448,192,132571,1,0,3:3:0:0:
320,192,132657,1,0,3:3:0:0:
320,192,132742,1,0,3:3:0:0:
192,192,132828,1,0,3:3:0:0:
64,192,132914,1,0,3:3:0:0:
192,192,133000,1,0,3:3:0:0:
320,192,133085,1,0,3:3:0:0:
448,192,133171,1,0,3:3:0:0:
320,192,133257,1,0,3:3:0:0:
192,192,133342,1,0,3:3:0:0:
64,192,133428,1,0,3:3:0:0:
448,192,133428,1,0,0:0:0:0:
320,192,133514,1,0,3:3:0:0:
448,192,133600,1,0,3:3:0:0:
320,192,133685,1,0,3:3:0:0:
192,192,133771,1,0,3:3:0:0:
448,192,133771,1,0,0:0:0:0:
64,192,133857,1,0,3:3:0:0:
192,192,133942,1,0,3:3:0:0:
320,192,134028,1,0,3:3:0:0:
192,192,134114,1,0,3:3:0:0:
64,192,134200,1,0,3:3:0:0:
320,192,134285,1,0,3:3:0:0:
192,192,134285,1,0,3:3:0:0:
448,192,134371,1,0,3:3:0:0:
320,192,134457,1,0,3:3:0:0:
192,192,134542,1,0,3:3:0:0:
448,192,134628,1,0,3:3:0:0:
64,192,134628,1,0,3:3:0:0:
320,192,134714,1,0,3:3:0:0:
192,192,134800,1,0,3:3:0:0:
64,192,134885,1,0,3:3:0:0:
192,192,134971,1,0,3:3:0:0:
64,192,135028,1,0,3:3:0:0:
192,192,135085,1,0,3:3:0:0:
320,192,135142,1,0,3:3:0:0:
448,192,135200,1,0,3:3:0:0:
64,192,135257,1,0,3:3:0:0:
192,192,135314,1,0,3:3:0:0:
320,192,135371,1,0,3:3:0:0:
448,192,135428,1,0,3:3:0:0:
320,192,135485,1,0,3:3:0:0:
192,192,135542,1,0,3:3:0:0:
64,192,135600,1,0,3:3:0:0:
448,192,135657,1,0,3:3:0:0:
320,192,135714,1,0,3:3:0:0:
192,192,135771,1,0,3:3:0:0:
64,192,135828,1,0,3:3:0:0:
192,192,135885,1,0,3:3:0:0:
320,192,135942,1,0,3:3:0:0:
448,192,136000,1,0,3:3:0:0:
320,192,136057,1,0,0:0:0:0:
192,192,136114,1,0,0:0:0:0:
64,192,136114,1,0,0:0:0:0:
320,192,136342,1,0,3:3:0:0:
192,192,136342,1,0,3:3:0:0:
448,192,136514,1,0,3:3:0:0:
64,192,136514,1,0,3:3:0:0:
320,192,136685,1,0,3:3:0:0:
320,192,136857,1,0,3:3:0:0:
448,192,136857,1,0,3:3:0:0:
64,192,136857,1,0,3:3:0:0:
192,192,136857,1,0,3:3:0:0:
320,192,137028,1,0,3:3:0:0:
64,192,137200,1,0,3:3:0:0:
448,192,137371,1,0,3:3:0:0:
320,192,137542,1,0,3:3:0:0:
448,192,137542,1,0,3:3:0:0:
64,192,137542,1,0,3:3:0:0:
192,192,137542,1,0,3:3:0:0:
320,192,137714,1,0,3:3:0:0:
320,192,137885,1,0,3:3:0:0:
448,192,137885,1,0,3:3:0:0:
192,192,137885,1,0,3:3:0:0:
64,192,137885,1,0,3:3:0:0:
320,192,138057,1,0,3:3:0:0:
320,192,138228,1,0,3:3:0:0:
448,192,138228,1,0,3:3:0:0:
64,192,138228,1,0,3:3:0:0:
192,192,138228,1,0,3:3:0:0:
192,192,138400,1,0,3:3:0:0:
320,192,138571,1,0,3:3:0:0:
448,192,138571,1,0,3:3:0:0:
64,192,138571,1,0,3:3:0:0:
192,192,138571,1,0,3:3:0:0:
192,192,138742,1,0,3:3:0:0:
320,192,138914,1,0,3:3:0:0:
448,192,138914,1,0,3:3:0:0:
64,192,138914,1,0,3:3:0:0:
192,192,138914,1,0,3:3:0:0:
320,192,139085,1,0,3:3:0:0:
320,192,139257,1,0,3:3:0:0:
448,192,139257,1,0,3:3:0:0:
64,192,139257,1,0,3:3:0:0:
192,192,139257,1,0,3:3:0:0:
192,192,139428,1,0,3:3:0:0:
320,192,139600,1,0,3:3:0:0:
448,192,139600,1,0,3:3:0:0:
64,192,139600,1,0,3:3:0:0:
192,192,139600,1,0,3:3:0:0:
320,192,139771,1,0,3:3:0:0:
192,192,139942,1,0,3:3:0:0:
64,192,139942,1,0,3:3:0:0:
448,192,139942,1,0,3:3:0:0:
320,192,139942,1,0,3:3:0:0:
320,192,140114,1,0,3:3:0:0:
320,192,140285,1,0,3:3:0:0:
448,192,140285,1,0,3:3:0:0:
64,192,140285,1,0,3:3:0:0:
192,192,140285,1,0,3:3:0:0:
64,192,140457,1,0,0:0:0:0:
320,192,140457,1,0,0:0:0:0:
192,192,140457,1,0,0:0:0:0:
320,192,140628,1,0,3:3:0:0:
448,192,140628,1,0,3:3:0:0:
64,192,140628,1,0,3:3:0:0:
64,192,140800,1,0,0:0:0:0:
192,192,140800,1,0,0:0:0:0:
448,192,140800,1,0,0:0:0:0:
320,192,140971,1,0,0:0:0:0:
192,192,140971,1,0,0:0:0:0:
448,192,140971,1,0,0:0:0:0:
192,192,141142,1,0,0:0:0:0:
64,192,141142,1,0,0:0:0:0:
448,192,141142,1,0,0:0:0:0:
192,192,141314,1,0,0:0:0:0:
320,192,141314,1,0,0:0:0:0:
448,192,141314,1,0,0:0:0:0:
64,192,141485,1,0,0:0:0:0:
320,192,141485,1,0,0:0:0:0:
448,192,141485,1,0,0:0:0:0:
192,192,141600,1,0,3:3:0:0:
64,192,141657,1,0,3:3:0:0:
192,192,141714,1,0,3:3:0:0:
320,192,141771,1,0,3:3:0:0:
448,192,141828,1,0,3:3:0:0:
320,192,141885,1,0,3:3:0:0:
192,192,141942,1,0,3:3:0:0:
64,192,142000,1,0,3:3:0:0:
192,192,142057,1,0,3:3:0:0:
320,192,142114,1,0,3:3:0:0:
448,192,142171,1,0,3:3:0:0:
320,192,142228,1,0,3:3:0:0:
192,192,142285,1,0,3:3:0:0:
64,192,142342,1,0,3:3:0:0:
192,192,142400,1,0,0:0:0:0:
320,192,142457,1,0,3:3:0:0:
448,192,142514,1,0,3:3:0:0:
320,192,142571,1,0,3:3:0:0:
192,192,142628,1,0,3:3:0:0:
320,192,142685,1,0,3:3:0:0:
448,192,142685,1,0,3:3:0:0:
64,192,142685,1,0,3:3:0:0:
448,192,143028,1,0,3:3:0:0:
192,192,143028,1,0,3:3:0:0:
320,192,143028,1,0,3:3:0:0:
320,192,143371,1,0,3:3:0:0:
64,192,143371,1,0,3:3:0:0:
192,192,143371,1,0,3:3:0:0:
320,192,143542,1,0,3:3:0:0:
192,192,143542,1,0,0:0:0:0:
192,192,143714,1,0,3:3:0:0:
64,192,143714,1,0,0:0:0:0:
64,192,143885,1,0,3:3:0:0:
320,192,143885,1,0,0:0:0:0:
192,192,144057,1,0,3:3:0:0:
448,192,144057,1,0,0:0:0:0:
320,192,144228,1,0,3:3:0:0:
64,192,144228,1,0,0:0:0:0:
192,192,144400,1,0,3:3:0:0:
320,192,144400,1,0,0:0:0:0:
64,192,144571,1,0,3:3:0:0:
448,192,144571,1,0,0:0:0:0:
320,192,144742,1,0,3:3:0:0:
192,192,144742,1,0,3:3:0:0:
448,192,144914,1,0,0:0:0:0:
192,192,144914,1,0,0:0:0:0:
320,192,145085,1,0,3:3:0:0:
64,192,145085,1,0,0:0:0:0:
192,192,145257,1,0,0:0:0:0:
448,192,145257,1,0,0:0:0:0:
320,192,145428,1,0,3:3:0:0:
64,192,145428,1,0,3:3:0:0:
192,192,145428,1,0,3:3:0:0:
192,192,145600,1,0,3:3:0:0:
320,192,145600,1,0,0:0:0:0:
64,192,145771,1,0,3:3:0:0:
192,192,145771,1,0,3:3:0:0:
320,192,145942,1,0,3:3:0:0:
448,192,145942,1,0,0:0:0:0:
192,192,146114,1,0,3:3:0:0:
64,192,146114,1,0,0:0:0:0:
448,192,146285,1,0,3:3:0:0:
192,192,146285,1,0,0:0:0:0:
64,192,146457,1,0,3:3:0:0:
320,192,146457,1,0,0:0:0:0:
64,192,146628,1,0,3:3:0:0:
448,192,146800,1,0,3:3:0:0:
448,192,146971,1,0,3:3:0:0:
192,192,147142,1,0,3:3:0:0:
320,192,147142,1,0,3:3:0:0:
64,192,147314,1,0,3:3:0:0:
448,192,147314,1,0,3:3:0:0:
192,192,147485,1,0,3:3:0:0:
320,192,147485,1,0,3:3:0:0:
64,192,147828,1,0,3:3:0:0:
448,192,147828,1,0,3:3:0:0:
192,192,148171,1,0,3:3:0:0:
320,192,148171,1,0,3:3:0:0:
448,192,148171,1,0,0:0:0:0:
320,192,148342,1,0,3:3:0:0:
64,192,148342,1,0,0:0:0:0:
192,192,148514,1,0,3:3:0:0:
448,192,148514,1,0,0:0:0:0:
64,192,148685,1,0,3:3:0:0:
192,192,148685,1,0,0:0:0:0:
320,192,148857,1,0,3:3:0:0:
192,192,148857,1,0,0:0:0:0:
64,192,149028,1,0,3:3:0:0:
448,192,149028,1,0,0:0:0:0:
448,192,149200,1,0,3:3:0:0:
320,192,149371,1,0,3:3:0:0:
64,192,149371,1,0,0:0:0:0:
64,192,149542,1,0,3:3:0:0:
448,192,149542,1,0,0:0:0:0:
320,192,149714,1,0,3:3:0:0:
64,192,149885,1,0,3:3:0:0:
192,192,149885,1,0,0:0:0:0:
320,192,150057,1,0,3:3:0:0:
448,192,150057,1,0,0:0:0:0:
64,192,150228,1,0,3:3:0:0:
320,192,150228,1,0,0:0:0:0:
320,192,150400,1,0,3:3:0:0:
320,192,150571,1,0,3:3:0:0:
192,192,150742,1,0,3:3:0:0:
64,192,150914,1,0,3:3:0:0:
192,192,150914,1,0,3:3:0:0:
320,192,150914,1,0,3:3:0:0:
448,192,150914,1,0,3:3:0:0:
320,192,151085,1,0,3:3:0:0:
192,192,151257,1,0,0:0:0:0:
448,192,151257,1,0,0:0:0:0:
64,192,151428,1,0,0:0:0:0:
320,192,151428,1,0,0:0:0:0:
192,192,151600,1,0,0:0:0:0:
448,192,151600,1,0,0:0:0:0:
320,192,151771,1,0,0:0:0:0:
64,192,151771,1,0,0:0:0:0:
192,192,151942,1,0,0:0:0:0:
320,192,151942,1,0,0:0:0:0:
192,192,152114,1,0,0:0:0:0:
64,192,152114,1,0,0:0:0:0:
320,192,152285,1,0,0:0:0:0:
448,192,152285,1,0,0:0:0:0:
64,192,152457,1,0,0:0:0:0:
448,192,152457,1,0,0:0:0:0:
320,192,152628,1,0,0:0:0:0:
448,192,152800,1,0,0:0:0:0:
320,192,152971,1,0,0:0:0:0:
64,192,153142,1,0,0:0:0:0:
192,192,153142,1,0,0:0:0:0:
192,192,153314,1,0,3:3:0:0:
320,192,153314,1,0,3:3:0:0:
448,192,153314,1,0,3:3:0:0:
192,192,153485,1,0,3:3:0:0:
64,192,153485,1,0,0:0:0:0:
448,192,153657,1,0,3:3:0:0:
192,192,153657,1,0,0:0:0:0:
64,192,153828,1,0,0:0:0:0:
320,192,153828,1,0,0:0:0:0:
192,192,154000,1,0,3:3:0:0:
320,192,154000,1,0,0:0:0:0:
192,192,154171,1,0,3:3:0:0:
64,192,154342,1,0,0:0:0:0:
448,192,154342,1,0,0:0:0:0:
192,192,154514,1,0,3:3:0:0:
320,192,154514,1,0,0:0:0:0:
192,192,154685,1,0,3:3:0:0:
448,192,154685,1,0,0:0:0:0:
64,192,154857,1,0,0:0:0:0:
192,192,155028,1,0,0:0:0:0:
320,192,155200,1,0,0:0:0:0:
320,192,155371,1,0,0:0:0:0:
64,192,155371,1,0,0:0:0:0:
192,192,155542,1,0,3:3:0:0:
448,192,155542,1,0,0:0:0:0:
448,192,155714,1,0,3:3:0:0:
192,192,155714,1,0,3:3:0:0:
64,192,155714,1,0,3:3:0:0:
192,192,155885,1,0,0:0:0:0:
320,192,155885,1,0,0:0:0:0:
448,192,156057,1,0,0:0:0:0:
64,192,156057,1,0,0:0:0:0:
320,192,156228,1,0,0:0:0:0:
192,192,156228,1,0,0:0:0:0:
64,192,156400,1,0,3:3:0:0:
320,192,156400,1,0,0:0:0:0:
192,192,156571,1,0,3:3:0:0:
448,192,156571,1,0,0:0:0:0:
192,192,156742,1,0,3:3:0:0:
64,192,156742,1,0,0:0:0:0:
448,192,156914,1,0,0:0:0:0:
320,192,157085,1,0,0:0:0:0:
192,192,157257,1,0,0:0:0:0:
320,192,157428,1,0,3:3:0:0:
64,192,157428,1,0,0:0:0:0:
192,192,157600,1,0,0:0:0:0:
320,192,157600,1,0,0:0:0:0:
192,192,157771,1,0,0:0:0:0:
448,192,157771,1,0,0:0:0:0:
320,192,157942,1,0,3:3:0:0:
192,192,157942,1,0,0:0:0:0:
64,192,158114,1,0,0:0:0:0:
192,192,158114,1,0,0:0:0:0:
64,192,158457,1,0,3:3:0:0:
448,192,158457,1,0,3:3:0:0:
192,192,158800,1,0,3:3:0:0:
320,192,158800,1,0,3:3:0:0:
320,192,159142,1,0,3:3:0:0:
192,192,159142,1,0,0:0:0:0:
64,192,159142,1,0,0:0:0:0:
448,192,159228,1,0,3:3:0:0:
320,192,159314,1,0,3:3:0:0:
192,192,159400,1,0,3:3:0:0:
64,192,159485,1,0,3:3:0:0:
320,192,159571,1,0,3:3:0:0:
448,192,159657,1,0,3:3:0:0:
320,192,159742,1,0,3:3:0:0:
448,192,159828,1,0,3:3:0:0:
320,192,159914,1,0,3:3:0:0:
192,192,160000,1,0,3:3:0:0:
64,192,160085,1,0,3:3:0:0:
192,192,160171,1,0,3:3:0:0:
320,192,160257,1,0,3:3:0:0:
448,192,160342,1,0,3:3:0:0:
320,192,160428,1,0,3:3:0:0:
192,192,160514,1,0,3:3:0:0:
64,192,160600,1,0,3:3:0:0:
192,192,160685,1,0,3:3:0:0:
320,192,160771,1,0,3:3:0:0:
448,192,160857,1,0,0:0:0:0:
192,192,160942,1,0,3:3:0:0:
320,192,161028,1,0,3:3:0:0:
448,192,161114,1,0,3:3:0:0:
64,192,161200,1,0,3:3:0:0:
192,192,161200,1,0,3:3:0:0:
320,192,161285,1,0,3:3:0:0:
448,192,161371,1,0,3:3:0:0:
320,192,161457,1,0,3:3:0:0:
192,192,161542,1,0,3:3:0:0:
64,192,161628,1,0,3:3:0:0:
192,192,161714,1,0,3:3:0:0:
320,192,161800,1,0,3:3:0:0:
192,192,161885,1,0,3:3:0:0:
64,192,161971,1,0,3:3:0:0:
192,192,162057,1,0,3:3:0:0:
448,192,162228,1,0,3:3:0:0:
320,192,162285,1,0,3:3:0:0:
192,192,162342,1,0,3:3:0:0:
64,192,162400,1,0,3:3:0:0:
448,192,162457,1,0,3:3:0:0:
320,192,162514,1,0,3:3:0:0:
192,192,162571,1,0,3:3:0:0:
64,192,162628,1,0,3:3:0:0:
192,192,162685,1,0,3:3:0:0:
320,192,162742,1,0,3:3:0:0:
448,192,162800,1,0,3:3:0:0:
64,192,162857,1,0,3:3:0:0:
192,192,162914,1,0,3:3:0:0:
320,192,162971,1,0,3:3:0:0:
448,192,163028,1,0,3:3:0:0:
320,192,163085,1,0,3:3:0:0:
192,192,163142,1,0,3:3:0:0:
64,192,163200,1,0,3:3:0:0:
448,192,163257,1,0,3:3:0:0:
320,192,163314,1,0,3:3:0:0:
192,192,163371,1,0,3:3:0:0:
64,192,163428,1,0,3:3:0:0:
192,192,163485,1,0,3:3:0:0:
320,192,163542,1,0,3:3:0:0:
192,192,163600,1,0,3:3:0:0:
64,192,163657,1,0,0:0:0:0:
192,192,163714,1,0,0:0:0:0:
320,192,163771,1,0,0:0:0:0:
448,192,163828,1,0,0:0:0:0:
320,192,163885,1,0,0:0:0:0:
192,192,163942,1,0,0:0:0:0:
64,192,163942,1,0,0:0:0:0:
64,192,164285,1,0,3:3:0:0:
448,192,164285,1,0,3:3:0:0:
192,192,164628,1,0,3:3:0:0:
320,192,164628,1,0,3:3:0:0:
64,192,164971,1,0,3:3:0:0:
192,192,164971,1,0,3:3:0:0:
320,192,164971,1,0,3:3:0:0:
448,192,164971,1,0,3:3:0:0:
64,192,165314,1,0,3:3:0:0:
192,192,165314,1,0,3:3:0:0:
320,192,165314,1,0,3:3:0:0:
448,192,165314,1,0,3:3:0:0:
192,192,165657,1,0,3:3:0:0:
64,192,165828,1,0,3:3:0:0:
320,192,166000,1,0,3:3:0:0:
320,192,166171,1,0,3:3:0:0:
192,192,166342,1,0,3:3:0:0:
192,192,166685,1,0,3:3:0:0:
320,192,166685,1,0,3:3:0:0:
448,192,166685,1,0,3:3:0:0:
320,192,167028,1,0,3:3:0:0:
448,192,167200,1,0,3:3:0:0:
320,192,167371,1,0,3:3:0:0:
64,192,167542,1,0,3:3:0:0:
320,192,167714,1,0,3:3:0:0:
320,192,168057,1,0,3:3:0:0:
64,192,168057,1,0,3:3:0:0:
448,192,168057,1,0,3:3:0:0:
64,192,168400,1,0,3:3:0:0:
192,192,168571,1,0,3:3:0:0:
320,192,168742,1,0,3:3:0:0:
448,192,168914,1,0,3:3:0:0:
192,192,169085,1,0,3:3:0:0:
64,192,169428,1,0,3:3:0:0:
192,192,169428,1,0,3:3:0:0:
448,192,169428,1,0,3:3:0:0:
320,192,169771,1,0,3:3:0:0:
192,192,169942,1,0,3:3:0:0:
64,192,170114,1,0,3:3:0:0:
320,192,170285,1,0,3:3:0:0:
192,192,170457,1,0,3:3:0:0:
192,192,170800,1,0,3:3:0:0:
320,192,170800,1,0,3:3:0:0:
64,192,170800,1,0,3:3:0:0:
192,192,171142,1,0,3:3:0:0:
64,192,171314,1,0,3:3:0:0:
320,192,171485,1,0,3:3:0:0:
448,192,171657,1,0,3:3:0:0:
448,192,171828,1,0,3:3:0:0:
64,192,172171,1,0,3:3:0:0:
192,192,172171,1,0,3:3:0:0:
448,192,172171,1,0,3:3:0:0:
320,192,172514,1,0,3:3:0:0:
192,192,172685,1,0,3:3:0:0:
64,192,172857,1,0,3:3:0:0:
192,192,173028,1,0,3:3:0:0:
320,192,173200,1,0,3:3:0:0:
64,192,173542,1,0,3:3:0:0:
448,192,173542,1,0,3:3:0:0:
320,192,173542,1,0,3:3:0:0:
320,192,173885,1,0,3:3:0:0:
192,192,174057,1,0,3:3:0:0:
64,192,174228,1,0,3:3:0:0:
192,192,174400,1,0,3:3:0:0:
320,192,174571,1,0,3:3:0:0:
448,192,174742,1,0,3:3:0:0:
64,192,174914,1,0,3:3:0:0:
192,192,174971,1,0,3:3:0:0:
320,192,175028,1,0,3:3:0:0:
448,192,175085,1,0,3:3:0:0:
64,192,175142,1,0,3:3:0:0:
192,192,175200,1,0,3:3:0:0:
320,192,175257,1,0,3:3:0:0:
448,192,175314,1,0,3:3:0:0:
64,192,175371,1,0,3:3:0:0:
192,192,175428,1,0,3:3:0:0:
320,192,175485,1,0,3:3:0:0:
448,192,175542,1,0,3:3:0:0:
320,192,175600,1,0,3:3:0:0:
192,192,175657,1,0,3:3:0:0:
64,192,175714,1,0,3:3:0:0:
448,192,176000,1,0,0:0:0:0:
64,192,176000,128,0,177314:0:0:0:0:
320,192,177314,1,0,0:0:0:0:
192,192,177314,128,0,178685:0:0:0:0:
320,192,178685,128,0,180057:0:0:0:0:
64,192,178685,1,0,0:0:0:0:
192,192,179400,128,0,180057:0:0:0:0:
64,192,180057,128,0,181428:0:0:0:0:
448,192,180057,1,0,0:0:0:0:
192,192,181428,128,0,182800:0:0:0:0:
320,192,181428,1,0,0:0:0:0:
320,192,182800,128,0,184171:0:0:0:0:
448,192,182800,1,0,0:0:0:0:
448,192,184171,128,0,185542:0:0:0:0:
64,192,184171,1,0,0:0:0:0:
320,192,185542,128,0,186914:0:0:0:0:
192,192,185542,1,0,0:0:0:0:
192,192,186514,128,0,186914:0:0:0:0:
192,192,189685,132,0,192428:0:0:0:0:
320,192,189685,1,0,0:0:0:0:
448,192,189857,1,0,0:0:0:0:
320,192,190028,1,0,0:0:0:0:
64,192,190200,1,0,0:0:0:0:
320,192,190371,1,0,0:0:0:0:
64,192,190542,1,0,0:0:0:0:
448,192,190714,1,0,0:0:0:0:
64,192,190885,1,0,0:0:0:0:
320,192,191057,1,0,0:0:0:0:
448,192,191228,1,0,0:0:0:0:
64,192,191400,1,0,0:0:0:0:
448,192,191571,1,0,0:0:0:0:
320,192,191742,1,0,0:0:0:0:
448,192,191914,1,0,0:0:0:0:
320,192,192085,1,0,0:0:0:0:
64,192,192257,1,0,0:0:0:0:
448,192,192428,1,0,0:0:0:0:
320,192,192428,128,0,195171:0:0:0:0:
64,192,192600,1,0,0:0:0:0:
448,192,192771,1,0,0:0:0:0:
192,192,192942,1,0,0:0:0:0:
64,192,193114,1,0,0:0:0:0:
448,192,193285,1,0,0:0:0:0:
64,192,193457,1,0,0:0:0:0:
192,192,193628,1,0,0:0:0:0:
64,192,193800,1,0,0:0:0:0:
448,192,193971,1,0,0:0:0:0:
448,192,194142,1,0,0:0:0:0:
64,192,194314,1,0,0:0:0:0:
192,192,194485,1,0,0:0:0:0:
64,192,194657,1,0,0:0:0:0:
448,192,194828,1,0,0:0:0:0:
192,192,195000,1,0,0:0:0:0:
64,192,195171,1,0,0:0:0:0:
448,192,195171,128,0,200657:0:0:0:0:
192,192,195342,1,0,0:0:0:0:
64,192,195514,1,0,0:0:0:0:
192,192,195685,1,0,0:0:0:0:
320,192,195857,1,0,0:0:0:0:
192,192,196028,1,0,0:0:0:0:
320,192,196200,1,0,0:0:0:0:
64,192,196371,1,0,0:0:0:0:
320,192,196542,1,0,0:0:0:0:
64,192,196714,1,0,0:0:0:0:
320,192,196885,1,0,0:0:0:0:
192,192,197057,1,0,0:0:0:0:
320,192,197228,1,0,0:0:0:0:
192,192,197400,1,0,0:0:0:0:
64,192,197571,1,0,0:0:0:0:
192,192,197742,1,0,0:0:0:0:
320,192,197914,1,0,0:0:0:0:
192,192,198085,1,0,0:0:0:0:
320,192,198257,1,0,0:0:0:0:
64,192,198428,1,0,0:0:0:0:
320,192,198600,1,0,0:0:0:0:
64,192,198771,1,0,0:0:0:0:
192,192,198942,1,0,0:0:0:0:
192,192,199114,1,0,0:0:0:0:
320,192,199285,1,0,0:0:0:0:
320,192,199457,1,0,0:0:0:0:
64,192,199628,1,0,0:0:0:0:
192,192,199800,1,0,0:0:0:0:
320,192,199971,1,0,0:0:0:0:
192,192,200142,1,0,0:0:0:0:
320,192,200314,1,0,0:0:0:0:
64,192,200485,1,0,0:0:0:0:
64,192,200657,128,0,203400:0:0:0:0:
192,192,200657,128,0,200828:0:0:0:0:
448,192,200828,128,0,201000:0:0:0:0:
192,192,201000,128,0,201171:0:0:0:0:
320,192,201171,128,0,201342:0:0:0:0:
448,192,201342,128,0,201514:0:0:0:0:
320,192,201514,128,0,201685:0:0:0:0:
192,192,201685,128,0,201857:0:0:0:0:
320,192,201857,128,0,202028:0:0:0:0:
192,192,202028,128,0,202200:0:0:0:0:
448,192,202200,128,0,202371:0:0:0:0:
192,192,202371,128,0,202542:0:0:0:0:
320,192,202542,128,0,202714:0:0:0:0:
448,192,202714,128,0,202885:0:0:0:0:
320,192,202885,128,0,203057:0:0:0:0:
192,192,203057,128,0,203228:0:0:0:0:
320,192,203228,128,0,203400:0:0:0:0:
192,192,203400,128,0,206142:0:0:0:0:
448,192,203400,128,0,203571:0:0:0:0:
320,192,203571,128,0,203742:0:0:0:0:
64,192,203742,128,0,203914:0:0:0:0:
320,192,203914,128,0,204085:0:0:0:0:
448,192,204085,128,0,204257:0:0:0:0:
320,192,204257,128,0,204428:0:0:0:0:
64,192,204428,128,0,204600:0:0:0:0:
320,192,204600,128,0,204771:0:0:0:0:
64,192,204771,128,0,204942:0:0:0:0:
448,192,204942,128,0,205114:0:0:0:0:
64,192,205114,128,0,205285:0:0:0:0:
320,192,205285,128,0,205457:0:0:0:0:
448,192,205457,128,0,205628:0:0:0:0:
320,192,205628,128,0,205800:0:0:0:0:
64,192,205800,128,0,205971:0:0:0:0:
320,192,205971,128,0,206142:0:0:0:0:
64,192,206142,1,0,0:0:0:0:
448,192,206142,1,0,0:0:0:0:
192,192,206457,1,0,0:0:0:0:
320,192,206457,1,0,0:0:0:0:
448,192,206457,1,0,0:0:0:0:
320,192,206800,1,0,0:0:0:0:
448,192,206800,1,0,0:0:0:0:
64,192,206800,1,0,0:0:0:0:
192,192,207142,1,0,0:0:0:0:
64,192,207142,1,0,0:0:0:0:
448,192,207142,1,0,0:0:0:0:
320,192,207485,1,0,0:0:0:0:
192,192,207485,1,0,0:0:0:0:
448,192,207485,1,0,0:0:0:0:
64,192,207571,1,0,0:0:0:0:
192,192,207657,1,0,0:0:0:0:
320,192,207742,1,0,0:0:0:0:
448,192,207828,1,0,0:0:0:0:
64,192,207914,1,0,0:0:0:0:
192,192,208000,1,0,0:0:0:0:
320,192,208085,1,0,0:0:0:0:
448,192,208171,1,0,0:0:0:0:
192,192,208171,1,0,0:0:0:0:
64,192,208171,1,0,0:0:0:0:
64,192,208571,1,0,0:0:0:0:
192,192,208571,1,0,0:0:0:0:
448,192,208571,1,0,0:0:0:0:
448,192,208857,1,0,3:3:0:0:
64,192,208857,1,0,3:3:0:0:
192,192,208857,1,0,3:3:0:0:
320,192,208857,128,0,209200:0:0:0:0:
448,192,209028,1,0,0:0:0:0:
64,192,209028,1,0,0:0:0:0:
448,192,209200,1,0,3:3:0:0:
192,192,209200,1,0,3:3:0:0:
64,192,209200,128,0,209542:0:0:0:0:
192,192,209371,1,0,0:0:0:0:
320,192,209371,1,0,0:0:0:0:
320,192,209542,1,0,3:3:0:0:
192,192,209542,128,0,209885:0:0:0:0:
448,192,209542,1,0,0:0:0:0:
320,192,209714,1,0,0:0:0:0:
64,192,209714,1,0,0:0:0:0:
320,192,209885,1,0,3:3:0:0:
448,192,209885,1,0,3:3:0:0:
64,192,209885,1,0,3:3:0:0:
320,192,210057,1,0,0:0:0:0:
192,192,210057,1,0,0:0:0:0:
448,192,210228,1,8,2:2:0:0:
320,192,210228,1,0,0:0:0:0:
192,192,210314,1,0,0:0:0:0:
64,192,210314,1,0,0:0:0:0:
320,192,210400,1,0,0:0:0:0:
448,192,210400,1,0,0:0:0:0:
192,192,210485,1,0,0:0:0:0:
64,192,210485,1,0,0:0:0:0:
320,192,210571,1,0,0:0:0:0:
448,192,210571,1,0,0:0:0:0:
192,192,210657,1,0,0:0:0:0:
64,192,210657,1,0,0:0:0:0:
320,192,210742,1,0,0:0:0:0:
448,192,210742,1,0,0:0:0:0:
192,192,210828,1,0,0:0:0:0:
64,192,210828,1,0,0:0:0:0:
320,192,210914,1,0,0:0:0:0:
448,192,210914,1,0,0:0:0:0:
192,192,211000,1,0,0:0:0:0:
64,192,211000,1,0,0:0:0:0:
320,192,211085,1,0,0:0:0:0:
448,192,211085,1,0,0:0:0:0:
192,192,211171,1,0,0:0:0:0:
64,192,211171,1,0,0:0:0:0:
320,192,211257,1,0,0:0:0:0:
448,192,211257,1,0,0:0:0:0:
64,192,211600,1,0,3:3:0:0:
192,192,211600,1,0,0:0:0:0:
320,192,211600,1,0,0:0:0:0:
448,192,211600,1,0,0:0:0:0:
64,192,211771,1,0,0:0:0:0:
448,192,211771,1,0,0:0:0:0:
192,192,211857,1,8,2:2:0:0:
64,192,211942,1,0,0:0:0:0:
448,192,212028,1,0,0:0:0:0:
320,192,212114,1,8,2:2:0:0:
64,192,212114,1,0,0:0:0:0:
192,192,212200,1,0,0:0:0:0:
64,192,212285,1,0,0:0:0:0:
192,192,212371,1,8,2:2:0:0:
448,192,212371,1,0,0:0:0:0:
320,192,212371,1,0,0:0:0:0:
64,192,212457,1,0,0:0:0:0:
192,192,212542,1,0,0:0:0:0:
320,192,212628,1,8,2:2:0:0:
64,192,212628,1,0,0:0:0:0:
448,192,212714,1,0,0:0:0:0:
64,192,212800,1,8,2:2:0:0:
192,192,212800,1,0,0:0:0:0:
320,192,212885,1,0,0:0:0:0:
64,192,212971,1,0,0:0:0:0:
448,192,212971,1,0,0:0:0:0:
192,192,213057,1,8,2:2:0:0:
64,192,213142,1,8,2:2:0:0:
320,192,213142,1,0,0:0:0:0:
192,192,213228,1,8,2:2:0:0:
320,192,213314,1,8,2:2:0:0:
448,192,213314,1,0,0:0:0:0:
192,192,213400,1,0,0:0:0:0:
320,192,213485,1,8,2:2:0:0:
64,192,213571,1,0,0:0:0:0:
320,192,213657,1,8,2:2:0:0:
448,192,213657,1,0,0:0:0:0:
192,192,213742,1,8,2:2:0:0:
64,192,213828,1,8,2:2:0:0:
448,192,213828,1,0,0:0:0:0:
320,192,213828,1,0,0:0:0:0:
192,192,213914,1,8,2:2:0:0:
64,192,214000,1,0,0:0:0:0:
192,192,214085,1,0,0:0:0:0:
320,192,214171,1,8,2:2:0:0:
192,192,214257,1,8,2:2:0:0:
64,192,214257,1,0,0:0:0:0:
448,192,214257,1,0,0:0:0:0:
320,192,214342,1,8,2:2:0:0:
448,192,214428,1,8,2:2:0:0:
320,192,214514,1,8,2:2:0:0:
64,192,214514,1,0,0:0:0:0:
192,192,214600,1,8,2:2:0:0:
64,192,214685,1,8,2:2:0:0:
448,192,214685,1,0,0:0:0:0:
192,192,214771,1,8,2:2:0:0:
320,192,214857,1,8,2:2:0:0:
64,192,214857,1,0,0:0:0:0:
448,192,214942,1,8,2:2:0:0:
320,192,215028,1,8,2:2:0:0:
64,192,215028,1,0,0:0:0:0:
192,192,215114,1,8,2:2:0:0:
64,192,215200,1,8,2:2:0:0:
448,192,215200,1,0,0:0:0:0:
320,192,215285,1,0,0:0:0:0:
448,192,215371,1,0,0:0:0:0:
192,192,215457,1,0,0:0:0:0:
320,192,215542,1,0,3:3:0:0:
192,192,215628,1,0,3:3:0:0:
64,192,215628,1,0,0:0:0:0:
448,192,215628,1,0,0:0:0:0:
320,192,215714,1,0,3:3:0:0:
448,192,215800,1,0,3:3:0:0:
192,192,215800,1,0,0:0:0:0:
320,192,215885,1,0,3:3:0:0:
192,192,215971,1,0,3:3:0:0:
64,192,216057,1,8,3:3:0:0:
320,192,216057,1,0,0:0:0:0:
448,192,216057,1,0,0:0:0:0:
192,192,216142,1,0,3:3:0:0:
320,192,216228,1,0,3:3:0:0:
448,192,216314,1,0,3:3:0:0:
192,192,216314,1,0,0:0:0:0:
320,192,216400,1,0,3:3:0:0:
192,192,216485,1,0,3:3:0:0:
64,192,216485,1,0,0:0:0:0:
320,192,216571,1,0,3:3:0:0:
448,192,216657,1,0,3:3:0:0:
320,192,216742,1,0,3:3:0:0:
192,192,216828,1,0,3:3:0:0:
448,192,216828,1,0,0:0:0:0:
64,192,216914,1,0,3:3:0:0:
320,192,216914,1,0,0:0:0:0:
192,192,217000,1,0,3:3:0:0:
448,192,217085,1,0,3:3:0:0:
64,192,217085,1,0,0:0:0:0:
320,192,217171,1,8,2:2:0:0:
192,192,217257,1,8,2:2:0:0:
64,192,217342,1,8,2:2:0:0:
192,192,217428,1,8,2:2:0:0:
448,192,217428,1,0,0:0:0:0:
320,192,217514,1,8,2:2:0:0:
448,192,217600,1,8,2:2:0:0:
320,192,217685,1,8,2:2:0:0:
192,192,217771,1,0,3:3:0:0:
64,192,217771,1,0,3:3:0:0:
320,192,217857,1,8,2:2:0:0:
448,192,217942,1,8,2:2:0:0:
320,192,218028,1,8,2:2:0:0:
192,192,218114,1,8,2:2:0:0:
64,192,218200,1,8,2:2:0:0:
192,192,218285,1,8,2:2:0:0:
320,192,218371,1,8,2:2:0:0:
64,192,218457,1,0,3:3:0:0:
448,192,218457,1,0,0:0:0:0:
192,192,218542,1,8,2:2:0:0:
320,192,218628,1,8,2:2:0:0:
192,192,218714,1,0,0:0:0:0:
448,192,218714,1,0,0:0:0:0:
320,192,218800,1,8,2:2:0:0:
192,192,218885,1,8,2:2:0:0:
64,192,218971,1,8,2:2:0:0:
192,192,219057,1,8,2:2:0:0:
448,192,219142,1,0,3:3:0:0:
320,192,219142,1,0,3:3:0:0:
320,192,219314,1,8,3:3:0:0:
192,192,219314,1,0,0:0:0:0:
192,192,219485,1,0,3:3:0:0:
64,192,219485,1,0,0:0:0:0:
192,192,219657,1,0,0:0:0:0:
320,192,219657,1,0,0:0:0:0:
448,192,219828,1,0,3:3:0:0:
448,192,220000,1,0,3:3:0:0:
320,192,220085,1,0,3:3:0:0:
192,192,220171,1,0,3:3:0:0:
64,192,220257,1,0,3:3:0:0:
448,192,220342,1,0,3:3:0:0:
320,192,220342,1,0,0:0:0:0:
192,192,220342,1,0,0:0:0:0:
64,192,220514,1,0,3:3:0:0:
192,192,220514,1,0,0:0:0:0:
320,192,220514,1,0,0:0:0:0:
448,192,220685,1,0,3:3:0:0:
320,192,220685,1,0,0:0:0:0:
192,192,220685,1,0,0:0:0:0:
64,192,220857,1,0,3:3:0:0:
192,192,220857,1,0,0:0:0:0:
320,192,220857,1,0,0:0:0:0:
320,192,221028,1,0,3:3:0:0:
448,192,221028,1,0,3:3:0:0:
192,192,221200,1,0,3:3:0:0:
64,192,221200,1,0,3:3:0:0:
448,192,221371,1,0,3:3:0:0:
320,192,221371,1,0,3:3:0:0:
448,192,221542,1,0,3:3:0:0:
320,192,221542,1,0,3:3:0:0:
192,192,221714,1,0,3:3:0:0:
64,192,221714,1,0,3:3:0:0:
448,192,221885,1,0,3:3:0:0:
320,192,221885,1,0,3:3:0:0:
192,192,222057,1,0,3:3:0:0:
64,192,222057,1,0,3:3:0:0:
192,192,222228,1,0,3:3:0:0:
64,192,222228,1,0,3:3:0:0:
448,192,222400,1,8,3:3:0:0:
320,192,222400,1,8,3:3:0:0:
320,192,222571,1,0,3:3:0:0:
448,192,222571,1,0,3:3:0:0:
64,192,222571,1,0,3:3:0:0:
192,192,222571,1,0,3:3:0:0:
192,192,222742,1,0,3:3:0:0:
320,192,222742,1,0,3:3:0:0:
448,192,222828,1,0,3:3:0:0:
320,192,222914,1,0,3:3:0:0:
192,192,223000,1,0,3:3:0:0:
448,192,223000,1,0,0:0:0:0:
64,192,223085,1,0,3:3:0:0:
192,192,223171,1,0,3:3:0:0:
320,192,223257,1,0,3:3:0:0:
64,192,223257,1,0,0:0:0:0:
448,192,223342,1,0,3:3:0:0:
192,192,223342,1,0,0:0:0:0:
320,192,223428,1,0,3:3:0:0:
192,192,223514,1,0,3:3:0:0:
64,192,223600,1,0,3:3:0:0:
448,192,223600,1,0,0:0:0:0:
192,192,223685,1,8,2:2:0:0:
320,192,223771,1,8,2:2:0:0:
64,192,223771,1,0,0:0:0:0:
192,192,223857,1,0,0:0:0:0:
320,192,223942,1,8,2:2:0:0:
192,192,224028,1,8,2:2:0:0:
64,192,224114,1,8,2:2:0:0:
192,192,224200,1,8,2:2:0:0:
448,192,224285,1,0,3:3:0:0:
320,192,224285,1,0,3:3:0:0:
64,192,224285,1,0,0:0:0:0:
192,192,224371,1,0,0:0:0:0:
320,192,224457,1,8,2:2:0:0:
192,192,224542,1,8,2:2:0:0:
64,192,224628,1,8,2:2:0:0:
448,192,224628,1,0,0:0:0:0:
192,192,224714,1,8,2:2:0:0:
448,192,224800,1,0,3:3:0:0:
320,192,224800,1,0,3:3:0:0:
192,192,224885,1,0,0:0:0:0:
320,192,224971,1,0,0:0:0:0:
64,192,225057,1,8,2:2:0:0:
192,192,225142,1,8,2:2:0:0:
320,192,225228,1,8,2:2:0:0:
64,192,225314,1,0,0:0:0:0:
448,192,225400,1,8,2:2:0:0:
192,192,225400,1,0,0:0:0:0:
320,192,225485,1,8,2:2:0:0:
192,192,225571,1,8,2:2:0:0:
320,192,225657,1,8,2:2:0:0:
448,192,225742,1,8,2:2:0:0:
192,192,225742,1,0,0:0:0:0:
320,192,225828,1,8,2:2:0:0:
192,192,225914,1,8,2:2:0:0:
64,192,226000,1,0,3:3:0:0:
320,192,226000,1,0,0:0:0:0:
192,192,226085,1,0,0:0:0:0:
320,192,226171,1,0,0:0:0:0:
192,192,226257,1,0,0:0:0:0:
64,192,226342,1,8,2:2:0:0:
192,192,226428,1,8,2:2:0:0:
448,192,226428,1,0,0:0:0:0:
320,192,226514,1,0,0:0:0:0:
448,192,226600,1,0,0:0:0:0:
64,192,226685,1,0,3:3:0:0:
192,192,226685,1,0,3:3:0:0:
320,192,226771,1,0,0:0:0:0:
448,192,226857,1,0,0:0:0:0:
192,192,226857,1,0,0:0:0:0:
320,192,226942,1,0,0:0:0:0:
192,192,227028,1,0,0:0:0:0:
64,192,227114,1,0,0:0:0:0:
192,192,227200,1,0,0:0:0:0:
320,192,227285,1,0,0:0:0:0:
192,192,227371,1,0,0:0:0:0:
64,192,227371,1,0,0:0:0:0:
448,192,227371,1,0,0:0:0:0:
192,192,227542,1,8,3:3:0:0:
64,192,227542,1,8,3:3:0:0:
448,192,227714,1,0,3:3:0:0:
320,192,227714,1,0,3:3:0:0:
448,192,227885,1,0,3:3:0:0:
64,192,227885,1,0,3:3:0:0:
192,192,227971,1,8,2:2:0:0:
320,192,228057,1,8,2:2:0:0:
448,192,228142,1,8,2:2:0:0:
64,192,228142,1,0,0:0:0:0:
192,192,228142,1,0,0:0:0:0:
320,192,228228,1,8,2:2:0:0:
192,192,228314,1,8,2:2:0:0:
64,192,228400,1,8,2:2:0:0:
320,192,228400,1,0,0:0:0:0:
192,192,228485,1,8,2:2:0:0:
448,192,228571,1,0,3:3:0:0:
320,192,228571,1,0,3:3:0:0:
64,192,228571,1,0,0:0:0:0:
192,192,228657,1,0,0:0:0:0:
320,192,228742,1,8,2:2:0:0:
192,192,228828,1,8,2:2:0:0:
64,192,228914,1,8,2:2:0:0:
320,192,228914,1,0,0:0:0:0:
448,192,228914,1,0,0:0:0:0:
192,192,229000,1,8,2:2:0:0:
320,192,229085,1,8,2:2:0:0:
64,192,229171,1,0,0:0:0:0:
448,192,229257,1,0,3:3:0:0:
192,192,229257,1,0,0:0:0:0:
320,192,229342,1,0,0:0:0:0:
64,192,229428,1,8,2:2:0:0:
192,192,229514,1,0,0:0:0:0:
448,192,229600,1,0,0:0:0:0:
64,192,229600,1,0,0:0:0:0:
320,192,229685,1,0,0:0:0:0:
64,192,229828,1,0,0:0:0:0:
192,192,229885,1,0,0:0:0:0:
320,192,229942,1,0,0:0:0:0:
64,192,230000,1,0,3:3:0:0:
448,192,230000,1,0,0:0:0:0:
192,192,230057,1,0,3:3:0:0:
320,192,230114,1,0,3:3:0:0:
448,192,230171,1,0,3:3:0:0:
64,192,230228,1,0,0:0:0:0:
320,192,230314,1,0,0:0:0:0:
192,192,230400,1,0,0:0:0:0:
64,192,230485,1,0,0:0:0:0:
448,192,230571,1,0,0:0:0:0:
448,192,230685,1,0,0:0:0:0:
320,192,230800,1,0,3:3:0:0:
192,192,230800,1,0,3:3:0:0:
64,192,230800,1,0,0:0:0:0:
320,192,230971,1,8,3:3:0:0:
64,192,230971,1,0,0:0:0:0:
448,192,231142,1,0,3:3:0:0:
192,192,231142,1,0,0:0:0:0:
320,192,231314,1,0,3:3:0:0:
64,192,231314,1,0,0:0:0:0:
448,192,231485,1,0,3:3:0:0:
192,192,231485,1,0,0:0:0:0:
320,192,231657,1,8,3:3:0:0:
64,192,231657,1,0,0:0:0:0:
448,192,231828,1,0,3:3:0:0:
192,192,231828,1,0,0:0:0:0:
320,192,232000,1,0,3:3:0:0:
64,192,232000,1,0,0:0:0:0:
320,192,232171,1,0,3:3:0:0:
448,192,232171,1,0,3:3:0:0:
64,192,232257,1,0,0:0:0:0:
192,192,232257,1,0,0:0:0:0:
320,192,232342,1,0,0:0:0:0:
448,192,232342,1,0,0:0:0:0:
64,192,232428,1,0,0:0:0:0:
192,192,232428,1,0,0:0:0:0:
320,192,232514,1,0,0:0:0:0:
448,192,232514,1,0,0:0:0:0:
64,192,232600,1,0,0:0:0:0:
192,192,232600,1,0,0:0:0:0:
320,192,232685,1,0,0:0:0:0:
448,192,232685,1,0,0:0:0:0:
192,192,232771,1,0,0:0:0:0:
64,192,232771,1,0,0:0:0:0:
320,192,232857,1,0,0:0:0:0:
448,192,232857,1,0,0:0:0:0:
192,192,232942,1,0,0:0:0:0:
64,192,232942,1,0,0:0:0:0:
320,192,233028,1,0,0:0:0:0:
448,192,233028,1,0,0:0:0:0:
192,192,233114,1,0,0:0:0:0:
64,192,233114,1,0,0:0:0:0:
320,192,233200,1,0,0:0:0:0:
448,192,233200,1,0,0:0:0:0:
192,192,233542,128,0,236285:0:0:0:0:
320,192,233542,1,0,0:0:0:0:
448,192,233714,1,0,0:0:0:0:
320,192,233885,1,0,0:0:0:0:
64,192,234057,1,0,0:0:0:0:
320,192,234228,1,0,0:0:0:0:
64,192,234400,1,0,0:0:0:0:
448,192,234571,1,0,0:0:0:0:
64,192,234742,1,0,0:0:0:0:
320,192,234914,1,0,0:0:0:0:
448,192,235085,1,0,0:0:0:0:
64,192,235257,1,0,0:0:0:0:
448,192,235428,1,0,0:0:0:0:
320,192,235600,1,0,0:0:0:0:
448,192,235771,1,0,0:0:0:0:
320,192,235942,1,0,0:0:0:0:
64,192,236114,1,0,0:0:0:0:
448,192,236285,1,0,0:0:0:0:
320,192,236285,128,0,239028:0:0:0:0:
64,192,236457,1,0,0:0:0:0:
448,192,236628,1,0,0:0:0:0:
192,192,236800,1,0,0:0:0:0:
64,192,236971,1,0,0:0:0:0:
448,192,237142,1,0,0:0:0:0:
64,192,237314,1,0,0:0:0:0:
192,192,237485,1,0,0:0:0:0:
64,192,237657,1,0,0:0:0:0:
448,192,237828,1,0,0:0:0:0:
448,192,238000,1,0,0:0:0:0:
64,192,238171,1,0,0:0:0:0:
192,192,238342,1,0,0:0:0:0:
64,192,238514,1,0,0:0:0:0:
448,192,238685,1,0,0:0:0:0:
192,192,238857,1,0,0:0:0:0:
64,192,239028,1,0,0:0:0:0:
448,192,239028,128,0,244514:0:0:0:0:
192,192,239200,1,0,0:0:0:0:
64,192,239371,1,0,0:0:0:0:
192,192,239542,1,0,0:0:0:0:
320,192,239714,1,0,0:0:0:0:
192,192,239885,1,0,0:0:0:0:
320,192,240057,1,0,0:0:0:0:
64,192,240228,1,0,0:0:0:0:
320,192,240400,1,0,0:0:0:0:
64,192,240571,1,0,0:0:0:0:
320,192,240742,1,0,0:0:0:0:
192,192,240914,1,0,0:0:0:0:
320,192,241085,1,0,0:0:0:0:
192,192,241257,1,0,0:0:0:0:
64,192,241428,1,0,0:0:0:0:
192,192,241600,1,0,0:0:0:0:
320,192,241771,1,0,0:0:0:0:
192,192,241942,1,0,0:0:0:0:
320,192,242114,1,0,0:0:0:0:
64,192,242285,1,0,0:0:0:0:
320,192,242457,1,0,0:0:0:0:
64,192,242628,1,0,0:0:0:0:
192,192,242800,1,0,0:0:0:0:
192,192,242971,1,0,0:0:0:0:
320,192,243142,1,0,0:0:0:0:
320,192,243314,1,0,0:0:0:0:
64,192,243485,1,0,0:0:0:0:
192,192,243657,1,0,0:0:0:0:
320,192,243828,1,0,0:0:0:0:
192,192,244000,1,0,0:0:0:0:
320,192,244171,1,0,0:0:0:0:
64,192,244342,1,0,0:0:0:0:
320,192,244514,1,0,0:0:0:0:
192,192,244514,128,0,247257:0:0:0:0:
448,192,244685,1,0,0:0:0:0:
320,192,244857,1,0,0:0:0:0:
64,192,245028,1,0,0:0:0:0:
320,192,245200,1,0,0:0:0:0:
64,192,245371,1,0,0:0:0:0:
448,192,245542,1,0,0:0:0:0:
64,192,245714,1,0,0:0:0:0:
320,192,245885,1,0,0:0:0:0:
448,192,246057,1,0,0:0:0:0:
64,192,246228,1,0,0:0:0:0:
448,192,246400,1,0,0:0:0:0:
320,192,246571,1,0,0:0:0:0:
448,192,246742,1,0,0:0:0:0:
320,192,246914,1,0,0:0:0:0:
64,192,247085,1,0,0:0:0:0:
320,192,247257,128,0,250000:0:0:0:0:
448,192,247257,1,0,0:0:0:0:
64,192,247428,1,0,0:0:0:0:
448,192,247600,1,0,0:0:0:0:
192,192,247771,1,0,0:0:0:0:
64,192,247942,1,0,0:0:0:0:
448,192,248114,1,0,0:0:0:0:
64,192,248285,1,0,0:0:0:0:
192,192,248457,1,0,0:0:0:0:
64,192,248628,1,0,0:0:0:0:
448,192,248800,1,0,0:0:0:0:
448,192,248971,1,0,0:0:0:0:
64,192,249142,1,0,0:0:0:0:
192,192,249314,1,0,0:0:0:0:
64,192,249485,1,0,0:0:0:0:
448,192,249657,1,0,0:0:0:0:
192,192,249828,1,0,0:0:0:0:
448,192,250000,128,0,255485:0:0:0:0:
64,192,250000,1,0,0:0:0:0:
192,192,250171,1,0,0:0:0:0:
64,192,250342,1,0,0:0:0:0:
192,192,250514,1,0,0:0:0:0:
320,192,250685,1,0,0:0:0:0:
192,192,250857,1,0,0:0:0:0:
320,192,251028,1,0,0:0:0:0:
64,192,251200,1,0,0:0:0:0:
320,192,251371,1,0,0:0:0:0:
64,192,251542,1,0,0:0:0:0:
320,192,251714,1,0,0:0:0:0:
192,192,251885,1,0,0:0:0:0:
320,192,252057,1,0,0:0:0:0:
192,192,252228,1,0,0:0:0:0:
64,192,252400,1,0,0:0:0:0:
192,192,252571,1,0,0:0:0:0:
320,192,252742,1,0,0:0:0:0:
192,192,252914,1,0,0:0:0:0:
320,192,253085,1,0,0:0:0:0:
64,192,253257,1,0,0:0:0:0:
320,192,253428,1,0,0:0:0:0:
64,192,253600,1,0,0:0:0:0:
192,192,253771,1,0,0:0:0:0:
192,192,253942,1,0,0:0:0:0:
320,192,254114,1,0,0:0:0:0:
320,192,254285,1,0,0:0:0:0:
64,192,254457,1,0,0:0:0:0:
192,192,254628,1,0,0:0:0:0:
320,192,254800,1,0,0:0:0:0:
192,192,254971,1,0,0:0:0:0:
320,192,255142,1,0,0:0:0:0:
64,192,255314,1,0,0:0:0:0:
