osu file format v14

[General]
AudioFilename: TsugumiIsObvBestGirl.mp3
AudioLeadIn: 0
PreviewTime: 71714
Countdown: 0
SampleSet: Soft
StackLeniency: 0.2
Mode: 0
LetterboxInBreaks: 0
WidescreenStoryboard: 1

[Editor]
DistanceSpacing: 0.1
BeatDivisor: 4
GridSize: 8
TimelineZoom: 3.699999

[Metadata]
Title:Taisetsu no Tsukurikata (Asterisk remix)
TitleUnicode:Taisetsu no Tsukurikata (Asterisk remix)
Artist:Touyama Nao & Hanazawa Kana
ArtistUnicode:Touyama Nao & Hanazawa Kana
Creator:[ amb1d3x ]
Version:Koi
Source:Nisekoi
Tags:Raku-sucks one-true-tsugumi animeme too-many-sliders tag-gore ShogunMoon
BeatmapID:1406904
BeatmapSetID:545965

[Difficulty]
HPDrainRate:4
CircleSize:4.2
OverallDifficulty:9
ApproachRate:9.3
SliderMultiplier:1.5
SliderTickRate:1

[Events]
//Background and Video events
0,0,"Chitoge is better than onodera but not best girl.jpg",0,0
//Break Periods
2,189657,200058
//Storyboard Layer 0 (Background)
//Storyboard Layer 1 (Fail)
//Storyboard Layer 2 (Pass)
//Storyboard Layer 3 (Foreground)
//Storyboard Sound Samples

[TimingPoints]
400,342.857142857143,4,2,0,100,1,0
400,-113.636363636364,4,2,0,30,0,0
1771,-125,4,2,0,30,0,0
3485,-113.636363636364,4,2,0,30,0,0
3828,-104.166666666667,4,2,0,30,0,0
4171,-96.1538461538461,4,2,0,30,0,0
4857,-104.166666666667,4,2,0,30,0,0
5200,-113.636363636364,4,2,0,30,0,0
5542,-125,4,2,0,30,0,0
5885,-96.1538461538461,4,2,0,30,0,0
10342,-125,4,2,0,40,0,0
11371,-105.263157894737,4,2,0,50,0,0
19600,-105.263157894737,4,2,0,60,0,0
22342,-90.9090909090909,4,2,0,50,0,0
38800,-117.647058823529,4,2,0,50,0,0
44628,-117.647058823529,4,2,0,60,0,0
44971,-100,4,2,0,60,0,0
47028,-100,4,2,0,60,0,0
50457,-111.111111111111,4,2,0,60,0,0
50971,-125,4,2,0,60,0,0
51828,-111.111111111111,4,2,0,60,0,0
55257,-100,4,2,0,65,0,0
60742,-95.2380952380952,4,2,0,65,0,0
61085,-95.2380952380952,4,2,0,60,0,0
66228,-83.3333333333333,4,2,0,65,0,0
70342,-83.3333333333333,4,2,0,70,0,0
71371,-66.6666666666667,4,2,0,70,0,0
71542,-66.6666666666667,4,2,0,5,0,0
71714,-71.4285714285714,4,2,0,80,0,0
72400,-46.2962962962963,4,2,0,80,0,0
73085,-71.4285714285714,4,2,0,80,0,0
77200,-69.2520775623269,4,2,0,80,0,0
77885,-69.2520775623269,4,2,0,80,0,0
88171,-69.2520775623269,4,2,0,70,0,0
93657,-62.5,4,2,0,85,0,0
101885,-62.5,4,2,0,70,0,0
103600,-83.3333333333333,4,2,0,70,0,0
104628,-62.5,4,2,0,85,0,0
114228,-105.263157894737,4,2,0,85,0,0
115942,-111.111111111111,4,2,0,60,0,0
132400,-105.263157894737,4,2,0,60,0,0
134800,-105.263157894737,4,2,0,75,0,0
136000,-133.333333333333,4,2,0,75,0,0
136514,-83.3333333333333,4,2,0,75,0,0
136857,-76.9230769230769,4,2,0,75,0,0
137714,-100,4,2,0,55,0,0
140285,-100,4,2,0,75,0,0
142685,-66.6666666666667,4,2,0,75,0,0
142814,-66.6666666666667,4,2,0,5,0,0
143028,-71.4285714285714,4,2,0,85,0,0
159485,-83.3333333333333,4,2,0,70,0,0
162228,-83.3333333333333,4,2,0,80,0,0
164971,-303.030303030303,4,2,0,60,0,0
165014,-294.117647058824,4,2,0,5,0,0
173200,-172.413793103448,4,2,0,30,0,0
173242,-172.413793103448,4,2,0,5,0,0
175942,-172.413793103448,4,2,0,50,0,0
176628,-166.666666666667,4,2,0,35,0,0
177314,-166.666666666667,4,2,0,20,0,0
178000,-166.666666666667,4,2,0,5,0,0
178685,-166.666666666667,4,2,0,50,0,0
180228,-166.666666666667,4,2,0,10,0,0
200628,-166.666666666667,4,2,0,30,0,0
206114,-111.111111111111,4,2,0,45,0,0
207485,-111.111111111111,4,2,0,50,0,0
208857,-111.111111111111,4,2,0,65,0,0
211600,-62.5,4,2,0,85,0,0
219828,-73.5294117647059,4,2,0,55,0,0
222571,-62.5,4,2,0,85,0,0
228057,-62.5,4,2,0,80,0,0
232514,-83.3333333333333,4,2,0,80,0,0

[Colours]
Combo1 : 134,75,254
Combo2 : 255,0,66
Combo3 : 239,44,220
Combo4 : 253,77,81

[HitObjects]
72,136,400,6,0,B|119:142|140:122|140:122|174:142|194:122|194:122|224:136|224:136|240:144|240:64|320:72|376:72|408:136|400:192|384:224|360:248,1,462.000014099122
304,176,1771,6,0,B|264:216|224:225|192:209|192:209|168:218|144:210|144:210|120:219,1,180,0|0,0:0|0:0,0:0:0:0:
368,238,2457,2,0,P|354:272|333:309,1,60
229,348,2800,2,0,P|243:314|264:277,1,60
370,146,3142,6,0,P|340:168|304:189,1,60
353,129,3485,2,0,P|315:136|263:124,1,66.0000020141602
336,112,3828,2,0,P|291:98|255:63,1,71.9999978027344
319,95,4171,2,0,P|284:69|267:18,1,77.9999964294435
162,228,4514,6,0,P|196:202|213:151,1,77.9999964294435
145,245,4857,2,0,P|189:231|225:196,1,71.9999978027344
128,262,5200,2,0,P|165:269|217:257,1,66.0000020141602
111,279,5542,2,0,P|141:301|177:322,1,60
399,190,5885,38,0,B|265:194|176:133|227:-18|344:12|373:62|364:152|309:205|303:276|303:276|238:247|151:258|87:230|58:180|91:57|244:91|250:201|152:325,1,1013.99995358277
88,280,8285,1,0,0:0:0:0:
300,272,8628,6,0,B|254:258|213:291|213:291|243:193|339:224|339:224|372:233|406:222|414:205|423:180|418:157|409:130|382:119|358:118|349:122|349:122|337:143|337:143|314:117|265:119,1,545.99999666748
204,162,10000,5,0,0:0:0:0:
213,156,10342,2,0,P|183:189|144:201,1,60,0|0,0:0|0:0,0:0:0:0:
116,310,10685,2,0,P|101:269|111:229,1,60,0|0,0:0|0:0,0:0:0:0:
29,145,11028,2,0,P|71:154|101:182,1,60,0|0,0:0|0:0,0:0:0:0:
254,311,11371,6,0,L|350:322,1,71.2499980974198
451,259,11714,2,0,L|355:248,1,71.2499980974198
293,137,12057,2,0,L|303:184,1,35.6249990487099
257,124,12228,2,0,L|275:168,1,35.6249990487099
187,240,12400,2,0,L|184:192,1,35.6249990487099
155,261,12571,2,0,L|160:213,1,35.6249990487099
50,351,12742,6,0,P|55:314|50:263,1,71.2499980974198
32,172,13085,2,0,P|27:135|32:84,1,71.2499980974198
176,97,13428,2,0,L|123:123,1,35.6249990487099
203,76,13600,2,0,L|145:87,1,35.6249990487099
225,193,13771,2,0,L|172:219,1,35.6249990487099
256,166,13943,2,0,L|198:177,1,35.6249990487099
349,74,14114,6,0,P|392:75|450:97,1,71.2499980974198
376,154,14457,2,0,L|359:248,1,71.2499980974198
264,335,14800,2,0,L|330:318,1,35.6249990487099
236,312,14971,2,0,L|304:312,1,35.6249990487099
146,249,15142,2,0,L|104:248,1,35.6249990487099
118,226,15314,2,0,L|78:236,1,35.6249990487099
263,206,15485,6,0,L|228:113,1,71.2499980974198
278,0,15828,2,0,L|312:93,1,71.2499980974198
431,156,16171,2,0,L|384:153,1,35.6249990487099
407,191,16342,2,0,L|362:175,1,35.6249990487099
275,217,16514,2,0,L|309:239,1,35.6249990487099
264,258,16685,2,0,L|291:288,1,35.6249990487099
135,283,16857,6,0,P|96:250|72:208,1,71.2499980974198
226,138,17200,2,0,P|192:177|149:202,1,71.2499980974198
142,65,17542,2,0,L|145:128,1,35.6249990487099
246,27,17714,2,0,L|244:68,1,35.6249990487099
358,130,17885,2,0,L|316:128,1,35.6249990487099
341,28,18057,2,0,L|382:29,1,35.6249990487099
453,180,18228,6,0,P|446:140|458:100,1,71.2499980974198
488,256,18571,2,0,P|447:263|408:251,1,71.2499980974198
316,128,18914,2,0,L|349:179,1,35.6249990487099
267,199,19085,2,0,L|285:256,1,35.6249990487099
206,337,19257,2,0,L|202:255,1,71.2499980974198
155,86,19600,5,0,0:0:0:0:
100,196,19771,1,0,0:0:0:0:
167,98,19942,1,0,0:0:0:0:
84,188,20113,1,0,0:0:0:0:
306,233,20285,5,0,0:0:0:0:
196,178,20456,1,0,0:0:0:0:
294,245,20627,1,0,0:0:0:0:
204,162,20800,1,0,0:0:0:0:
459,189,20971,5,0,0:0:0:0:
417,187,21057,1,0,0:0:0:0:
378,173,21142,1,0,0:0:0:0:
349,142,21228,1,0,0:0:0:0:
337,102,21314,2,0,P|342:79|358:52,1,35.6249990487099
235,154,21485,2,0,P|212:149|185:133,1,35.6249990487099
287,256,21657,2,0,P|282:279|266:306,1,35.6249990487099
389,204,21828,2,0,P|412:209|439:225,1,35.6249990487099
240,155,22000,1,0,0:0:0:0:
73,206,22342,6,0,P|105:187|162:178,1,82.5000025177003
194,80,22685,2,0,P|230:72|287:83,1,82.5000025177003
370,166,23028,2,0,L|396:120,1,41.2500012588501
372,196,23200,2,0,L|401:166,1,41.2500012588501
429,263,23371,2,0,L|393:283,1,41.2500012588501
416,290,23542,2,0,L|376:301,1,41.2500012588501
223,272,23714,6,0,P|171:265|125:275,1,82.5000025177003
23,311,24057,2,0,P|30:259|20:213,1,82.5000025177003
78,93,24400,2,0,P|57:107|43:121,1,41.2500012588501
109,50,24571,2,0,P|85:58|68:68,1,41.2500012588501
190,133,24742,2,0,B|168:148|168:148|138:154,1,41.2500012588501
235,160,24914,2,0,B|209:168|209:168|179:166,1,41.2500012588501
349,55,25085,6,0,P|392:55|437:81,1,82.5000025177003
315,194,25428,2,0,P|336:156|381:130,1,82.5000025177003
416,261,25771,2,0,L|391:206,1,41.2500012588501
477,183,25942,2,0,L|439:137,1,41.2500012588501
311,312,26114,2,0,L|335:257,1,41.2500012588501
225,276,26285,2,0,L|263:230,1,41.2500012588501
367,134,26457,6,0,P|319:124|261:122,1,82.5000025177003
189,146,26800,2,0,P|147:142|107:133,1,82.5000025177003
170,9,27142,2,0,L|154:49,1,41.2500012588501
252,47,27314,2,0,L|246:89,1,41.2500012588501
358,182,27485,2,0,L|347:101,1,82.5000025177003
376,277,27828,6,0,P|338:274|287:248,1,82.5000025177003
204,309,28171,2,0,P|169:294|129:253,1,82.5000025177003
45,187,28514,2,0,L|19:232,1,41.2500012588501
43,157,28686,2,0,L|13:187,1,41.2500012588501
157,156,28857,2,0,L|193:136,1,41.2500012588501
170,129,29028,2,0,L|210:118,1,41.2500012588501
341,47,29200,6,0,P|390:46|449:26,1,82.5000025177003
473,124,29542,2,0,P|474:173|494:232,1,82.5000025177003
349,264,29885,2,0,B|374:271|374:271|404:267,1,41.2500012588501
314,303,30057,2,0,B|341:302|341:302|369:291,1,41.2500012588501
321,170,30228,2,0,P|345:176|362:185,1,41.2500012588501
278,139,30399,2,0,P|303:139|322:143,1,41.2500012588501
187,273,30571,6,0,P|161:230|142:173,1,82.5000025177003
153,100,30914,2,0,P|137:61|115:27,1,82.5000025177003
46,154,31257,2,0,L|64:109,1,41.2500012588501
55,270,31428,2,0,L|76:226,1,41.2500012588501
153,100,31600,2,0,L|134:136,1,41.2500012588501
162,216,31771,2,0,L|146:254,1,41.2500012588501
213,351,31942,6,0,P|255:348|315:352,1,82.5000025177003
441,278,32285,2,0,P|399:281|339:277,1,82.5000025177003
351,167,32628,2,0,L|400:202,1,41.2500012588501
255,197,32800,2,0,L|311:218,1,41.2500012588501
171,251,32971,2,0,L|51:239,1,82.5000025177003
63,43,33314,6,0,P|99:52|145:86,1,82.5000025177003
237,39,33657,2,0,P|268:58|300:106,1,82.5000025177003
297,217,34000,2,0,L|340:183,1,41.2500012588501
337,228,34171,2,0,L|387:206,1,41.2500012588501
442,84,34342,2,0,L|476:127,1,41.2500012588501
431,124,34514,2,0,L|452:174,1,41.2500012588501
453,332,34685,6,0,P|405:337|341:324,1,82.5000025177003
272,202,35028,2,0,P|277:250|264:314,1,82.5000025177003
127,319,35371,2,0,P|142:304|159:293,1,41.2500012588501
152,266,35542,2,0,P|170:256|189:250,1,41.2500012588501
81,203,35714,2,0,B|55:211|55:211|41:211,1,41.2500012588501
36,177,35885,2,0,B|14:192|14:192|0:195,1,41.2500012588501
192,87,36057,6,0,P|233:79|295:78,1,82.5000025177003
378,104,36400,2,0,P|419:101|459:93,1,82.5000025177003
430,224,36742,2,0,L|460:172,1,41.2500012588501
373,132,36914,2,0,L|357:189,1,41.2500012588501
281,214,37085,2,0,L|280:153,1,41.2500012588501
199,227,37257,2,0,L|214:284,1,41.2500012588501
364,333,37428,6,0,P|312:326|268:327,1,82.5000025177003
127,259,37771,2,0,P|179:266|223:265,1,82.5000025177003
201,143,38114,2,0,L|174:190,1,41.2500012588501
310,138,38285,2,0,L|271:176,1,41.2500012588501
416,161,38457,2,0,L|496:114,1,82.5000025177003
382,57,38800,6,0,P|342:43|294:41,1,63.7500012159348
138,73,39142,2,0,P|178:78|217:93,1,63.7500012159348
131,249,39485,1,0,0:0:0:0:
226,103,39657,1,0,0:0:0:0:
252,228,39828,1,0,0:0:0:0:
106,133,40000,1,0,0:0:0:0:
348,143,40171,6,0,P|393:143|436:157,1,63.7500012159348
404,293,40514,2,0,P|382:253|373:213,1,63.7500012159348
413,92,40857,1,0,0:0:0:0:
287,210,41028,1,0,0:0:0:0:
287,92,41200,1,0,0:0:0:0:
413,210,41371,1,0,0:0:0:0:
185,151,41542,5,0,0:0:0:0:
270,228,41714,1,0,0:0:0:0:
105,223,41885,1,0,0:0:0:0:
265,79,42057,1,0,0:0:0:0:
82,117,42228,5,0,0:0:0:0:
208,257,42400,1,0,0:0:0:0:
265,79,42571,1,0,0:0:0:0:
105,223,42742,1,0,0:0:0:0:
312,291,42914,5,0,0:0:0:0:
312,291,43000,1,0,0:0:0:0:
312,291,43085,1,0,0:0:0:0:
312,291,43171,1,0,0:0:0:0:
344,264,43257,1,0,0:0:0:0:
366,229,43342,1,0,0:0:0:0:
375,190,43428,1,0,0:0:0:0:
369,148,43514,1,0,0:0:0:0:
348,112,43600,2,0,P|329:96|299:79,1,31.8750006079674
192,89,43771,2,0,P|209:103|236:119,1,31.8750006079674
285,0,43942,2,0,L|252:49,1,31.8750006079674
263,204,44114,2,0,L|296:155,1,31.8750006079674
169,70,44285,5,0,0:0:0:0:
152,188,44628,2,0,P|166:222|170:251,1,63.7500012159348
104,300,44971,2,0,P|194:333|246:294,1,150
439,233,45657,6,0,P|349:200|297:239,1,150
372,289,46342,2,0,P|409:314|451:330,1,75
215,204,46685,1,0,0:0:0:0:
309,225,46857,1,0,0:0:0:0:
244,297,47028,6,0,P|174:335|104:300,1,150
228,171,47542,1,0,0:0:0:0:
173,242,47714,2,0,P|135:172|170:102,1,150
299,226,48228,1,0,0:0:0:0:
228,171,48400,2,0,P|298:133|368:168,1,150
244,297,48914,1,0,0:0:0:0:
299,226,49085,6,0,P|320:269|346:312,1,75
434,354,49428,2,0,P|430:306|431:256,1,75
453,155,49771,1,0,0:0:0:0:
448,144,50114,5,0,0:0:0:0:
368,168,50285,1,0,0:0:0:0:
387,86,50457,2,0,P|346:82|303:68,1,67.4999979400635
235,29,50800,1,0,0:0:0:0:
150,106,50971,2,0,P|189:50|249:26,1,120
238,113,51485,1,0,0:0:0:0:
312,166,51657,1,0,0:0:0:0:
229,203,51828,2,0,P|179:248|119:278,1,134.999995880127
113,373,52342,1,0,0:0:0:0:
199,338,52514,6,0,P|261:311|336:304,1,134.999995880127
442,327,53028,1,0,0:0:0:0:
442,327,53200,2,0,P|432:253|438:186,1,134.999995880127
458,96,53714,1,0,0:0:0:0:
352,46,53885,6,0,P|355:120|343:186,1,134.999995880127
314,273,54400,1,0,0:0:0:0:
244,197,54571,1,0,0:0:0:0:
239,195,54742,1,0,0:0:0:0:
236,193,54914,1,0,0:0:0:0:
232,192,55085,1,0,0:0:0:0:
148,360,55257,5,0,0:0:0:0:
172,116,55600,1,0,0:0:0:0:
229,192,55771,1,0,0:0:0:0:
134,203,55942,2,0,P|79:149|90:62,1,150
171,113,56457,1,0,0:0:0:0:
304,133,56628,6,0,P|241:95|171:114,1,150
228,191,57142,1,0,0:0:0:0:
253,262,57314,2,0,P|242:221|225:185,1,75
171,114,57657,1,0,0:0:0:0:
134,203,57828,1,0,0:0:0:0:
228,191,58000,6,0,P|287:138|363:156,1,150
271,314,58514,1,0,0:0:0:0:
311,231,58685,2,0,P|363:290|345:366,1,150
188,274,59200,1,0,0:0:0:0:
271,314,59371,6,0,P|211:366|135:348,1,150
228,191,59885,1,0,0:0:0:0:
110,290,60057,2,0,P|133:325|151:378,1,75
18,183,60400,2,0,P|15:220|20:257,1,75
171,113,60742,5,0,0:0:0:0:
161,121,61085,2,0,P|206:122|257:133,1,78.7499975967408
404,152,61428,2,0,P|363:135|326:107,1,78.7499975967408
316,280,61771,2,0,L|281:253,1,39.3749987983704
316,280,61942,2,0,P|308:232|293:195,1,78.7499975967408
181,51,62285,5,0,0:0:0:0:
165,148,62457,2,0,P|212:141|248:120,1,78.7499975967408
396,74,62800,2,0,P|397:122|405:158,2,78.7499975967408
480,245,63314,1,0,0:0:0:0:
480,245,63400,1,0,0:0:0:0:
480,245,63485,6,0,L|406:272,1,78.7499975967408
256,355,63828,1,0,0:0:0:0:
297,203,64000,1,0,0:0:0:0:
145,244,64171,2,0,L|174:137,1,78.7499975967408
301,88,64514,1,0,0:0:0:0:
165,10,64685,1,0,0:0:0:0:
165,10,64771,1,0,0:0:0:0:
165,10,64857,6,0,L|210:85,1,78.7499975967408
165,167,65200,1,0,0:0:0:0:
322,106,65371,2,0,L|253:160,1,78.7499975967408
250,159,65714,1,0,0:0:0:0:
134,248,65885,1,0,0:0:0:0:
270,304,66057,1,0,0:0:0:0:
443,343,66228,6,0,B|439:291|439:291|452:228,1,89.9999972534181
483,171,66485,1,0,0:0:0:0:
483,171,66571,2,0,B|487:119|487:119|474:56,1,89.9999972534181
299,125,66914,2,0,B|351:121|351:121|414:134,1,89.9999972534181
204,174,67257,2,0,L|231:121,1,44.999998626709
204,174,67428,6,0,B|200:122|200:122|213:59,1,89.9999972534181
342,220,67771,1,0,0:0:0:0:
342,220,67857,1,0,0:0:0:0:
342,220,67942,2,0,B|346:272|346:272|333:335,1,89.9999972534181
157,260,68285,2,0,P|206:253|256:261,1,89.9999972534181
427,307,68628,2,0,P|378:314|328:306,1,89.9999972534181
334,202,68971,5,0,0:0:0:0:
249,364,69142,1,0,0:0:0:0:
152,210,69314,1,0,0:0:0:0:
338,308,69485,5,0,0:0:0:0:
241,154,69657,1,0,0:0:0:0:
156,316,69828,1,0,0:0:0:0:
334,202,70000,1,0,0:0:0:0:
152,210,70171,1,0,0:0:0:0:
356,296,70342,5,0,0:0:0:0:
359,293,70428,1,0,0:0:0:0:
362,290,70514,1,0,0:0:0:0:
365,287,70600,1,0,0:0:0:0:
368,284,70685,1,0,0:0:0:0:
371,281,70771,1,0,0:0:0:0:
374,278,70857,1,0,0:0:0:0:
377,275,70942,1,0,0:0:0:0:
401,237,71028,2,0,L|370:219,1,22.4999993133545
407,192,71114,2,0,L|372:182,1,22.4999993133545
400,147,71200,2,0,L|364:146,1,22.4999993133545
379,107,71285,2,0,L|344:116,1,22.4999993133545
293,75,71371,6,0,B|264:108|233:134|233:134|228:188|211:237,1,168.750006437302
321,256,71714,6,0,P|334:174|397:121,1,157.499995193482
512,252,72057,2,0,B|457:247|457:247|405:220,1,104.999996795654
139,107,72400,6,0,B|122:96|120:67|120:67|152:68|169:94,1,81.0000003089905
243,105,72571,2,0,B|258:98|284:112|284:112|267:139|236:139,1,81.0000003089905
194,191,72742,2,0,B|188:207|164:223|164:223|149:194|160:176,1,81.0000003089905
223,14,72914,1,0,0:0:0:0:
77,162,73085,6,0,B|58:198|58:229|58:229|41:222|41:222|38:268|16:289,1,157.499995193482
135,348,73428,2,0,P|110:303|109:351,1,104.999996795654
271,344,73771,2,0,P|236:266|248:189,1,157.499995193482
434,237,74114,2,0,B|383:258|383:258|324:258,1,104.999996795654
202,47,74457,6,0,B|208:87|208:87|242:130|245:208,1,157.499995193482
152,202,74800,2,0,B|127:186|100:186|100:186|123:169|140:146,1,104.999996795654
310,65,75142,2,0,P|342:65|381:75,1,52.4999983978272
365,204,75314,2,0,P|348:176|338:137,1,52.4999983978272
457,86,75485,2,0,P|440:113|412:142,1,52.4999983978272
216,181,75657,2,0,P|232:153|260:124,1,52.4999983978272
460,220,75828,6,0,B|456:249|465:278|465:278|411:273|351:327,1,157.499995193482
178,270,76171,2,0,P|237:252|289:268,1,104.999996795654
190,362,76514,2,0,B|140:361|123:349|123:349|124:359|111:368|111:368|85:350|11:359,1,157.499995193482
70,164,76857,2,0,P|88:223|72:275,1,104.999996795654
309,55,77200,6,0,B|301:15|229:31|245:111|245:111|269:175,1,161.999995056153,0|0,0:0|0:0,0:0:0:0:
360,99,77542,2,0,B|376:94|392:159|308:168,1,108.30000370166
66,109,77885,2,0,L|70:169,1,54.1500018508301
154,269,78057,2,0,L|150:209,1,54.1500018508301
213,53,78228,2,0,L|217:113,1,54.1500018508301
320,287,78400,2,0,L|316:227,1,54.1500018508301
351,23,78571,6,0,B|363:53|360:73|360:73|412:87|462:154,1,162.45000555249
251,200,78914,2,0,P|318:184|360:161,1,108.30000370166
267,55,79257,2,0,B|233:54|222:46|222:46|222:52|214:59|214:59|196:46|147:52,1,108.30000370166
159,59,79600,1,0,0:0:0:0:
251,200,79771,1,0,0:0:0:0:
82,209,79942,6,0,B|135:133|165:184|226:124,1,162.45000555249
216,100,80285,2,0,B|197:178|197:178|228:271,1,162.45000555249
205,280,80628,2,0,B|224:277|240:260|240:248|240:248|251:251|249:260|249:260|266:228|306:219,1,108.30000370166
385,137,80971,1,0,0:0:0:0:
412,279,81142,1,0,0:0:0:0:
286,151,81314,6,0,P|202:89|126:150,1,216.600007403321
154,315,81828,1,0,0:0:0:0:
205,173,82000,2,0,B|249:135|265:84|265:84|317:124|395:129,1,216.600007403321
373,119,82685,6,0,P|365:190|383:284,1,162.45000555249
462,326,83028,2,0,P|403:316|340:334,1,108.30000370166
174,353,83371,2,0,P|188:326|201:290,1,54.1500018508301
105,198,83542,2,0,P|132:212|168:225,1,54.1500018508301
260,129,83714,2,0,P|246:156|233:192,1,54.1500018508301
329,284,83885,2,0,P|302:270|266:257,1,54.1500018508301
80,309,84057,6,0,B|70:272|93:242|93:242|83:243|74:230|74:230|102:193|83:130,1,162.45000555249
175,146,84400,2,0,P|133:87|34:98,1,162.45000555249
1,161,84742,1,0,0:0:0:0:
116,51,84914,1,0,0:0:0:0:
208,277,85085,1,0,0:0:0:0:
90,165,85257,1,0,0:0:0:0:
290,75,85428,6,0,P|370:58|453:80,1,162.45000555249
399,236,85771,2,0,P|371:188|376:117,1,108.30000370166
127,159,86114,2,0,L|131:219,1,54.1500018508301
215,319,86286,2,0,L|211:259,1,54.1500018508301
274,103,86457,2,0,L|278:163,1,54.1500018508301
381,337,86629,2,0,L|377:277,1,54.1500018508301
454,71,86800,6,0,B|411:106|411:106|422:173|357:206,1,162.45000555249
406,273,87142,2,0,P|328:269|290:201,1,162.45000555249
326,129,87485,1,0,0:0:0:0:
185,49,87657,1,0,0:0:0:0:
187,212,87828,2,0,P|192:273|190:328,1,108.30000370166
188,93,88171,6,0,B|183:44|183:44|298:110|298:110|249:146,1,216.600007403321
187,212,88685,1,0,0:0:0:0:
188,93,88857,2,0,B|162:111|162:111|233:123|277:177|277:177|271:124,1,216.600007403321
84,151,89371,1,0,0:0:0:0:
272,128,89542,6,0,B|305:114|330:126|330:126|335:99|356:71|391:55|426:61|452:74|483:108|484:135|479:171|453:197,1,324.900011104981
258,303,90228,2,0,B|268:241|268:241|309:192,1,108.30000370166
401,145,90571,2,0,B|361:96|361:96|301:74,1,108.30000370166
184,67,90914,5,0,0:0:0:0:
138,246,91085,1,0,0:0:0:0:
170,62,91257,1,0,0:0:0:0:
154,254,91428,1,0,0:0:0:0:
109,141,91600,5,0,0:0:0:0:
266,238,91771,1,0,0:0:0:0:
100,153,91943,1,0,0:0:0:0:
278,226,92114,1,0,0:0:0:0:
58,286,92285,5,0,0:0:0:0:
99,297,92371,1,0,0:0:0:0:
142,279,92457,1,0,0:0:0:0:
165,236,92542,1,0,0:0:0:0:
163,185,92628,5,0,0:0:0:0:
186,142,92713,1,0,0:0:0:0:
229,124,92799,1,0,0:0:0:0:
271,136,92885,1,0,0:0:0:0:
317,140,92971,5,0,0:0:0:0:
360,123,93057,1,0,0:0:0:0:
372,81,93142,1,0,0:0:0:0:
354,38,93228,1,0,0:0:0:0:
312,27,93314,5,0,0:0:0:0:
269,44,93400,1,0,0:0:0:0:
258,86,93485,1,0,0:0:0:0:
275,129,93571,1,0,0:0:0:0:
317,140,93657,6,0,P|289:175|343:164,2,120
462,44,94171,2,0,P|459:76|463:115,1,60
490,196,94342,2,0,P|472:237|456:184,2,120
223,32,94857,1,0,0:0:0:0:
115,166,95028,5,0,0:0:0:0:
255,112,95200,1,0,0:0:0:0:
319,272,95371,1,0,0:0:0:0:
169,99,95542,1,0,0:0:0:0:
61,233,95714,1,0,0:0:0:0:
287,192,95885,2,0,B|341:181|341:181|349:175|349:175|353:179|353:179|428:164,1,120
179,100,96228,1,0,0:0:0:0:
251,85,96314,1,0,0:0:0:0:
324,71,96400,6,0,B|375:60|375:60|380:64|380:64|388:58|388:58|447:46,1,120
381,213,96742,1,0,0:0:0:0:
448,71,96914,1,0,0:0:0:0:
428,299,97085,5,0,0:0:0:0:
415,142,97257,1,0,0:0:0:0:
188,229,97428,5,0,0:0:0:0:
330,296,97600,1,0,0:0:0:0:
322,69,97771,5,0,0:0:0:0:
322,69,97942,1,0,0:0:0:0:
188,316,98114,1,0,0:0:0:0:
188,316,98285,1,0,0:0:0:0:
428,170,98457,1,0,0:0:0:0:
428,170,98628,1,0,0:0:0:0:
224,64,98800,1,0,0:0:0:0:
200,56,98885,1,0,0:0:0:0:
176,64,98971,1,0,0:0:0:0:
152,72,99057,1,0,0:0:0:0:
128,64,99142,6,0,P|85:50|136:28,2,120
300,23,99657,1,0,0:0:0:0:
273,176,99828,1,0,0:0:0:0:
420,123,100000,1,0,0:0:0:0:
236,90,100171,1,0,0:0:0:0:
300,266,100342,1,0,0:0:0:0:
300,266,100428,1,0,0:0:0:0:
300,266,100514,6,0,P|257:252|308:230,1,120
457,295,100857,1,0,0:0:0:0:
419,143,101028,1,0,0:0:0:0:
204,103,101200,2,0,P|218:140|226:130,1,60
359,73,101371,2,0,P|322:56|323:68,1,60
292,252,101542,2,0,P|305:184|298:113,1,120
174,28,101885,6,0,B|204:47|215:97|215:97|261:104|261:104|302:134,1,180
221,187,102228,2,0,B|157:162|157:162|124:95,1,120
277,23,102571,1,0,0:0:0:0:
307,230,102742,2,0,P|317:292|321:350,1,120
221,293,103085,2,0,B|275:278|319:311|319:311|317:297|336:284|336:284|390:324|441:307,1,240
417,136,103600,6,0,P|419:188|394:240,1,89.9999972534181
248,158,103942,2,0,P|300:156|352:181,1,89.9999972534181
165,191,104285,2,0,P|163:139|188:87,1,89.9999972534181
284,239,104628,6,0,P|256:274|310:263,2,120
379,197,105142,1,0,0:0:0:0:
474,155,105314,2,0,P|502:120|448:131,2,120
379,197,105828,1,0,0:0:0:0:
229,113,106000,6,0,B|208:139|208:139|252:138,1,60,0|0,0:0|0:0,0:0:0:0:
356,170,106171,2,0,B|378:196|378:196|333:195,1,60,0|0,0:0|0:0,0:0:0:0:
236,226,106342,2,0,B|215:252|215:252|259:251,1,60,0|0,0:0|0:0,0:0:0:0:
356,282,106514,2,0,B|378:308|378:308|333:307,1,60,0|0,0:0|0:0,0:0:0:0:
237,337,106685,5,0,0:0:0:0:
459,290,106857,2,0,B|451:250|451:250|475:194|475:194|475:154,1,120
336,241,107200,2,0,P|307:280|356:282,1,120
139,107,107542,6,0,B|122:96|120:67|120:67|152:68|169:94,1,60
243,105,107714,2,0,B|258:98|284:112|284:112|267:139|236:139,1,60
194,191,107885,2,0,B|188:207|164:223|164:223|149:194|160:176,1,60
313,33,108057,6,0,P|334:55|359:72,1,60
363,218,108228,2,0,P|371:188|373:158,1,60
498,82,108400,2,0,P|468:89|441:102,1,60
290,177,108571,1,0,0:0:0:0:
99,61,108742,5,0,0:0:0:0:
72,80,108828,1,0,0:0:0:0:
102,93,108914,1,0,0:0:0:0:
253,33,109085,5,0,0:0:0:0:
283,20,109171,1,0,0:0:0:0:
277,52,109257,1,0,0:0:0:0:
192,213,109428,5,0,0:0:0:0:
185,244,109514,1,0,0:0:0:0:
214,232,109600,1,0,0:0:0:0:
424,312,109771,1,0,0:0:0:0:
432,288,109857,1,0,0:0:0:0:
424,263,109942,1,0,0:0:0:0:
416,240,110028,1,0,0:0:0:0:
424,213,110114,5,0,0:0:0:0:
375,103,110285,1,0,0:0:0:0:
330,300,110457,5,0,0:0:0:0:
348,181,110628,1,0,0:0:0:0:
209,82,110800,5,0,0:0:0:0:
227,201,110971,1,0,0:0:0:0:
34,169,111142,5,0,0:0:0:0:
153,151,111313,1,0,0:0:0:0:
153,151,111400,1,0,0:0:0:0:
153,151,111485,5,0,0:0:0:0:
107,325,111657,1,0,0:0:0:0:
284,298,111828,1,0,0:0:0:0:
115,232,112000,1,0,0:0:0:0:
291,201,112171,2,0,P|264:179|244:147,1,60
376,75,112342,2,0,P|354:102|322:122,1,60
139,87,112514,2,0,P|193:66|256:64,1,120
409,221,112857,5,0,0:0:0:0:
262,73,113028,1,0,0:0:0:0:
207,275,113200,1,0,0:0:0:0:
355,129,113371,1,0,0:0:0:0:
154,74,113542,1,0,0:0:0:0:
300,224,113714,1,0,0:0:0:0:
356,23,113885,1,0,0:0:0:0:
207,170,114057,1,0,0:0:0:0:
427,166,114228,5,0,0:0:0:0:
385,164,114314,1,0,0:0:0:0:
346,150,114399,1,0,0:0:0:0:
317,119,114485,1,0,0:0:0:0:
305,79,114571,2,0,P|310:53|328:22,1,35.6249990487099
190,138,114742,2,0,P|164:132|133:114,1,35.6249990487099
249,253,114914,2,0,P|243:278|225:309,1,35.6249990487099
363,194,115085,2,0,P|388:199|419:217,1,35.6249990487099
196,139,115257,1,0,0:0:0:0:
186,137,115600,5,0,0:0:0:0:
253,55,115942,1,0,0:0:0:0:
259,57,116114,1,0,0:0:0:0:
264,59,116285,2,0,P|299:123|280:202,1,134.999995880127
196,139,116800,1,0,0:0:0:0:
331,118,116971,6,0,P|402:103|461:44,1,134.999995880127
354,17,117485,1,0,0:0:0:0:
256,83,117657,2,0,P|247:123|258:171,1,67.4999979400635
363,246,118000,1,0,0:0:0:0:
363,239,118171,1,0,0:0:0:0:
362,233,118342,6,0,B|327:207|327:207|292:257|230:249,1,134.999995880127
249,160,118857,1,0,0:0:0:0:
249,160,119028,2,0,B|241:117|241:117|176:120|147:72,1,134.999995880127
173,189,119542,1,0,0:0:0:0:
173,189,119714,6,0,B|158:226|158:226|203:283|186:331,1,134.999995880127
103,300,120228,1,0,0:0:0:0:
258,218,120400,2,0,P|298:204|352:197,1,67.4999979400635
469,226,120742,2,0,P|429:240|375:247,1,67.4999979400635
298,93,121085,5,0,0:0:0:0:
365,106,121428,1,0,0:0:0:0:
331,103,121600,1,0,0:0:0:0:
298,93,121771,2,0,P|261:75|231:45,1,67.4999979400635
400,104,122114,1,0,0:0:0:0:
406,171,122285,2,0,P|404:136|396:82,1,67.4999979400635
241,61,122628,5,0,0:0:0:0:
168,128,122800,2,0,P|164:88|140:40,2,67.4999979400635
83,116,123314,1,0,0:0:0:0:
94,196,123485,1,0,0:0:0:0:
74,275,123657,1,0,0:0:0:0:
150,340,123828,6,0,P|217:308|288:309,1,134.999995880127
358,351,124342,1,0,0:0:0:0:
331,228,124514,2,0,P|365:290|347:373,1,134.999995880127
276,306,125028,1,0,0:0:0:0:
373,239,125200,6,0,P|434:198|511:210,1,134.999995880127
451,280,125714,1,0,0:0:0:0:
475,170,125885,1,0,0:0:0:0:
459,90,126057,1,0,0:0:0:0:
480,12,126228,1,0,0:0:0:0:
402,33,126400,1,0,0:0:0:0:
475,170,126571,5,0,0:0:0:0:
475,170,126914,1,0,0:0:0:0:
469,165,127085,1,0,0:0:0:0:
462,160,127257,2,0,B|403:121|403:121|314:102,1,134.999995880127
259,150,127771,1,0,0:0:0:0:
336,199,127942,6,0,B|395:224|395:224|445:273,1,134.999995880127
348,302,128457,1,0,0:0:0:0:
390,193,128628,2,0,B|409:122|409:122|394:42,1,134.999995880127
316,117,129142,1,0,0:0:0:0:
198,66,129314,6,0,P|226:140|184:210,1,134.999995880127
120,48,129828,1,0,0:0:0:0:
135,136,130000,2,0,P|56:109|39:55,1,134.999995880127
202,97,130514,1,0,0:0:0:0:
120,48,130685,2,0,P|185:1|246:18,1,134.999995880127
202,97,131200,1,0,0:0:0:0:
252,202,131371,1,0,0:0:0:0:
135,136,131542,1,0,0:0:0:0:
249,32,131714,1,0,0:0:0:0:
252,202,131885,1,0,0:0:0:0:
135,45,132057,5,0,0:0:0:0:
142,48,132400,1,0,0:0:0:0:
231,106,132571,1,0,0:0:0:0:
266,206,132742,2,0,P|227:211|177:198,1,71.2499980974198
111,139,133085,1,0,0:0:0:0:
119,245,133257,1,0,0:0:0:0:
93,361,133428,5,0,0:0:0:0:
193,324,133600,2,0,P|232:313|279:309,1,71.2499980974198
367,292,133942,1,0,0:0:0:0:
457,349,134114,2,0,P|455:304|469:260,1,71.2499980974198
489,175,134457,1,0,0:0:0:0:
388,209,134628,1,0,0:0:0:0:
276,137,134800,5,0,0:0:0:0:
460,105,134971,1,0,0:0:0:0:
388,209,135142,1,0,0:0:0:0:
348,33,135314,1,0,0:0:0:0:
92,105,135485,1,0,0:0:0:0:
276,137,135657,1,0,0:0:0:0:
204,33,135828,1,0,0:0:0:0:
152,207,136000,6,0,B|171:167|155:162|175:133,1,56.2500021457673
204,33,136342,1,0,0:0:0:0:
68,258,136514,2,0,P|104:294|177:302,1,89.9999972534181
318,195,136857,2,0,P|263:208|217:248,1,97.4999955368044
311,295,137200,1,0,0:0:0:0:
203,217,137371,1,0,0:0:0:0:
277,54,137542,5,0,0:0:0:0:
426,151,137714,2,0,P|408:126|383:110,1,37.5
355,188,137885,2,0,P|327:212|263:228,1,75
232,348,138228,2,0,P|225:311|243:248,1,75
164,146,138571,1,0,0:0:0:0:
164,146,138742,2,0,P|188:176|245:205,1,75
368,46,139085,6,0,P|363:24|345:-1,1,37.5
294,58,139257,2,0,P|264:82|235:139,1,75
305,256,139600,2,0,P|299:218|264:164,1,75
127,167,139942,2,0,P|162:180|226:177,1,75
328,126,140285,5,0,0:0:0:0:
436,199,140457,1,0,0:0:0:0:
311,237,140628,1,0,0:0:0:0:
408,78,140800,1,0,0:0:0:0:
456,262,140972,1,0,0:0:0:0:
262,162,141143,1,0,0:0:0:0:
480,118,141314,1,0,0:0:0:0:
352,306,141486,1,0,0:0:0:0:
285,87,141657,5,0,0:0:0:0:
288,85,141742,1,0,0:0:0:0:
291,83,141828,1,0,0:0:0:0:
294,81,141914,1,0,0:0:0:0:
331,78,142000,1,0,0:0:0:0:
367,84,142085,1,0,0:0:0:0:
396,107,142171,1,0,0:0:0:0:
418,136,142257,1,0,0:0:0:0:
431,170,142342,2,0,L|439:204,6,18.75
412,293,142685,2,0,P|409:238|440:183,1,112.500004291535
455,53,143028,6,0,B|424:71|424:71|401:133|321:132,1,157.499995193482
244,23,143371,2,0,P|299:22|344:53,1,104.999996795654
335,233,143714,2,0,P|303:233|264:223,1,52.4999983978272
280,94,143886,2,0,P|297:122|307:161,1,52.4999983978272
188,212,144057,2,0,P|205:185|233:156,1,52.4999983978272
429,117,144229,2,0,P|413:145|385:174,1,52.4999983978272
185,78,144400,6,0,P|235:11|334:10,1,157.499995193482
333,172,144742,2,0,P|295:131|273:84,1,104.999996795654
443,49,145085,2,0,B|461:98|461:98|410:130|419:193,1,157.499995193482
505,180,145428,2,0,P|484:239|425:277,1,104.999996795654
311,350,145771,6,0,P|280:267|196:231,1,157.499995193482
131,376,146114,2,0,B|188:359|188:359|230:320,1,104.999996795654
217,114,146457,6,0,P|202:137|199:165,1,52.4999983978272
167,235,146628,2,0,P|160:267|140:288,1,52.4999983978272
82,151,146800,2,0,B|85:155|123:161|129:173,1,52.4999983978272
256,232,146971,2,0,B|261:232|286:253|307:254,1,52.4999983978272
441,298,147142,6,0,B|450:284|479:282|479:282|415:244|413:174,1,157.499995193482
459,106,147485,2,0,B|501:148|501:148|503:204,1,104.999996795654
222,124,147828,2,0,P|289:85|362:109,1,157.499995193482
330,267,148171,2,0,B|302:218|302:218|297:141,1,104.999996795654
217,23,148514,6,0,P|140:64|70:47,1,157.499995193482
37,132,148857,2,0,P|90:146|138:200,1,104.999996795654
273,293,149200,6,0,P|295:330|300:358,1,52.4999983978272
176,261,149371,2,0,P|137:283|110:288,1,52.4999983978272
217,177,149543,2,0,P|194:140|189:111,1,52.4999983978272
297,207,149714,2,0,P|333:184|362:179,1,52.4999983978272
490,123,149885,6,0,P|465:202|498:296,1,157.499995193482
424,349,150228,2,0,P|401:301|343:258,1,104.999996795654
181,301,150571,2,0,P|234:305|300:276,1,104.999996795654
395,71,150914,2,0,P|405:101|406:125,1,52.4999983978272
251,136,151085,2,0,P|249:104|254:80,1,52.4999983978272
327,109,151257,6,0,P|325:163|289:224,1,104.999996795654
107,144,151600,2,0,P|175:112|254:139,1,157.499995193482
202,300,151942,2,0,B|181:246|181:246|183:172,1,104.999996795654
399,191,152285,2,0,P|345:216|282:194,1,104.999996795654
187,74,152628,2,0,P|106:149|134:149,1,314.999990386963
122,85,153228,1,0,0:0:0:0:
122,85,153314,2,0,P|138:111|133:159,4,52.4999983978272
269,133,154000,6,0,P|352:111|439:149,1,157.499995193482
397,207,154342,2,0,B|371:202|345:187|345:187|317:202|281:213,1,104.999996795654
123,297,154685,2,0,P|152:321|191:329,1,52.4999983978272
191,250,154857,2,0,P|215:221|223:182,1,52.4999983978272
144,182,155028,2,0,P|115:157|76:150,1,52.4999983978272
76,229,155200,2,0,P|51:258|44:297,1,52.4999983978272
243,310,155371,6,0,P|319:291|414:307,1,157.499995193482
496,296,155714,2,0,B|470:244|470:244|475:186,1,104.999996795654
376,57,156057,2,0,B|371:104|371:104|407:151|387:228,1,157.499995193482
278,123,156400,2,0,B|310:169|310:169|288:213,1,104.999996795654
192,52,156742,6,0,B|153:67|123:85|123:85|90:64|47:57,1,157.499995193482
76,150,157085,2,0,P|125:164|172:144,1,104.999996795654
359,28,157428,2,0,P|335:39|316:57,1,52.4999983978272
413,146,157600,2,0,P|401:122|383:103,1,52.4999983978272
294,201,157771,2,0,P|317:189|336:171,1,52.4999983978272
240,82,157943,2,0,P|251:105|269:124,1,52.4999983978272
436,45,158114,6,0,P|429:126|448:210,1,157.499995193482
487,284,158457,2,0,P|422:293|367:248,1,104.999996795654
183,212,158800,2,0,P|257:190|363:225,1,157.499995193482
444,200,159142,2,0,P|411:151|415:78,1,104.999996795654
237,85,159485,6,0,P|192:98|133:84,1,90.0000034332277
309,39,159828,2,0,P|322:83|309:142,1,90.0000034332277
77,137,160171,2,0,P|63:92|77:33,1,90.0000034332277
123,210,160514,2,0,P|78:223|19:209,1,90.0000034332277
404,185,160857,6,0,L|428:278,1,90.0000034332277
302,352,161200,2,0,L|319:257,1,90.0000034332277
198,176,161542,2,0,L|205:271,1,90.0000034332277
69,340,161885,2,0,L|102:250,1,90.0000034332277
395,88,162228,5,0,0:0:0:0:
198,176,162400,1,0,0:0:0:0:
349,153,162571,5,0,0:0:0:0:
140,101,162743,1,0,0:0:0:0:
232,333,162914,5,0,0:0:0:0:
284,124,163086,1,0,0:0:0:0:
89,241,163257,5,0,0:0:0:0:
298,293,163429,1,0,0:0:0:0:
250,121,163600,5,0,0:0:0:0:
281,77,163685,1,0,0:0:0:0:
331,73,163771,1,0,0:0:0:0:
370,107,163857,1,0,0:0:0:0:
373,158,163942,1,0,0:0:0:0:
336,194,164028,1,0,0:0:0:0:
283,192,164114,1,0,0:0:0:0:
252,154,164200,1,0,0:0:0:0:
274,115,164285,5,0,0:0:0:0:
327,106,164370,1,0,0:0:0:0:
365,137,164456,1,0,0:0:0:0:
369,190,164542,1,0,0:0:0:0:
334,227,164627,1,0,0:0:0:0:
203,146,164971,38,0,B|220:165|300:117|267:-45|128:-4|112:85|112:85|101:172|164:220|128:343|128:343|238:279|305:326|391:284|391:284|474:241|463:100|284:104|285:209|304:232,1,1138.49999652557
299,223,173200,6,0,B|344:188|438:232|414:357|294:379|278:309|257:255|257:255|235:209|178:171|86:249|119:322|201:357|237:313,1,609.000018585206,0|0,0:0|0:0,0:0:0:0:
408,144,175942,6,0,P|440:115|447:66,1,87.0000026550294
408,144,176628,2,0,P|431:108|426:57,1,90.0000034332277,0|0,0:0|0:0,0:0:0:0:
408,144,177314,2,0,P|420:103|403:56,1,90.0000034332277,0|0,0:0|0:0,0:0:0:0:
408,144,178000,2,0,P|410:101|380:60,1,90.0000034332277,0|0,0:0|0:0,0:0:0:0:
333,125,178685,6,0,B|290:109|243:131|243:131|200:145|154:123,2,180.000006866455,0|0|0,0:0|0:0|0:0,0:0:0:0:
256,192,180228,12,0,181428,0:0:0:0:
392,192,181600,5,0,0:0:0:0:
392,192,181685,1,0,0:0:0:0:
392,192,181771,1,0,0:0:0:0:
440,112,181942,1,0,0:0:0:0:
352,112,182114,1,0,0:0:0:0:
328,256,182457,1,0,0:0:0:0:
328,256,182628,1,0,0:0:0:0:
232,104,182971,5,0,0:0:0:0:
320,120,183142,1,0,0:0:0:0:
232,120,183314,1,0,0:0:0:0:
320,136,183485,1,0,0:0:0:0:
144,248,184000,5,0,0:0:0:0:
144,248,184171,2,0,B|152:224|200:184|208:168,1,90.0000034332277,0|0,0:0|0:0,0:0:0:0:
368,248,184685,1,0,0:0:0:0:
368,248,184857,2,0,B|344:240|312:184|296:176,1,90.0000034332277,0|0,0:0|0:0,0:0:0:0:
259,242,185371,5,0,0:0:0:0:
259,242,185542,2,0,B|243:234|227:210|219:186|219:162|227:138|243:114|275:90|315:90|355:106|376:144|376:144|403:106|451:106,1,360.000013732911
203,172,200628,5,0,0:0:0:0:
256,192,200714,12,0,203028,0:0:0:0:
209,158,203371,5,0,0:0:0:0:
238,132,204057,1,0,0:0:0:0:
267,106,204742,1,0,0:0:0:0:
256,192,204828,12,0,205771,0:0:0:0:
246,263,206114,6,0,L|328:240,1,67.4999979400635
460,234,206457,2,0,L|378:257,1,67.4999979400635
246,236,206800,2,0,L|331:235,1,67.4999979400635
460,263,207143,2,0,L|374:263,1,67.4999979400635
178,303,207485,6,0,P|168:263|145:229,1,67.4999979400635
168,97,207828,2,0,P|178:137|201:171,1,67.4999979400635
150,299,208171,2,0,P|150:257|137:218,1,67.4999979400635
193,97,208514,2,0,P|192:138|205:177,1,67.4999979400635
354,253,208857,5,0,0:0:0:0:
150,299,209028,1,0,0:0:0:0:
390,322,209200,5,0,0:0:0:0:
198,242,209371,1,0,0:0:0:0:
304,121,209542,5,0,0:0:0:0:
224,313,209713,1,0,0:0:0:0:
243,45,209885,5,0,0:0:0:0:
272,254,210056,1,0,0:0:0:0:
355,139,210228,1,0,0:0:0:0:
327,132,210314,1,0,0:0:0:0:
298,124,210400,1,0,0:0:0:0:
270,116,210485,1,0,0:0:0:0:
243,112,210571,6,0,B|208:123|208:123|215:160|196:208,1,101.249996910095
137,249,210914,2,0,P|110:195|125:137,1,101.249996910095
203,186,211257,2,0,P|224:229|212:276,1,67.4999979400635
73,305,211600,6,0,P|45:340|99:329,2,120
256,223,212114,1,0,0:0:0:0:
439,305,212285,2,0,P|467:340|413:329,2,120
256,333,212800,1,0,0:0:0:0:
428,212,212971,6,0,L|380:247,1,60
397,124,213142,2,0,L|359:170,1,60
344,47,213314,2,0,L|319:101,1,60
267,261,213485,2,0,L|276:202,1,60
204,55,213657,2,0,L|210:114,1,60
144,243,213828,2,0,P|82:236|130:264,1,120
243,355,214171,1,0,0:0:0:0:
255,307,214257,1,0,0:0:0:0:
267,261,214342,5,0,0:0:0:0:
339,164,214514,1,0,0:0:0:0:
447,213,214685,1,0,0:0:0:0:
268,187,214857,1,0,0:0:0:0:
358,31,215028,1,0,0:0:0:0:
459,180,215200,1,0,0:0:0:0:
502,68,215371,1,0,0:0:0:0:
329,116,215542,1,0,0:0:0:0:
420,263,215714,5,0,0:0:0:0:
410,234,215800,1,0,0:0:0:0:
400,206,215885,1,0,0:0:0:0:
329,116,216057,1,0,0:0:0:0:
319,145,216143,1,0,0:0:0:0:
309,173,216228,1,0,0:0:0:0:
321,275,216400,1,0,0:0:0:0:
293,265,216485,1,0,0:0:0:0:
264,255,216571,1,0,0:0:0:0:
163,148,216742,1,0,0:0:0:0:
158,144,216828,1,0,0:0:0:0:
153,140,216914,1,0,0:0:0:0:
149,136,217000,1,0,0:0:0:0:
144,132,217085,5,0,0:0:0:0:
92,240,217257,1,0,0:0:0:0:
212,252,217428,1,0,0:0:0:0:
57,160,217600,1,0,0:0:0:0:
131,323,217771,1,0,0:0:0:0:
155,205,217942,1,0,0:0:0:0:
59,357,218114,1,0,0:0:0:0:
57,237,218285,1,0,0:0:0:0:
57,237,218371,1,0,0:0:0:0:
57,237,218457,5,0,0:0:0:0:
162,295,218628,1,0,0:0:0:0:
107,123,218800,1,0,0:0:0:0:
265,209,218971,1,0,0:0:0:0:
345,119,219142,2,0,P|366:93|399:73,1,60
366,123,219314,2,0,P|394:103|431:92,1,60
479,280,219485,2,0,P|453:213|408:173,1,120
221,300,219828,6,0,B|229:248|229:248|182:209|189:150,1,153.000000933838
281,174,220171,2,0,B|320:225|320:225|316:282,1,102.000000622559
140,283,220514,1,0,0:0:0:0:
140,283,220685,2,0,P|116:241|105:179,1,102.000000622559
250,105,221028,2,0,B|157:130|157:79|48:105,1,204.000003890991
344,149,221542,6,0,B|308:91|245:103|245:103|262:87|263:64,1,153.000002918243
265,188,221885,2,0,B|247:243|201:271,1,102.000001945496
63,361,222228,2,0,B|81:306|127:278,1,102.000001945496
374,281,222571,6,0,P|411:313|364:326,2,120
176,254,223085,1,0,0:0:0:0:
149,56,223256,2,0,P|117:19|105:67,2,120
253,175,223771,1,0,0:0:0:0:
71,208,223942,6,0,P|89:170|120:143,1,60
142,289,224114,2,0,P|149:247|172:213,1,60
231,348,224285,2,0,P|227:306|240:267,1,60
347,186,224457,2,0,P|312:209|272:217,1,60
216,89,224628,2,0,P|254:107|281:138,1,60
157,231,224800,2,0,P|160:179|207:201,1,120
308,314,225142,1,0,0:0:0:0:
328,270,225228,1,0,0:0:0:0:
348,226,225314,5,0,0:0:0:0:
508,160,225485,1,0,0:0:0:0:
371,55,225657,1,0,0:0:0:0:
474,80,225828,1,0,0:0:0:0:
271,141,226000,1,0,0:0:0:0:
370,182,226171,1,0,0:0:0:0:
200,314,226342,1,0,0:0:0:0:
300,273,226514,1,0,0:0:0:0:
276,89,226685,5,0,0:0:0:0:
276,89,226771,1,0,0:0:0:0:
276,89,226857,1,0,0:0:0:0:
136,126,227028,5,0,0:0:0:0:
130,122,227114,1,0,0:0:0:0:
124,119,227200,1,0,0:0:0:0:
237,233,227371,5,0,0:0:0:0:
241,229,227457,1,0,0:0:0:0:
245,224,227543,1,0,0:0:0:0:
373,116,227714,1,0,0:0:0:0:
380,144,227800,1,0,0:0:0:0:
388,172,227885,1,0,0:0:0:0:
396,201,227971,1,0,0:0:0:0:
403,230,228057,5,0,0:0:0:0:
259,150,228229,1,0,0:0:0:0:
275,270,228400,1,0,0:0:0:0:
355,118,228571,1,0,0:0:0:0:
347,318,228743,5,0,0:0:0:0:
227,186,228914,1,0,0:0:0:0:
263,346,229086,1,0,0:0:0:0:
362,159,229257,1,0,0:0:0:0:
362,159,229342,1,0,0:0:0:0:
362,159,229428,5,0,0:0:0:0:
194,315,229599,1,0,0:0:0:0:
402,243,229770,1,0,0:0:0:0:
190,159,229942,1,0,0:0:0:0:
319,40,230114,2,0,P|323:78|332:110,1,60
437,184,230285,2,0,P|402:168|369:160,1,60
208,253,230457,2,0,P|259:215|298:175,1,120
423,96,230800,5,0,0:0:0:0:
199,172,230971,1,0,0:0:0:0:
412,281,231143,1,0,0:0:0:0:
286,57,231314,1,0,0:0:0:0:
292,326,231485,5,0,0:0:0:0:
442,188,231657,1,0,0:0:0:0:
196,82,231828,1,0,0:0:0:0:
342,246,232000,1,0,0:0:0:0:
361,48,232171,5,0,0:0:0:0:
345,95,232257,1,0,0:0:0:0:
330,132,232342,1,0,0:0:0:0:
302,167,232428,1,0,0:0:0:0:
278,195,232514,2,0,P|256:214|219:230,3,45.0000017166138,0|0|0|0,0:0|0:0|0:0|0:0,0:0:0:0:
179,149,232857,2,0,P|151:160|112:163,3,45.0000017166138,0|0|0|0,0:0|0:0|0:0|0:0,0:0:0:0:
114,68,233200,2,0,P|85:69|46:58,3,45.0000017166138,0|0|0|0,0:0|0:0|0:0|0:0,0:0:0:0:
278,195,233542,5,0,0:0:0:0:
