osu file format v14

[General]
AudioFilename: PRIZM.mp3
AudioLeadIn: 0
PreviewTime: 64711
Countdown: 0
SampleSet: Soft
StackLeniency: 0.7
Mode: 0
LetterboxInBreaks: 0
EpilepsyWarning: 1
WidescreenStoryboard: 1

[Editor]
DistanceSpacing: 2.4
BeatDivisor: 4
GridSize: 4
TimelineZoom: 2.799999

[Metadata]
Title:PRIZM/CIRCUiT
TitleUnicode:PRIZM/CIRCUiT
Artist:Touno Sakura
ArtistUnicode:冬乃桜
Creator:moonlightleaf
Version:Insane
Source:ナツイロココロログ ~Happy Summer~
Tags:eroge opening ALVINE Hearts
BeatmapID:1633220
BeatmapSetID:776529

[Difficulty]
HPDrainRate:6
CircleSize:4
OverallDifficulty:6
ApproachRate:8
SliderMultiplier:1.5
SliderTickRate:1

[Events]
//Background and Video events
0,0,"bg2.jpg",0,0
//Break Periods
//Storyboard Layer 0 (Background)
//Storyboard Layer 1 (Fail)
//Storyboard Layer 2 (Pass)
//Storyboard Layer 3 (Foreground)
Sprite,Foreground,Centre,"white.jpg",320,240 S,0,0,,1 C,0,0,,0,0,0 F,0,0,1228,0,0.3 M,0,0,26389,320,240,323.531,250.5931 F,0,1228,63163,0.3 M,0,26389,101873,320,240 F,0,63163,64711,0.3,0 F,0,64711,87937,0 F,0,87937,89486,0,0.3 F,0,89486,100324,0.3 F,0,100324,101873,0.3,0
Sprite,Foreground,Centre,"bg2.jpg",320,240 M,0,101873,106846,320,240 S,0,101873,107233,0.625
Sprite,Foreground,Centre,"bg2.jpg",320,240 F,0,101873,102647,1,0 S,0,101873,102647,0.625,0.67
Sprite,Foreground,Centre,"bg2.jpg",320,240 F,0,64711,65098,1,0.5103359 S,0,64711,65098,0.625,0.6475 F,0,65098,65485,0.5,0 S,0,65098,65485,0.6475,0.67
Sprite,Foreground,Centre,"light.png",198,160 C,0,1228,,255,255,255 S,0,1228,1373,0.3,0.8 S,0,1228,1808,0.8,1 F,0,1373,1808,1,0
Sprite,Foreground,Centre,"light.png",205,234 C,0,1421,,255,255,255 S,0,1421,1566,0.3,0.8 S,0,1421,2001,0.8,1 F,0,1566,2001,1,0
Sprite,Foreground,Centre,"light.png",219,338 C,0,1615,,255,255,255 S,0,1615,1760,0.3,0.8 S,0,1615,2195,0.8,1 F,0,1760,2195,1,0
Sprite,Foreground,Centre,"light.png",181,340 C,0,1711,,255,255,255 S,0,1711,1856,0.3,0.8 S,0,1711,2291,0.8,1 F,0,1856,2291,1,0
Sprite,Foreground,Centre,"light.png",338,268 C,0,1905,,255,255,255 S,0,1905,2050,0.3,0.8 S,0,1905,2485,0.8,1 F,0,2050,2485,1,0
Sprite,Foreground,Centre,"light.png",300,273 C,0,2001,,255,255,255 S,0,2001,2146,0.3,0.8 S,0,2001,2581,0.8,1 F,0,2146,2581,1,0
Sprite,Foreground,Centre,"light.png",391,177 C,0,2195,,255,255,255 S,0,2195,2340,0.3,0.8 S,0,2195,2775,0.8,1 F,0,2340,2775,1,0
Sprite,Foreground,Centre,"light.png",391,177 C,0,2292,,255,255,255 S,0,2292,2437,0.3,0.8 S,0,2292,2872,0.8,1 F,0,2437,2872,1,0
Sprite,Foreground,Centre,"light.png",391,177 C,0,2389,,255,255,255 S,0,2389,2534,0.3,0.8 S,0,2389,2969,0.8,1 F,0,2534,2969,1,0
Sprite,Foreground,Centre,"light.png",426,316 C,0,2582,,255,255,255 S,0,2582,2727,0.3,0.8 S,0,2582,3162,0.8,1 F,0,2727,3162,1,0
Sprite,Foreground,Centre,"light.png",490,161 C,0,2776,,255,255,255 S,0,2776,2921,0.3,0.8 S,0,2776,3356,0.8,1 F,0,2921,3356,1,0
Sprite,Foreground,Centre,"light.png",454,98 C,0,2969,,255,255,255 S,0,2969,3114,0.3,0.8 S,0,2969,3549,0.8,1 F,0,3114,3549,1,0
Sprite,Foreground,Centre,"light.png",459,239 C,0,3163,,255,255,255 S,0,3163,3308,0.3,0.8 S,0,3163,3743,0.8,1 F,0,3308,3743,1,0
Sprite,Foreground,Centre,"light.png",494,250 C,0,3259,,255,255,255 S,0,3259,3404,0.3,0.8 S,0,3259,3839,0.8,1 F,0,3404,3839,1,0
Sprite,Foreground,Centre,"light.png",390,304 C,0,3453,,255,255,255 S,0,3453,3598,0.3,0.8 S,0,3453,4033,0.8,1 F,0,3598,4033,1,0
Sprite,Foreground,Centre,"light.png",425,315 C,0,3549,,255,255,255 S,0,3549,3694,0.3,0.8 S,0,3549,4129,0.8,1 F,0,3694,4129,1,0
Sprite,Foreground,Centre,"light.png",314,246 C,0,3744,,255,255,255 S,0,3744,3889,0.3,0.8 S,0,3744,4324,0.8,1 F,0,3889,4324,1,0
Sprite,Foreground,Centre,"light.png",314,246 C,0,3840,,255,255,255 S,0,3840,3985,0.3,0.8 S,0,3840,4420,0.8,1 F,0,3985,4420,1,0
Sprite,Foreground,Centre,"light.png",314,246 C,0,3937,,255,255,255 S,0,3937,4082,0.3,0.8 S,0,3937,4517,0.8,1 F,0,4082,4517,1,0
Sprite,Foreground,Centre,"light.png",284,387 C,0,4131,,255,255,255 S,0,4131,4276,0.3,0.8 S,0,4131,4711,0.8,1 F,0,4276,4711,1,0
Sprite,Foreground,Centre,"light.png",189,253 C,0,4324,,255,255,255 S,0,4324,4469,0.3,0.8 S,0,4324,4904,0.8,1 F,0,4469,4904,1,0
Sprite,Foreground,Centre,"light.png",121,280 C,0,4517,,255,255,255 S,0,4517,4662,0.3,0.8 S,0,4517,5097,0.8,1 F,0,4662,5097,1,0
Sprite,Foreground,Centre,"light.png",108,420 C,0,4711,,255,255,255 S,0,4711,4856,0.3,0.8 S,0,4711,5291,0.8,1 F,0,4856,5291,1,0
Sprite,Foreground,Centre,"light.png",88,387 C,0,4807,,255,255,255 S,0,4807,4952,0.3,0.8 S,0,4807,5387,0.8,1 F,0,4952,5387,1,0
Sprite,Foreground,Centre,"light.png",206,380 C,0,5002,,255,255,255 S,0,5002,5147,0.3,0.8 S,0,5002,5582,0.8,1 F,0,5147,5582,1,0
Sprite,Foreground,Centre,"light.png",186,347 C,0,5098,,255,255,255 S,0,5098,5243,0.3,0.8 S,0,5098,5678,0.8,1 F,0,5243,5678,1,0
Sprite,Foreground,Centre,"light.png",189,216 C,0,5292,,255,255,255 S,0,5292,5437,0.3,0.8 S,0,5292,5872,0.8,1 F,0,5437,5872,1,0
Sprite,Foreground,Centre,"light.png",189,216 C,0,5389,,255,255,255 S,0,5389,5534,0.3,0.8 S,0,5389,5969,0.8,1 F,0,5534,5969,1,0
Sprite,Foreground,Centre,"light.png",189,216 C,0,5486,,255,255,255 S,0,5486,5631,0.3,0.8 S,0,5486,6066,0.8,1 F,0,5631,6066,1,0
Sprite,Foreground,Centre,"light.png",293,315 C,0,5679,,255,255,255 S,0,5679,5824,0.3,0.8 S,0,5679,6259,0.8,1 F,0,5824,6259,1,0
Sprite,Foreground,Centre,"light.png",336,164 C,0,5873,,255,255,255 S,0,5873,6018,0.3,0.8 S,0,5873,6453,0.8,1 F,0,6018,6453,1,0
Sprite,Foreground,Centre,"light.png",395,345 C,0,6066,,255,255,255 S,0,6066,6211,0.3,0.8 S,0,6066,6646,0.8,1 F,0,6211,6646,1,0
Sprite,Foreground,Centre,"light.png",508,210 C,0,6260,,255,255,255 S,0,6260,6405,0.3,0.8 S,0,6260,6840,0.8,1 F,0,6405,6840,1,0
Sprite,Foreground,Centre,"light.png",278,231 C,0,6453,,255,255,255 S,0,6453,6598,0.3,0.8 S,0,6453,7033,0.8,1 F,0,6598,7033,1,0
Sprite,Foreground,Centre,"light.png",450,276 C,0,6647,,255,255,255 S,0,6647,6792,0.3,0.8 S,0,6647,7227,0.8,1 F,0,6792,7227,1,0
Sprite,Foreground,Centre,"light.png",480,298 C,0,6743,,255,255,255 S,0,6743,6888,0.3,0.8 S,0,6743,7323,0.8,1 F,0,6888,7323,1,0
Sprite,Foreground,Centre,"light.png",410,148 C,0,6937,,255,255,255 S,0,6937,7082,0.3,0.8 S,0,6937,7517,0.8,1 F,0,7082,7517,1,0
Sprite,Foreground,Centre,"light.png",440,170 C,0,7033,,255,255,255 S,0,7033,7178,0.3,0.8 S,0,7033,7613,0.8,1 F,0,7178,7613,1,0
Sprite,Foreground,Centre,"light.png",368,252 C,0,7227,,255,255,255 S,0,7227,7372,0.3,0.8 S,0,7227,7807,0.8,1 F,0,7372,7807,1,0
Sprite,Foreground,Centre,"light.png",210,300 C,0,7421,,255,255,255 S,0,7421,7566,0.3,0.8 S,0,7421,8001,0.8,1 F,0,7566,8001,1,0
Sprite,Foreground,Centre,"light.png",137,287 C,0,7614,,255,255,255 S,0,7614,7759,0.3,0.8 S,0,7614,8194,0.8,1 F,0,7759,8194,1,0
Sprite,Foreground,Centre,"light.png",185,159 C,0,7808,,255,255,255 S,0,7808,7953,0.3,0.8 S,0,7808,8388,0.8,1 F,0,7953,8388,1,0
Sprite,Foreground,Centre,"light.png",188,196 C,0,7904,,255,255,255 S,0,7904,8049,0.3,0.8 S,0,7904,8484,0.8,1 F,0,8049,8484,1,0
Sprite,Foreground,Centre,"light.png",281,106 C,0,8098,,255,255,255 S,0,8098,8243,0.3,0.8 S,0,8098,8678,0.8,1 F,0,8243,8678,1,0
Sprite,Foreground,Centre,"light.png",276,143 C,0,8194,,255,255,255 S,0,8194,8339,0.3,0.8 S,0,8194,8774,0.8,1 F,0,8339,8774,1,0
Sprite,Foreground,Centre,"light.png",288,273 C,0,8389,,255,255,255 S,0,8389,8534,0.3,0.8 S,0,8389,8969,0.8,1 F,0,8534,8969,1,0
Sprite,Foreground,Centre,"light.png",288,273 C,0,8486,,255,255,255 S,0,8486,8631,0.3,0.8 S,0,8486,9066,0.8,1 F,0,8631,9066,1,0
Sprite,Foreground,Centre,"light.png",288,273 C,0,8582,,255,255,255 S,0,8582,8727,0.3,0.8 S,0,8582,9162,0.8,1 F,0,8727,9162,1,0
Sprite,Foreground,Centre,"light.png",288,273 C,0,8776,,255,255,255 S,0,8776,8921,0.3,0.8 S,0,8776,9356,0.8,1 F,0,8921,9356,1,0
Sprite,Foreground,Centre,"light.png",405,356 C,0,8969,,255,255,255 S,0,8969,9114,0.3,0.8 S,0,8969,9549,0.8,1 F,0,9114,9549,1,0
Sprite,Foreground,Centre,"light.png",405,356 C,0,9163,,255,255,255 S,0,9163,9308,0.3,0.8 S,0,9163,9743,0.8,1 F,0,9308,9743,1,0
Sprite,Foreground,Centre,"light.png",493,298 C,0,9357,,255,255,255 S,0,9357,9502,0.3,0.8 S,0,9357,9937,0.8,1 F,0,9502,9937,1,0
Sprite,Foreground,Centre,"light.png",530,299 C,0,9453,,255,255,255 S,0,9453,9598,0.3,0.8 S,0,9453,10033,0.8,1 F,0,9598,10033,1,0
Sprite,Foreground,Centre,"light.png",486,187 C,0,9647,,255,255,255 S,0,9647,9792,0.3,0.8 S,0,9647,10227,0.8,1 F,0,9792,10227,1,0
Sprite,Foreground,Centre,"light.png",523,188 C,0,9743,,255,255,255 S,0,9743,9888,0.3,0.8 S,0,9743,10323,0.8,1 F,0,9888,10323,1,0
Sprite,Foreground,Centre,"light.png",384,274 C,0,9937,,255,255,255 S,0,9937,10082,0.3,0.8 S,0,9937,10517,0.8,1 F,0,10082,10517,1,0
Sprite,Foreground,Centre,"light.png",344,118 C,0,10131,,255,255,255 S,0,10131,10276,0.3,0.8 S,0,10131,10711,0.8,1 F,0,10276,10711,1,0
Sprite,Foreground,Centre,"light.png",464,102 C,0,10324,,255,255,255 S,0,10324,10469,0.3,0.8 S,0,10324,10904,0.8,1 F,0,10469,10904,1,0
Sprite,Foreground,Centre,"light.png",331,202 C,0,10518,,255,255,255 S,0,10518,10663,0.3,0.8 S,0,10518,11098,0.8,1 F,0,10663,11098,1,0
Sprite,Foreground,Centre,"light.png",260,213 C,0,10711,,255,255,255 S,0,10711,10856,0.3,0.8 S,0,10711,11291,0.8,1 F,0,10856,11291,1,0
Sprite,Foreground,Centre,"light.png",188,92 C,0,10905,,255,255,255 S,0,10905,11050,0.3,0.8 S,0,10905,11485,0.8,1 F,0,11050,11485,1,0
Sprite,Foreground,Centre,"light.png",218,113 C,0,11001,,255,255,255 S,0,11001,11146,0.3,0.8 S,0,11001,11581,0.8,1 F,0,11146,11581,1,0
Sprite,Foreground,Centre,"light.png",122,185 C,0,11195,,255,255,255 S,0,11195,11340,0.3,0.8 S,0,11195,11775,0.8,1 F,0,11340,11775,1,0
Sprite,Foreground,Centre,"light.png",159,184 C,0,11291,,255,255,255 S,0,11291,11436,0.3,0.8 S,0,11291,11871,0.8,1 F,0,11436,11871,1,0
Sprite,Foreground,Centre,"light.png",241,284 C,0,11486,,255,255,255 S,0,11486,11631,0.3,0.8 S,0,11486,12066,0.8,1 F,0,11631,12066,1,0
Sprite,Foreground,Centre,"light.png",241,284 C,0,11582,,255,255,255 S,0,11582,11727,0.3,0.8 S,0,11582,12162,0.8,1 F,0,11727,12162,1,0
Sprite,Foreground,Centre,"light.png",241,284 C,0,11679,,255,255,255 S,0,11679,11824,0.3,0.8 S,0,11679,12259,0.8,1 F,0,11824,12259,1,0
Sprite,Foreground,Centre,"light.png",391,271 C,0,11776,,255,255,255 S,0,11776,11921,0.3,0.8 S,0,11776,12356,0.8,1 F,0,11921,12356,1,0
Sprite,Foreground,Centre,"light.png",421,292 C,0,11872,,255,255,255 S,0,11872,12017,0.3,0.8 S,0,11872,12452,0.8,1 F,0,12017,12452,1,0
Sprite,Foreground,Centre,"light.png",284,146 C,0,11873,,255,255,255 S,0,11873,12018,0.3,0.8 S,0,11873,12453,0.8,1 F,0,12018,12453,1,0
Sprite,Foreground,Centre,"light.png",391,271 C,0,12066,,255,255,255 S,0,12066,12211,0.3,0.8 S,0,12066,12646,0.8,1 F,0,12211,12646,1,0
Sprite,Foreground,Centre,"light.png",421,292 C,0,12162,,255,255,255 S,0,12162,12307,0.3,0.8 S,0,12162,12742,0.8,1 F,0,12307,12742,1,0
Sprite,Foreground,Centre,"light.png",391,271 C,0,12260,,255,255,255 S,0,12260,12405,0.3,0.8 S,0,12260,12840,0.8,1 F,0,12405,12840,1,0
Sprite,Foreground,Centre,"light.png",421,292 C,0,12356,,255,255,255 S,0,12356,12501,0.3,0.8 S,0,12356,12936,0.8,1 F,0,12501,12936,1,0
Sprite,Foreground,Centre,"light.png",462,323 C,0,12453,,255,255,255 S,0,12453,12598,0.3,0.8 S,0,12453,13033,0.8,1 F,0,12598,13033,1,0
Sprite,Foreground,Centre,"light.png",500,323 C,0,12549,,255,255,255 S,0,12549,12694,0.3,0.8 S,0,12549,13129,0.8,1 F,0,12694,13129,1,0
Sprite,Foreground,Centre,"light.png",533,307 C,0,12646,,255,255,255 S,0,12646,12791,0.3,0.8 S,0,12646,13226,0.8,1 F,0,12791,13226,1,0
Sprite,Foreground,Centre,"light.png",556,278 C,0,12743,,255,255,255 S,0,12743,12888,0.3,0.8 S,0,12743,13323,0.8,1 F,0,12888,13323,1,0
Sprite,Foreground,Centre,"light.png",565,242 C,0,12840,,255,255,255 S,0,12840,12985,0.3,0.8 S,0,12840,13420,0.8,1 F,0,12985,13420,1,0
Sprite,Foreground,Centre,"light.png",559,204 C,0,12936,,255,255,255 S,0,12936,13081,0.3,0.8 S,0,12936,13516,0.8,1 F,0,13081,13516,1,0
Sprite,Foreground,Centre,"light.png",475,166 C,0,13034,,255,255,255 S,0,13034,13179,0.3,0.8 S,0,13034,13614,0.8,1 F,0,13179,13614,1,0
Sprite,Foreground,Centre,"light.png",480,203 C,0,13130,,255,255,255 S,0,13130,13275,0.3,0.8 S,0,13130,13710,0.8,1 F,0,13275,13710,1,0
Sprite,Foreground,Centre,"light.png",500,323 C,0,13227,,255,255,255 S,0,13227,13372,0.3,0.8 S,0,13227,13807,0.8,1 F,0,13372,13807,1,0
Sprite,Foreground,Centre,"light.png",113,340 C,0,13615,,255,255,255 S,0,13615,13760,0.3,0.8 S,0,13615,14195,0.8,1 F,0,13760,14195,1,0
Sprite,Foreground,Centre,"light.png",182,316 C,0,13808,,255,255,255 S,0,13808,13953,0.3,0.8 S,0,13808,14388,0.8,1 F,0,13953,14388,1,0
Sprite,Foreground,Centre,"light.png",262,399 C,0,14002,,255,255,255 S,0,14002,14147,0.3,0.8 S,0,14002,14582,0.8,1 F,0,14147,14582,1,0
Sprite,Foreground,Centre,"light.png",262,399 C,0,14195,,255,255,255 S,0,14195,14340,0.3,0.8 S,0,14195,14775,0.8,1 F,0,14340,14775,1,0
Sprite,Foreground,Centre,"light.png",295,285 C,0,14389,,255,255,255 S,0,14389,14534,0.3,0.8 S,0,14389,14969,0.8,1 F,0,14534,14969,1,0
Sprite,Foreground,Centre,"light.png",284,211 C,0,14582,,255,255,255 S,0,14582,14727,0.3,0.8 S,0,14582,15162,0.8,1 F,0,14727,15162,1,0
Sprite,Foreground,Centre,"light.png",191,143 C,0,14776,,255,255,255 S,0,14776,14921,0.3,0.8 S,0,14776,15356,0.8,1 F,0,14921,15356,1,0
Sprite,Foreground,Centre,"light.png",191,143 C,0,14969,,255,255,255 S,0,14969,15114,0.3,0.8 S,0,14969,15549,0.8,1 F,0,15114,15549,1,0
Sprite,Foreground,Centre,"light.png",85,286 C,0,15163,,255,255,255 S,0,15163,15308,0.3,0.8 S,0,15163,15743,0.8,1 F,0,15308,15743,1,0
Sprite,Foreground,Centre,"light.png",158,270 C,0,15356,,255,255,255 S,0,15356,15501,0.3,0.8 S,0,15356,15936,0.8,1 F,0,15501,15936,1,0
Sprite,Foreground,Centre,"light.png",295,285 C,0,15550,,255,255,255 S,0,15550,15695,0.3,0.8 S,0,15550,16130,0.8,1 F,0,15695,16130,1,0
Sprite,Foreground,Centre,"light.png",295,285 C,0,15744,,255,255,255 S,0,15744,15889,0.3,0.8 S,0,15744,16324,0.8,1 F,0,15889,16324,1,0
Sprite,Foreground,Centre,"light.png",180,181 C,0,15937,,255,255,255 S,0,15937,16082,0.3,0.8 S,0,15937,16517,0.8,1 F,0,16082,16517,1,0
Sprite,Foreground,Centre,"light.png",105,172 C,0,16130,,255,255,255 S,0,16130,16275,0.3,0.8 S,0,16130,16710,0.8,1 F,0,16275,16710,1,0
Sprite,Foreground,Centre,"light.png",260,112 C,0,16324,,255,255,255 S,0,16324,16469,0.3,0.8 S,0,16324,16904,0.8,1 F,0,16469,16904,1,0
Sprite,Foreground,Centre,"light.png",334,102 C,0,16517,,255,255,255 S,0,16517,16662,0.3,0.8 S,0,16517,17097,0.8,1 F,0,16662,17097,1,0
Sprite,Foreground,Centre,"light.png",425,250 C,0,16711,,255,255,255 S,0,16711,16856,0.3,0.8 S,0,16711,17291,0.8,1 F,0,16856,17291,1,0
Sprite,Foreground,Centre,"light.png",450,180 C,0,16904,,255,255,255 S,0,16904,17049,0.3,0.8 S,0,16904,17484,0.8,1 F,0,17049,17484,1,0
Sprite,Foreground,Centre,"light.png",346,241 C,0,17098,,255,255,255 S,0,17098,17243,0.3,0.8 S,0,17098,17678,0.8,1 F,0,17243,17678,1,0
Sprite,Foreground,Centre,"light.png",350,278 C,0,17194,,255,255,255 S,0,17194,17339,0.3,0.8 S,0,17194,17774,0.8,1 F,0,17339,17774,1,0
Sprite,Foreground,Centre,"light.png",371,309 C,0,17291,,255,255,255 S,0,17291,17436,0.3,0.8 S,0,17291,17871,0.8,1 F,0,17436,17871,1,0
Sprite,Foreground,Centre,"light.png",403,327 C,0,17388,,255,255,255 S,0,17388,17533,0.3,0.8 S,0,17388,17968,0.8,1 F,0,17533,17968,1,0
Sprite,Foreground,Centre,"light.png",440,328 C,0,17486,,255,255,255 S,0,17486,17631,0.3,0.8 S,0,17486,18066,0.8,1 F,0,17631,18066,1,0
Sprite,Foreground,Centre,"light.png",425,401 C,0,17679,,255,255,255 S,0,17679,17824,0.3,0.8 S,0,17679,18259,0.8,1 F,0,17824,18259,1,0
Sprite,Foreground,Centre,"light.png",258,390 C,0,17873,,255,255,255 S,0,17873,18018,0.3,0.8 S,0,17873,18453,0.8,1 F,0,18018,18453,1,0
Sprite,Foreground,Centre,"light.png",331,375 C,0,18066,,255,255,255 S,0,18066,18211,0.3,0.8 S,0,18066,18646,0.8,1 F,0,18211,18646,1,0
Sprite,Foreground,Centre,"light.png",425,250 C,0,18260,,255,255,255 S,0,18260,18405,0.3,0.8 S,0,18260,18840,0.8,1 F,0,18405,18840,1,0
Sprite,Foreground,Centre,"light.png",425,402 C,0,18453,,255,255,255 S,0,18453,18598,0.3,0.8 S,0,18453,19033,0.8,1 F,0,18598,19033,1,0
Sprite,Foreground,Centre,"light.png",272,298 C,0,18647,,255,255,255 S,0,18647,18792,0.3,0.8 S,0,18647,19227,0.8,1 F,0,18792,19227,1,0
Sprite,Foreground,Centre,"light.png",197,288 C,0,18840,,255,255,255 S,0,18840,18985,0.3,0.8 S,0,18840,19420,0.8,1 F,0,18985,19420,1,0
Sprite,Foreground,Centre,"light.png",97,183 C,0,19034,,255,255,255 S,0,19034,19179,0.3,0.8 S,0,19034,19614,0.8,1 F,0,19179,19614,1,0
Sprite,Foreground,Centre,"light.png",97,183 C,0,19131,,255,255,255 S,0,19131,19276,0.3,0.8 S,0,19131,19711,0.8,1 F,0,19276,19711,1,0
Sprite,Foreground,Centre,"light.png",97,183 C,0,19227,,255,255,255 S,0,19227,19372,0.3,0.8 S,0,19227,19807,0.8,1 F,0,19372,19807,1,0
Sprite,Foreground,Centre,"light.png",87,219 C,0,19323,,255,255,255 S,0,19323,19468,0.3,0.8 S,0,19323,19903,0.8,1 F,0,19468,19903,1,0
Sprite,Foreground,Centre,"light.png",109,333 C,0,19421,,255,255,255 S,0,19421,19566,0.3,0.8 S,0,19421,20001,0.8,1 F,0,19566,20001,1,0
Sprite,Foreground,Centre,"light.png",109,333 C,0,19518,,255,255,255 S,0,19518,19663,0.3,0.8 S,0,19518,20098,0.8,1 F,0,19663,20098,1,0
Sprite,Foreground,Centre,"light.png",109,333 C,0,19615,,255,255,255 S,0,19615,19760,0.3,0.8 S,0,19615,20195,0.8,1 F,0,19760,20195,1,0
Sprite,Foreground,Centre,"light.png",116,296 C,0,19711,,255,255,255 S,0,19711,19856,0.3,0.8 S,0,19711,20291,0.8,1 F,0,19856,20291,1,0
Sprite,Foreground,Centre,"light.png",188,202 C,0,19808,,255,255,255 S,0,19808,19953,0.3,0.8 S,0,19808,20388,0.8,1 F,0,19953,20388,1,0
Sprite,Foreground,Centre,"light.png",262,191 C,0,20001,,255,255,255 S,0,20001,20146,0.3,0.8 S,0,20001,20581,0.8,1 F,0,20146,20581,1,0
Sprite,Foreground,Centre,"light.png",366,107 C,0,20195,,255,255,255 S,0,20195,20340,0.3,0.8 S,0,20195,20775,0.8,1 F,0,20340,20775,1,0
Sprite,Foreground,Centre,"light.png",385,236 C,0,20389,,255,255,255 S,0,20389,20534,0.3,0.8 S,0,20389,20969,0.8,1 F,0,20534,20969,1,0
Sprite,Foreground,Centre,"light.png",253,107 C,0,20582,,255,255,255 S,0,20582,20727,0.3,0.8 S,0,20582,21162,0.8,1 F,0,20727,21162,1,0
Sprite,Foreground,Centre,"light.png",178,97 C,0,20775,,255,255,255 S,0,20775,20920,0.3,0.8 S,0,20775,21355,0.8,1 F,0,20920,21355,1,0
Sprite,Foreground,Centre,"light.png",97,183 C,0,20969,,255,255,255 S,0,20969,21114,0.3,0.8 S,0,20969,21549,0.8,1 F,0,21114,21549,1,0
Sprite,Foreground,Centre,"light.png",191,278 C,0,21163,,255,255,255 S,0,21163,21308,0.3,0.8 S,0,21163,21743,0.8,1 F,0,21308,21743,1,0
Sprite,Foreground,Centre,"light.png",305,167 C,0,21357,,255,255,255 S,0,21357,21502,0.3,0.8 S,0,21357,21937,0.8,1 F,0,21502,21937,1,0
Sprite,Foreground,Centre,"light.png",308,241 C,0,21550,,255,255,255 S,0,21550,21695,0.3,0.8 S,0,21550,22130,0.8,1 F,0,21695,22130,1,0
Sprite,Foreground,Centre,"light.png",312,387 C,0,21744,,255,255,255 S,0,21744,21889,0.3,0.8 S,0,21744,22324,0.8,1 F,0,21889,22324,1,0
Sprite,Foreground,Centre,"light.png",433,318 C,0,21937,,255,255,255 S,0,21937,22082,0.3,0.8 S,0,21937,22517,0.8,1 F,0,22082,22517,1,0
Sprite,Foreground,Centre,"light.png",261,327 C,0,22131,,255,255,255 S,0,22131,22276,0.3,0.8 S,0,22131,22711,0.8,1 F,0,22276,22711,1,0
Sprite,Foreground,Centre,"light.png",233,394 C,0,22324,,255,255,255 S,0,22324,22469,0.3,0.8 S,0,22324,22904,0.8,1 F,0,22469,22904,1,0
Sprite,Foreground,Centre,"light.png",459,386 C,0,22518,,255,255,255 S,0,22518,22663,0.3,0.8 S,0,22518,23098,0.8,1 F,0,22663,23098,1,0
Sprite,Foreground,Centre,"light.png",433,317 C,0,22711,,255,255,255 S,0,22711,22856,0.3,0.8 S,0,22711,23291,0.8,1 F,0,22856,23291,1,0
Sprite,Foreground,Centre,"light.png",428,129 C,0,22905,,255,255,255 S,0,22905,23050,0.3,0.8 S,0,22905,23485,0.8,1 F,0,23050,23485,1,0
Sprite,Foreground,Centre,"light.png",344,228 C,0,23292,,255,255,255 S,0,23292,23437,0.3,0.8 S,0,23292,23872,0.8,1 F,0,23437,23872,1,0
Sprite,Foreground,Centre,"light.png",426,212 C,0,23486,,255,255,255 S,0,23486,23631,0.3,0.8 S,0,23486,24066,0.8,1 F,0,23631,24066,1,0
Sprite,Foreground,Centre,"light.png",304,92 C,0,23679,,255,255,255 S,0,23679,23824,0.3,0.8 S,0,23679,24259,0.8,1 F,0,23824,24259,1,0
Sprite,Foreground,Centre,"light.png",264,250 C,0,23873,,255,255,255 S,0,23873,24018,0.3,0.8 S,0,23873,24453,0.8,1 F,0,24018,24453,1,0
Sprite,Foreground,Centre,"light.png",427,129 C,0,24066,,255,255,255 S,0,24066,24211,0.3,0.8 S,0,24066,24646,0.8,1 F,0,24211,24646,1,0
Sprite,Foreground,Centre,"light.png",492,160 C,0,24259,,255,255,255 S,0,24259,24404,0.3,0.8 S,0,24259,24839,0.8,1 F,0,24404,24839,1,0
Sprite,Foreground,Centre,"light.png",565,310 C,0,24453,,255,255,255 S,0,24453,24598,0.3,0.8 S,0,24453,25033,0.8,1 F,0,24598,25033,1,0
Sprite,Foreground,Centre,"light.png",350,378 C,0,24744,,255,255,255 S,0,24744,24889,0.3,0.8 S,0,24744,25324,0.8,1 F,0,24889,25324,1,0
Sprite,Foreground,Centre,"light.png",353,153 C,0,25034,,255,255,255 S,0,25034,25179,0.3,0.8 S,0,25034,25614,0.8,1 F,0,25179,25614,1,0
Sprite,Foreground,Centre,"light.png",379,229 C,0,25421,,255,255,255 S,0,25421,25566,0.3,0.8 S,0,25421,26001,0.8,1 F,0,25566,26001,1,0
Sprite,Foreground,Centre,"light.png",242,288 C,0,25615,,255,255,255 S,0,25615,25760,0.3,0.8 S,0,25615,26195,0.8,1 F,0,25760,26195,1,0
Sprite,Foreground,Centre,"light.png",472,370 C,0,25808,,255,255,255 S,0,25808,25953,0.3,0.8 S,0,25808,26388,0.8,1 F,0,25953,26388,1,0
Sprite,Foreground,Centre,"light.png",429,176 C,0,26002,,255,255,255 S,0,26002,26147,0.3,0.8 S,0,26002,26582,0.8,1 F,0,26147,26582,1,0
Sprite,Foreground,Centre,"light.png",274,208 C,0,26389,,255,255,255 S,0,26389,26534,0.3,0.8 S,0,26389,26969,0.8,1 F,0,26534,26969,1,0
Sprite,Foreground,Centre,"light.png",161,197 C,0,26776,,255,255,255 S,0,26776,26921,0.3,0.8 S,0,26776,27356,0.8,1 F,0,26921,27356,1,0
Sprite,Foreground,Centre,"light.png",93,235 C,0,26969,,255,255,255 S,0,26969,27114,0.3,0.8 S,0,26969,27549,0.8,1 F,0,27114,27549,1,0
Sprite,Foreground,Centre,"light.png",158,279 C,0,27163,,255,255,255 S,0,27163,27308,0.3,0.8 S,0,27163,27743,0.8,1 F,0,27308,27743,1,0
Sprite,Foreground,Centre,"light.png",144,333 C,0,27356,,255,255,255 S,0,27356,27501,0.3,0.8 S,0,27356,27936,0.8,1 F,0,27501,27936,1,0
Sprite,Foreground,Centre,"light.png",180,403 C,0,27550,,255,255,255 S,0,27550,27695,0.3,0.8 S,0,27550,28130,0.8,1 F,0,27695,28130,1,0
Sprite,Foreground,Centre,"light.png",289,388 C,0,27937,,255,255,255 S,0,27937,28082,0.3,0.8 S,0,27937,28517,0.8,1 F,0,28082,28517,1,0
Sprite,Foreground,Centre,"light.png",361,420 C,0,28131,,255,255,255 S,0,28131,28276,0.3,0.8 S,0,28131,28711,0.8,1 F,0,28276,28711,1,0
Sprite,Foreground,Centre,"light.png",418,366 C,0,28324,,255,255,255 S,0,28324,28469,0.3,0.8 S,0,28324,28904,0.8,1 F,0,28469,28904,1,0
Sprite,Foreground,Centre,"light.png",366,305 C,0,28518,,255,255,255 S,0,28518,28663,0.3,0.8 S,0,28518,29098,0.8,1 F,0,28663,29098,1,0
Sprite,Foreground,Centre,"light.png",310,313 C,0,28711,,255,255,255 S,0,28711,28856,0.3,0.8 S,0,28711,29291,0.8,1 F,0,28856,29291,1,0
Sprite,Foreground,Centre,"light.png",366,305 C,0,28905,,255,255,255 S,0,28905,29050,0.3,0.8 S,0,28905,29485,0.8,1 F,0,29050,29485,1,0
Sprite,Foreground,Centre,"light.png",442,287 C,0,29098,,255,255,255 S,0,29098,29243,0.3,0.8 S,0,29098,29678,0.8,1 F,0,29243,29678,1,0
Sprite,Foreground,Centre,"light.png",452,175 C,0,29485,,255,255,255 S,0,29485,29630,0.3,0.8 S,0,29485,30065,0.8,1 F,0,29630,30065,1,0
Sprite,Foreground,Centre,"light.png",442,287 C,0,29873,,255,255,255 S,0,29873,30018,0.3,0.8 S,0,29873,30453,0.8,1 F,0,30018,30453,1,0
Sprite,Foreground,Centre,"light.png",366,305 C,0,30066,,255,255,255 S,0,30066,30211,0.3,0.8 S,0,30066,30646,0.8,1 F,0,30211,30646,1,0
Sprite,Foreground,Centre,"light.png",331,234 C,0,30260,,255,255,255 S,0,30260,30405,0.3,0.8 S,0,30260,30840,0.8,1 F,0,30405,30840,1,0
Sprite,Foreground,Centre,"light.png",275,225 C,0,30453,,255,255,255 S,0,30453,30598,0.3,0.8 S,0,30453,31033,0.8,1 F,0,30598,31033,1,0
Sprite,Foreground,Centre,"light.png",196,237 C,0,30647,,255,255,255 S,0,30647,30792,0.3,0.8 S,0,30647,31227,0.8,1 F,0,30792,31227,1,0
Sprite,Foreground,Centre,"light.png",250,148 C,0,31034,,255,255,255 S,0,31034,31179,0.3,0.8 S,0,31034,31614,0.8,1 F,0,31179,31614,1,0
Sprite,Foreground,Centre,"light.png",328,140 C,0,31227,,255,255,255 S,0,31227,31372,0.3,0.8 S,0,31227,31807,0.8,1 F,0,31372,31807,1,0
Sprite,Foreground,Centre,"light.png",395,180 C,0,31421,,255,255,255 S,0,31421,31566,0.3,0.8 S,0,31421,32001,0.8,1 F,0,31566,32001,1,0
Sprite,Foreground,Centre,"light.png",412,232 C,0,31614,,255,255,255 S,0,31614,31759,0.3,0.8 S,0,31614,32194,0.8,1 F,0,31759,32194,1,0
Sprite,Foreground,Centre,"light.png",395,180 C,0,31808,,255,255,255 S,0,31808,31953,0.3,0.8 S,0,31808,32388,0.8,1 F,0,31953,32388,1,0
Sprite,Foreground,Centre,"light.png",328,140 C,0,32002,,255,255,255 S,0,32002,32147,0.3,0.8 S,0,32002,32582,0.8,1 F,0,32147,32582,1,0
Sprite,Foreground,Centre,"light.png",450,121 C,0,32195,,255,255,255 S,0,32195,32340,0.3,0.8 S,0,32195,32775,0.8,1 F,0,32340,32775,1,0
Sprite,Foreground,Centre,"light.png",460,288 C,0,32582,,255,255,255 S,0,32582,32727,0.3,0.8 S,0,32582,33162,0.8,1 F,0,32727,33162,1,0
Sprite,Foreground,Centre,"light.png",407,306 C,0,32775,,255,255,255 S,0,32775,32920,0.3,0.8 S,0,32775,33355,0.8,1 F,0,32920,33355,1,0
Sprite,Foreground,Centre,"light.png",462,208 C,0,32969,,255,255,255 S,0,32969,33114,0.3,0.8 S,0,32969,33549,0.8,1 F,0,33114,33549,1,0
Sprite,Foreground,Centre,"light.png",514,226 C,0,33162,,255,255,255 S,0,33162,33307,0.3,0.8 S,0,33162,33742,0.8,1 F,0,33307,33742,1,0
Sprite,Foreground,Centre,"light.png",411,381 C,0,33357,,255,255,255 S,0,33357,33502,0.3,0.8 S,0,33357,33937,0.8,1 F,0,33502,33937,1,0
Sprite,Foreground,Centre,"light.png",358,362 C,0,33550,,255,255,255 S,0,33550,33695,0.3,0.8 S,0,33550,34130,0.8,1 F,0,33695,34130,1,0
Sprite,Foreground,Centre,"light.png",289,192 C,0,33744,,255,255,255 S,0,33744,33889,0.3,0.8 S,0,33744,34324,0.8,1 F,0,33889,34324,1,0
Sprite,Foreground,Centre,"light.png",283,220 C,0,33841,,255,255,255 S,0,33841,33986,0.3,0.8 S,0,33841,34421,0.8,1 F,0,33986,34421,1,0
Sprite,Foreground,Centre,"light.png",276,248 C,0,33937,,255,255,255 S,0,33937,34082,0.3,0.8 S,0,33937,34517,0.8,1 F,0,34082,34517,1,0
Sprite,Foreground,Centre,"light.png",123,315 C,0,34131,,255,255,255 S,0,34131,34276,0.3,0.8 S,0,34131,34711,0.8,1 F,0,34276,34711,1,0
Sprite,Foreground,Centre,"light.png",68,302 C,0,34324,,255,255,255 S,0,34324,34469,0.3,0.8 S,0,34324,34904,0.8,1 F,0,34469,34904,1,0
Sprite,Foreground,Centre,"light.png",137,387 C,0,34518,,255,255,255 S,0,34518,34663,0.3,0.8 S,0,34518,35098,0.8,1 F,0,34663,35098,1,0
Sprite,Foreground,Centre,"light.png",163,378 C,0,34614,,255,255,255 S,0,34614,34759,0.3,0.8 S,0,34614,35194,0.8,1 F,0,34759,35194,1,0
Sprite,Foreground,Centre,"light.png",184,360 C,0,34711,,255,255,255 S,0,34711,34856,0.3,0.8 S,0,34711,35291,0.8,1 F,0,34856,35291,1,0
Sprite,Foreground,Centre,"light.png",195,334 C,0,34808,,255,255,255 S,0,34808,34953,0.3,0.8 S,0,34808,35388,0.8,1 F,0,34953,35388,1,0
Sprite,Foreground,Centre,"light.png",196,306 C,0,34905,,255,255,255 S,0,34905,35050,0.3,0.8 S,0,34905,35485,0.8,1 F,0,35050,35485,1,0
Sprite,Foreground,Centre,"light.png",251,316 C,0,35098,,255,255,255 S,0,35098,35243,0.3,0.8 S,0,35098,35678,0.8,1 F,0,35243,35678,1,0
Sprite,Foreground,Centre,"light.png",349,404 C,0,35292,,255,255,255 S,0,35292,35437,0.3,0.8 S,0,35292,35872,0.8,1 F,0,35437,35872,1,0
Sprite,Foreground,Centre,"light.png",361,349 C,0,35485,,255,255,255 S,0,35485,35630,0.3,0.8 S,0,35485,36065,0.8,1 F,0,35630,36065,1,0
Sprite,Foreground,Centre,"light.png",449,253 C,0,35679,,255,255,255 S,0,35679,35824,0.3,0.8 S,0,35679,36259,0.8,1 F,0,35824,36259,1,0
Sprite,Foreground,Centre,"light.png",462,307 C,0,35872,,255,255,255 S,0,35872,36017,0.3,0.8 S,0,35872,36452,0.8,1 F,0,36017,36452,1,0
Sprite,Foreground,Centre,"light.png",517,408 C,0,36066,,255,255,255 S,0,36066,36211,0.3,0.8 S,0,36066,36646,0.8,1 F,0,36211,36646,1,0
Sprite,Foreground,Centre,"light.png",544,247 C,0,36260,,255,255,255 S,0,36260,36405,0.3,0.8 S,0,36260,36840,0.8,1 F,0,36405,36840,1,0
Sprite,Foreground,Centre,"light.png",376,277 C,0,36453,,255,255,255 S,0,36453,36598,0.3,0.8 S,0,36453,37033,0.8,1 F,0,36598,37033,1,0
Sprite,Foreground,Centre,"light.png",554,330 C,0,36647,,255,255,255 S,0,36647,36792,0.3,0.8 S,0,36647,37227,0.8,1 F,0,36792,37227,1,0
Sprite,Foreground,Centre,"light.png",491,181 C,0,36840,,255,255,255 S,0,36840,36985,0.3,0.8 S,0,36840,37420,0.8,1 F,0,36985,37420,1,0
Sprite,Foreground,Centre,"light.png",472,160 C,0,36936,,255,255,255 S,0,36936,37081,0.3,0.8 S,0,36936,37516,0.8,1 F,0,37081,37516,1,0
Sprite,Foreground,Centre,"light.png",491,181 C,0,37034,,255,255,255 S,0,37034,37179,0.3,0.8 S,0,37034,37614,0.8,1 F,0,37179,37614,1,0
Sprite,Foreground,Centre,"light.png",472,160 C,0,37130,,255,255,255 S,0,37130,37275,0.3,0.8 S,0,37130,37710,0.8,1 F,0,37275,37710,1,0
Sprite,Foreground,Centre,"light.png",448,142 C,0,37227,,255,255,255 S,0,37227,37372,0.3,0.8 S,0,37227,37807,0.8,1 F,0,37372,37807,1,0
Sprite,Foreground,Centre,"light.png",423,131 C,0,37323,,255,255,255 S,0,37323,37468,0.3,0.8 S,0,37323,37903,0.8,1 F,0,37468,37903,1,0
Sprite,Foreground,Centre,"light.png",395,126 C,0,37420,,255,255,255 S,0,37420,37565,0.3,0.8 S,0,37420,38000,0.8,1 F,0,37565,38000,1,0
Sprite,Foreground,Centre,"light.png",367,127 C,0,37517,,255,255,255 S,0,37517,37662,0.3,0.8 S,0,37517,38097,0.8,1 F,0,37662,38097,1,0
Sprite,Foreground,Centre,"light.png",340,135 C,0,37615,,255,255,255 S,0,37615,37760,0.3,0.8 S,0,37615,38195,0.8,1 F,0,37760,38195,1,0
Sprite,Foreground,Centre,"light.png",315,148 C,0,37711,,255,255,255 S,0,37711,37856,0.3,0.8 S,0,37711,38291,0.8,1 F,0,37856,38291,1,0
Sprite,Foreground,Centre,"light.png",340,135 C,0,37808,,255,255,255 S,0,37808,37953,0.3,0.8 S,0,37808,38388,0.8,1 F,0,37953,38388,1,0
Sprite,Foreground,Centre,"light.png",315,148 C,0,37904,,255,255,255 S,0,37904,38049,0.3,0.8 S,0,37904,38484,0.8,1 F,0,38049,38484,1,0
Sprite,Foreground,Centre,"light.png",291,161 C,0,38002,,255,255,255 S,0,38002,38147,0.3,0.8 S,0,38002,38582,0.8,1 F,0,38147,38582,1,0
Sprite,Foreground,Centre,"light.png",266,173 C,0,38098,,255,255,255 S,0,38098,38243,0.3,0.8 S,0,38098,38678,0.8,1 F,0,38243,38678,1,0
Sprite,Foreground,Centre,"light.png",266,261 C,0,38195,,255,255,255 S,0,38195,38340,0.3,0.8 S,0,38195,38775,0.8,1 F,0,38340,38775,1,0
Sprite,Foreground,Centre,"light.png",290,246 C,0,38291,,255,255,255 S,0,38291,38436,0.3,0.8 S,0,38291,38871,0.8,1 F,0,38436,38871,1,0
Sprite,Foreground,Centre,"light.png",291,342 C,0,38389,,255,255,255 S,0,38389,38534,0.3,0.8 S,0,38389,38969,0.8,1 F,0,38534,38969,1,0
Sprite,Foreground,Centre,"light.png",236,332 C,0,38582,,255,255,255 S,0,38582,38727,0.3,0.8 S,0,38582,39162,0.8,1 F,0,38727,39162,1,0
Sprite,Foreground,Centre,"light.png",355,297 C,0,38776,,255,255,255 S,0,38776,38921,0.3,0.8 S,0,38776,39356,0.8,1 F,0,38921,39356,1,0
Sprite,Foreground,Centre,"light.png",369,350 C,0,38969,,255,255,255 S,0,38969,39114,0.3,0.8 S,0,38969,39549,0.8,1 F,0,39114,39549,1,0
Sprite,Foreground,Centre,"light.png",388,222 C,0,39163,,255,255,255 S,0,39163,39308,0.3,0.8 S,0,39163,39743,0.8,1 F,0,39308,39743,1,0
Sprite,Foreground,Centre,"light.png",427,261 C,0,39356,,255,255,255 S,0,39356,39501,0.3,0.8 S,0,39356,39936,0.8,1 F,0,39501,39936,1,0
Sprite,Foreground,Centre,"light.png",460,339 C,0,39550,,255,255,255 S,0,39550,39695,0.3,0.8 S,0,39550,40130,0.8,1 F,0,39695,40130,1,0
Sprite,Foreground,Centre,"light.png",557,252 C,0,39744,,255,255,255 S,0,39744,39889,0.3,0.8 S,0,39744,40324,0.8,1 F,0,39889,40324,1,0
Sprite,Foreground,Centre,"light.png",427,261 C,0,39937,,255,255,255 S,0,39937,40082,0.3,0.8 S,0,39937,40517,0.8,1 F,0,40082,40517,1,0
Sprite,Foreground,Centre,"light.png",490,201 C,0,40131,,255,255,255 S,0,40131,40276,0.3,0.8 S,0,40131,40711,0.8,1 F,0,40276,40711,1,0
Sprite,Foreground,Centre,"light.png",543,336 C,0,40324,,255,255,255 S,0,40324,40469,0.3,0.8 S,0,40324,40904,0.8,1 F,0,40469,40904,1,0
Sprite,Foreground,Centre,"light.png",565,162 C,0,40518,,255,255,255 S,0,40518,40663,0.3,0.8 S,0,40518,41098,0.8,1 F,0,40663,41098,1,0
Sprite,Foreground,Centre,"light.png",408,178 C,0,40711,,255,255,255 S,0,40711,40856,0.3,0.8 S,0,40711,41291,0.8,1 F,0,40856,41291,1,0
Sprite,Foreground,Centre,"light.png",352,170 C,0,40904,,255,255,255 S,0,40904,41049,0.3,0.8 S,0,40904,41484,0.8,1 F,0,41049,41484,1,0
Sprite,Foreground,Centre,"light.png",231,112 C,0,41098,,255,255,255 S,0,41098,41243,0.3,0.8 S,0,41098,41678,0.8,1 F,0,41243,41678,1,0
Sprite,Foreground,Centre,"light.png",253,253 C,0,41292,,255,255,255 S,0,41292,41437,0.3,0.8 S,0,41292,41872,0.8,1 F,0,41437,41872,1,0
Sprite,Foreground,Centre,"light.png",95,225 C,0,41486,,255,255,255 S,0,41486,41631,0.3,0.8 S,0,41486,42066,0.8,1 F,0,41631,42066,1,0
Sprite,Foreground,Centre,"light.png",149,210 C,0,41679,,255,255,255 S,0,41679,41824,0.3,0.8 S,0,41679,42259,0.8,1 F,0,41824,42259,1,0
Sprite,Foreground,Centre,"light.png",253,253 C,0,41873,,255,255,255 S,0,41873,42018,0.3,0.8 S,0,41873,42453,0.8,1 F,0,42018,42453,1,0
Sprite,Foreground,Centre,"light.png",172,368 C,0,42066,,255,255,255 S,0,42066,42211,0.3,0.8 S,0,42066,42646,0.8,1 F,0,42211,42646,1,0
Sprite,Foreground,Centre,"light.png",174,311 C,0,42259,,255,255,255 S,0,42259,42404,0.3,0.8 S,0,42259,42839,0.8,1 F,0,42404,42839,1,0
Sprite,Foreground,Centre,"light.png",251,196 C,0,42453,,255,255,255 S,0,42453,42598,0.3,0.8 S,0,42453,43033,0.8,1 F,0,42598,43033,1,0
Sprite,Foreground,Centre,"light.png",252,252 C,0,42646,,255,255,255 S,0,42646,42791,0.3,0.8 S,0,42646,43226,0.8,1 F,0,42791,43226,1,0
Sprite,Foreground,Centre,"light.png",253,400 C,0,42840,,255,255,255 S,0,42840,42985,0.3,0.8 S,0,42840,43420,0.8,1 F,0,42985,43420,1,0
Sprite,Foreground,Centre,"light.png",306,328 C,0,43034,,255,255,255 S,0,43034,43179,0.3,0.8 S,0,43034,43614,0.8,1 F,0,43179,43614,1,0
Sprite,Foreground,Centre,"light.png",361,321 C,0,43227,,255,255,255 S,0,43227,43372,0.3,0.8 S,0,43227,43807,0.8,1 F,0,43372,43807,1,0
Sprite,Foreground,Centre,"light.png",463,272 C,0,43421,,255,255,255 S,0,43421,43566,0.3,0.8 S,0,43421,44001,0.8,1 F,0,43566,44001,1,0
Sprite,Foreground,Centre,"light.png",455,387 C,0,43615,,255,255,255 S,0,43615,43760,0.3,0.8 S,0,43615,44195,0.8,1 F,0,43760,44195,1,0
Sprite,Foreground,Centre,"light.png",385,247 C,0,43808,,255,255,255 S,0,43808,43953,0.3,0.8 S,0,43808,44388,0.8,1 F,0,43953,44388,1,0
Sprite,Foreground,Centre,"light.png",397,222 C,0,43904,,255,255,255 S,0,43904,44049,0.3,0.8 S,0,43904,44484,0.8,1 F,0,44049,44484,1,0
Sprite,Foreground,Centre,"light.png",418,204 C,0,44001,,255,255,255 S,0,44001,44146,0.3,0.8 S,0,44001,44581,0.8,1 F,0,44146,44581,1,0
Sprite,Foreground,Centre,"light.png",444,194 C,0,44098,,255,255,255 S,0,44098,44243,0.3,0.8 S,0,44098,44678,0.8,1 F,0,44243,44678,1,0
Sprite,Foreground,Centre,"light.png",472,194 C,0,44195,,255,255,255 S,0,44195,44340,0.3,0.8 S,0,44195,44775,0.8,1 F,0,44340,44775,1,0
Sprite,Foreground,Centre,"light.png",527,201 C,0,44388,,255,255,255 S,0,44388,44533,0.3,0.8 S,0,44388,44968,0.8,1 F,0,44533,44968,1,0
Sprite,Foreground,Centre,"light.png",573,342 C,0,44582,,255,255,255 S,0,44582,44727,0.3,0.8 S,0,44582,45162,0.8,1 F,0,44727,45162,1,0
Sprite,Foreground,Centre,"light.png",517,334 C,0,44775,,255,255,255 S,0,44775,44920,0.3,0.8 S,0,44775,45355,0.8,1 F,0,44920,45355,1,0
Sprite,Foreground,Centre,"light.png",349,392 C,0,44969,,255,255,255 S,0,44969,45114,0.3,0.8 S,0,44969,45549,0.8,1 F,0,45114,45549,1,0
Sprite,Foreground,Centre,"light.png",302,361 C,0,45162,,255,255,255 S,0,45162,45307,0.3,0.8 S,0,45162,45742,0.8,1 F,0,45307,45742,1,0
Sprite,Foreground,Centre,"light.png",349,207 C,0,45357,,255,255,255 S,0,45357,45502,0.3,0.8 S,0,45357,45937,0.8,1 F,0,45502,45937,1,0
Sprite,Foreground,Centre,"light.png",350,263 C,0,45550,,255,255,255 S,0,45550,45695,0.3,0.8 S,0,45550,46130,0.8,1 F,0,45695,46130,1,0
Sprite,Foreground,Centre,"light.png",430,355 C,0,45744,,255,255,255 S,0,45744,45889,0.3,0.8 S,0,45744,46324,0.8,1 F,0,45889,46324,1,0
Sprite,Foreground,Centre,"light.png",431,298 C,0,45937,,255,255,255 S,0,45937,46082,0.3,0.8 S,0,45937,46517,0.8,1 F,0,46082,46517,1,0
Sprite,Foreground,Centre,"light.png",446,142 C,0,46131,,255,255,255 S,0,46131,46276,0.3,0.8 S,0,46131,46711,0.8,1 F,0,46276,46711,1,0
Sprite,Foreground,Centre,"light.png",517,265 C,0,46324,,255,255,255 S,0,46324,46469,0.3,0.8 S,0,46324,46904,0.8,1 F,0,46469,46904,1,0
Sprite,Foreground,Centre,"light.png",350,263 C,0,46518,,255,255,255 S,0,46518,46663,0.3,0.8 S,0,46518,47098,0.8,1 F,0,46663,47098,1,0
Sprite,Foreground,Centre,"light.png",518,180 C,0,46711,,255,255,255 S,0,46711,46856,0.3,0.8 S,0,46711,47291,0.8,1 F,0,46856,47291,1,0
Sprite,Foreground,Centre,"light.png",349,176 C,0,46905,,255,255,255 S,0,46905,47050,0.3,0.8 S,0,46905,47485,0.8,1 F,0,47050,47485,1,0
Sprite,Foreground,Centre,"light.png",294,163 C,0,47098,,255,255,255 S,0,47098,47243,0.3,0.8 S,0,47098,47678,0.8,1 F,0,47243,47678,1,0
Sprite,Foreground,Centre,"light.png",183,94 C,0,47292,,255,255,255 S,0,47292,47437,0.3,0.8 S,0,47292,47872,0.8,1 F,0,47437,47872,1,0
Sprite,Foreground,Centre,"light.png",171,236 C,0,47486,,255,255,255 S,0,47486,47631,0.3,0.8 S,0,47486,48066,0.8,1 F,0,47631,48066,1,0
Sprite,Foreground,Centre,"light.png",89,120 C,0,47679,,255,255,255 S,0,47679,47824,0.3,0.8 S,0,47679,48259,0.8,1 F,0,47824,48259,1,0
Sprite,Foreground,Centre,"light.png",81,147 C,0,47775,,255,255,255 S,0,47775,47920,0.3,0.8 S,0,47775,48355,0.8,1 F,0,47920,48355,1,0
Sprite,Foreground,Centre,"light.png",89,120 C,0,47873,,255,255,255 S,0,47873,48018,0.3,0.8 S,0,47873,48453,0.8,1 F,0,48018,48453,1,0
Sprite,Foreground,Centre,"light.png",81,147 C,0,47969,,255,255,255 S,0,47969,48114,0.3,0.8 S,0,47969,48549,0.8,1 F,0,48114,48549,1,0
Sprite,Foreground,Centre,"light.png",79,175 C,0,48066,,255,255,255 S,0,48066,48211,0.3,0.8 S,0,48066,48646,0.8,1 F,0,48211,48646,1,0
Sprite,Foreground,Centre,"light.png",83,202 C,0,48162,,255,255,255 S,0,48162,48307,0.3,0.8 S,0,48162,48742,0.8,1 F,0,48307,48742,1,0
Sprite,Foreground,Centre,"light.png",83,230 C,0,48259,,255,255,255 S,0,48259,48404,0.3,0.8 S,0,48259,48839,0.8,1 F,0,48404,48839,1,0
Sprite,Foreground,Centre,"light.png",79,258 C,0,48356,,255,255,255 S,0,48356,48501,0.3,0.8 S,0,48356,48936,0.8,1 F,0,48501,48936,1,0
Sprite,Foreground,Centre,"light.png",71,285 C,0,48453,,255,255,255 S,0,48453,48598,0.3,0.8 S,0,48453,49033,0.8,1 F,0,48598,49033,1,0
Sprite,Foreground,Centre,"light.png",66,312 C,0,48549,,255,255,255 S,0,48549,48694,0.3,0.8 S,0,48549,49129,0.8,1 F,0,48694,49129,1,0
Sprite,Foreground,Centre,"light.png",132,359 C,0,48647,,255,255,255 S,0,48647,48792,0.3,0.8 S,0,48647,49227,0.8,1 F,0,48792,49227,1,0
Sprite,Foreground,Centre,"light.png",136,331 C,0,48743,,255,255,255 S,0,48743,48888,0.3,0.8 S,0,48743,49323,0.8,1 F,0,48888,49323,1,0
Sprite,Foreground,Centre,"light.png",216,311 C,0,48840,,255,255,255 S,0,48840,48985,0.3,0.8 S,0,48840,49420,0.8,1 F,0,48985,49420,1,0
Sprite,Foreground,Centre,"light.png",209,338 C,0,48936,,255,255,255 S,0,48936,49081,0.3,0.8 S,0,48936,49516,0.8,1 F,0,49081,49516,1,0
Sprite,Foreground,Centre,"light.png",276,384 C,0,49034,,255,255,255 S,0,49034,49179,0.3,0.8 S,0,49034,49614,0.8,1 F,0,49179,49614,1,0
Sprite,Foreground,Centre,"light.png",280,356 C,0,49130,,255,255,255 S,0,49130,49275,0.3,0.8 S,0,49130,49710,0.8,1 F,0,49275,49710,1,0
Sprite,Foreground,Centre,"light.png",302,274 C,0,49227,,255,255,255 S,0,49227,49372,0.3,0.8 S,0,49227,49807,0.8,1 F,0,49372,49807,1,0
Sprite,Foreground,Centre,"light.png",428,368 C,0,49518,,255,255,255 S,0,49518,49663,0.3,0.8 S,0,49518,50098,0.8,1 F,0,49663,50098,1,0
Sprite,Foreground,Centre,"light.png",406,184 C,0,49808,,255,255,255 S,0,49808,49953,0.3,0.8 S,0,49808,50388,0.8,1 F,0,49953,50388,1,0
Sprite,Foreground,Centre,"light.png",299,148 C,0,50195,,255,255,255 S,0,50195,50340,0.3,0.8 S,0,50195,50775,0.8,1 F,0,50340,50775,1,0
Sprite,Foreground,Centre,"light.png",504,123 C,0,50389,,255,255,255 S,0,50389,50534,0.3,0.8 S,0,50389,50969,0.8,1 F,0,50534,50969,1,0
Sprite,Foreground,Centre,"light.png",392,81 C,0,50582,,255,255,255 S,0,50582,50727,0.3,0.8 S,0,50582,51162,0.8,1 F,0,50727,51162,1,0
Sprite,Foreground,Centre,"light.png",418,280 C,0,50776,,255,255,255 S,0,50776,50921,0.3,0.8 S,0,50776,51356,0.8,1 F,0,50921,51356,1,0
Sprite,Foreground,Centre,"light.png",409,306 C,0,51163,,255,255,255 S,0,51163,51308,0.3,0.8 S,0,51163,51743,0.8,1 F,0,51308,51743,1,0
Sprite,Foreground,Centre,"light.png",297,321 C,0,51550,,255,255,255 S,0,51550,51695,0.3,0.8 S,0,51550,52130,0.8,1 F,0,51695,52130,1,0
Sprite,Foreground,Centre,"light.png",219,330 C,0,51744,,255,255,255 S,0,51744,51889,0.3,0.8 S,0,51744,52324,0.8,1 F,0,51889,52324,1,0
Sprite,Foreground,Centre,"light.png",144,357 C,0,51937,,255,255,255 S,0,51937,52082,0.3,0.8 S,0,51937,52517,0.8,1 F,0,52082,52517,1,0
Sprite,Foreground,Centre,"light.png",177,257 C,0,52324,,255,255,255 S,0,52324,52469,0.3,0.8 S,0,52324,52904,0.8,1 F,0,52469,52904,1,0
Sprite,Foreground,Centre,"light.png",255,245 C,0,52518,,255,255,255 S,0,52518,52663,0.3,0.8 S,0,52518,53098,0.8,1 F,0,52663,53098,1,0
Sprite,Foreground,Centre,"light.png",209,181 C,0,52711,,255,255,255 S,0,52711,52856,0.3,0.8 S,0,52711,53291,0.8,1 F,0,52856,53291,1,0
Sprite,Foreground,Centre,"light.png",96,178 C,0,53098,,255,255,255 S,0,53098,53243,0.3,0.8 S,0,53098,53678,0.8,1 F,0,53243,53678,1,0
Sprite,Foreground,Centre,"light.png",65,105 C,0,53292,,255,255,255 S,0,53292,53437,0.3,0.8 S,0,53292,53872,0.8,1 F,0,53437,53872,1,0
Sprite,Foreground,Centre,"light.png",143,98 C,0,53486,,255,255,255 S,0,53486,53631,0.3,0.8 S,0,53486,54066,0.8,1 F,0,53631,54066,1,0
Sprite,Foreground,Centre,"light.png",199,99 C,0,53679,,255,255,255 S,0,53679,53824,0.3,0.8 S,0,53679,54259,0.8,1 F,0,53824,54259,1,0
Sprite,Foreground,Centre,"light.png",323,107 C,0,53873,,255,255,255 S,0,53873,54018,0.3,0.8 S,0,53873,54453,0.8,1 F,0,54018,54453,1,0
Sprite,Foreground,Centre,"light.png",337,141 C,0,54260,,255,255,255 S,0,54260,54405,0.3,0.8 S,0,54260,54840,0.8,1 F,0,54405,54840,1,0
Sprite,Foreground,Centre,"light.png",341,253 C,0,54647,,255,255,255 S,0,54647,54792,0.3,0.8 S,0,54647,55227,0.8,1 F,0,54792,55227,1,0
Sprite,Foreground,Centre,"light.png",346,331 C,0,54840,,255,255,255 S,0,54840,54985,0.3,0.8 S,0,54840,55420,0.8,1 F,0,54985,55420,1,0
Sprite,Foreground,Centre,"light.png",414,291 C,0,55034,,255,255,255 S,0,55034,55179,0.3,0.8 S,0,55034,55614,0.8,1 F,0,55179,55614,1,0
Sprite,Foreground,Centre,"light.png",470,287 C,0,55227,,255,255,255 S,0,55227,55372,0.3,0.8 S,0,55227,55807,0.8,1 F,0,55372,55807,1,0
Sprite,Foreground,Centre,"light.png",506,356 C,0,55421,,255,255,255 S,0,55421,55566,0.3,0.8 S,0,55421,56001,0.8,1 F,0,55566,56001,1,0
Sprite,Foreground,Centre,"light.png",543,260 C,0,55808,,255,255,255 S,0,55808,55953,0.3,0.8 S,0,55808,56388,0.8,1 F,0,55953,56388,1,0
Sprite,Foreground,Centre,"light.png",489,205 C,0,56002,,255,255,255 S,0,56002,56147,0.3,0.8 S,0,56002,56582,0.8,1 F,0,56147,56582,1,0
Sprite,Foreground,Centre,"light.png",415,177 C,0,56195,,255,255,255 S,0,56195,56340,0.3,0.8 S,0,56195,56775,0.8,1 F,0,56340,56775,1,0
Sprite,Foreground,Centre,"light.png",359,186 C,0,56388,,255,255,255 S,0,56388,56533,0.3,0.8 S,0,56388,56968,0.8,1 F,0,56533,56968,1,0
Sprite,Foreground,Centre,"light.png",282,204 C,0,56582,,255,255,255 S,0,56582,56727,0.3,0.8 S,0,56582,57162,0.8,1 F,0,56727,57162,1,0
Sprite,Foreground,Centre,"light.png",213,164 C,0,56776,,255,255,255 S,0,56776,56921,0.3,0.8 S,0,56776,57356,0.8,1 F,0,56921,57356,1,0
Sprite,Foreground,Centre,"light.png",199,286 C,0,56969,,255,255,255 S,0,56969,57114,0.3,0.8 S,0,56969,57549,0.8,1 F,0,57114,57549,1,0
Sprite,Foreground,Centre,"light.png",204,329 C,0,57357,,255,255,255 S,0,57357,57502,0.3,0.8 S,0,57357,57937,0.8,1 F,0,57502,57937,1,0
Sprite,Foreground,Centre,"light.png",257,344 C,0,57550,,255,255,255 S,0,57550,57695,0.3,0.8 S,0,57550,58130,0.8,1 F,0,57695,58130,1,0
Sprite,Foreground,Centre,"light.png",404,314 C,0,57744,,255,255,255 S,0,57744,57889,0.3,0.8 S,0,57744,58324,0.8,1 F,0,57889,58324,1,0
Sprite,Foreground,Centre,"light.png",350,298 C,0,57937,,255,255,255 S,0,57937,58082,0.3,0.8 S,0,57937,58517,0.8,1 F,0,58082,58517,1,0
Sprite,Foreground,Centre,"light.png",143,376 C,0,58131,,255,255,255 S,0,58131,58276,0.3,0.8 S,0,58131,58711,0.8,1 F,0,58276,58711,1,0
Sprite,Foreground,Centre,"light.png",128,322 C,0,58324,,255,255,255 S,0,58324,58469,0.3,0.8 S,0,58324,58904,0.8,1 F,0,58469,58904,1,0
Sprite,Foreground,Centre,"light.png",217,187 C,0,58518,,255,255,255 S,0,58518,58663,0.3,0.8 S,0,58518,59098,0.8,1 F,0,58663,59098,1,0
Sprite,Foreground,Centre,"light.png",200,240 C,0,58711,,255,255,255 S,0,58711,58856,0.3,0.8 S,0,58711,59291,0.8,1 F,0,58856,59291,1,0
Sprite,Foreground,Centre,"light.png",101,232 C,0,58905,,255,255,255 S,0,58905,59050,0.3,0.8 S,0,58905,59485,0.8,1 F,0,59050,59485,1,0
Sprite,Foreground,Centre,"light.png",177,119 C,0,59098,,255,255,255 S,0,59098,59243,0.3,0.8 S,0,59098,59678,0.8,1 F,0,59243,59678,1,0
Sprite,Foreground,Centre,"light.png",231,109 C,0,59291,,255,255,255 S,0,59291,59436,0.3,0.8 S,0,59291,59871,0.8,1 F,0,59436,59871,1,0
Sprite,Foreground,Centre,"light.png",313,169 C,0,59486,,255,255,255 S,0,59486,59631,0.3,0.8 S,0,59486,60066,0.8,1 F,0,59631,60066,1,0
Sprite,Foreground,Centre,"light.png",384,76 C,0,59679,,255,255,255 S,0,59679,59824,0.3,0.8 S,0,59679,60259,0.8,1 F,0,59824,60259,1,0
Sprite,Foreground,Centre,"light.png",397,225 C,0,59873,,255,255,255 S,0,59873,60018,0.3,0.8 S,0,59873,60453,0.8,1 F,0,60018,60453,1,0
Sprite,Foreground,Centre,"light.png",502,123 C,0,60066,,255,255,255 S,0,60066,60211,0.3,0.8 S,0,60066,60646,0.8,1 F,0,60211,60646,1,0
Sprite,Foreground,Centre,"light.png",505,150 C,0,60162,,255,255,255 S,0,60162,60307,0.3,0.8 S,0,60162,60742,0.8,1 F,0,60307,60742,1,0
Sprite,Foreground,Centre,"light.png",502,123 C,0,60260,,255,255,255 S,0,60260,60405,0.3,0.8 S,0,60260,60840,0.8,1 F,0,60405,60840,1,0
Sprite,Foreground,Centre,"light.png",505,150 C,0,60356,,255,255,255 S,0,60356,60501,0.3,0.8 S,0,60356,60936,0.8,1 F,0,60501,60936,1,0
Sprite,Foreground,Centre,"light.png",502,123 C,0,60453,,255,255,255 S,0,60453,60598,0.3,0.8 S,0,60453,61033,0.8,1 F,0,60598,61033,1,0
Sprite,Foreground,Centre,"light.png",505,150 C,0,60549,,255,255,255 S,0,60549,60694,0.3,0.8 S,0,60549,61129,0.8,1 F,0,60694,61129,1,0
Sprite,Foreground,Centre,"light.png",502,123 C,0,60647,,255,255,255 S,0,60647,60792,0.3,0.8 S,0,60647,61227,0.8,1 F,0,60792,61227,1,0
Sprite,Foreground,Centre,"light.png",505,150 C,0,60743,,255,255,255 S,0,60743,60888,0.3,0.8 S,0,60743,61323,0.8,1 F,0,60888,61323,1,0
Sprite,Foreground,Centre,"light.png",503,190 C,0,60840,,255,255,255 S,0,60840,60985,0.3,0.8 S,0,60840,61420,0.8,1 F,0,60985,61420,1,0
Sprite,Foreground,Centre,"light.png",498,217 C,0,60936,,255,255,255 S,0,60936,61081,0.3,0.8 S,0,60936,61516,0.8,1 F,0,61081,61516,1,0
Sprite,Foreground,Centre,"light.png",503,190 C,0,61034,,255,255,255 S,0,61034,61179,0.3,0.8 S,0,61034,61614,0.8,1 F,0,61179,61614,1,0
Sprite,Foreground,Centre,"light.png",498,217 C,0,61130,,255,255,255 S,0,61130,61275,0.3,0.8 S,0,61130,61710,0.8,1 F,0,61275,61710,1,0
Sprite,Foreground,Centre,"light.png",503,190 C,0,61227,,255,255,255 S,0,61227,61372,0.3,0.8 S,0,61227,61807,0.8,1 F,0,61372,61807,1,0
Sprite,Foreground,Centre,"light.png",498,217 C,0,61323,,255,255,255 S,0,61323,61468,0.3,0.8 S,0,61323,61903,0.8,1 F,0,61468,61903,1,0
Sprite,Foreground,Centre,"light.png",503,190 C,0,61421,,255,255,255 S,0,61421,61566,0.3,0.8 S,0,61421,62001,0.8,1 F,0,61566,62001,1,0
Sprite,Foreground,Centre,"light.png",498,217 C,0,61517,,255,255,255 S,0,61517,61662,0.3,0.8 S,0,61517,62097,0.8,1 F,0,61662,62097,1,0
Sprite,Foreground,Centre,"light.png",493,257 C,0,61615,,255,255,255 S,0,61615,61760,0.3,0.8 S,0,61615,62195,0.8,1 F,0,61760,62195,1,0
Sprite,Foreground,Centre,"light.png",357,376 C,0,61905,,255,255,255 S,0,61905,62050,0.3,0.8 S,0,61905,62485,0.8,1 F,0,62050,62485,1,0
Sprite,Foreground,Centre,"light.png",351,220 C,0,62195,,255,255,255 S,0,62195,62340,0.3,0.8 S,0,62195,62775,0.8,1 F,0,62340,62775,1,0
Sprite,Foreground,Centre,"light.png",255,245 C,0,62389,,255,255,255 S,0,62389,62534,0.3,0.8 S,0,62389,62969,0.8,1 F,0,62534,62969,1,0
Sprite,Foreground,Centre,"light.png",228,255 C,0,62485,,255,255,255 S,0,62485,62630,0.3,0.8 S,0,62485,63065,0.8,1 F,0,62630,63065,1,0
Sprite,Foreground,Centre,"light.png",145,289 C,0,62582,,255,255,255 S,0,62582,62727,0.3,0.8 S,0,62582,63162,0.8,1 F,0,62727,63162,1,0
Sprite,Foreground,Centre,"light.png",171,299 C,0,62678,,255,255,255 S,0,62678,62823,0.3,0.8 S,0,62678,63258,0.8,1 F,0,62823,63258,1,0
Sprite,Foreground,Centre,"light.png",265,328 C,0,62776,,255,255,255 S,0,62776,62921,0.3,0.8 S,0,62776,63356,0.8,1 F,0,62921,63356,1,0
Sprite,Foreground,Centre,"light.png",238,338 C,0,62872,,255,255,255 S,0,62872,63017,0.3,0.8 S,0,62872,63452,0.8,1 F,0,63017,63452,1,0
Sprite,Foreground,Centre,"light.png",155,372 C,0,62969,,255,255,255 S,0,62969,63114,0.3,0.8 S,0,62969,63549,0.8,1 F,0,63114,63549,1,0
Sprite,Foreground,Centre,"light.png",181,382 C,0,63065,,255,255,255 S,0,63065,63210,0.3,0.8 S,0,63065,63645,0.8,1 F,0,63210,63645,1,0
Sprite,Foreground,Centre,"light.png",82,346 C,0,63163,,255,255,255 S,0,63163,63308,0.3,0.8 S,0,63163,63743,0.8,1 F,0,63308,63743,1,0
Sprite,Foreground,Centre,"light.png",67,323 C,0,63259,,255,255,255 S,0,63259,63404,0.3,0.8 S,0,63259,63839,0.8,1 F,0,63404,63839,1,0
Sprite,Foreground,Centre,"light.png",63,296 C,0,63356,,255,255,255 S,0,63356,63501,0.3,0.8 S,0,63356,63936,0.8,1 F,0,63501,63936,1,0
Sprite,Foreground,Centre,"light.png",63,268 C,0,63453,,255,255,255 S,0,63453,63598,0.3,0.8 S,0,63453,64033,0.8,1 F,0,63598,64033,1,0
Sprite,Foreground,Centre,"light.png",72,243 C,0,63550,,255,255,255 S,0,63550,63695,0.3,0.8 S,0,63550,64130,0.8,1 F,0,63695,64130,1,0
Sprite,Foreground,Centre,"light.png",91,222 C,0,63646,,255,255,255 S,0,63646,63791,0.3,0.8 S,0,63646,64226,0.8,1 F,0,63791,64226,1,0
Sprite,Foreground,Centre,"light.png",116,209 C,0,63743,,255,255,255 S,0,63743,63888,0.3,0.8 S,0,63743,64323,0.8,1 F,0,63888,64323,1,0
Sprite,Foreground,Centre,"light.png",143,204 C,0,63840,,255,255,255 S,0,63840,63985,0.3,0.8 S,0,63840,64420,0.8,1 F,0,63985,64420,1,0
Sprite,Foreground,Centre,"light.png",171,209 C,0,63937,,255,255,255 S,0,63937,64082,0.3,0.8 S,0,63937,64517,0.8,1 F,0,64082,64517,1,0
Sprite,Foreground,Centre,"light.png",197,219 C,0,64033,,255,255,255 S,0,64033,64178,0.3,0.8 S,0,64033,64613,0.8,1 F,0,64178,64613,1,0
Sprite,Foreground,Centre,"light.png",255,169 C,0,64131,,255,255,255 S,0,64131,64276,0.3,0.8 S,0,64131,64711,0.8,1 F,0,64276,64711,1,0
Sprite,Foreground,Centre,"light.png",280,158 C,0,64227,,255,255,255 S,0,64227,64372,0.3,0.8 S,0,64227,64807,0.8,1 F,0,64372,64807,1,0
Sprite,Foreground,Centre,"light.png",330,218 C,0,64324,,255,255,255 S,0,64324,64469,0.3,0.8 S,0,64324,64904,0.8,1 F,0,64469,64904,1,0
Sprite,Foreground,Centre,"light.png",356,228 C,0,64420,,255,255,255 S,0,64420,64565,0.3,0.8 S,0,64420,65000,0.8,1 F,0,64565,65000,1,0
Sprite,Foreground,Centre,"light.png",413,177 C,0,64518,,255,255,255 S,0,64518,64663,0.3,0.8 S,0,64518,65098,0.8,1 F,0,64663,65098,1,0
Sprite,Foreground,Centre,"light.png",438,166 C,0,64614,,255,255,255 S,0,64614,64759,0.3,0.8 S,0,64614,65194,0.8,1 F,0,64759,65194,1,0
Sprite,Foreground,Centre,"light.png",534,128 C,0,64711,,255,255,255 S,0,64711,64856,0.3,0.8 S,0,64711,65291,0.8,1 F,0,64856,65291,1,0
Sprite,Foreground,Centre,"light.png",540,202 C,0,64904,,255,255,255 S,0,64904,65049,0.3,0.8 S,0,64904,65484,0.8,1 F,0,65049,65484,1,0
Sprite,Foreground,Centre,"light.png",467,372 C,0,65098,,255,255,255 S,0,65098,65243,0.3,0.8 S,0,65098,65678,0.8,1 F,0,65243,65678,1,0
Sprite,Foreground,Centre,"light.png",445,300 C,0,65291,,255,255,255 S,0,65291,65436,0.3,0.8 S,0,65291,65871,0.8,1 F,0,65436,65871,1,0
Sprite,Foreground,Centre,"light.png",340,190 C,0,65486,,255,255,255 S,0,65486,65631,0.3,0.8 S,0,65486,66066,0.8,1 F,0,65631,66066,1,0
Sprite,Foreground,Centre,"light.png",412,176 C,0,65679,,255,255,255 S,0,65679,65824,0.3,0.8 S,0,65679,66259,0.8,1 F,0,65824,66259,1,0
Sprite,Foreground,Centre,"light.png",294,302 C,0,65873,,255,255,255 S,0,65873,66018,0.3,0.8 S,0,65873,66453,0.8,1 F,0,66018,66453,1,0
Sprite,Foreground,Centre,"light.png",221,287 C,0,66066,,255,255,255 S,0,66066,66211,0.3,0.8 S,0,66066,66646,0.8,1 F,0,66211,66646,1,0
Sprite,Foreground,Centre,"light.png",135,123 C,0,66260,,255,255,255 S,0,66260,66405,0.3,0.8 S,0,66260,66840,0.8,1 F,0,66405,66840,1,0
Sprite,Foreground,Centre,"light.png",117,278 C,0,66453,,255,255,255 S,0,66453,66598,0.3,0.8 S,0,66453,67033,0.8,1 F,0,66598,67033,1,0
Sprite,Foreground,Centre,"light.png",63,195 C,0,66647,,255,255,255 S,0,66647,66792,0.3,0.8 S,0,66647,67227,0.8,1 F,0,66792,67227,1,0
Sprite,Foreground,Centre,"light.png",267,175 C,0,66840,,255,255,255 S,0,66840,66985,0.3,0.8 S,0,66840,67420,0.8,1 F,0,66985,67420,1,0
Sprite,Foreground,Centre,"light.png",339,189 C,0,67033,,255,255,255 S,0,67033,67178,0.3,0.8 S,0,67033,67613,0.8,1 F,0,67178,67613,1,0
Sprite,Foreground,Centre,"light.png",377,356 C,0,67227,,255,255,255 S,0,67227,67372,0.3,0.8 S,0,67227,67807,0.8,1 F,0,67372,67807,1,0
Sprite,Foreground,Centre,"light.png",289,274 C,0,67421,,255,255,255 S,0,67421,67566,0.3,0.8 S,0,67421,68001,0.8,1 F,0,67566,68001,1,0
Sprite,Foreground,Centre,"light.png",453,269 C,0,67615,,255,255,255 S,0,67615,67760,0.3,0.8 S,0,67615,68195,0.8,1 F,0,67760,68195,1,0
Sprite,Foreground,Centre,"light.png",302,384 C,0,67808,,255,255,255 S,0,67808,67953,0.3,0.8 S,0,67808,68388,0.8,1 F,0,67953,68388,1,0
Sprite,Foreground,Centre,"light.png",227,372 C,0,68001,,255,255,255 S,0,68001,68146,0.3,0.8 S,0,68001,68581,0.8,1 F,0,68146,68581,1,0
Sprite,Foreground,Centre,"light.png",231,214 C,0,68195,,255,255,255 S,0,68195,68340,0.3,0.8 S,0,68195,68775,0.8,1 F,0,68340,68775,1,0
Sprite,Foreground,Centre,"light.png",299,191 C,0,68388,,255,255,255 S,0,68388,68533,0.3,0.8 S,0,68388,68968,0.8,1 F,0,68533,68968,1,0
Sprite,Foreground,Centre,"light.png",514,329 C,0,68582,,255,255,255 S,0,68582,68727,0.3,0.8 S,0,68582,69162,0.8,1 F,0,68727,69162,1,0
Sprite,Foreground,Centre,"light.png",445,352 C,0,68775,,255,255,255 S,0,68775,68920,0.3,0.8 S,0,68775,69355,0.8,1 F,0,68920,69355,1,0
Sprite,Foreground,Centre,"light.png",401,180 C,0,68969,,255,255,255 S,0,68969,69114,0.3,0.8 S,0,68969,69549,0.8,1 F,0,69114,69549,1,0
Sprite,Foreground,Centre,"light.png",407,105 C,0,69162,,255,255,255 S,0,69162,69307,0.3,0.8 S,0,69162,69742,0.8,1 F,0,69307,69742,1,0
Sprite,Foreground,Centre,"light.png",418,263 C,0,69357,,255,255,255 S,0,69357,69502,0.3,0.8 S,0,69357,69937,0.8,1 F,0,69502,69937,1,0
Sprite,Foreground,Centre,"light.png",289,161 C,0,69550,,255,255,255 S,0,69550,69695,0.3,0.8 S,0,69550,70130,0.8,1 F,0,69695,70130,1,0
Sprite,Foreground,Centre,"light.png",512,152 C,0,69744,,255,255,255 S,0,69744,69889,0.3,0.8 S,0,69744,70324,0.8,1 F,0,69889,70324,1,0
Sprite,Foreground,Centre,"light.png",433,342 C,0,69937,,255,255,255 S,0,69937,70082,0.3,0.8 S,0,69937,70517,0.8,1 F,0,70082,70517,1,0
Sprite,Foreground,Centre,"light.png",401,180 C,0,70131,,255,255,255 S,0,70131,70276,0.3,0.8 S,0,70131,70711,0.8,1 F,0,70276,70711,1,0
Sprite,Foreground,Centre,"light.png",363,173 C,0,70227,,255,255,255 S,0,70227,70372,0.3,0.8 S,0,70227,70807,0.8,1 F,0,70372,70807,1,0
Sprite,Foreground,Centre,"light.png",326,167 C,0,70324,,255,255,255 S,0,70324,70469,0.3,0.8 S,0,70324,70904,0.8,1 F,0,70469,70904,1,0
Sprite,Foreground,Centre,"light.png",289,161 C,0,70421,,255,255,255 S,0,70421,70566,0.3,0.8 S,0,70421,71001,0.8,1 F,0,70566,71001,1,0
Sprite,Foreground,Centre,"light.png",252,154 C,0,70518,,255,255,255 S,0,70518,70663,0.3,0.8 S,0,70518,71098,0.8,1 F,0,70663,71098,1,0
Sprite,Foreground,Centre,"light.png",275,287 C,0,70711,,255,255,255 S,0,70711,70856,0.3,0.8 S,0,70711,71291,0.8,1 F,0,70856,71291,1,0
Sprite,Foreground,Centre,"light.png",113,151 C,0,70905,,255,255,255 S,0,70905,71050,0.3,0.8 S,0,70905,71485,0.8,1 F,0,71050,71485,1,0
Sprite,Foreground,Centre,"light.png",180,327 C,0,71098,,255,255,255 S,0,71098,71243,0.3,0.8 S,0,71098,71678,0.8,1 F,0,71243,71678,1,0
Sprite,Foreground,Centre,"light.png",224,228 C,0,71292,,255,255,255 S,0,71292,71437,0.3,0.8 S,0,71292,71872,0.8,1 F,0,71437,71872,1,0
Sprite,Foreground,Centre,"light.png",63,231 C,0,71486,,255,255,255 S,0,71486,71631,0.3,0.8 S,0,71486,72066,0.8,1 F,0,71631,72066,1,0
Sprite,Foreground,Centre,"light.png",154,396 C,0,71679,,255,255,255 S,0,71679,71824,0.3,0.8 S,0,71679,72259,0.8,1 F,0,71824,72259,1,0
Sprite,Foreground,Centre,"light.png",223,383 C,0,71872,,255,255,255 S,0,71872,72017,0.3,0.8 S,0,71872,72452,0.8,1 F,0,72017,72452,1,0
Sprite,Foreground,Centre,"light.png",250,157 C,0,72066,,255,255,255 S,0,72066,72211,0.3,0.8 S,0,72066,72646,0.8,1 F,0,72211,72646,1,0
Sprite,Foreground,Centre,"light.png",180,167 C,0,72259,,255,255,255 S,0,72259,72404,0.3,0.8 S,0,72259,72839,0.8,1 F,0,72404,72839,1,0
Sprite,Foreground,Centre,"light.png",75,338 C,0,72453,,255,255,255 S,0,72453,72598,0.3,0.8 S,0,72453,73033,0.8,1 F,0,72598,73033,1,0
Sprite,Foreground,Centre,"light.png",88,185 C,0,72647,,255,255,255 S,0,72647,72792,0.3,0.8 S,0,72647,73227,0.8,1 F,0,72792,73227,1,0
Sprite,Foreground,Centre,"light.png",306,338 C,0,72840,,255,255,255 S,0,72840,72985,0.3,0.8 S,0,72840,73420,0.8,1 F,0,72985,73420,1,0
Sprite,Foreground,Centre,"light.png",166,278 C,0,73034,,255,255,255 S,0,73034,73179,0.3,0.8 S,0,73034,73614,0.8,1 F,0,73179,73614,1,0
Sprite,Foreground,Centre,"light.png",311,219 C,0,73227,,255,255,255 S,0,73227,73372,0.3,0.8 S,0,73227,73807,0.8,1 F,0,73372,73807,1,0
Sprite,Foreground,Centre,"light.png",385,209 C,0,73420,,255,255,255 S,0,73420,73565,0.3,0.8 S,0,73420,74000,0.8,1 F,0,73565,74000,1,0
Sprite,Foreground,Centre,"light.png",266,287 C,0,73615,,255,255,255 S,0,73615,73760,0.3,0.8 S,0,73615,74195,0.8,1 F,0,73760,74195,1,0
Sprite,Foreground,Centre,"light.png",232,223 C,0,73808,,255,255,255 S,0,73808,73953,0.3,0.8 S,0,73808,74388,0.8,1 F,0,73953,74388,1,0
Sprite,Foreground,Centre,"light.png",419,133 C,0,74002,,255,255,255 S,0,74002,74147,0.3,0.8 S,0,74002,74582,0.8,1 F,0,74147,74582,1,0
Sprite,Foreground,Centre,"light.png",449,156 C,0,74098,,255,255,255 S,0,74098,74243,0.3,0.8 S,0,74098,74678,0.8,1 F,0,74243,74678,1,0
Sprite,Foreground,Centre,"light.png",466,190 C,0,74195,,255,255,255 S,0,74195,74340,0.3,0.8 S,0,74195,74775,0.8,1 F,0,74340,74775,1,0
Sprite,Foreground,Centre,"light.png",466,227 C,0,74292,,255,255,255 S,0,74292,74437,0.3,0.8 S,0,74292,74872,0.8,1 F,0,74437,74872,1,0
Sprite,Foreground,Centre,"light.png",451,261 C,0,74389,,255,255,255 S,0,74389,74534,0.3,0.8 S,0,74389,74969,0.8,1 F,0,74534,74969,1,0
Sprite,Foreground,Centre,"light.png",443,297 C,0,74485,,255,255,255 S,0,74485,74630,0.3,0.8 S,0,74485,75065,0.8,1 F,0,74630,75065,1,0
Sprite,Foreground,Centre,"light.png",383,355 C,0,74582,,255,255,255 S,0,74582,74727,0.3,0.8 S,0,74582,75162,0.8,1 F,0,74727,75162,1,0
Sprite,Foreground,Centre,"light.png",371,319 C,0,74678,,255,255,255 S,0,74678,74823,0.3,0.8 S,0,74678,75258,0.8,1 F,0,74823,75258,1,0
Sprite,Foreground,Centre,"light.png",357,209 C,0,74776,,255,255,255 S,0,74776,74921,0.3,0.8 S,0,74776,75356,0.8,1 F,0,74921,75356,1,0
Sprite,Foreground,Centre,"light.png",349,245 C,0,74872,,255,255,255 S,0,74872,75017,0.3,0.8 S,0,74872,75452,0.8,1 F,0,75017,75452,1,0
Sprite,Foreground,Centre,"light.png",267,213 C,0,74969,,255,255,255 S,0,74969,75114,0.3,0.8 S,0,74969,75549,0.8,1 F,0,75114,75549,1,0
Sprite,Foreground,Centre,"light.png",243,141 C,0,75162,,255,255,255 S,0,75162,75307,0.3,0.8 S,0,75162,75742,0.8,1 F,0,75307,75742,1,0
Sprite,Foreground,Centre,"light.png",208,323 C,0,75357,,255,255,255 S,0,75357,75502,0.3,0.8 S,0,75357,75937,0.8,1 F,0,75502,75937,1,0
Sprite,Foreground,Centre,"light.png",208,323 C,0,75453,,255,255,255 S,0,75453,75598,0.3,0.8 S,0,75453,76033,0.8,1 F,0,75598,76033,1,0
Sprite,Foreground,Centre,"light.png",208,323 C,0,75550,,255,255,255 S,0,75550,75695,0.3,0.8 S,0,75550,76130,0.8,1 F,0,75695,76130,1,0
Sprite,Foreground,Centre,"light.png",161,135 C,0,75840,,255,255,255 S,0,75840,75985,0.3,0.8 S,0,75840,76420,0.8,1 F,0,75985,76420,1,0
Sprite,Foreground,Centre,"light.png",306,291 C,0,76131,,255,255,255 S,0,76131,76276,0.3,0.8 S,0,76131,76711,0.8,1 F,0,76276,76711,1,0
Sprite,Foreground,Centre,"light.png",216,406 C,0,76518,,255,255,255 S,0,76518,76663,0.3,0.8 S,0,76518,77098,0.8,1 F,0,76663,77098,1,0
Sprite,Foreground,Centre,"light.png",241,225 C,0,76711,,255,255,255 S,0,76711,76856,0.3,0.8 S,0,76711,77291,0.8,1 F,0,76856,77291,1,0
Sprite,Foreground,Centre,"light.png",133,389 C,0,76905,,255,255,255 S,0,76905,77050,0.3,0.8 S,0,76905,77485,0.8,1 F,0,77050,77485,1,0
Sprite,Foreground,Centre,"light.png",343,356 C,0,77098,,255,255,255 S,0,77098,77243,0.3,0.8 S,0,77098,77678,0.8,1 F,0,77243,77678,1,0
Sprite,Foreground,Centre,"light.png",417,346 C,0,77291,,255,255,255 S,0,77291,77436,0.3,0.8 S,0,77291,77871,0.8,1 F,0,77436,77871,1,0
Sprite,Foreground,Centre,"light.png",414,141 C,0,77486,,255,255,255 S,0,77486,77631,0.3,0.8 S,0,77486,78066,0.8,1 F,0,77631,78066,1,0
Sprite,Foreground,Centre,"light.png",375,202 C,0,77679,,255,255,255 S,0,77679,77824,0.3,0.8 S,0,77679,78259,0.8,1 F,0,77824,78259,1,0
Sprite,Foreground,Centre,"light.png",463,420 C,0,77873,,255,255,255 S,0,77873,78018,0.3,0.8 S,0,77873,78453,0.8,1 F,0,78018,78453,1,0
Sprite,Foreground,Centre,"light.png",500,357 C,0,78066,,255,255,255 S,0,78066,78211,0.3,0.8 S,0,78066,78646,0.8,1 F,0,78211,78646,1,0
Sprite,Foreground,Centre,"light.png",532,217 C,0,78260,,255,255,255 S,0,78260,78405,0.3,0.8 S,0,78260,78840,0.8,1 F,0,78405,78840,1,0
Sprite,Foreground,Centre,"light.png",457,207 C,0,78453,,255,255,255 S,0,78453,78598,0.3,0.8 S,0,78453,79033,0.8,1 F,0,78598,79033,1,0
Sprite,Foreground,Centre,"light.png",285,193 C,0,78647,,255,255,255 S,0,78647,78792,0.3,0.8 S,0,78647,79227,0.8,1 F,0,78792,79227,1,0
Sprite,Foreground,Centre,"light.png",321,369 C,0,78840,,255,255,255 S,0,78840,78985,0.3,0.8 S,0,78840,79420,0.8,1 F,0,78985,79420,1,0
Sprite,Foreground,Centre,"light.png",398,263 C,0,79034,,255,255,255 S,0,79034,79179,0.3,0.8 S,0,79034,79614,0.8,1 F,0,79179,79614,1,0
Sprite,Foreground,Centre,"light.png",232,260 C,0,79227,,255,255,255 S,0,79227,79372,0.3,0.8 S,0,79227,79807,0.8,1 F,0,79372,79807,1,0
Sprite,Foreground,Centre,"light.png",157,261 C,0,79420,,255,255,255 S,0,79420,79565,0.3,0.8 S,0,79420,80000,0.8,1 F,0,79565,80000,1,0
Sprite,Foreground,Centre,"light.png",328,91 C,0,79615,,255,255,255 S,0,79615,79760,0.3,0.8 S,0,79615,80195,0.8,1 F,0,79760,80195,1,0
Sprite,Foreground,Centre,"light.png",318,282 C,0,79808,,255,255,255 S,0,79808,79953,0.3,0.8 S,0,79808,80388,0.8,1 F,0,79953,80388,1,0
Sprite,Foreground,Centre,"light.png",158,179 C,0,80002,,255,255,255 S,0,80002,80147,0.3,0.8 S,0,80002,80582,0.8,1 F,0,80147,80582,1,0
Sprite,Foreground,Centre,"light.png",130,401 C,0,80195,,255,255,255 S,0,80195,80340,0.3,0.8 S,0,80195,80775,0.8,1 F,0,80340,80775,1,0
Sprite,Foreground,Centre,"light.png",181,347 C,0,80388,,255,255,255 S,0,80388,80533,0.3,0.8 S,0,80388,80968,0.8,1 F,0,80533,80968,1,0
Sprite,Foreground,Centre,"light.png",63,239 C,0,80582,,255,255,255 S,0,80582,80727,0.3,0.8 S,0,80582,81162,0.8,1 F,0,80727,81162,1,0
Sprite,Foreground,Centre,"light.png",92,306 C,0,80775,,255,255,255 S,0,80775,80920,0.3,0.8 S,0,80775,81355,0.8,1 F,0,80920,81355,1,0
Sprite,Foreground,Centre,"light.png",246,179 C,0,80969,,255,255,255 S,0,80969,81114,0.3,0.8 S,0,80969,81549,0.8,1 F,0,81114,81549,1,0
Sprite,Foreground,Centre,"light.png",215,111 C,0,81162,,255,255,255 S,0,81162,81307,0.3,0.8 S,0,81162,81742,0.8,1 F,0,81307,81742,1,0
Sprite,Foreground,Centre,"light.png",191,254 C,0,81357,,255,255,255 S,0,81357,81502,0.3,0.8 S,0,81357,81937,0.8,1 F,0,81502,81937,1,0
Sprite,Foreground,Centre,"light.png",261,269 C,0,81550,,255,255,255 S,0,81550,81695,0.3,0.8 S,0,81550,82130,0.8,1 F,0,81695,82130,1,0
Sprite,Foreground,Centre,"light.png",401,162 C,0,81744,,255,255,255 S,0,81744,81889,0.3,0.8 S,0,81744,82324,0.8,1 F,0,81889,82324,1,0
Sprite,Foreground,Centre,"light.png",438,153 C,0,81840,,255,255,255 S,0,81840,81985,0.3,0.8 S,0,81840,82420,0.8,1 F,0,81985,82420,1,0
Sprite,Foreground,Centre,"light.png",475,159 C,0,81937,,255,255,255 S,0,81937,82082,0.3,0.8 S,0,81937,82517,0.8,1 F,0,82082,82517,1,0
Sprite,Foreground,Centre,"light.png",506,179 C,0,82034,,255,255,255 S,0,82034,82179,0.3,0.8 S,0,82034,82614,0.8,1 F,0,82179,82614,1,0
Sprite,Foreground,Centre,"light.png",528,209 C,0,82131,,255,255,255 S,0,82131,82276,0.3,0.8 S,0,82131,82711,0.8,1 F,0,82276,82711,1,0
Sprite,Foreground,Centre,"light.png",531,246 C,0,82227,,255,255,255 S,0,82227,82372,0.3,0.8 S,0,82227,82807,0.8,1 F,0,82372,82807,1,0
Sprite,Foreground,Centre,"light.png",464,308 C,0,82324,,255,255,255 S,0,82324,82469,0.3,0.8 S,0,82324,82904,0.8,1 F,0,82469,82904,1,0
Sprite,Foreground,Centre,"light.png",461,270 C,0,82420,,255,255,255 S,0,82420,82565,0.3,0.8 S,0,82420,83000,0.8,1 F,0,82565,83000,1,0
Sprite,Foreground,Centre,"light.png",438,153 C,0,82518,,255,255,255 S,0,82518,82663,0.3,0.8 S,0,82518,83098,0.8,1 F,0,82663,83098,1,0
Sprite,Foreground,Centre,"light.png",374,300 C,0,82711,,255,255,255 S,0,82711,82856,0.3,0.8 S,0,82711,83291,0.8,1 F,0,82856,83291,1,0
Sprite,Foreground,Centre,"light.png",253,171 C,0,82905,,255,255,255 S,0,82905,83050,0.3,0.8 S,0,82905,83485,0.8,1 F,0,83050,83485,1,0
Sprite,Foreground,Centre,"light.png",288,184 C,0,83001,,255,255,255 S,0,83001,83146,0.3,0.8 S,0,83001,83581,0.8,1 F,0,83146,83581,1,0
Sprite,Foreground,Centre,"light.png",287,270 C,0,83098,,255,255,255 S,0,83098,83243,0.3,0.8 S,0,83098,83678,0.8,1 F,0,83243,83678,1,0
Sprite,Foreground,Centre,"light.png",251,283 C,0,83194,,255,255,255 S,0,83194,83339,0.3,0.8 S,0,83194,83774,0.8,1 F,0,83339,83774,1,0
Sprite,Foreground,Centre,"light.png",166,342 C,0,83292,,255,255,255 S,0,83292,83437,0.3,0.8 S,0,83292,83872,0.8,1 F,0,83437,83872,1,0
Sprite,Foreground,Centre,"light.png",129,336 C,0,83388,,255,255,255 S,0,83388,83533,0.3,0.8 S,0,83388,83968,0.8,1 F,0,83533,83968,1,0
Sprite,Foreground,Centre,"light.png",98,316 C,0,83485,,255,255,255 S,0,83485,83630,0.3,0.8 S,0,83485,84065,0.8,1 F,0,83630,84065,1,0
Sprite,Foreground,Centre,"light.png",78,284 C,0,83582,,255,255,255 S,0,83582,83727,0.3,0.8 S,0,83582,84162,0.8,1 F,0,83727,84162,1,0
Sprite,Foreground,Centre,"light.png",73,248 C,0,83679,,255,255,255 S,0,83679,83824,0.3,0.8 S,0,83679,84259,0.8,1 F,0,83824,84259,1,0
Sprite,Foreground,Centre,"light.png",67,173 C,0,83872,,255,255,255 S,0,83872,84017,0.3,0.8 S,0,83872,84452,0.8,1 F,0,84017,84452,1,0
Sprite,Foreground,Centre,"light.png",142,82 C,0,84066,,255,255,255 S,0,84066,84211,0.3,0.8 S,0,84066,84646,0.8,1 F,0,84211,84646,1,0
Sprite,Foreground,Centre,"light.png",213,172 C,0,84260,,255,255,255 S,0,84260,84405,0.3,0.8 S,0,84260,84840,0.8,1 F,0,84405,84840,1,0
Sprite,Foreground,Centre,"light.png",297,91 C,0,84453,,255,255,255 S,0,84453,84598,0.3,0.8 S,0,84453,85033,0.8,1 F,0,84598,85033,1,0
Sprite,Foreground,Centre,"light.png",371,94 C,0,84646,,255,255,255 S,0,84646,84791,0.3,0.8 S,0,84646,85226,0.8,1 F,0,84791,85226,1,0
Sprite,Foreground,Centre,"light.png",520,210 C,0,84840,,255,255,255 S,0,84840,84985,0.3,0.8 S,0,84840,85420,0.8,1 F,0,84985,85420,1,0
Sprite,Foreground,Centre,"light.png",448,337 C,0,85034,,255,255,255 S,0,85034,85179,0.3,0.8 S,0,85034,85614,0.8,1 F,0,85179,85614,1,0
Sprite,Foreground,Centre,"light.png",432,192 C,0,85227,,255,255,255 S,0,85227,85372,0.3,0.8 S,0,85227,85807,0.8,1 F,0,85372,85807,1,0
Sprite,Foreground,Centre,"light.png",530,300 C,0,85421,,255,255,255 S,0,85421,85566,0.3,0.8 S,0,85421,86001,0.8,1 F,0,85566,86001,1,0
Sprite,Foreground,Centre,"light.png",387,270 C,0,85615,,255,255,255 S,0,85615,85760,0.3,0.8 S,0,85615,86195,0.8,1 F,0,85760,86195,1,0
Sprite,Foreground,Centre,"light.png",488,141 C,0,85808,,255,255,255 S,0,85808,85953,0.3,0.8 S,0,85808,86388,0.8,1 F,0,85953,86388,1,0
Sprite,Foreground,Centre,"light.png",518,377 C,0,86002,,255,255,255 S,0,86002,86147,0.3,0.8 S,0,86002,86582,0.8,1 F,0,86147,86582,1,0
Sprite,Foreground,Centre,"light.png",311,263 C,0,86195,,255,255,255 S,0,86195,86340,0.3,0.8 S,0,86195,86775,0.8,1 F,0,86340,86775,1,0
Sprite,Foreground,Centre,"light.png",181,362 C,0,86389,,255,255,255 S,0,86389,86534,0.3,0.8 S,0,86389,86969,0.8,1 F,0,86534,86969,1,0
Sprite,Foreground,Centre,"light.png",174,399 C,0,86485,,255,255,255 S,0,86485,86630,0.3,0.8 S,0,86485,87065,0.8,1 F,0,86630,87065,1,0
Sprite,Foreground,Centre,"light.png",181,362 C,0,86582,,255,255,255 S,0,86582,86727,0.3,0.8 S,0,86582,87162,0.8,1 F,0,86727,87162,1,0
Sprite,Foreground,Centre,"light.png",174,399 C,0,86678,,255,255,255 S,0,86678,86823,0.3,0.8 S,0,86678,87258,0.8,1 F,0,86823,87258,1,0
Sprite,Foreground,Centre,"light.png",102,350 C,0,86776,,255,255,255 S,0,86776,86921,0.3,0.8 S,0,86776,87356,0.8,1 F,0,86921,87356,1,0
Sprite,Foreground,Centre,"light.png",96,312 C,0,86872,,255,255,255 S,0,86872,87017,0.3,0.8 S,0,86872,87452,0.8,1 F,0,87017,87452,1,0
Sprite,Foreground,Centre,"light.png",102,350 C,0,86969,,255,255,255 S,0,86969,87114,0.3,0.8 S,0,86969,87549,0.8,1 F,0,87114,87549,1,0
Sprite,Foreground,Centre,"light.png",96,312 C,0,87065,,255,255,255 S,0,87065,87210,0.3,0.8 S,0,87065,87645,0.8,1 F,0,87210,87645,1,0
Sprite,Foreground,Centre,"light.png",104,233 C,0,87163,,255,255,255 S,0,87163,87308,0.3,0.8 S,0,87163,87743,0.8,1 F,0,87308,87743,1,0
Sprite,Foreground,Centre,"light.png",140,240 C,0,87259,,255,255,255 S,0,87259,87404,0.3,0.8 S,0,87259,87839,0.8,1 F,0,87404,87839,1,0
Sprite,Foreground,Centre,"light.png",177,234 C,0,87356,,255,255,255 S,0,87356,87501,0.3,0.8 S,0,87356,87936,0.8,1 F,0,87501,87936,1,0
Sprite,Foreground,Centre,"light.png",209,215 C,0,87453,,255,255,255 S,0,87453,87598,0.3,0.8 S,0,87453,88033,0.8,1 F,0,87598,88033,1,0
Sprite,Foreground,Centre,"light.png",233,187 C,0,87550,,255,255,255 S,0,87550,87695,0.3,0.8 S,0,87550,88130,0.8,1 F,0,87695,88130,1,0
Sprite,Foreground,Centre,"light.png",248,152 C,0,87646,,255,255,255 S,0,87646,87791,0.3,0.8 S,0,87646,88226,0.8,1 F,0,87791,88226,1,0
Sprite,Foreground,Centre,"light.png",343,208 C,0,87744,,255,255,255 S,0,87744,87889,0.3,0.8 S,0,87744,88324,0.8,1 F,0,87889,88324,1,0
Sprite,Foreground,Centre,"light.png",361,240 C,0,87840,,255,255,255 S,0,87840,87985,0.3,0.8 S,0,87840,88420,0.8,1 F,0,87985,88420,1,0
Sprite,Foreground,Centre,"light.png",402,310 C,0,87937,,255,255,255 S,0,87937,88082,0.3,0.8 S,0,87937,88517,0.8,1 F,0,88082,88517,1,0
Sprite,Foreground,Centre,"light.png",484,109 C,0,88227,,255,255,255 S,0,88227,88372,0.3,0.8 S,0,88227,88807,0.8,1 F,0,88372,88807,1,0
Sprite,Foreground,Centre,"light.png",274,255 C,0,88518,,255,255,255 S,0,88518,88663,0.3,0.8 S,0,88518,89098,0.8,1 F,0,88663,89098,1,0
Sprite,Foreground,Centre,"light.png",468,250 C,0,88711,,255,255,255 S,0,88711,88856,0.3,0.8 S,0,88711,89291,0.8,1 F,0,88856,89291,1,0
Sprite,Foreground,Centre,"light.png",468,250 C,0,88808,,255,255,255 S,0,88808,88953,0.3,0.8 S,0,88808,89388,0.8,1 F,0,88953,89388,1,0
Sprite,Foreground,Centre,"light.png",468,250 C,0,88905,,255,255,255 S,0,88905,89050,0.3,0.8 S,0,88905,89485,0.8,1 F,0,89050,89485,1,0
Sprite,Foreground,Centre,"light.png",468,250 C,0,89002,,255,255,255 S,0,89002,89147,0.3,0.8 S,0,89002,89582,0.8,1 F,0,89147,89582,1,0
Sprite,Foreground,Centre,"light.png",468,250 C,0,89098,,255,255,255 S,0,89098,89243,0.3,0.8 S,0,89098,89678,0.8,1 F,0,89243,89678,1,0
Sprite,Foreground,Centre,"light.png",491,405 C,0,89292,,255,255,255 S,0,89292,89437,0.3,0.8 S,0,89292,89872,0.8,1 F,0,89437,89872,1,0
Sprite,Foreground,Centre,"light.png",554,288 C,0,89486,,255,255,255 S,0,89486,89631,0.3,0.8 S,0,89486,90066,0.8,1 F,0,89631,90066,1,0
Sprite,Foreground,Centre,"light.png",565,213 C,0,89679,,255,255,255 S,0,89679,89824,0.3,0.8 S,0,89679,90259,0.8,1 F,0,89824,90259,1,0
Sprite,Foreground,Centre,"light.png",522,126 C,0,89873,,255,255,255 S,0,89873,90018,0.3,0.8 S,0,89873,90453,0.8,1 F,0,90018,90453,1,0
Sprite,Foreground,Centre,"light.png",432,164 C,0,90066,,255,255,255 S,0,90066,90211,0.3,0.8 S,0,90066,90646,0.8,1 F,0,90211,90646,1,0
Sprite,Foreground,Centre,"light.png",335,142 C,0,90260,,255,255,255 S,0,90260,90405,0.3,0.8 S,0,90260,90840,0.8,1 F,0,90405,90840,1,0
Sprite,Foreground,Centre,"light.png",261,134 C,0,90453,,255,255,255 S,0,90453,90598,0.3,0.8 S,0,90453,91033,0.8,1 F,0,90598,91033,1,0
Sprite,Foreground,Centre,"light.png",214,220 C,0,90647,,255,255,255 S,0,90647,90792,0.3,0.8 S,0,90647,91227,0.8,1 F,0,90792,91227,1,0
Sprite,Foreground,Centre,"light.png",287,227 C,0,90840,,255,255,255 S,0,90840,90985,0.3,0.8 S,0,90840,91420,0.8,1 F,0,90985,91420,1,0
Sprite,Foreground,Centre,"light.png",427,263 C,0,91034,,255,255,255 S,0,91034,91179,0.3,0.8 S,0,91034,91614,0.8,1 F,0,91179,91614,1,0
Sprite,Foreground,Centre,"light.png",538,365 C,0,91227,,255,255,255 S,0,91227,91372,0.3,0.8 S,0,91227,91807,0.8,1 F,0,91372,91807,1,0
Sprite,Foreground,Centre,"light.png",402,340 C,0,91421,,255,255,255 S,0,91421,91566,0.3,0.8 S,0,91421,92001,0.8,1 F,0,91566,92001,1,0
Sprite,Foreground,Centre,"light.png",563,288 C,0,91615,,255,255,255 S,0,91615,91760,0.3,0.8 S,0,91615,92195,0.8,1 F,0,91760,92195,1,0
Sprite,Foreground,Centre,"light.png",452,186 C,0,91808,,255,255,255 S,0,91808,91953,0.3,0.8 S,0,91808,92388,0.8,1 F,0,91953,92388,1,0
Sprite,Foreground,Centre,"light.png",377,175 C,0,92001,,255,255,255 S,0,92001,92146,0.3,0.8 S,0,92001,92581,0.8,1 F,0,92146,92581,1,0
Sprite,Foreground,Centre,"light.png",266,304 C,0,92195,,255,255,255 S,0,92195,92340,0.3,0.8 S,0,92195,92775,0.8,1 F,0,92340,92775,1,0
Sprite,Foreground,Centre,"light.png",340,292 C,0,92388,,255,255,255 S,0,92388,92533,0.3,0.8 S,0,92388,92968,0.8,1 F,0,92533,92968,1,0
Sprite,Foreground,Centre,"light.png",469,267 C,0,92582,,255,255,255 S,0,92582,92727,0.3,0.8 S,0,92582,93162,0.8,1 F,0,92727,93162,1,0
Sprite,Foreground,Centre,"light.png",427,378 C,0,92776,,255,255,255 S,0,92776,92921,0.3,0.8 S,0,92776,93356,0.8,1 F,0,92921,93356,1,0
Sprite,Foreground,Centre,"light.png",310,219 C,0,92969,,255,255,255 S,0,92969,93114,0.3,0.8 S,0,92969,93549,0.8,1 F,0,93114,93549,1,0
Sprite,Foreground,Centre,"light.png",235,228 C,0,93162,,255,255,255 S,0,93162,93307,0.3,0.8 S,0,93162,93742,0.8,1 F,0,93307,93742,1,0
Sprite,Foreground,Centre,"light.png",186,236 C,0,93260,,255,255,255 S,0,93260,93405,0.3,0.8 S,0,93260,93840,0.8,1 F,0,93405,93840,1,0
Sprite,Foreground,Centre,"light.png",186,236 C,0,93357,,255,255,255 S,0,93357,93502,0.3,0.8 S,0,93357,93937,0.8,1 F,0,93502,93937,1,0
Sprite,Foreground,Centre,"light.png",142,349 C,0,93550,,255,255,255 S,0,93550,93695,0.3,0.8 S,0,93550,94130,0.8,1 F,0,93695,94130,1,0
Sprite,Foreground,Centre,"light.png",73,251 C,0,93744,,255,255,255 S,0,93744,93889,0.3,0.8 S,0,93744,94324,0.8,1 F,0,93889,94324,1,0
Sprite,Foreground,Centre,"light.png",233,314 C,0,93937,,255,255,255 S,0,93937,94082,0.3,0.8 S,0,93937,94517,0.8,1 F,0,94082,94517,1,0
Sprite,Foreground,Centre,"light.png",174,129 C,0,94131,,255,255,255 S,0,94131,94276,0.3,0.8 S,0,94131,94711,0.8,1 F,0,94276,94711,1,0
Sprite,Foreground,Centre,"light.png",117,175 C,0,94324,,255,255,255 S,0,94324,94469,0.3,0.8 S,0,94324,94904,0.8,1 F,0,94469,94904,1,0
Sprite,Foreground,Centre,"light.png",233,314 C,0,94518,,255,255,255 S,0,94518,94663,0.3,0.8 S,0,94518,95098,0.8,1 F,0,94663,95098,1,0
Sprite,Foreground,Centre,"light.png",307,306 C,0,94711,,255,255,255 S,0,94711,94856,0.3,0.8 S,0,94711,95291,0.8,1 F,0,94856,95291,1,0
Sprite,Foreground,Centre,"light.png",465,287 C,0,94905,,255,255,255 S,0,94905,95050,0.3,0.8 S,0,94905,95485,0.8,1 F,0,95050,95485,1,0
Sprite,Foreground,Centre,"light.png",465,287 C,0,95002,,255,255,255 S,0,95002,95147,0.3,0.8 S,0,95002,95582,0.8,1 F,0,95147,95582,1,0
Sprite,Foreground,Centre,"light.png",465,287 C,0,95098,,255,255,255 S,0,95098,95243,0.3,0.8 S,0,95098,95678,0.8,1 F,0,95243,95678,1,0
Sprite,Foreground,Centre,"light.png",366,180 C,0,95292,,255,255,255 S,0,95292,95437,0.3,0.8 S,0,95292,95872,0.8,1 F,0,95437,95872,1,0
Sprite,Foreground,Centre,"light.png",379,253 C,0,95485,,255,255,255 S,0,95485,95630,0.3,0.8 S,0,95485,96065,0.8,1 F,0,95630,96065,1,0
Sprite,Foreground,Centre,"light.png",416,408 C,0,95679,,255,255,255 S,0,95679,95824,0.3,0.8 S,0,95679,96259,0.8,1 F,0,95824,96259,1,0
Sprite,Foreground,Centre,"light.png",300,332 C,0,95873,,255,255,255 S,0,95873,96018,0.3,0.8 S,0,95873,96453,0.8,1 F,0,96018,96453,1,0
Sprite,Foreground,Centre,"light.png",483,366 C,0,96066,,255,255,255 S,0,96066,96211,0.3,0.8 S,0,96066,96646,0.8,1 F,0,96211,96646,1,0
Sprite,Foreground,Centre,"light.png",557,358 C,0,96259,,255,255,255 S,0,96259,96404,0.3,0.8 S,0,96259,96839,0.8,1 F,0,96404,96839,1,0
Sprite,Foreground,Centre,"light.png",392,328 C,0,96453,,255,255,255 S,0,96453,96598,0.3,0.8 S,0,96453,97033,0.8,1 F,0,96598,97033,1,0
Sprite,Foreground,Centre,"light.png",465,194 C,0,96647,,255,255,255 S,0,96647,96792,0.3,0.8 S,0,96647,97227,0.8,1 F,0,96792,97227,1,0
Sprite,Foreground,Centre,"light.png",327,204 C,0,96840,,255,255,255 S,0,96840,96985,0.3,0.8 S,0,96840,97420,0.8,1 F,0,96985,97420,1,0
Sprite,Foreground,Centre,"light.png",252,195 C,0,97033,,255,255,255 S,0,97033,97178,0.3,0.8 S,0,97033,97613,0.8,1 F,0,97178,97613,1,0
Sprite,Foreground,Centre,"light.png",68,219 C,0,97227,,255,255,255 S,0,97227,97372,0.3,0.8 S,0,97227,97807,0.8,1 F,0,97372,97807,1,0
Sprite,Foreground,Centre,"light.png",155,349 C,0,97421,,255,255,255 S,0,97421,97566,0.3,0.8 S,0,97421,98001,0.8,1 F,0,97566,98001,1,0
Sprite,Foreground,Centre,"light.png",161,192 C,0,97615,,255,255,255 S,0,97615,97760,0.3,0.8 S,0,97615,98195,0.8,1 F,0,97760,98195,1,0
Sprite,Foreground,Centre,"light.png",64,316 C,0,97809,,255,255,255 S,0,97809,97954,0.3,0.8 S,0,97809,98389,0.8,1 F,0,97954,98389,1,0
Sprite,Foreground,Centre,"light.png",215,272 C,0,98002,,255,255,255 S,0,98002,98147,0.3,0.8 S,0,98002,98582,0.8,1 F,0,98147,98582,1,0
Sprite,Foreground,Centre,"light.png",289,284 C,0,98195,,255,255,255 S,0,98195,98340,0.3,0.8 S,0,98195,98775,0.8,1 F,0,98340,98775,1,0
Sprite,Foreground,Centre,"light.png",373,382 C,0,98389,,255,255,255 S,0,98389,98534,0.3,0.8 S,0,98389,98969,0.8,1 F,0,98534,98969,1,0
Sprite,Foreground,Centre,"light.png",298,394 C,0,98582,,255,255,255 S,0,98582,98727,0.3,0.8 S,0,98582,99162,0.8,1 F,0,98727,99162,1,0
Sprite,Foreground,Centre,"light.png",368,297 C,0,98776,,255,255,255 S,0,98776,98921,0.3,0.8 S,0,98776,99356,0.8,1 F,0,98921,99356,1,0
Sprite,Foreground,Centre,"light.png",405,304 C,0,98872,,255,255,255 S,0,98872,99017,0.3,0.8 S,0,98872,99452,0.8,1 F,0,99017,99452,1,0
Sprite,Foreground,Centre,"light.png",435,326 C,0,98969,,255,255,255 S,0,98969,99114,0.3,0.8 S,0,98969,99549,0.8,1 F,0,99114,99549,1,0
Sprite,Foreground,Centre,"light.png",453,359 C,0,99066,,255,255,255 S,0,99066,99211,0.3,0.8 S,0,99066,99646,0.8,1 F,0,99211,99646,1,0
Sprite,Foreground,Centre,"light.png",455,396 C,0,99163,,255,255,255 S,0,99163,99308,0.3,0.8 S,0,99163,99743,0.8,1 F,0,99308,99743,1,0
Sprite,Foreground,Centre,"light.png",491,402 C,0,99259,,255,255,255 S,0,99259,99404,0.3,0.8 S,0,99259,99839,0.8,1 F,0,99404,99839,1,0
Sprite,Foreground,Centre,"light.png",575,329 C,0,99357,,255,255,255 S,0,99357,99502,0.3,0.8 S,0,99357,99937,0.8,1 F,0,99502,99937,1,0
Sprite,Foreground,Centre,"light.png",538,335 C,0,99453,,255,255,255 S,0,99453,99598,0.3,0.8 S,0,99453,100033,0.8,1 F,0,99598,100033,1,0
Sprite,Foreground,Centre,"light.png",496,271 C,0,99550,,255,255,255 S,0,99550,99695,0.3,0.8 S,0,99550,100130,0.8,1 F,0,99695,100130,1,0
Sprite,Foreground,Centre,"light.png",494,241 C,0,99646,,255,255,255 S,0,99646,99791,0.3,0.8 S,0,99646,100226,0.8,1 F,0,99791,100226,1,0
Sprite,Foreground,Centre,"light.png",493,211 C,0,99743,,255,255,255 S,0,99743,99888,0.3,0.8 S,0,99743,100323,0.8,1 F,0,99888,100323,1,0
Sprite,Foreground,Centre,"light.png",491,181 C,0,99840,,255,255,255 S,0,99840,99985,0.3,0.8 S,0,99840,100420,0.8,1 F,0,99985,100420,1,0
Sprite,Foreground,Centre,"light.png",490,151 C,0,99937,,255,255,255 S,0,99937,100082,0.3,0.8 S,0,99937,100517,0.8,1 F,0,100082,100517,1,0
Sprite,Foreground,Centre,"light.png",457,133 C,0,100033,,255,255,255 S,0,100033,100178,0.3,0.8 S,0,100033,100613,0.8,1 F,0,100178,100613,1,0
Sprite,Foreground,Centre,"light.png",367,168 C,0,100131,,255,255,255 S,0,100131,100276,0.3,0.8 S,0,100131,100711,0.8,1 F,0,100276,100711,1,0
Sprite,Foreground,Centre,"light.png",400,185 C,0,100227,,255,255,255 S,0,100227,100372,0.3,0.8 S,0,100227,100807,0.8,1 F,0,100372,100807,1,0
Sprite,Foreground,Centre,"light.png",496,271 C,0,100324,,255,255,255 S,0,100324,100469,0.3,0.8 S,0,100324,100904,0.8,1 F,0,100469,100904,1,0
Sprite,Foreground,Centre,"light.png",362,391 C,0,100615,,255,255,255 S,0,100615,100760,0.3,0.8 S,0,100615,101195,0.8,1 F,0,100760,101195,1,0
Sprite,Foreground,Centre,"light.png",209,208 C,0,100905,,255,255,255 S,0,100905,101050,0.3,0.8 S,0,100905,101485,0.8,1 F,0,101050,101485,1,0
Sprite,Foreground,Centre,"light.png",269,282 C,0,101292,,255,255,255 S,0,101292,101437,0.3,0.8 S,0,101292,101872,0.8,1 F,0,101437,101872,1,0
Sprite,Foreground,Centre,"light.png",288,104 C,0,101486,,255,255,255 S,0,101486,101631,0.3,0.8 S,0,101486,102066,0.8,1 F,0,101631,102066,1,0
Sprite,Foreground,Centre,"light.png",125,175 C,0,101679,,255,255,255 S,0,101679,101824,0.3,0.8 S,0,101679,102259,0.8,1 F,0,101824,102259,1,0
Sprite,Foreground,Centre,"light.png",227,188 C,0,101873,,255,255,255 S,0,101873,102018,0.3,0.8 S,0,101873,102453,0.8,1 F,0,102018,102453,1,0
Sprite,Foreground,Centre,"bubble.png",320,240 S,0,64711,,0.7284255 F,0,64711,64808,0,0.884841 M,1,64711,66840,-144.7756,480.1758,-144.7756,289.7686
Sprite,Foreground,Centre,"bubble.png",320,240 S,0,64911,,0.68203 F,0,64911,65008,0,0.8613276 M,1,64911,67040,-50.55547,489.832,-50.55547,260.3512
Sprite,Foreground,Centre,"bubble.png",320,240 S,0,65111,,0.6198456 F,0,65111,65208,0,0.8892486 M,1,65111,67240,177.1263,472.2307,177.1263,281.4631
Sprite,Foreground,Centre,"bubble.png",320,240 S,0,65311,,0.6476125 F,0,65311,65408,0,0.8504938 M,1,65311,67440,519.1969,489.6721,519.1969,285.0161
Sprite,Foreground,Centre,"bubble.png",320,240 S,0,65511,,0.6702927 F,0,65511,65608,0,0.8250995 M,1,65511,67640,591.1564,425.4664,591.1564,262.4581
Sprite,Foreground,Centre,"bubble.png",320,240 S,0,65711,,0.6478007 F,0,65711,65808,0,0.8385996 M,1,65711,67840,638.2831,472.0082,638.2831,281.965
Sprite,Foreground,Centre,"bubble.png",320,240 S,0,65911,,0.6373881 F,0,65911,66008,0,0.8125515 M,1,65911,68040,506.7994,400.1947,506.7994,276.288
Sprite,Foreground,Centre,"bubble.png",320,240 S,0,66111,,0.7366406 F,0,66111,66208,0,0.8222795 M,1,66111,68240,-145.2549,492.691,-145.2549,290.5152
Sprite,Foreground,Centre,"bubble.png",320,240 S,0,66311,,0.70366 F,0,66311,66408,0,0.8586777 M,1,66311,68440,-0.1050636,446.8606,-0.1050636,287.2144
Sprite,Foreground,Centre,"bubble.png",320,240 S,0,66511,,0.6849766 F,0,66511,66608,0,0.8853318 M,1,66511,68640,528.4137,470.3828,528.4137,284.5841
Sprite,Foreground,Centre,"bubble.png",320,240 S,0,66711,,0.708334 F,0,66711,66808,0,0.8818674 M,1,66711,68840,34.10595,475.6803,34.10595,286.0599
Sprite,Foreground,Centre,"bubble.png",320,240 S,0,66911,,0.7480927 F,0,66911,67008,0,0.865732 M,1,66911,69040,157.9988,440.6021,157.9988,264.3789
Sprite,Foreground,Centre,"bubble.png",320,240 S,0,67111,,0.6278505 F,0,67111,67208,0,0.8829986 M,1,67111,69240,139.8471,441.5575,139.8471,251.7901
Sprite,Foreground,Centre,"bubble.png",320,240 S,0,67311,,0.7487539 F,0,67311,67408,0,0.8305965 M,1,67311,69440,530.6867,416.323,530.6867,257.4527
Sprite,Foreground,Centre,"bubble.png",320,240 S,0,67511,,0.6923333 F,0,67511,67608,0,0.8496026 M,1,67511,69640,301.3295,447.4496,301.3295,282.8023
Sprite,Foreground,Centre,"bubble.png",320,240 S,0,67711,,0.7321125 F,0,67711,67808,0,0.8661805 M,1,67711,69840,172.1273,449.6591,172.1273,289.0889
Sprite,Foreground,Centre,"bubble.png",320,240 S,0,67911,,0.7434524 F,0,67911,68008,0,0.8650045 M,1,67911,70040,-115.9546,457.6561,-115.9546,273.8901
Sprite,Foreground,Centre,"bubble.png",320,240 S,0,68111,,0.6713766 F,0,68111,68208,0,0.8628945 M,1,68111,70240,428.6795,405.9498,428.6795,252.3644
Sprite,Foreground,Centre,"bubble.png",320,240 S,0,68311,,0.664654 F,0,68311,68408,0,0.8999302 M,1,68311,70440,452.5392,417.2058,452.5392,284.1605
Sprite,Foreground,Centre,"bubble.png",320,240 S,0,68511,,0.6742346 F,0,68511,68608,0,0.8281289 M,1,68511,70640,322.6262,482.8316,322.6262,280.8648
Sprite,Foreground,Centre,"bubble.png",320,240 S,0,68711,,0.6874888 F,0,68711,68808,0,0.8448623 M,1,68711,70840,-148.6269,459.5541,-148.6269,265.1081
Sprite,Foreground,Centre,"bubble.png",320,240 S,0,68911,,0.7291235 F,0,68911,69008,0,0.8923528 M,1,68911,71040,640.562,449.2069,640.562,267.3066
Sprite,Foreground,Centre,"bubble.png",320,240 S,0,69111,,0.6183825 F,0,69111,69208,0,0.8176593 M,1,69111,71240,382.2385,437.3673,382.2385,266.8031
Sprite,Foreground,Centre,"bubble.png",320,240 S,0,69311,,0.7445708 F,0,69311,69408,0,0.8193023 M,1,69311,71440,562.7921,456.8018,562.7921,255.619
Sprite,Foreground,Centre,"bubble.png",320,240 S,0,69511,,0.7266943 F,0,69511,69608,0,0.8387815 M,1,69511,71640,113.8988,479.9815,113.8988,260.7218
Sprite,Foreground,Centre,"bubble.png",320,240 S,0,69711,,0.7468154 F,0,69711,69808,0,0.8471749 M,1,69711,71840,667.2678,432.8087,667.2678,252.7078
Sprite,Foreground,Centre,"bubble.png",320,240 S,0,69911,,0.714587 F,0,69911,70008,0,0.8945349 M,1,69911,72040,-22.12481,493.3112,-22.12481,258.4585
Sprite,Foreground,Centre,"bubble.png",320,240 S,0,70111,,0.6855736 F,0,70111,70208,0,0.8078752 M,1,70111,72240,323.1649,498.5869,323.1649,268.5926
Sprite,Foreground,Centre,"bubble.png",320,240 S,0,70311,,0.6668935 F,0,70311,70408,0,0.8491802 M,1,70311,72440,585.6872,430.7559,585.6872,279.0434
Sprite,Foreground,Centre,"bubble.png",320,240 S,0,70511,,0.6281752 F,0,70511,70608,0,0.8773574 M,1,70511,72640,-140.3147,461.013,-140.3147,257.6943
Sprite,Foreground,Centre,"bubble.png",320,240 S,0,70711,,0.6230805 F,0,70711,70808,0,0.8631045 M,1,70711,72840,459.4381,412.1404,459.4381,277.2401
Sprite,Foreground,Centre,"bubble.png",320,240 S,0,70911,,0.6297552 F,0,70911,71008,0,0.8942566 M,1,70911,73040,141.5003,483.4828,141.5003,276.0366
Sprite,Foreground,Centre,"bubble.png",320,240 S,0,71111,,0.748906 F,0,71111,71208,0,0.8088203 M,1,71111,73240,-107.84,456.8078,-107.84,268.8617
Sprite,Foreground,Centre,"bubble.png",320,240 S,0,71311,,0.7329179 F,0,71311,71408,0,0.868412 M,1,71311,73440,384.5332,458.804,384.5332,280.9438
Sprite,Foreground,Centre,"bubble.png",320,240 S,0,71511,,0.6857519 F,0,71511,71608,0,0.8272067 M,1,71511,73640,546.6797,498.8592,546.6797,256.6087
Sprite,Foreground,Centre,"bubble.png",320,240 S,0,71711,,0.7000101 F,0,71711,71808,0,0.8649564 M,1,71711,73840,377.8529,410.2733,377.8529,297.1594
Sprite,Foreground,Centre,"bubble.png",320,240 S,0,71911,,0.6354746 F,0,71911,72008,0,0.856741 M,1,71911,74040,103.183,411.7531,103.183,265.4121
Sprite,Foreground,Centre,"bubble.png",320,240 S,0,72111,,0.70053 F,0,72111,72208,0,0.815361 M,1,72111,74240,342.8644,495.0814,342.8644,275.5645
Sprite,Foreground,Centre,"bubble.png",320,240 S,0,72311,,0.6269191 F,0,72311,72408,0,0.8621483 M,1,72311,74440,337.0169,414.6226,337.0169,279.3935
Sprite,Foreground,Centre,"bubble.png",320,240 S,0,72511,,0.7115065 F,0,72511,72608,0,0.8656564 M,1,72511,74640,655.9625,489.2971,655.9625,277.9081
Sprite,Foreground,Centre,"bubble.png",320,240 S,0,72711,,0.7117371 F,0,72711,72808,0,0.8844095 M,1,72711,74840,56.70977,443.3064,56.70977,278.2076
Sprite,Foreground,Centre,"bubble.png",320,240 S,0,72911,,0.6503613 F,0,72911,73008,0,0.8883085 M,1,72911,75040,606.7025,497.635,606.7025,271.2343
Sprite,Foreground,Centre,"bubble.png",320,240 S,0,73111,,0.6371921 F,0,73111,73208,0,0.8723767 M,1,73111,75240,502.4293,408.4304,502.4293,287.3465
Sprite,Foreground,Centre,"bubble.png",320,240 S,0,73311,,0.6564063 F,0,73311,73408,0,0.880236 M,1,73311,75440,334.8012,435.5999,334.8012,284.1693
Sprite,Foreground,Centre,"bubble.png",320,240 S,0,73511,,0.6055984 F,0,73511,73608,0,0.826441 M,1,73511,75640,82.03197,485.8878,82.03197,258.9554
Sprite,Foreground,Centre,"bubble.png",320,240 S,0,73711,,0.6029297 F,0,73711,73808,0,0.81538 M,1,73711,75840,452.2301,470.9519,452.2301,278.6494
Sprite,Foreground,Centre,"bubble.png",320,240 S,0,73911,,0.6306672 F,0,73911,74008,0,0.8173656 M,1,73911,76040,18.0918,442.7279,18.0918,274.2279
Sprite,Foreground,Centre,"bubble.png",320,240 S,0,74111,,0.7473365 F,0,74111,74208,0,0.8036696 M,1,74111,76240,209.7117,406.5211,209.7117,274.0706
Sprite,Foreground,Centre,"bubble.png",320,240 S,0,74311,,0.6530511 F,0,74311,74408,0,0.8100834 M,1,74311,76440,47.65522,456.479,47.65522,256.4039
Sprite,Foreground,Centre,"bubble.png",320,240 S,0,74511,,0.6638086 F,0,74511,74608,0,0.8298249 M,1,74511,76640,557.4309,482.5105,557.4309,263.2348
Sprite,Foreground,Centre,"bubble.png",320,240 S,0,74711,,0.656042 F,0,74711,74808,0,0.860856 M,1,74711,76840,619.7306,407.5451,619.7306,295.1294
Sprite,Foreground,Centre,"bubble.png",320,240 S,0,74911,,0.6511191 F,0,74911,75008,0,0.848534 M,1,74911,77040,295.6432,459.3619,295.6432,275.5539
Sprite,Foreground,Centre,"bubble.png",320,240 S,0,75111,,0.6137548 F,0,75111,75208,0,0.8495113 M,1,75111,77240,258.4375,479.004,258.4375,252.2368
Sprite,Foreground,Centre,"bubble.png",320,240 S,0,75311,,0.685124 F,0,75311,75408,0,0.8582247 M,1,75311,77440,275.6046,467.2869,275.6046,263.4693
Sprite,Foreground,Centre,"bubble.png",320,240 S,0,75511,,0.7267649 F,0,75511,75608,0,0.86492 M,1,75511,77640,52.54926,465.7833,52.54926,282.8001
Sprite,Foreground,Centre,"bubble.png",320,240 S,0,75711,,0.6659944 F,0,75711,75808,0,0.8722789 M,1,75711,77840,452.9212,405.8887,452.9212,268.899
Sprite,Foreground,Centre,"bubble.png",320,240 S,0,75911,,0.6541284 F,0,75911,76008,0,0.8190608 M,1,75911,78040,609.1936,405.6315,609.1936,260.4395
Sprite,Foreground,Centre,"bubble.png",320,240 S,0,76111,,0.7419643 F,0,76111,76208,0,0.8999391 M,1,76111,78240,474.5948,436.4834,474.5948,283.7925
Sprite,Foreground,Centre,"bubble.png",320,240 S,0,76311,,0.6570132 F,0,76311,76408,0,0.8147012 M,1,76311,78440,356.3504,475.7062,356.3504,251.3382
Sprite,Foreground,Centre,"bubble.png",320,240 S,0,76511,,0.7363512 F,0,76511,76608,0,0.8461115 M,1,76511,78640,328.7714,457.1068,328.7714,273.621
Sprite,Foreground,Centre,"bubble.png",320,240 S,0,76711,,0.6946239 F,0,76711,76808,0,0.8768954 M,1,76711,78840,452.6855,415.7462,452.6855,251.5932
Sprite,Foreground,Centre,"bubble.png",320,240 S,0,76911,,0.6407067 F,0,76911,77008,0,0.849366 M,1,76911,79040,-12.11088,459.4512,-12.11088,294.1911
Sprite,Foreground,Centre,"bubble.png",320,240 S,0,77111,,0.6325117 F,0,77111,77208,0,0.851813 M,1,77111,79240,19.84859,416.314,19.84859,272.589
Sprite,Foreground,Centre,"bubble.png",320,240 S,0,77311,,0.6930991 F,0,77311,77408,0,0.8936518 M,1,77311,79440,181.734,444.0736,181.734,258.6101
Sprite,Foreground,Centre,"bubble.png",320,240 S,0,77511,,0.6255076 F,0,77511,77608,0,0.8911856 M,1,77511,79640,17.205,406.7208,17.205,289.1487
Sprite,Foreground,Centre,"bubble.png",320,240 S,0,77711,,0.7310315 F,0,77711,77808,0,0.8084442 M,1,77711,79840,522.1358,471.1312,522.1358,259.2691
Sprite,Foreground,Centre,"bubble.png",320,240 S,0,77911,,0.7168606 F,0,77911,78008,0,0.8891076 M,1,77911,80040,487.7783,453.5067,487.7783,272.5455
Sprite,Foreground,Centre,"bubble.png",320,240 S,0,78111,,0.7017393 F,0,78111,78208,0,0.8124098 M,1,78111,80240,-93.28675,456.8192,-93.28675,286.9161
Sprite,Foreground,Centre,"bubble.png",320,240 S,0,78311,,0.6964157 F,0,78311,78408,0,0.8783506 M,1,78311,80440,-1.239339,416.5012,-1.239339,294.4077
Sprite,Foreground,Centre,"bubble.png",320,240 S,0,78511,,0.6403776 F,0,78511,78608,0,0.8353512 M,1,78511,80640,155.0529,450.1074,155.0529,268.1013
Sprite,Foreground,Centre,"bubble.png",320,240 S,0,78711,,0.6787892 F,0,78711,78808,0,0.8447608 M,1,78711,80840,-67.95206,494.2888,-67.95206,279.4295
Sprite,Foreground,Centre,"bubble.png",320,240 S,0,78911,,0.6590058 F,0,78911,79008,0,0.8777778 M,1,78911,81040,294.4499,404.0694,294.4499,299.9106
Sprite,Foreground,Centre,"bubble.png",320,240 S,0,79111,,0.6703983 F,0,79111,79208,0,0.8899531 M,1,79111,81240,-136.9005,475.9153,-136.9005,297.8716
Sprite,Foreground,Centre,"bubble.png",320,240 S,0,79311,,0.7120242 F,0,79311,79408,0,0.8156791 M,1,79311,81440,-76.98642,495.2648,-76.98642,280.4374
Sprite,Foreground,Centre,"bubble.png",320,240 S,0,79511,,0.6802445 F,0,79511,79608,0,0.8182672 M,1,79511,81640,64.40496,403.9521,64.40496,281.4173
Sprite,Foreground,Centre,"bubble.png",320,240 S,0,79711,,0.7155862 F,0,79711,79808,0,0.8122757 M,1,79711,81840,269.646,476.3264,269.646,272.8086
Sprite,Foreground,Centre,"bubble.png",320,240 S,0,79911,,0.6365253 F,0,79911,80008,0,0.8333575 M,1,79911,82040,366.4135,425.0016,366.4135,289.7563
Sprite,Foreground,Centre,"bubble.png",320,240 S,0,80111,,0.6959476 F,0,80111,80208,0,0.8321591 M,1,80111,82240,584.1686,405.2903,584.1686,257.5465
Sprite,Foreground,Centre,"bubble.png",320,240 S,0,80311,,0.7312512 F,0,80311,80408,0,0.8200125 M,1,80311,82440,266.3662,419.1222,266.3662,283.0928
Sprite,Foreground,Centre,"bubble.png",320,240 S,0,80511,,0.7229608 F,0,80511,80608,0,0.8846478 M,1,80511,82640,311.5412,410.3444,311.5412,279.7801
Sprite,Foreground,Centre,"bubble.png",320,240 S,0,80711,,0.7206233 F,0,80711,80808,0,0.874953 M,1,80711,82840,640.3101,468.931,640.3101,271.7156
Sprite,Foreground,Centre,"bubble.png",320,240 S,0,80911,,0.6392276 F,0,80911,81008,0,0.8278747 M,1,80911,83040,516.1023,467.1958,516.1023,277.1099
Sprite,Foreground,Centre,"bubble.png",320,240 S,0,81111,,0.6360471 F,0,81111,81208,0,0.8712673 M,1,81111,83240,182.6784,494.0075,182.6784,296.192
Sprite,Foreground,Centre,"bubble.png",320,240 S,0,81311,,0.6672304 F,0,81311,81408,0,0.8452702 M,1,81311,83440,635.2239,465.1783,635.2239,270.1194
Sprite,Foreground,Centre,"bubble.png",320,240 S,0,81511,,0.7127473 F,0,81511,81608,0,0.8423833 M,1,81511,83640,599.7001,442.3314,599.7001,285.0795
Sprite,Foreground,Centre,"bubble.png",320,240 S,0,81711,,0.6440471 F,0,81711,81808,0,0.8351917 M,1,81711,83840,119.7301,484.0651,119.7301,263.3423
Sprite,Foreground,Centre,"bubble.png",320,240 S,0,81911,,0.698397 F,0,81911,82008,0,0.8972179 M,1,81911,84040,512.2906,498.0862,512.2906,286.7962
Sprite,Foreground,Centre,"bubble.png",320,240 S,0,82111,,0.6203114 F,0,82111,82208,0,0.8539273 M,1,82111,84240,659.282,473.7071,659.282,288.257
Sprite,Foreground,Centre,"bubble.png",320,240 S,0,82311,,0.6636564 F,0,82311,82408,0,0.8446724 M,1,82311,84440,-48.27214,474.425,-48.27214,291.6534
Sprite,Foreground,Centre,"bubble.png",320,240 S,0,82511,,0.6911038 F,0,82511,82608,0,0.8715015 M,1,82511,84640,461.169,496.2407,461.169,259.108
Sprite,Foreground,Centre,"bubble.png",320,240 S,0,82711,,0.6364635 F,0,82711,82808,0,0.8803691 M,1,82711,84840,-89.93224,477.4387,-89.93224,285.3516
Sprite,Foreground,Centre,"bubble.png",320,240 S,0,82911,,0.7198793 F,0,82911,83008,0,0.8370581 M,1,82911,85040,-107.9809,475.2294,-107.9809,264.3115
Sprite,Foreground,Centre,"bubble.png",320,240 S,0,83111,,0.7140726 F,0,83111,83208,0,0.8743814 M,1,83111,85240,141.6068,471.3322,141.6068,266.4877
Sprite,Foreground,Centre,"bubble.png",320,240 S,0,83311,,0.6768615 F,0,83311,83408,0,0.8498216 M,1,83311,85440,570.9587,425.2765,570.9587,296.968
Sprite,Foreground,Centre,"bubble.png",320,240 S,0,83511,,0.7349591 F,0,83511,83608,0,0.8016896 M,1,83511,85640,-42.32073,483.9757,-42.32073,279.4286
Sprite,Foreground,Centre,"bubble.png",320,240 S,0,83711,,0.6066883 F,0,83711,83808,0,0.8101383 M,1,83711,85840,314.6373,465.9463,314.6373,279.8578
Sprite,Foreground,Centre,"bubble.png",320,240 S,0,83911,,0.6773344 F,0,83911,84008,0,0.8410235 M,1,83911,86040,-26.91068,469.3911,-26.91068,278.8613
Sprite,Foreground,Centre,"bubble.png",320,240 S,0,84111,,0.6313559 F,0,84111,84208,0,0.8541908 M,1,84111,86240,141.5443,401.3157,141.5443,262.0666
Sprite,Foreground,Centre,"bubble.png",320,240 S,0,84311,,0.7153365 F,0,84311,84408,0,0.8333839 M,1,84311,86440,696.2365,483.6723,696.2365,251.363
Sprite,Foreground,Centre,"bubble.png",320,240 S,0,84511,,0.6343939 F,0,84511,84608,0,0.867923 M,1,84511,86640,-97.94566,460.0617,-97.94566,253.9776
Sprite,Foreground,Centre,"bubble.png",320,240 S,0,84711,,0.6088183 F,0,84711,84808,0,0.8544627 M,1,84711,86840,632.1119,467.919,632.1119,252.8794
Sprite,Foreground,Centre,"bubble.png",320,240 S,0,84911,,0.7080941 F,0,84911,85008,0,0.8580428 M,1,84911,87040,487.3736,474.228,487.3736,285.7974
Sprite,Foreground,Centre,"bubble.png",320,240 S,0,85111,,0.6512603 F,0,85111,85208,0,0.8843514 M,1,85111,87240,-135.3875,401.001,-135.3875,275.1356
Sprite,Foreground,Centre,"bubble.png",320,240 S,0,85311,,0.6039446 F,0,85311,85408,0,0.8055305 M,1,85311,87440,638.863,421.2912,638.863,287.5944
Sprite,Foreground,Centre,"bubble.png",320,240 S,0,85511,,0.7404464 F,0,85511,85608,0,0.8772113 M,1,85511,87640,166.6024,424.6207,166.6024,292.3449
Sprite,Foreground,Centre,"bubble.png",320,240 S,0,85711,,0.7044918 F,0,85711,85808,0,0.89777 M,1,85711,87840,203.3491,461.8174,203.3491,252.321
Sprite,Foreground,Centre,"bubble.png",320,240 S,0,85911,,0.7251522 F,0,85911,86008,0,0.8586385 M,1,85911,88040,361.591,454.8605,361.591,292.2585
Sprite,Foreground,Centre,"bubble.png",320,240 S,0,86111,,0.6076 F,0,86111,86208,0,0.8772932 M,1,86111,88240,394.1402,496.3637,394.1402,272.1886
Sprite,Foreground,Centre,"bubble.png",320,240 S,0,86311,,0.7037652 F,0,86311,86408,0,0.8251841 M,1,86311,88440,539.7859,442.275,539.7859,285.2276
Sprite,Foreground,Centre,"bubble.png",320,240 S,0,86511,,0.7171692 F,0,86511,86608,0,0.8753911 M,1,86511,88640,646.6965,426.6181,646.6965,271.9233
Sprite,Foreground,Centre,"bubble.png",320,240 S,0,86711,,0.6666642 F,0,86711,86808,0,0.8070696 M,1,86711,88840,386.5666,434.9676,386.5666,262.3687
Sprite,Foreground,Centre,"bubble.png",320,240 S,0,86911,,0.6608223 F,0,86911,87008,0,0.8130345 M,1,86911,89040,14.28024,446.4191,14.28024,267.2213
Sprite,Foreground,Centre,"bubble.png",320,240 S,0,87111,,0.6979081 F,0,87111,87208,0,0.8919981 M,1,87111,89240,250.5547,493.4761,250.5547,279.1663
Sprite,Foreground,Centre,"bubble.png",320,240 S,0,87311,,0.6953263 F,0,87311,87408,0,0.8393314 M,1,87311,89440,493.0472,433.1393,493.0472,291.2174
Sprite,Foreground,Centre,"butterfly.png",35.92259,99.61293 L,0,32 V,0,64711,65098,0,0.5,0.5,0.5 V,0,65098,65486,0.5,0.5,0,0.5 R,0,64711,,-0.247742 F,0,88711,89098,1,0 F,0,89098,89486,0
Sprite,Foreground,Centre,"butterfly.png",212.471,31.85164 L,0,32 V,0,64711,65098,0,0.55,0.55,0.55 V,0,65098,65486,0.55,0.55,0,0.55 R,0,64711,,0.3468385 F,0,88711,89098,1,0 F,0,89098,89486,0
Sprite,Foreground,Centre,"butterfly.png",201.5613,67.05808 L,0,32 V,0,64711,65098,0,0.3,0.3,0.3 V,0,65098,65486,0.3,0.3,0,0.3 R,0,64711,,-0.1816777 F,0,88711,89098,1,0 F,0,89098,89486,0
Sprite,Foreground,Centre,"butterfly.png",201.5613,67.05808 L,0,32 V,0,64711,65098,0,0.2,0.2,0.2 V,0,65098,65486,0.2,0.2,0,0.2 M,0,64711,,94.20647,36.50325 R,0,64711,,-0.4789681 F,0,88711,89098,1,0 F,0,89098,89486,0
Sprite,Foreground,Centre,"butterfly.png",201.5613,67.05808 L,0,32 V,0,64711,65098,0,0.2,0.2,0.2 V,0,65098,65486,0.2,0.2,0,0.2 M,0,64711,,124.7613,23.29034 R,0,64711,,-0.1816777 F,0,88711,89098,1,0 F,0,89098,89486,0
Sprite,Foreground,Centre,"fish.png",320,240 S,0,32582,,1.181677 P,0,32582,,H M,0,32582,35292,16.92904,-120.0516,100.5578,194.4232 R,0,32582,35292,1.288258,1.024 F,0,32582,37615,0.2898065 M,0,35292,36840,100.5578,194.4232,192.9071,345.5757 R,0,35292,36840,1.024,0.8588921 M,0,36840,38389,192.9071,345.5757,573.5226,504.2581 R,0,36840,38389,0.8588921,0.495484 F,0,37615,38389,0.2898065,0
Sprite,Foreground,Centre,"fish.png",320,240 R,0,38776,,0.2147098 F,0,38776,43808,0.4095485 M,0,38776,44582,675.0968,141.729,376.9807,20.3355 F,0,43808,44582,0.4095485,0
Sprite,Foreground,Centre,"fish.png",320,240 S,0,38776,,0.2980644 R,0,38776,,0.2147098 F,0,38776,43808,0.4095485 M,0,38776,44582,702.3484,218.529,392.6711,95.48389 F,0,43808,44582,0.4095485,0
Sprite,Foreground,Centre,"fish.png",320,240 F,0,26389,27163,0,0.4118755 M,0,26389,27653,698.7034,217.931,537.1859,245.9911 R,0,26389,29873,-0.388414,-0.08827546 F,0,27163,29873,0.4118755,0.3926051 M,0,27653,29873,537.1859,245.9911,255.784,292.9978 F,0,29873,31615,0.3926051,0.4173793 R,0,29873,32195,-0.08827546,0.05296569 M,0,29873,32582,255.784,292.9978,-116.396,203.6645 F,0,31615,32582,0.4173793,0
Sprite,Foreground,Centre,"fish.png",320,240 F,0,44969,,0.3 P,0,44969,,H M,0,44969,47679,-191.1741,260.6452,47.78923,435.2137 R,0,44969,47679,0,0.2763223 M,0,47679,49227,47.78923,435.2137,184.2893,534.9303 R,0,47679,49227,0.2763223,0.4341625
Sprite,Foreground,Centre,"fish.png",320,240 F,0,44969,,0.3 S,0,44969,,0.3393549 P,0,44969,,H M,0,44969,47679,-169.7031,168.1549,91.55698,352.6331 R,0,44969,47679,0,0.2763223 M,0,47679,49227,91.55698,352.6331,226.375,460.7984 R,0,47679,49227,0.2763223,0.4341625
Sprite,Foreground,Centre,"bubble.png",61.52258,236.6968 L,0,10 S,0,51163,51550,1 S,0,51550,51647,1,1.156903 S,0,51647,51744,1.156903,1 S,0,51744,52318,1 F,0,50776,51550,0,0.5 F,0,51550,62389,0.5 F,0,62389,63163,0.5,0
Sprite,Foreground,Centre,"bubble.png",412.4904,49.23872 L,0,10 S,0,51163,51550,1 S,0,51550,51647,1,1.156903 S,0,51647,51744,1.156903,1 S,0,51744,52318,1 F,0,50776,51550,0,0.5 F,0,51550,62389,0.5 F,0,62389,63163,0.5,0
//Storyboard Sound Samples

[TimingPoints]
1228,387.096774193548,4,2,2,60,1,0
26389,-133.333333333333,4,2,2,40,0,0
32195,-133.333333333333,4,2,2,60,0,0
64711,-100,4,2,2,70,0,1
83195,-100,4,2,2,55,0,1
83679,-100,4,2,2,70,0,1
89486,-100,4,2,2,40,0,0

[Colours]
Combo1 : 255,194,166
Combo2 : 183,111,255
Combo3 : 250,118,168
Combo4 : 106,106,255

[HitObjects]
135,106,1228,6,0,L|143:186,1,75,4|2,0:0|0:0,0:0:0:0:
156,284,1615,2,0,L|118:287,1,37.5,0|2,0:0|0:0,0:0:0:0:
275,214,1905,2,0,L|238:219,1,37.5,2|2,0:0|0:0,0:0:0:0:
328,123,2195,1,2,0:0:0:0:
328,123,2292,1,2,0:0:0:0:
328,123,2389,1,2,0:0:0:0:
363,262,2582,1,2,0:0:0:0:
427,107,2776,6,0,P|417:72|391:44,1,75,4|2,0:0|0:0,0:0:0:0:
396,185,3163,2,0,L|431:196,1,37.5,2|2,0:0|0:0,0:0:0:0:
327,250,3453,2,0,L|363:262,1,37.5,2|2,0:0|1:0,0:0:0:0:
251,192,3744,1,2,0:0:0:0:
251,192,3840,1,2,0:0:0:0:
251,192,3937,1,2,0:0:0:0:
221,333,4131,1,2,0:0:0:0:
126,199,4324,6,0,P|89:205|58:227,1,75,4|2,0:0|0:0,0:0:0:0:
45,366,4711,2,0,L|25:333,1,37.5,2|2,0:0|0:0,0:0:0:0:
143,326,5002,2,0,L|123:293,1,37.5,2|2,0:0|0:0,0:0:0:0:
126,162,5292,1,2,0:0:0:0:
126,162,5389,1,2,0:0:0:0:
126,162,5486,1,2,0:0:0:0:
230,261,5679,1,2,0:0:0:0:
273,110,5873,5,2,0:0:0:0:
332,291,6066,1,2,0:0:0:0:
445,156,6260,1,2,0:0:0:0:
215,177,6453,1,2,0:0:0:0:
387,222,6647,2,0,L|417:244,1,37.5,2|2,0:0|0:0,0:0:0:0:
347,94,6937,2,0,L|377:116,1,37.5,2|2,0:0|0:0,0:0:0:0:
305,198,7227,1,2,0:0:0:0:
147,246,7421,6,0,P|109:246|74:233,1,75,4|2,0:0|0:0,0:0:0:0:
122,105,7808,2,0,L|126:143,1,37.5,2|2,0:0|0:0,0:0:0:0:
218,52,8098,2,0,L|214:89,1,37.5,2|2,0:0|0:0,0:0:0:0:
225,219,8389,1,2,0:0:0:0:
225,219,8486,1,2,0:0:0:0:
225,219,8582,1,2,0:0:0:0:
344,137,8776,1,2,0:0:0:0:
342,302,8969,5,4,0:0:0:0:
225,219,9163,1,2,0:0:0:0:
430,244,9357,2,0,L|477:246,1,37.5,2|2,0:0|0:0,0:0:0:0:
423,133,9647,2,0,L|460:134,1,37.5,2|2,0:0|1:0,0:0:0:0:
321,220,9937,1,2,0:0:0:0:
281,64,10131,1,2,0:0:0:0:
401,48,10324,1,2,0:0:0:0:
268,148,10518,6,0,P|235:163|198:160,1,75,4|2,0:0|0:0,0:0:0:0:
125,38,10905,2,0,L|155:59,1,37.5,2|0,0:0|0:0,0:0:0:0:
59,131,11195,2,0,L|105:130,1,37.5,0|2,0:0|0:0,0:0:0:0:
178,230,11486,1,2,0:0:0:0:
178,230,11582,1,0,0:0:0:0:
178,230,11679,1,2,0:0:0:0:
221,92,11873,1,2,0:0:0:0:
328,217,12066,6,0,L|364:242,3,37.5,2|2|2|2,0:0|0:0|0:0|0:0,0:0:0:0:
399,269,12453,1,2,0:0:0:0:
437,269,12549,1,2,0:0:0:0:
470,253,12646,1,2,0:0:0:0:
493,224,12743,1,2,0:0:0:0:
502,188,12840,2,0,L|497:151,1,37.5,2|2,0:0|0:0,0:0:0:0:
412,112,13034,2,0,L|417:149,1,37.5,2|2,0:0|0:0,0:0:0:0:
437,269,13227,1,6,0:0:0:0:
49,286,13615,6,0,P|82:267|119:262,1,75,6|0,0:0|0:0,0:0:0:0:
199,345,14002,1,8,0:0:0:0:
199,345,14195,1,2,0:0:0:0:
232,231,14389,2,0,P|229:187|212:133,1,75,2|0,0:0|0:0,0:0:0:0:
128,89,14776,1,8,0:0:0:0:
128,89,14969,1,2,0:0:0:0:
22,232,15163,6,0,L|95:217,1,75,0|2,0:0|0:0,0:0:0:0:
232,231,15550,1,8,0:0:0:0:
232,231,15744,1,0,0:0:0:0:
117,127,15937,2,0,L|42:118,1,75,2|0,0:0|0:0,0:0:0:0:
197,58,16324,2,0,L|271:49,1,75,8|0,0:0|0:0,0:0:0:0:
362,196,16711,6,0,P|379:164|387:127,1,75,6|0,0:0|0:0,0:0:0:0:
283,187,17098,1,8,0:0:0:0:
287,224,17194,1,0,0:0:0:0:
308,255,17291,1,2,0:0:0:0:
340,273,17388,1,0,0:0:0:0:
377,274,17486,2,0,L|362:348,1,75,2|0,0:0|0:0,0:0:0:0:
195,336,17873,2,0,P|232:333|268:322,1,75,8|2,0:0|0:0,0:0:0:0:
362,196,18260,5,2,0:0:0:0:
362,348,18453,1,2,0:0:0:0:
209,244,18647,2,0,L|134:234,1,75,8|0,0:0|0:0,0:0:0:0:
34,129,19034,1,2,0:0:0:0:
34,129,19131,1,2,0:0:0:0:
34,129,19227,2,0,L|25:165,1,37.5,2|0,0:0|0:0,0:0:0:0:
46,279,19421,1,10,0:0:0:0:
46,279,19518,1,2,0:0:0:0:
46,279,19615,2,0,L|54:242,1,37.5,2|0,0:0|0:0,0:0:0:0:
125,148,19808,6,0,L|199:138,1,75,6|0,0:0|0:0,0:0:0:0:
303,53,20195,1,8,0:0:0:0:
322,182,20389,1,2,0:0:0:0:
190,53,20582,2,0,L|115:43,1,75,2|2,0:0|0:0,0:0:0:0:
34,129,20969,1,8,0:0:0:0:
128,224,21163,1,2,0:0:0:0:
242,113,21357,6,0,L|245:187,1,75,2|0,0:0|0:0,0:0:0:0:
249,333,21744,1,8,0:0:0:0:
370,264,21937,1,0,0:0:0:0:
198,273,22131,2,0,P|177:304|171:341,1,75,2|0,0:0|0:0,0:0:0:0:
395,332,22518,2,0,P|389:295|370:264,1,75,8|0,0:0|0:0,0:0:0:0:
365,75,22905,6,0,P|301:102|283:182,1,150,2|10,0:0|0:0,0:0:0:0:
363,158,23486,1,2,0:0:0:0:
241,38,23679,1,2,0:0:0:0:
201,196,23873,1,2,0:0:0:0:
364,75,24066,2,0,P|401:83|429:106,1,75,8|2,0:0|0:0,0:0:0:0:
502,256,24453,5,4,0:0:0:0:
287,324,24744,1,4,0:0:0:0:
290,99,25034,1,4,0:0:0:0:
316,175,25421,5,4,0:0:0:0:
179,234,25615,1,4,0:0:0:0:
409,316,25808,1,4,0:0:0:0:
366,122,26002,1,2,0:0:0:0:
211,154,26389,6,0,L|83:142,1,112.500004291535,2|2,0:0|0:0,0:0:0:0:
30,181,26969,1,0,0:0:0:0:
95,225,27163,2,0,L|82:279,1,56.2500021457673,2|0,0:0|0:0,0:0:0:0:
117,349,27550,6,0,P|170:333|226:334,1,112.500004291535,2|2,0:0|0:0,0:0:0:0:
298,366,28131,1,0,0:0:0:0:
355,312,28324,1,2,2:0:0:0:
303,251,28518,2,0,L|247:260,2,56.2500021457673,2|2|2,0:0|0:0|0:0,0:0:0:0:
379,233,29098,6,0,P|390:179|390:122,2,112.500004291535,2|2|2,0:0|0:0|0:0,0:0:0:0:
303,251,30066,1,2,0:0:0:0:
268,180,30260,2,0,L|199:169,1,56.2500021457673,2|0,0:0|0:0,0:0:0:0:
133,183,30647,6,0,P|144:129|187:95,1,112.500004291535,2|2,0:0|0:0,0:0:0:0:
265,86,31227,1,0,0:0:0:0:
332,126,31421,2,0,P|344:151|349:178,2,56.2500021457673,2|2|2,0:0|0:0|0:0,0:0:0:0:
265,86,32002,1,2,0:0:0:0:
387,67,32195,5,2,0:0:0:0:
397,234,32582,2,0,P|373:247|345:252,1,56.2500021457673,8|0,0:0|0:0,0:0:0:0:
399,154,32969,2,0,P|426:158|451:172,1,56.2500021457673,2|0,0:0|0:0,0:0:0:0:
348,327,33357,2,0,P|320:322|295:308,1,56.2500021457673,8|0,0:0|0:0,0:0:0:0:
226,138,33744,5,0,0:0:0:0:
220,166,33841,1,0,0:0:0:0:
213,194,33937,1,0,0:0:0:0:
60,261,34131,2,0,L|5:248,1,56.2500021457673,8|0,0:0|0:0,0:0:0:0:
74,333,34518,1,2,1:0:0:0:
100,324,34614,1,2,0:0:0:0:
121,306,34711,1,2,0:0:0:0:
132,280,34808,1,2,0:0:0:0:
133,252,34905,2,0,L|188:262,1,56.2500021457673,8|0,0:0|0:0,0:0:0:0:
286,350,35292,6,0,L|299:295,1,56.2500021457673,4|0,0:0|0:0,0:0:0:0:
386,199,35679,2,0,L|399:253,1,56.2500021457673,8|0,0:0|0:0,0:0:0:0:
454,354,36066,1,0,0:0:0:0:
481,193,36260,1,0,0:0:0:0:
313,223,36453,1,8,0:0:0:0:
491,276,36647,1,0,0:0:0:0:
428,127,36840,6,0,L|409:106,3,28.1250010728836,2|2|2|2,0:0|0:0|0:0|0:0,0:0:0:0:
385,88,37227,1,2,0:0:0:0:
360,77,37323,1,2,0:0:0:0:
332,72,37420,1,2,0:0:0:0:
304,73,37517,1,2,0:0:0:0:
277,81,37615,2,0,L|247:97,3,28.1250010728836,2|2|2|2,0:0|0:0|0:0|0:0,0:0:0:0:
228,107,38002,2,0,L|203:120,1,28.1250010728836,2|2,0:0|0:0,0:0:0:0:
203,207,38195,2,0,L|227:193,1,28.1250010728836,2|2,0:0|0:0,0:0:0:0:
221,287,38389,6,0,P|194:288|167:280,1,56.2500021457673,6|0,0:0|0:0,0:0:0:0:
292,243,38776,2,0,P|302:263|305:297,1,56.2500021457673,8|0,0:0|0:0,0:0:0:0:
325,168,39163,2,0,P|347:184|364:207,1,56.2500021457673,2|0,0:0|0:0,0:0:0:0:
397,285,39550,1,8,0:0:0:0:
494,198,39744,1,2,0:0:0:0:
364,207,39937,5,0,0:0:0:0:
427,147,40131,1,0,0:0:0:0:
480,282,40324,1,8,0:0:0:0:
502,108,40518,1,0,0:0:0:0:
345,124,40711,2,0,L|289:116,1,56.2500021457673,0|0,0:0|0:0,0:0:0:0:
168,58,41098,1,8,0:0:0:0:
190,199,41292,1,2,0:0:0:0:
32,171,41486,6,0,L|86:157,1,56.2500021457673,6|0,0:0|0:0,0:0:0:0:
190,199,41873,1,8,0:0:0:0:
109,314,42066,2,0,L|111:258,1,56.2500021457673,0|2,0:0|0:0,0:0:0:0:
188,142,42453,2,0,L|189:198,1,56.2500021457673,0|8,0:0|0:0,0:0:0:0:
190,346,42840,1,0,0:0:0:0:
243,274,43034,6,0,L|312:266,1,56.2500021457673,2|0,0:0|0:0,0:0:0:0:
400,218,43421,1,8,0:0:0:0:
392,333,43615,1,2,0:0:0:0:
322,193,43808,1,2,0:0:0:0:
334,168,43904,1,0,0:0:0:0:
355,150,44001,1,0,0:0:0:0:
381,140,44098,1,8,0:0:0:0:
409,140,44195,2,0,L|464:147,1,56.2500021457673,8|2,0:0|0:0,0:0:0:0:
510,288,44582,6,0,L|454:280,1,56.2500021457673,6|0,0:0|0:0,0:0:0:0:
286,338,44969,2,0,P|250:319|232:297,1,56.2500021457673,8|0,0:0|0:0,0:0:0:0:
286,153,45357,2,0,L|288:210,1,56.2500021457673,0|0,0:0|0:0,0:0:0:0:
367,301,45744,2,0,L|369:244,1,56.2500021457673,8|2,0:0|0:0,0:0:0:0:
383,88,46131,5,0,0:0:0:0:
454,211,46324,1,0,0:0:0:0:
287,209,46518,1,8,0:0:0:0:
455,126,46711,1,0,0:0:0:0:
286,122,46905,2,0,P|245:115|228:108,1,56.2500021457673,2|0,0:0|0:0,0:0:0:0:
120,40,47292,1,8,0:0:0:0:
108,182,47486,1,2,0:0:0:0:
26,66,47679,6,0,L|19:93,3,28.1250010728836,0|0|0|0,0:0|0:0|0:0|0:0,0:0:0:0:
16,121,48066,1,8,0:0:0:0:
20,148,48162,1,0,0:0:0:0:
20,176,48259,1,0,0:0:0:0:
16,204,48356,1,0,0:0:0:0:
8,231,48453,2,0,L|3:259,1,28.1250010728836,2|0,0:0|0:0,0:0:0:0:
69,305,48647,2,0,L|74:277,1,28.1250010728836,0|0,0:0|0:0,0:0:0:0:
153,257,48840,2,0,L|147:284,1,28.1250010728836,8|0,0:0|0:0,0:0:0:0:
213,330,49034,2,0,L|218:302,1,28.1250010728836,0|0,0:0|0:0,0:0:0:0:
239,220,49227,5,6,0:0:0:0:
365,314,49518,1,6,0:0:0:0:
343,130,49808,1,6,0:0:0:0:
236,94,50195,5,2,0:0:0:0:
441,69,50389,1,4,0:0:0:0:
329,27,50582,1,6,0:0:0:0:
355,226,50776,1,4,0:0:0:0:
346,252,51163,6,0,L|223:269,1,112.500004291535,2|0,0:0|0:0,0:0:0:0:
156,276,51744,1,2,0:0:0:0:
81,303,51937,2,0,P|81:248|114:204,1,112.500004291535,2|0,0:0|0:0,0:0:0:0:
192,191,52518,1,0,0:0:0:0:
146,127,52711,2,0,L|33:124,1,112.500004291535,8|2,0:0|2:0,0:0:0:0:
2,51,53292,1,2,0:0:0:0:
80,44,53486,2,0,L|136:45,1,56.2500021457673,2|0,0:0|0:0,0:0:0:0:
260,53,53873,1,6,0:0:0:0:
274,87,54260,6,0,L|279:204,1,112.500004291535,2|0,0:0|0:0,0:0:0:0:
283,277,54840,1,2,0:0:0:0:
351,237,55034,2,0,L|427:232,1,56.2500021457673,2|2,0:0|0:0,0:0:0:0:
443,302,55421,2,0,P|480:263|481:208,1,112.500004291535,0|8,0:0|0:0,0:0:0:0:
426,151,56002,1,0,0:0:0:0:
352,123,56195,2,0,L|292:133,1,56.2500021457673,2|2,0:0|0:0,0:0:0:0:
219,150,56582,1,2,0:0:0:0:
150,110,56776,1,0,0:0:0:0:
136,232,56969,1,6,0:0:0:0:
141,275,57357,6,0,P|166:286|194:290,1,56.2500021457673,8|0,0:0|0:0,0:0:0:0:
341,260,57744,2,0,P|315:248|287:244,1,56.2500021457673,0|0,0:0|0:0,0:0:0:0:
80,322,58131,2,0,P|69:296|65:268,1,56.2500021457673,8|0,0:0|0:0,0:0:0:0:
154,133,58518,2,0,P|150:160|138:186,1,56.2500021457673,2|0,0:0|0:0,0:0:0:0:
38,178,58905,1,8,0:0:0:0:
114,65,59098,2,0,P|139:55|167:55,1,56.2500021457673,2|2,0:0|1:0,0:0:0:0:
250,115,59486,1,2,0:0:0:0:
321,22,59679,1,8,0:0:0:0:
334,171,59873,1,0,0:0:0:0:
439,69,60066,6,0,L|442:96,7,28.1250010728836,6|0|0|0|8|0|2|0,0:0|0:0|0:0|0:0|0:0|0:0|0:0|0:0,0:0:0:0:
440,136,60840,2,0,L|436:163,7,28.1250010728836,2|0|2|0|8|0|0|0,0:0|0:0|0:0|0:0|0:0|0:0|0:0|0:0,0:0:0:0:
430,203,61615,5,6,0:0:0:0:
294,322,61905,1,6,0:0:0:0:
288,166,62195,1,6,0:0:0:0:
192,191,62389,6,0,L|166:201,1,28.1250010728836,2|2,0:0|0:0,0:0:0:0:
82,235,62582,2,0,L|107:245,1,28.1250010728836,2|2,0:0|0:0,0:0:0:0:
202,274,62776,2,0,L|176:284,1,28.1250010728836,2|2,0:0|0:0,0:0:0:0:
92,318,62969,2,0,L|117:328,1,28.1250010728836,2|2,0:0|0:0,0:0:0:0:
19,292,63163,5,2,0:0:0:0:
4,269,63259,1,2,0:0:0:0:
0,242,63356,1,2,0:0:0:0:
0,214,63453,1,2,0:0:0:0:
9,189,63550,1,2,0:0:0:0:
28,168,63646,1,2,0:0:0:0:
53,155,63743,1,2,0:0:0:0:
80,150,63840,1,2,0:0:0:0:
108,155,63937,6,0,L|134:165,1,28.1250010728836,2|2,0:0|0:0,0:0:0:0:
192,115,64131,2,0,L|218:104,1,28.1250010728836,2|2,0:0|0:0,0:0:0:0:
267,164,64324,2,0,L|293:174,1,28.1250010728836,2|2,0:0|0:0,0:0:0:0:
350,123,64518,2,0,L|376:112,1,28.1250010728836,2|2,0:0|0:0,0:0:0:0:
471,74,64711,6,0,L|477:148,1,75,6|0,0:0|0:0,0:0:0:0:
404,318,65098,2,0,L|382:246,1,75,8|0,0:0|0:0,0:0:0:0:
277,136,65486,2,0,P|312:124|349:122,1,75,2|0,0:0|0:0,0:0:0:0:
231,248,65873,2,0,P|193:245|158:233,1,75,8|0,0:0|0:0,0:0:0:0:
72,69,66260,5,2,0:0:0:0:
54,224,66453,1,2,0:0:0:0:
0,141,66647,1,8,0:0:0:0:
204,121,66840,2,0,P|241:123|277:136,1,75,0|2,0:0|0:0,0:0:0:0:
314,302,67227,1,0,0:0:0:0:
226,220,67421,1,8,0:0:0:0:
390,215,67615,1,0,0:0:0:0:
239,330,67808,6,0,L|143:315,1,75,2|0,0:0|0:0,0:0:0:0:
168,160,68195,2,0,P|199:140|236:137,1,75,8|0,0:0|0:0,0:0:0:0:
451,275,68582,2,0,P|419:295|382:298,1,75,2|0,0:0|0:0,0:0:0:0:
338,126,68969,2,0,L|345:40,1,75,8|0,0:0|0:0,0:0:0:0:
355,209,69357,5,2,0:0:0:0:
226,107,69550,1,2,0:0:0:0:
449,98,69744,1,8,0:0:0:0:
370,288,69937,1,2,0:0:0:0:
338,126,70131,1,0,0:0:0:0:
300,119,70227,1,0,0:0:0:0:
263,113,70324,1,2,0:0:0:0:
226,107,70421,1,2,0:0:0:0:
189,100,70518,1,8,0:0:0:0:
212,233,70711,1,0,0:0:0:0:
50,97,70905,5,2,0:0:0:0:
117,273,71098,1,0,0:0:0:0:
161,174,71292,1,8,0:0:0:0:
0,177,71486,1,0,0:0:0:0:
91,342,71679,2,0,P|127:347|160:330,1,75,2|0,0:0|0:0,0:0:0:0:
187,103,72066,2,0,P|150:97|117:114,1,75,8|2,0:0|0:0,0:0:0:0:
12,284,72453,5,0,0:0:0:0:
25,131,72647,1,0,0:0:0:0:
243,284,72840,1,8,0:0:0:0:
103,224,73034,1,0,0:0:0:0:
248,165,73227,2,0,L|335:154,1,75,2|0,0:0|0:0,0:0:0:0:
203,233,73615,2,0,P|177:205|169:169,1,75,8|0,0:0|0:0,0:0:0:0:
356,79,74002,5,2,0:0:0:0:
386,102,74098,1,0,0:0:0:0:
403,136,74195,1,0,0:0:0:0:
403,173,74292,1,0,0:0:0:0:
388,207,74389,2,0,L|380:247,1,37.5,8|0,0:0|0:0,0:0:0:0:
320,301,74582,2,0,L|302:247,1,37.5,2|0,0:0|0:0,0:0:0:0:
294,155,74776,2,0,L|286:195,1,37.5,0|0,0:0|0:0,0:0:0:0:
204,159,74969,2,0,L|180:87,1,75,0|8,0:0|0:0,0:0:0:0:
145,269,75357,1,2,0:0:0:0:
145,269,75453,1,0,0:0:0:0:
145,269,75550,5,4,0:0:0:0:
98,81,75840,1,4,0:0:0:0:
243,237,76131,1,4,0:0:0:0:
153,352,76518,5,8,0:0:0:0:
178,171,76711,1,8,0:0:0:0:
70,335,76905,1,2,0:0:0:0:
280,302,77098,6,0,L|365:291,1,75,6|0,0:0|0:0,0:0:0:0:
351,87,77486,2,0,P|325:113|313:148,1,75,8|0,0:0|0:0,0:0:0:0:
400,366,77873,2,0,P|425:339|437:304,1,75,2|0,0:0|0:0,0:0:0:0:
469,163,78260,2,0,L|394:153,1,75,8|0,0:0|0:0,0:0:0:0:
222,139,78647,5,2,0:0:0:0:
258,315,78840,1,2,0:0:0:0:
335,209,79034,1,8,0:0:0:0:
169,206,79227,2,0,L|94:208,1,75,2|2,0:0|0:0,0:0:0:0:
265,37,79615,1,0,0:0:0:0:
255,228,79808,1,8,0:0:0:0:
95,125,80002,1,0,0:0:0:0:
67,347,80195,6,0,P|97:325|118:294,1,75,6|0,0:0|0:0,0:0:0:0:
0,185,80582,2,0,P|10:221|30:253,1,75,8|0,0:0|0:0,0:0:0:0:
183,125,80969,2,0,P|172:89|152:57,1,75,2|0,0:0|0:0,0:0:0:0:
128,200,81357,2,0,P|161:216|198:216,1,75,8|0,0:0|0:0,0:0:0:0:
338,108,81744,5,2,0:0:0:0:
375,99,81840,1,0,0:0:0:0:
412,105,81937,1,2,0:0:0:0:
443,125,82034,1,0,0:0:0:0:
465,155,82131,2,0,L|468:192,1,37.5,8|0,0:0|0:0,0:0:0:0:
401,254,82324,2,0,L|398:216,1,37.5,6|0,0:0|0:0,0:0:0:0:
375,99,82518,1,0,0:0:0:0:
311,246,82711,1,2,0:0:0:0:
190,117,82905,2,0,L|224:130,1,37.5,8|0,0:0|0:0,0:0:0:0:
224,216,83098,2,0,L|189:229,1,37.5,4|0,0:0|0:0,0:0:0:0:
103,288,83292,5,2,0:0:0:0:
66,282,83388,1,2,0:0:0:0:
35,262,83485,1,2,0:0:0:0:
15,230,83582,1,2,0:0:0:0:
10,194,83679,2,0,L|4:119,1,75,12|0,0:0|0:0,0:0:0:0:
79,28,84066,1,2,0:0:0:0:
150,118,84260,1,2,0:0:0:0:
234,37,84453,2,0,L|323:41,1,75,8|0,0:0|0:0,0:0:0:0:
457,156,84840,5,2,0:0:0:0:
385,283,85034,1,0,0:0:0:0:
369,138,85227,1,8,0:0:0:0:
467,246,85421,1,0,0:0:0:0:
324,216,85615,1,0,0:0:0:0:
425,87,85808,1,0,0:0:0:0:
455,323,86002,1,8,0:0:0:0:
248,209,86195,1,0,0:0:0:0:
118,308,86389,6,0,L|112:345,3,37.5,2|2|2|2,0:0|0:0|0:0|0:0,0:0:0:0:
39,296,86776,2,0,L|33:258,3,37.5,10|2|2|2,0:0|0:0|0:0|0:0,0:0:0:0:
41,179,87163,1,2,0:0:0:0:
77,186,87259,1,2,0:0:0:0:
114,180,87356,1,2,0:0:0:0:
146,161,87453,1,2,0:0:0:0:
170,133,87550,2,0,L|185:99,1,37.5,10|0,0:0|0:0,0:0:0:0:
280,154,87744,2,0,L|298:186,1,37.5,2|0,0:0|0:0,0:0:0:0:
339,256,87937,5,8,0:0:0:0:
421,55,88227,1,8,0:0:0:0:
211,201,88518,1,8,0:0:0:0:
405,196,88711,5,0,0:0:0:0:
405,196,88808,1,0,0:0:0:0:
405,196,88905,1,8,0:0:0:0:
405,196,89002,1,0,0:0:0:0:
405,196,89098,1,8,0:0:0:0:
428,351,89292,1,8,0:0:0:0:
491,234,89486,6,0,L|504:151,1,75,6|0,0:0|0:0,0:0:0:0:
459,72,89873,1,8,0:0:0:0:
369,110,90066,1,0,0:0:0:0:
272,88,90260,2,0,P|237:78|200:80,1,75,0|0,0:0|0:0,0:0:0:0:
151,166,90647,2,0,P|186:176|223:174,1,75,8|0,0:0|0:0,0:0:0:0:
364,209,91034,5,6,0:0:0:0:
475,311,91227,1,0,0:0:0:0:
339,286,91421,1,8,0:0:0:0:
500,234,91615,1,0,0:0:0:0:
389,132,91808,2,0,L|314:121,1,75,2|0,1:0|0:0,0:0:0:0:
203,250,92195,2,0,L|277:239,1,75,8|0,0:0|0:0,0:0:0:0:
406,213,92582,5,6,0:0:0:0:
364,324,92776,1,0,0:0:0:0:
247,165,92969,2,0,L|172:175,1,75,8|0,0:0|0:0,0:0:0:0:
123,182,93260,1,0,0:0:0:0:
123,182,93357,1,0,0:0:0:0:
79,295,93550,1,0,0:0:0:0:
10,197,93744,1,8,0:0:0:0:
170,260,93937,1,0,0:0:0:0:
111,75,94131,6,0,P|79:93|55:121,1,75,2|0,0:0|0:0,0:0:0:0:
170,260,94518,2,0,L|254:251,1,75,8|2,0:0|0:0,0:0:0:0:
402,233,94905,1,2,0:0:0:0:
402,233,95002,1,0,0:0:0:0:
402,233,95098,1,2,0:0:0:0:
303,126,95292,2,0,L|316:199,1,75,8|2,0:0|0:0,0:0:0:0:
353,354,95679,5,0,0:0:0:0:
237,278,95873,1,2,0:0:0:0:
420,312,96066,2,0,L|494:305,1,75,8|0,0:0|0:0,0:0:0:0:
329,274,96453,1,0,0:0:0:0:
402,140,96647,1,0,0:0:0:0:
264,150,96840,2,0,L|189:141,1,75,8|0,0:0|0:0,0:0:0:0:
5,165,97227,5,0,0:0:0:0:
92,295,97421,1,0,0:0:0:0:
98,138,97615,1,8,0:0:0:0:
1,262,97809,1,0,0:0:0:0:
152,218,98002,2,0,L|225:230,1,75,2|0,1:0|0:0,0:0:0:0:
310,328,98389,2,0,L|236:340,1,75,8|0,0:0|0:0,0:0:0:0:
305,243,98776,5,2,0:0:0:0:
342,250,98872,1,2,0:0:0:0:
372,272,98969,1,2,0:0:0:0:
390,305,99066,1,2,0:0:0:0:
392,342,99163,2,0,L|429:349,1,37.5,10|2,0:0|0:0,0:0:0:0:
512,275,99357,2,0,L|475:282,1,37.5,2|2,0:0|0:0,0:0:0:0:
433,217,99550,5,2,0:0:0:0:
431,187,99646,1,2,0:0:0:0:
430,157,99743,1,2,0:0:0:0:
428,127,99840,1,2,0:0:0:0:
427,97,99937,2,0,L|394:79,1,37.5,10|2,0:0|0:0,0:0:0:0:
304,114,100131,2,0,L|336:131,1,37.5,2|2,0:0|0:0,0:0:0:0:
433,217,100324,5,4,0:0:0:0:
299,337,100615,1,4,0:0:0:0:
146,154,100905,1,4,0:0:0:0:
206,228,101292,5,2,2:0:0:0:
225,50,101486,1,2,2:0:0:0:
62,121,101679,1,2,2:0:0:0:
164,134,101873,5,2,2:0:0:0:
