osu file format v14

[General]
AudioFilename: audio.mp3
AudioLeadIn: 0
PreviewTime: 57807
Countdown: 0
SampleSet: Soft
StackLeniency: 0.7
Mode: 0
LetterboxInBreaks: 0
WidescreenStoryboard: 1

[Editor]
Bookmarks: 1697,5252,15918,30142,44364,58586
DistanceSpacing: 1
BeatDivisor: 4
GridSize: 4
TimelineZoom: 1

[Metadata]
Title:Koi no Theory (TV Size)
TitleUnicode:恋のセオリー (TV Size)
Artist:Touno Kyouko (CV : Kimura Juri)
ArtistUnicode:桃乃今日子(CV:木村珠莉)
Creator:My Angel Rize
Version:Kantan's Normal
Source:セイレン
Tags:seiren tv size ed ending kantan
BeatmapID:1258111
BeatmapSetID:593748

[Difficulty]
HPDrainRate:3
CircleSize:3
OverallDifficulty:3
ApproachRate:5
SliderMultiplier:1
SliderTickRate:1

[Events]
//Background and Video events
0,0,"bg.jpg",0,0
//Break Periods
//Storyboard Layer 0 (Background)
//Storyboard Layer 1 (Fail)
//Storyboard Layer 2 (Pass)
//Storyboard Layer 3 (Foreground)
//Storyboard Layer 4 (Overlay)
//Storyboard Sound Samples

[TimingPoints]
-80,444.444444444444,4,2,0,70,1,0
58586,-83.3333333333333,4,2,0,70,0,1
83475,-83.3333333333333,4,2,0,70,0,0
88586,-100,4,2,0,5,0,0

[Colours]
Combo1 : 187,255,119
Combo2 : 255,157,60
Combo3 : 255,145,200
Combo4 : 125,255,255

[HitObjects]
190,323,1697,6,0,P|229:292|277:281,1,100,4|0,0:0|0:0,0:0:0:0:
328,282,2364,2,0,L|436:286,1,100,4|0,0:0|0:0,0:0:0:0:
470,195,3253,2,0,L|370:191,1,100,4|0,0:0|0:0,0:0:0:0:
320,187,3919,2,0,P|282:169|240:104,2,100,4|0|0,0:0|0:0|0:0,0:0:0:0:
324,287,5253,6,0,L|217:300,1,100,4|8,0:1|0:0,0:0:0:0:
128,271,6142,2,0,B|87:244|87:244|80:183|36:160,2,150,8|0|8,0:0|0:0|0:0,0:0:0:0:
177,263,7697,2,0,P|242:172|147:114,1,250
61,63,9253,5,8,0:0:0:0:
160,57,9697,2,0,B|216:66|216:66|263:50|308:57,2,150,8|0|8,0:0|0:0|0:0,0:0:0:0:
153,106,11253,2,0,P|229:195|342:161,1,250,0|4,0:0|0:0,0:0:0:0:
400,78,12808,5,0,0:0:0:0:
436,112,13031,2,0,B|441:168|441:168|431:219|394:246,1,150,4|0,0:0|0:0,0:0:0:0:
351,271,13919,2,0,P|279:267|210:305,1,150,4|0,0:0|0:0,0:0:0:0:
116,334,15031,1,6,0:0:0:0:
35,274,15475,1,6,0:0:0:0:
33,173,15919,6,0,P|67:138|112:117,1,100,0|8,0:0|0:0,0:0:0:0:
209,98,16808,2,0,P|259:95|306:111,1,100,0|8,0:0|0:0,0:0:0:0:
342,146,17475,1,0,0:0:0:0:
361,192,17697,2,0,L|352:310,1,100,0|8,0:0|0:0,0:0:0:0:
449,318,18586,2,0,L|456:218,1,100,0|8,0:0|0:0,0:0:0:0:
453,168,19253,1,0,0:0:0:0:
422,128,19475,6,0,P|372:125|311:161,1,100,0|8,0:0|0:0,0:0:0:0:
245,201,20364,2,0,P|197:216|148:212,1,100,0|8,0:0|0:0,0:0:0:0:
100,197,21031,1,0,0:0:0:0:
60,166,21253,2,0,L|46:52,1,100,0|8,0:0|0:0,0:0:0:0:
142,32,22142,2,0,L|154:131,1,100,0|8,0:0|0:0,0:0:0:0:
173,177,22808,1,0,3:0:0:0:
208,212,23031,6,0,P|250:239|307:243,1,100,0|8,0:0|0:0,0:0:0:0:
396,223,23919,2,0,P|437:196|456:151,1,100,0|8,0:0|0:0,0:0:0:0:
455,101,24586,1,0,0:0:0:0:
419,66,24808,2,0,L|304:47,1,100,0|8,0:0|0:0,0:0:0:0:
277,140,25697,2,0,L|162:159,1,100,0|8,0:0|0:0,0:0:0:0:
130,172,26364,1,0,0:0:0:0:
83,191,26586,6,0,P|51:228|42:277,1,100,0|8,0:0|0:0,0:0:0:0:
126,331,27475,2,0,L|241:325,1,100,0|8,0:0|0:0,0:0:0:0:
275,315,28142,1,0,0:0:0:0:
323,326,28364,2,0,L|422:331,1,100,4|0,0:0|0:0,0:0:0:0:
466,307,29031,2,0,P|477:262|475:198,1,100,4|0,0:0|0:0,0:0:0:0:
459,161,29697,1,4,0:3:0:0:
374,106,30142,6,0,P|327:88|279:97,1,100,4|8,0:3|0:0,0:0:0:0:
179,88,31031,2,0,P|134:67|86:79,1,100,0|8,3:0|0:0,0:0:0:0:
53,116,31697,1,0,3:0:0:0:
35,162,31919,1,4,0:3:0:0:
52,260,32364,1,8,0:0:0:0:
137,312,32808,2,0,L|208:306,1,50,0|0,3:0|0:0,0:0:0:0:
225,275,33253,2,0,L|291:290,1,50,8|0,0:0|0:0,0:0:0:0:
318,264,33697,6,0,P|370:293|398:325,1,100,4|8,0:3|0:0,0:0:0:0:
470,255,34586,2,0,P|418:226|390:194,1,100,2|8,3:2|0:0,0:0:0:0:
376,148,35253,1,0,0:0:0:0:
374,98,35475,1,4,0:3:0:0:
468,64,35919,1,8,0:0:0:0:
470,164,36364,1,0,3:0:0:0:
376,198,36808,1,8,0:0:0:0:
326,191,37031,1,0,0:0:0:0:
284,163,37253,6,0,P|242:142|174:143,1,100,12|8,0:3|0:0,0:0:0:0:
95,173,38142,2,0,P|65:212|51:260,1,100,0|8,3:0|0:0,0:0:0:0:
116,336,39031,1,12,0:3:0:0:
216,336,39475,1,8,0:0:0:0:
265,247,39919,2,0,L|237:187,1,50,0|0,3:0|0:0,0:0:0:0:
244,151,40364,2,0,L|197:117,1,50,8|0,0:0|0:0,0:0:0:0:
175,80,40808,6,0,L|68:69,1,100,12|8,0:3|0:0,0:0:0:0:
39,163,41697,2,0,L|138:173,1,100,0|8,3:0|0:0,0:0:0:0:
188,173,42364,1,0,0:0:0:0:
235,158,42586,2,0,P|273:125|298:70,1,100,4|0,0:0|0:0,0:0:0:0:
340,59,43253,2,0,L|460:50,1,100,4|0,0:0|0:0,0:0:0:0:
480,80,43919,2,0,L|483:129,1,50
469,177,44364,6,0,P|378:213|338:302,1,200,4|0,3:0|0:0,0:0:0:0:
241,326,45697,1,2,3:0:0:0:
142,344,46142,2,0,P|87:329|46:251,2,150,4|0|2,3:0|0:0|3:0,0:0:0:0:
178,309,47697,1,0,0:0:0:0:
207,269,47919,6,0,P|241:179|336:158,1,200,4|0,3:0|0:0,0:0:0:0:
414,218,49253,1,2,3:0:0:0:
491,155,49697,2,0,L|494:44,1,100,4|0,3:0|0:0,0:0:0:0:
448,34,50364,2,0,L|337:30,1,100,4|0,3:2|0:0,0:0:0:0:
301,48,51031,1,2,3:0:0:0:
296,97,51253,6,0,P|236:165|125:148,1,200,4|0,3:2|0:0,0:0:0:0:
110,111,52364,1,0,0:0:0:0:
34,175,52808,1,0,0:0:0:0:
44,222,53031,2,0,P|119:267|197:272,1,150,4|0,0:0|0:0,0:0:0:0:
278,250,54142,2,0,P|357:248|385:257,1,100
473,277,55031,6,0,L|481:161,1,100,4|8,0:0|0:0,0:0:0:0:
380,172,55919,2,0,L|388:56,1,100,0|8,0:0|0:0,0:0:0:0:
342,48,56586,2,0,P|309:58|243:165,1,150,4|0,0:0|0:0,0:0:0:0:
248,197,57475,2,0,P|280:263|346:296,1,150,4|0,0:0|0:0,0:0:0:0:
454,243,58586,6,0,L|475:112,2,119.999996337891,4|8|8,1:0|0:0|0:0,0:0:0:0:
360,319,59919,1,8,0:0:0:0:
240,328,60364,2,0,L|96:320,1,119.999996337891,4|8,3:0|0:0,0:0:0:0:
45,227,61253,2,0,L|164:233,1,119.999996337891,8|8,0:0|0:0,0:0:0:0:
223,220,61919,1,0,0:0:0:0:
275,189,62142,6,0,P|289:149|271:61,1,119.999996337891,4|8,3:0|0:0,0:0:0:0:
165,32,63031,2,0,P|151:72|169:160,1,119.999996337891,8|8,0:0|0:0,0:0:0:0:
254,223,63919,2,0,L|386:240,2,119.999996337891,4|8|8,3:0|0:0|0:0,0:0:0:0:
134,237,65253,1,8,0:0:0:0:
33,170,65697,6,0,P|29:111|60:60,1,119.999996337891,4|8,3:0|0:0,0:0:0:0:
117,43,66364,1,0,0:0:0:0:
176,35,66586,2,0,L|295:29,1,119.999996337891,4|8,3:0|0:0,0:0:0:0:
355,38,67253,1,0,0:0:0:0:
407,66,67475,2,0,P|425:122|415:181,2,119.999996337891,4|8|0,3:0|0:0|0:0,0:0:0:0:
306,131,68808,1,8,0:0:0:0:
222,217,69253,6,0,L|89:230,1,119.999996337891,4|8,3:0|0:0,0:0:0:0:
59,116,70142,2,0,L|178:104,1,119.999996337891,4|8,3:0|0:0,0:0:0:0:
237,97,70808,2,0,P|314:141|340:225,1,179.999994506836,4|8,1:0|0:0,0:0:0:0:
321,283,71697,2,0,P|244:326|159:307,1,179.999994506836,4|8,1:0|0:0,0:0:0:0:
64,231,72808,6,0,P|112:195|171:187,2,119.999996337891,4|8|8,1:0|0:0|0:0,0:0:0:0:
158,306,74142,1,8,0:0:0:0:
276,296,74586,2,0,L|256:164,2,119.999996337891,4|8|0,0:3|0:0|0:0,0:0:0:0:
396,316,75919,1,8,0:0:0:0:
463,215,76364,6,0,P|408:196|349:206,1,119.999996337891,4|8,0:3|0:0,0:0:0:0:
244,264,77253,2,0,P|184:280|124:264,1,119.999996337891,8|8,3:2|0:0,0:0:0:0:
92,152,78142,2,0,P|72:112|24:52,2,119.999996337891,4|8|8,0:3|0:0|0:0,0:0:0:0:
184,228,79475,1,8,0:0:0:0:
292,276,79919,6,0,P|340:284|416:252,1,119.999996337891,4|8,0:3|0:0,0:0:0:0:
448,148,80808,2,0,P|400:140|324:172,1,119.999996337891,8|8,3:2|0:0,0:0:0:0:
220,196,81697,2,0,L|80:204,2,119.999996337891,4|8|8,3:0|0:0|0:0,0:0:0:0:
334,163,83031,1,8,0:0:0:0:
411,71,83475,6,0,P|359:44|299:48,1,119.999996337891,4|0,0:0|0:0,0:0:0:0:
244,72,84142,2,0,L|116:80,2,119.999996337891,4|0|0,0:0|0:0|0:0,0:0:0:0:
320,236,85697,5,4,0:0:0:0:
423,292,86142,2,0,P|384:336|328:354,1,119.999996337891
220,304,87031,2,0,B|164:264|132:244|120:176|164:124|242:155|242:155|304:104|346:137|372:176|360:224|324:228,1,449.99998626709,4|0,0:0|0:0,0:0:0:0:
