osu file format v14

[General]
AudioFilename: audio.mp3
AudioLeadIn: 0
PreviewTime: -1
Countdown: 0
SampleSet: Soft
StackLeniency: 0.7
Mode: 2
LetterboxInBreaks: 1
WidescreenStoryboard: 1

[Editor]
DistanceSpacing: 1
BeatDivisor: 4
GridSize: 8
TimelineZoom: 1

[Metadata]
Title:Bad Apple!!
TitleUnicode:Bad Apple!!
Artist:Touhou
ArtistUnicode:Touhou
Creator:Jeremiasz
Version:Easy
Source:
Tags:
BeatmapID:1297803
BeatmapSetID:615271

[Difficulty]
HPDrainRate:0
CircleSize:2
OverallDifficulty:0
ApproachRate:0
SliderMultiplier:1.4
SliderTickRate:1

[Events]
//Background and Video events
0,0,"BadApple(1).jpg",0,0
Video,0,"MMD6 - Bad Apple (3D animation version).mp4"
//Break Periods
2,14982,27330
2,56721,62113
2,84982,96895
2,112808,124721
2,154113,159504
2,181504,208199
//Storyboard Layer 0 (Background)
//Storyboard Layer 1 (Fail)
//Storyboard Layer 2 (Pass)
//Storyboard Layer 3 (Foreground)
//Storyboard Sound Samples

[TimingPoints]
0,434.782608695652,4,1,0,100,1,0
0,-100,4,1,0,100,0,0
15267,-100,4,1,0,100,0,1
29120,-100,4,2,0,100,0,0
70938,-100,4,2,0,100,0,1
84447,-100,4,2,0,100,0,0
111685,-100,4,1,0,100,0,0
112737,-100,4,2,0,100,0,1
126614,-100,4,2,0,100,0,0

[HitObjects]
232,192,13043,6,0,L|280:192,16,35
256,32,29130,5,0,0:0:0:0:
256,152,29565,5,0,0:0:0:0:
256,256,29999,1,0,0:0:0:0:
256,256,30434,1,8,0:0:0:0:
256,256,30652,1,8,0:0:0:0:
256,256,30869,1,8,0:0:0:0:
112,192,31304,1,8,0:0:0:0:
264,192,31739,1,0,0:0:0:0:
400,192,32173,1,0,0:0:0:0:
264,312,32608,1,0,0:0:0:0:
264,192,33043,1,8,0:0:0:0:
264,192,33260,1,8,0:0:0:0:
264,192,33478,1,8,0:0:0:0:
432,200,33913,1,0,0:0:0:0:
352,80,34347,1,0,0:0:0:0:
176,80,34782,1,0,0:0:0:0:
88,192,35217,1,8,0:0:0:0:
88,192,35434,1,8,0:0:0:0:
88,192,35652,1,8,0:0:0:0:
176,312,36086,1,0,0:0:0:0:
264,192,36521,1,0,0:0:0:0:
264,56,36956,1,0,0:0:0:0:
424,184,37391,1,0,0:0:0:0:
424,184,37608,1,0,0:0:0:0:
424,184,37826,1,0,0:0:0:0:
264,192,38260,1,0,0:0:0:0:
128,192,38695,1,8,0:0:0:0:
128,64,39130,1,8,0:0:0:0:
264,64,39565,1,0,0:0:0:0:
256,192,39999,1,0,0:0:0:0:
256,192,40217,1,0,0:0:0:0:
256,192,40434,1,0,0:0:0:0:
256,320,40869,1,8,0:0:0:0:
256,320,41086,1,8,0:0:0:0:
256,320,41304,1,8,0:0:0:0:
248,328,41739,1,8,0:0:0:0:
120,192,42173,1,8,0:0:0:0:
256,56,42608,1,8,0:0:0:0:
376,192,43043,1,0,0:0:0:0:
104,88,43478,1,0,0:0:0:0:
104,88,43695,1,0,0:0:0:0:
104,88,43913,1,0,0:0:0:0:
264,88,44347,1,8,0:0:0:0:
264,88,44565,1,8,0:0:0:0:
264,88,44782,1,8,0:0:0:0:
408,192,45217,1,0,0:0:0:0:
256,192,45652,1,0,0:0:0:0:
104,192,46086,1,0,0:0:0:0:
256,320,46521,1,8,0:0:0:0:
256,320,46739,1,8,0:0:0:0:
256,320,46956,1,8,0:0:0:0:
248,56,47391,5,0,0:0:0:0:
256,200,47826,1,0,0:0:0:0:
256,344,48260,1,0,0:0:0:0:
136,64,49130,1,0,0:0:0:0:
136,200,49565,1,8,0:0:0:0:
136,328,49999,1,8,0:0:0:0:
256,336,50434,1,8,0:0:0:0:
256,336,50652,1,8,0:0:0:0:
256,336,50869,1,8,0:0:0:0:
256,200,51304,1,8,0:0:0:0:
256,200,51521,1,8,0:0:0:0:
256,200,51739,1,8,0:0:0:0:
256,192,52173,1,8,0:0:0:0:
256,88,52608,1,8,0:0:0:0:
376,88,53043,1,8,0:0:0:0:
408,192,53478,1,8,0:0:0:0:
408,192,53695,1,8,0:0:0:0:
408,192,53913,1,8,0:0:0:0:
256,192,54347,1,0,0:0:0:0:
256,192,54565,1,0,0:0:0:0:
256,192,54782,1,0,0:0:0:0:
192,120,55217,1,8,0:0:0:0:
328,120,55652,1,8,0:0:0:0:
328,264,56086,1,8,0:0:0:0:
176,264,56521,1,8,0:0:0:0:
80,64,63913,5,0,0:0:0:0:
248,64,64347,1,0,0:0:0:0:
408,56,64782,1,0,0:0:0:0:
408,160,65217,1,8,0:0:0:0:
408,208,65434,1,8,0:0:0:0:
408,256,65652,1,8,0:0:0:0:
352,320,66086,1,0,0:0:0:0:
216,328,66521,1,0,0:0:0:0:
80,328,66956,1,0,0:0:0:0:
80,200,67391,1,0,0:0:0:0:
256,208,67826,1,8,0:0:0:0:
256,152,68043,1,8,0:0:0:0:
256,88,68260,1,8,0:0:0:0:
392,88,68695,1,0,0:0:0:0:
392,192,69130,1,0,0:0:0:0:
344,304,69565,1,8,0:0:0:0:
280,336,69782,1,8,0:0:0:0:
224,304,69999,1,8,0:0:0:0:
32,192,70869,2,0,P|312:192|312:192,1,280
112,56,72608,2,0,P|408:56|408:56,1,280
168,192,74347,2,0,P|464:192|464:192,1,280
112,312,76086,2,0,P|408:312|408:312,1,280
112,192,77826,2,0,P|416:192|416:192,1,280
128,64,79565,2,0,P|416:64|416:64,1,280
32,192,81304,2,0,P|456:192|456:192,1,420
256,192,83260,12,0,84782,0:0:0:0:
112,64,98695,6,8,L|416:64,1,280
104,192,100434,6,8,L|408:192,1,280
104,320,102173,6,8,L|408:320,1,280
104,192,103913,6,8,L|408:192,1,280
104,56,105652,6,8,L|408:56,1,280
104,192,107391,6,8,L|408:192,1,280
256,192,109130,12,0,110869,0:0:0:0:
256,56,111739,5,0,0:0:0:0:
256,184,112173,1,0,0:0:0:0:
256,312,112608,1,0,0:0:0:0:
96,64,126521,5,0,0:0:0:0:
240,64,126956,1,0,0:0:0:0:
376,64,127391,1,0,0:0:0:0:
376,184,127826,1,8,0:0:0:0:
376,232,128043,1,8,0:0:0:0:
376,288,128260,1,8,0:0:0:0:
256,312,128695,1,0,0:0:0:0:
128,312,129130,1,0,0:0:0:0:
88,208,129565,1,0,0:0:0:0:
160,104,129999,1,8,0:0:0:0:
216,80,130217,1,8,0:0:0:0:
264,104,130434,1,8,0:0:0:0:
384,104,130869,1,0,0:0:0:0:
312,200,131304,1,0,0:0:0:0:
192,280,131739,1,0,0:0:0:0:
104,208,132173,1,8,0:0:0:0:
104,160,132391,1,8,0:0:0:0:
104,112,132608,1,8,0:0:0:0:
200,88,133478,1,0,0:0:0:0:
320,144,133913,1,0,0:0:0:0:
368,264,134347,1,0,0:0:0:0:
168,272,134782,1,0,0:0:0:0:
152,224,134999,1,0,0:0:0:0:
144,168,135217,1,0,0:0:0:0:
256,144,135652,1,0,0:0:0:0:
360,192,136086,1,0,0:0:0:0:
296,288,136521,1,8,0:0:0:0:
240,304,136739,1,8,0:0:0:0:
184,288,136956,1,8,0:0:0:0:
120,192,137391,1,0,0:0:0:0:
208,80,137826,1,0,0:0:0:0:
352,80,138260,1,8,0:0:0:0:
352,136,138478,1,8,0:0:0:0:
352,192,138695,1,8,0:0:0:0:
256,288,139130,1,8,0:0:0:0:
256,168,139565,1,8,0:0:0:0:
256,40,139999,1,8,0:0:0:0:
384,80,140434,1,0,0:0:0:0:
384,200,140869,1,0,0:0:0:0:
384,320,141304,1,0,0:0:0:0:
304,312,141739,1,0,0:0:0:0:
256,328,141956,1,0,0:0:0:0:
208,320,142173,1,0,0:0:0:0:
128,224,142608,1,0,0:0:0:0:
176,104,143043,1,0,0:0:0:0:
312,104,143478,1,0,0:0:0:0:
376,208,143913,5,0,0:0:0:0:
296,288,144347,1,0,0:0:0:0:
160,256,144782,1,0,0:0:0:0:
80,176,145217,1,0,0:0:0:0:
80,176,145434,1,0,0:0:0:0:
80,176,145652,1,0,0:0:0:0:
144,96,146086,1,0,0:0:0:0:
256,56,146521,1,0,0:0:0:0:
360,96,146956,1,0,0:0:0:0:
384,216,147391,1,0,0:0:0:0:
264,312,147826,1,0,0:0:0:0:
136,200,148260,1,0,0:0:0:0:
200,96,148695,1,0,0:0:0:0:
248,72,148913,1,0,0:0:0:0:
304,88,149130,1,0,0:0:0:0:
352,200,149565,1,0,0:0:0:0:
240,208,149999,1,0,0:0:0:0:
128,208,150434,1,0,0:0:0:0:
136,104,150869,1,0,0:0:0:0:
184,72,151086,1,0,0:0:0:0:
232,104,151304,1,0,0:0:0:0:
320,144,151739,1,8,0:0:0:0:
320,240,152173,1,8,0:0:0:0:
264,264,152391,1,8,0:0:0:0:
208,248,152608,1,8,0:0:0:0:
256,136,153043,1,8,0:0:0:0:
376,136,153478,1,8,0:0:0:0:
376,256,153913,1,8,0:0:0:0:
96,88,161304,5,0,0:0:0:0:
256,56,161739,1,0,0:0:0:0:
408,96,162173,1,0,0:0:0:0:
328,200,162608,1,0,0:0:0:0:
264,232,162826,1,0,0:0:0:0:
208,200,163043,1,0,0:0:0:0:
152,112,163478,1,0,0:0:0:0:
264,64,163913,1,0,0:0:0:0:
376,128,164347,1,8,0:0:0:0:
376,192,164565,1,8,0:0:0:0:
376,256,164782,1,8,0:0:0:0:
288,320,165217,1,0,0:0:0:0:
184,280,165652,1,0,0:0:0:0:
112,184,166086,1,8,0:0:0:0:
112,184,166304,1,8,0:0:0:0:
112,184,166521,1,8,0:0:0:0:
208,96,166956,1,0,0:0:0:0:
208,264,167391,1,0,0:0:0:0:
32,192,168260,6,0,P|312:192|312:192,1,280
104,64,169999,2,0,P|384:64|384:64,1,280
232,192,171739,2,0,P|512:192|512:192,1,280
32,192,173478,2,0,P|312:192|312:192,1,280
112,80,175217,2,0,P|392:80|392:80,1,280
112,192,176956,2,0,P|392:192|392:192,1,280
112,312,178695,2,0,P|392:312|392:312,1,280
256,192,180434,12,0,181304,0:0:0:0:
256,192,209999,12,0,216955,0:0:0:0:
