osu file format v14

[General]
AudioFilename: audio.mp3
AudioLeadIn: 0
PreviewTime: 193137
Countdown: 0
SampleSet: Soft
StackLeniency: 0.7
Mode: 0
LetterboxInBreaks: 0
WidescreenStoryboard: 0

[Editor]
DistanceSpacing: 0.4
BeatDivisor: 4
GridSize: 4
TimelineZoom: 2.4

[Metadata]
Title:Yuki no Elfin Lied
TitleUnicode:雪のエルフィンリート
Artist:Touen Nina
ArtistUnicode:桃園にな
Creator:[ TNTlealu ]
Version:White Eternity
Source:アストラエアの白き永遠
Tags:female vocals vocalist version pop jpop j-pop AstralAir no Shiroki Towa Nameless_Player japanese full ver yukiyuki eroge visual novel galgame
BeatmapID:3085461
BeatmapSetID:1506327

[Difficulty]
HPDrainRate:5.5
CircleSize:4
OverallDifficulty:8
ApproachRate:8.7
SliderMultiplier:1.8
SliderTickRate:1

[Events]
//Background and Video events
0,0,"bg.jpg",0,0
//Break Periods
//Storyboard Layer 0 (Background)
//Storyboard Layer 1 (Fail)
//Storyboard Layer 2 (Pass)
//Storyboard Layer 3 (Foreground)
//Storyboard Layer 4 (Overlay)
//Storyboard Sound Samples

[TimingPoints]
455,370.37037037037,6,2,1,30,1,0
18047,-100,6,2,1,5,0,0
18164,400,6,2,1,30,1,0
18264,352.941176470588,6,2,1,30,1,0
18982,375,6,2,1,30,1,0
18982,-166.666666666667,6,2,1,30,0,0
20482,370.37037037037,6,2,1,30,1,0
20482,-250,6,2,1,30,0,0
22333,361.44578313253,6,2,1,30,1,0
22694,370.37037037037,6,2,1,30,1,0
22694,-200,6,2,1,30,0,0
24545,361.44578313253,6,2,1,30,1,0
24906,370.37037037037,6,2,1,30,1,0
24906,-200,6,2,1,30,0,0
27128,-333.333333333333,6,2,1,30,0,0
31573,379.746835443038,6,2,1,40,1,0
32332,405.405405405405,6,2,1,40,1,0
32332,-200,6,2,1,40,0,0
32737,384.615384615385,6,2,1,40,1,0
33506,333.333333333333,6,2,1,40,1,0
33506,-250,6,2,1,40,0,0
33839,361.881785283474,6,2,1,40,1,0
35286,315.789473684211,6,2,1,40,1,0
35601,413.793103448276,6,2,1,40,1,0
35601,-200,6,2,1,40,0,0
36018,370.37037037037,6,2,1,40,1,0
36388,428.571428571429,6,2,1,40,1,0
36816,370.37037037037,6,2,1,40,1,0
36816,-250,6,2,1,40,0,0
37927,312.5,6,2,1,40,1,0
37927,-222.222222222222,6,2,1,40,0,0
38240,375,6,2,1,40,1,0
39740,-250,6,2,1,40,0,0
40490,-200,6,2,1,40,0,0
42740,370.37037037037,6,2,1,40,1,0
42740,-200,6,2,1,40,0,0
47184,365.853658536585,6,2,1,40,1,0
49013,-333.333333333333,6,2,1,40,0,0
49379,352.941176470588,6,2,1,40,1,0
49379,-250,6,2,1,40,0,0
50437,382.165605095541,6,2,1,40,1,0
50437,-250,6,2,1,40,0,0
51201,389.61038961039,6,2,1,40,1,0
51591,365.853658536585,6,2,1,40,1,0
51591,-200,6,2,1,40,0,0
52688,377.833753148615,6,2,1,40,1,0
53823,368.098159509202,6,2,1,40,1,0
53823,-250,6,2,1,40,0,0
56031,377.358490566038,6,2,1,40,1,0
56031,-200,6,2,1,40,0,0
57163,361.44578313253,6,2,1,40,1,0
57524,375,6,2,1,40,1,0
57524,-333.333333333333,6,2,1,40,0,0
57899,340.909090909091,6,2,1,40,1,0
57899,-250,6,2,1,40,0,0
58240,370.37037037037,6,2,1,40,1,0
58240,-200,6,2,1,40,0,0
60462,-222.222222222222,6,2,1,40,0,0
62684,400,6,2,1,40,1,0
62684,-243.90243902439,6,2,1,40,0,0
64184,340.909090909091,6,2,1,40,1,0
64533,373.134328358209,6,2,1,40,1,0
64906,375,6,2,1,40,1,0
64906,-222.222222222222,6,2,1,40,0,0
66031,-333.333333333333,6,2,1,20,0,0
66124,-333.333333333333,6,2,1,22,0,0
66218,-333.333333333333,6,2,1,24,0,0
66312,-333.333333333333,6,2,1,26,0,0
66406,-333.333333333333,6,2,1,28,0,0
66499,-333.333333333333,6,2,1,30,0,0
66593,-333.333333333333,6,2,1,32,0,0
66687,-333.333333333333,6,2,1,34,0,0
66781,-333.333333333333,6,2,1,36,0,0
66874,-333.333333333333,6,2,1,38,0,0
66968,-333.333333333333,6,2,1,40,0,0
67156,370.37037037037,6,2,1,50,1,0
67156,-142.857142857143,6,2,1,50,0,0
67711,361.44578313253,6,2,1,50,1,0
67711,-142.857142857143,6,2,1,50,0,0
68618,357.142857142857,6,2,1,50,1,0
69332,365.853658536585,6,2,1,50,1,0
69332,-142.857142857143,6,2,1,50,0,0
69697,379.746835443038,6,2,1,50,1,0
69886,-142.857142857143,6,2,1,50,0,0
70456,370.37037037037,6,2,1,50,1,0
70456,-142.857142857143,6,2,1,50,0,0
71567,-142.857142857143,6,2,1,50,0,0
73789,365.853658536585,6,2,1,50,1,0
73789,-200,6,2,1,50,0,0
74520,400,6,2,1,50,1,0
74520,-333.333333333333,6,2,1,50,0,0
74920,365.853658536585,6,2,1,50,1,0
74920,-250,6,2,1,50,0,0
76017,370.37037037037,6,2,1,60,1,0
76017,-142.857142857143,6,2,1,60,0,0
78239,372.670807453416,6,2,1,60,1,0
78239,-142.857142857143,6,2,1,60,0,0
80475,-166.666666666667,6,2,1,60,0,0
82338,344.827586206897,6,2,1,60,1,0
82683,400,6,2,1,60,1,0
82683,-400,6,2,1,60,0,0
83842,333.333333333333,6,2,1,60,1,0
83842,-277.777777777778,6,2,1,40,0,0
84933,437.956204379562,6,2,1,60,1,0
84933,-200,6,2,1,60,0,0
85078,-200,6,2,1,45,0,0
85224,-200,6,2,1,30,0,0
85370,-200,6,2,1,20,0,0
86246,-200,6,2,1,30,0,0
86684,-200,6,2,1,40,0,0
87122,-200,6,2,1,50,0,0
87268,-200,6,2,1,60,0,0
87414,-200,6,2,1,70,0,0
87560,447.761194029851,6,2,1,60,1,0
87560,-166.666666666667,6,2,1,60,0,0
88455,461.538461538462,6,2,1,60,1,0
88916,-200,6,2,1,60,0,0
89724,-200,6,2,1,60,0,0
89839,-125,6,2,1,60,0,0
90069,380.952380952381,6,2,1,60,1,0
90259,370.37037037037,6,2,1,70,1,1
90259,-166.666666666667,6,2,1,70,0,1
90536,-166.666666666667,6,2,1,5,0,1
90629,-125,6,2,1,70,0,1
90907,-125,6,2,1,5,0,1
90999,-100,6,2,1,70,0,1
91277,-100,6,2,1,5,0,1
91370,-100,6,2,1,70,0,1
93036,-133.333333333333,6,2,1,70,0,1
93592,-100,6,2,1,70,0,1
94703,-125,6,2,1,70,0,1
95073,-100,6,2,1,70,0,1
95814,-142.857142857143,6,2,1,70,0,1
96092,-142.857142857143,6,2,1,5,0,1
96184,-117.647058823529,6,2,1,70,0,1
96462,-117.647058823529,6,2,1,5,0,1
96555,-100,6,2,1,70,0,1
96833,-100,6,2,1,5,0,1
96925,-100,6,2,1,70,0,1
98036,-83.3333333333333,6,2,1,70,0,1
99147,-166.666666666667,6,2,1,70,0,1
99425,-166.666666666667,6,2,1,5,0,1
99518,-125,6,2,1,70,0,1
99796,-125,6,2,1,5,0,1
99888,-100,6,2,1,70,0,1
100166,-100,6,2,1,5,0,1
100258,-100,6,2,1,70,0,1
101370,-142.857142857143,6,2,1,70,0,1
101647,-142.857142857143,6,2,1,5,0,1
101740,-142.857142857143,6,2,1,70,0,1
102481,-166.666666666667,6,2,1,70,0,1
102758,-166.666666666667,6,2,1,5,0,1
102851,-125,6,2,1,70,0,1
103129,-125,6,2,1,5,0,1
103221,-100,6,2,1,70,0,1
103499,-100,6,2,1,5,0,1
103592,-125,6,2,1,70,0,1
103870,-125,6,2,1,5,0,1
103962,-95.2380952380952,6,2,1,70,0,1
104240,-95.2380952380952,6,2,1,5,0,1
104333,-74.0740740740741,6,2,1,70,0,1
104610,-74.0740740740741,6,2,1,5,0,1
104703,-100,6,2,1,70,0,1
107296,-111.111111111111,6,2,1,70,0,1
107666,-125,6,2,1,70,0,1
108036,-312.5,6,2,1,60,0,0
112481,-250,6,2,1,60,0,0
116184,-333.333333333333,6,2,1,45,0,0
128036,368.098159509202,6,2,1,45,1,0
130244,389.61038961039,6,2,1,70,1,0
130244,-208.333333333333,6,2,1,70,0,0
132184,434.782608695652,6,2,1,70,1,0
132618,410.958904109589,6,2,1,70,1,0
132618,-142.857142857143,6,2,1,70,0,0
134131,-100,6,2,1,5,0,0
134323,428.571428571429,6,2,1,5,1,0
134751,600,6,2,1,5,1,0
135351,370.37037037037,6,2,1,60,1,0
135351,-142.857142857143,6,2,1,60,0,0
136462,-166.666666666667,6,2,1,60,0,0
153128,-166.666666666667,6,2,1,70,0,0
170906,-133.333333333333,6,2,1,70,0,0
179795,-117.647058823529,6,2,1,70,0,0
188692,444.444444444444,6,2,1,60,1,0
188692,-333.333333333333,6,2,1,60,0,0
188840,-333.333333333333,6,2,1,45,0,0
188988,-333.333333333333,6,2,1,30,0,0
189136,-333.333333333333,6,2,1,20,0,0
190025,-333.333333333333,6,2,1,30,0,0
190469,-333.333333333333,6,2,1,40,0,0
190914,-333.333333333333,6,2,1,50,0,0
191062,-333.333333333333,6,2,1,60,0,0
191210,-333.333333333333,6,2,1,70,0,0
191319,454.545454545455,6,2,1,70,1,0
191319,-200,6,2,1,70,0,0
192682,-125,6,2,1,60,0,0
193591,500,6,2,1,70,1,0
193841,571.428571428571,6,2,1,70,1,0
194126,400,6,2,1,80,1,1
194126,-166.666666666667,6,2,1,80,0,1
194426,-166.666666666667,6,2,1,5,0,1
194526,-125,6,2,1,80,0,1
194826,-125,6,2,1,5,0,1
194926,348.837209302326,6,2,1,80,1,1
195187,-100,6,2,1,5,0,1
195274,370.37037037037,6,2,1,80,1,1
195274,-83.3333333333333,6,2,1,80,0,1
195829,-125,6,2,1,80,0,1
196385,370.37037037037,6,2,1,80,1,1
196940,-125,6,2,1,80,0,1
197496,-100,6,2,1,80,0,1
199718,-166.666666666667,6,2,1,80,0,1
199996,-166.666666666667,6,2,1,5,0,1
200088,-125,6,2,1,80,0,1
200366,-125,6,2,1,5,0,1
200459,-100,6,2,1,80,0,1
200736,-100,6,2,1,5,0,1
200829,-100,6,2,1,80,0,1
201940,-83.3333333333333,6,2,1,80,0,1
203051,-166.666666666667,6,2,1,80,0,1
203329,-166.666666666667,6,2,1,5,0,1
203422,-125,6,2,1,80,0,1
203699,-125,6,2,1,5,0,1
203792,-100,6,2,1,80,0,1
204070,-100,6,2,1,5,0,1
204162,-100,6,2,1,80,0,1
205273,-142.857142857143,6,2,1,80,0,1
205551,-142.857142857143,6,2,1,5,0,1
205644,-142.857142857143,6,2,1,80,0,1
206385,-166.666666666667,6,2,1,80,0,1
206662,-166.666666666667,6,2,1,5,0,1
206755,-125,6,2,1,80,0,1
207033,-125,6,2,1,5,0,1
207125,-83.3333333333333,6,2,1,80,0,1
207403,-83.3333333333333,6,2,1,5,0,1
207496,-125,6,2,1,80,0,1
207773,-125,6,2,1,5,0,1
207866,-95.2380952380952,6,2,1,80,0,1
208144,-95.2380952380952,6,2,1,5,0,1
208236,-74.0740740740741,6,2,1,80,0,1
208514,-74.0740740740741,6,2,1,5,0,1
208607,-74.0740740740741,6,2,1,80,0,1
210088,-100,6,2,1,80,0,1
211199,-111.111111111111,6,2,1,80,0,1
211570,-125,6,2,1,80,0,1
211940,-100,6,2,1,80,0,0
213792,352.941176470588,6,2,1,80,1,0
213792,-125,6,2,1,80,0,0
214144,370.37037037037,6,2,1,80,1,0
215625,-166.666666666667,6,2,1,80,0,0
216366,-250,6,2,1,50,0,0
223032,372.670807453416,6,2,1,50,1,0
223032,-333.333333333333,6,2,1,50,0,0
225268,361.44578313253,6,2,1,50,1,0
225268,-142.857142857143,6,2,1,50,0,0
225990,375,6,2,1,50,1,0
225990,-142.857142857143,6,2,1,50,0,0
226740,368.098159509202,6,2,1,50,1,0
227108,361.44578313253,6,2,1,50,1,0
227469,379.746835443038,6,2,1,50,1,0
227469,-142.857142857143,6,2,1,50,0,0
227848,372.670807453416,6,2,1,50,1,0
227848,-142.857142857143,6,2,1,50,0,0
228220,357.142857142857,6,2,1,50,1,0
228220,-142.857142857143,6,2,1,50,0,0
228577,375,6,2,1,50,1,0
229327,361.44578313253,6,2,1,50,1,0
229688,379.746835443038,6,2,1,50,1,0
229688,-142.857142857143,6,2,1,50,0,0
230067,375,6,2,1,50,1,0
230067,-142.857142857143,6,2,1,50,0,0
230442,379.746835443038,6,2,1,50,1,0
230442,-142.857142857143,6,2,1,50,0,0
230821,368.098159509202,6,2,1,50,1,0
231189,375,6,2,1,50,1,0
231751,372.670807453416,6,2,1,50,1,0
231937,370.37037037037,6,2,1,50,1,0
231937,-142.857142857143,6,2,1,50,0,0
233788,361.44578313253,6,2,1,50,1,0
234149,368.098159509202,6,2,1,60,1,0
236357,370.37037037037,6,2,1,60,1,0
240801,-125,6,2,1,60,0,0
243023,-125,6,2,1,50,0,0
260801,-100,6,2,1,70,0,0
278579,375,6,2,1,60,1,0
278954,-333.333333333333,6,2,1,60,0,0
280829,370.37037037037,6,2,1,60,1,0
280829,-250,6,2,1,60,0,0
283051,375,6,2,1,60,1,0
283801,384.615384615385,6,2,1,60,1,0
284185,410.958904109589,6,2,1,60,1,0
285006,428.571428571429,6,2,1,60,1,0
285434,434.782608695652,6,2,1,60,1,0
286520,-100,6,2,1,5,0,0
286738,-100,6,2,1,60,0,0
287647,521.739130434783,6,2,1,80,1,0
287907,350.877192982456,6,2,1,80,1,0
288042,428.571428571429,6,2,1,70,1,0
288149,-83.3333333333333,6,2,1,70,0,1
288363,-83.3333333333333,6,2,1,5,0,1
288470,370.37037037037,6,2,1,70,1,1
288470,-76.9230769230769,6,2,1,70,0,1
288745,-76.9230769230769,6,2,1,5,0,1
288840,379.746835443038,6,2,1,70,1,1
288840,-66.6666666666667,6,2,1,70,0,1
289124,-66.6666666666667,6,2,1,5,0,1
289219,372.670807453416,6,2,1,70,1,1
290337,370.37037037037,6,2,1,70,1,1
290892,-125,6,2,1,70,0,1
291448,-100,6,2,1,70,0,1
293670,-166.666666666667,6,2,1,70,0,1
293948,-166.666666666667,6,2,1,5,0,1
294040,-125,6,2,1,70,0,1
294318,-125,6,2,1,5,0,1
294411,-100,6,2,1,70,0,1
294688,-100,6,2,1,5,0,1
294781,-100,6,2,1,70,0,1
295892,-83.3333333333333,6,2,1,70,0,1
297003,-166.666666666667,6,2,1,70,0,1
297281,-166.666666666667,6,2,1,5,0,1
297374,-125,6,2,1,70,0,1
297651,-125,6,2,1,5,0,1
297744,-100,6,2,1,70,0,1
298022,-100,6,2,1,5,0,1
298114,-100,6,2,1,70,0,1
299225,-125,6,2,1,70,0,1
299503,-125,6,2,1,5,0,1
299596,-125,6,2,1,70,0,1
300337,-166.666666666667,6,2,1,70,0,1
300614,-166.666666666667,6,2,1,5,0,1
300707,-125,6,2,1,70,0,1
300985,-125,6,2,1,5,0,1
301077,-100,6,2,1,70,0,1
301355,-100,6,2,1,5,0,1
301448,-125,6,2,1,70,0,1
301725,-125,6,2,1,5,0,1
301818,-100,6,2,1,70,0,1
302096,-100,6,2,1,5,0,1
302188,-83.3333333333333,6,2,1,70,0,1
302466,-83.3333333333333,6,2,1,5,0,1
302559,-83.3333333333333,6,2,1,70,0,1
305522,-100,6,2,1,70,0,0
305892,-125,6,2,1,70,0,1
306170,-125,6,2,1,5,0,1
306262,-100,6,2,1,70,0,1
306540,-100,6,2,1,5,0,1
306633,-83.3333333333333,6,2,1,70,0,1
306911,-83.3333333333333,6,2,1,5,0,1
307003,-83.3333333333333,6,2,1,70,0,1
308670,-111.111111111111,6,2,1,70,0,1
309225,-83.3333333333333,6,2,1,70,0,1
312559,-100,6,2,1,70,0,1
314781,-125,6,2,1,70,0,1
315059,-125,6,2,1,5,0,1
315151,-100,6,2,1,70,0,1
315429,-100,6,2,1,5,0,1
315522,-83.3333333333333,6,2,1,70,0,1
315799,-83.3333333333333,6,2,1,5,0,1
315892,-83.3333333333333,6,2,1,70,0,1
317003,-125,6,2,1,70,0,1
317281,-125,6,2,1,5,0,1
317374,-125,6,2,1,70,0,1
321448,-100,6,2,1,70,0,1
322188,-133.333333333333,6,2,1,70,0,1
322559,-100,6,2,1,70,0,1
324781,-166.666666666667,6,2,1,70,0,1
325059,-166.666666666667,6,2,1,5,0,1
325151,-100,6,2,1,70,0,1
325429,-100,6,2,1,5,0,1
325522,-83.3333333333333,6,2,1,70,0,1
325799,-83.3333333333333,6,2,1,5,0,1
325892,-125,6,2,1,70,0,1
326170,-125,6,2,1,5,0,1
326262,-100,6,2,1,70,0,1
326540,-100,6,2,1,5,0,1
326633,-83.3333333333333,6,2,1,70,0,1
326911,-83.3333333333333,6,2,1,5,0,1
327003,-83.3333333333333,6,2,1,70,0,1
328114,-100,6,2,1,70,0,1
332559,357.142857142857,6,2,1,70,1,0
332559,-333.333333333333,6,2,1,70,0,0
333630,422.535211267606,6,2,1,70,1,0
334475,315.789473684211,6,2,1,70,1,0
334475,-200,6,2,1,70,0,0
334790,370.37037037037,6,2,1,70,1,1
335901,365.853658536585,6,2,1,70,1,1
336998,370.37037037037,6,2,1,70,1,1
352553,-285.714285714286,6,2,1,70,0,0
354775,-285.714285714286,6,2,1,65,0,0
356998,-285.714285714286,6,2,1,60,0,0
359220,-285.714285714286,6,2,1,55,0,0
360331,-285.714285714286,6,2,1,50,0,0
361164,-285.714285714286,6,2,1,40,0,0
370331,400,6,2,1,40,1,0
370331,-333.333333333333,6,2,1,40,0,0
372331,444.444444444444,6,2,1,40,1,0
372775,487.80487804878,6,2,1,40,1,0
372775,-333.333333333333,6,2,1,40,0,0
374238,500,6,2,1,40,1,0
375823,-100,6,2,1,20,0,0
375831,-100,6,2,1,5,0,0

[Colours]
Combo1 : 250,180,240
Combo2 : 120,200,230
Combo3 : 255,230,130
Combo4 : 160,230,150

[HitObjects]
256,192,16010,12,0,18047,0:0:0:0:
375,106,18164,5,0,0:0:0:0:
375,106,18264,1,2,0:0:0:0:
311,175,18616,1,0,0:0:0:0:
287,84,18982,2,0,B|235:68|221:99|165:77|165:77|191:127|251:133,1,215.999993408203,2|0,0:0|0:0,0:0:0:0:
287,84,20107,2,0,P|295:49|295:19,1,53.9999983520508
375,106,20482,6,0,B|443:113|477:100|477:100|455:120|446:137,1,144,2|0,0:0|0:0,0:0:0:0:
311,175,21963,2,0,B|269:163|277:191|231:177,1,72,2|0,0:0|0:0,0:0:0:0:
153,71,22694,6,0,B|127:104|138:130|138:130|161:171|150:205|124:256|124:256|105:215|43:196|43:196|13:235|26:310|26:310|54:297|62:285,1,450,2|0,0:0|0:0,0:0:0:0:
214,233,24906,2,0,B|263:251|306:237|306:237|349:286|305:324|305:324|261:307|198:316|198:316|248:354|241:389,1,360,2|0,0:0|0:0,0:0:0:0:
152,384,26757,1,0,0:0:0:0:
304,319,27128,2,0,P|369:310|464:330,2,161.999995056153,2|2|2,0:0|0:0|0:0,0:0:0:0:
441,197,30461,1,2,0:0:0:0:
331,80,31480,1,0,0:0:0:0:
331,80,31573,5,2,0:0:0:0:
157,134,32332,2,0,P|208:128|246:144,1,90,2|0,0:0|0:0,0:0:0:0:
98,220,33506,2,0,P|86:184|59:141,1,72,2|0,0:0|0:0,0:0:0:0:
379,355,35601,6,0,P|436:348|478:347,1,90,2|0,0:0|0:0,0:0:0:0:
309,292,36816,2,0,P|302:313|298:334,2,36,2|2|2,0:0|0:0|0:0,0:0:0:0:
193,337,37927,2,0,P|168:334|109:302,1,80.9999975280763,2|0,0:0|0:0,0:0:0:0:
54,99,39740,6,0,P|103:102|136:109,1,72,2|0,0:0|0:0,0:0:0:0:
231,102,40490,2,0,B|68:123|181:218|8:245,1,270,2|0,0:0|0:0,0:0:0:0:
169,298,42365,1,0,0:0:0:0:
259,343,42740,6,0,B|284:286|254:245|247:266|210:218|247:169|247:169|299:201|279:251,1,270,2|0,0:0|0:0,0:0:0:0:
248,109,44962,2,0,B|173:47|75:86|75:86|124:90|151:122,2,270,2|2|2,0:0|0:0|0:0,0:0:0:0:
187,189,48281,1,0,0:0:0:0:
48,248,49013,2,0,L|36:229,2,17.9999994506836,2|0|0,0:0|0:0|0:0,0:0:0:0:
48,248,49379,6,0,P|129:258|155:318,1,144,2|0,0:0|0:0,0:0:0:0:
231,256,50437,2,0,P|250:328|212:387,1,144,2|0,0:0|0:0,0:0:0:0:
134,301,51591,2,0,B|120:257|81:222|81:222|124:204|157:182|157:182|123:150|109:98,1,270,2|0,0:0|0:0,0:0:0:0:
247,106,53443,1,0,0:0:0:0:
361,50,53823,6,0,P|375:107|328:176,1,144,2|0,0:0|0:0,0:0:0:0:
383,239,54927,2,0,P|328:262|252:226,1,144,2|0,0:0|0:0,0:0:0:0:
215,72,56031,2,0,B|229:86|229:86|210:153,1,90,2|0,0:0|0:0,0:0:0:0:
18,16,57163,1,0,0:0:0:0:
18,16,57524,2,0,P|42:26|55:35,1,40.4999987640381,2|0,0:0|0:0,0:0:0:0:
100,37,57899,2,0,P|108:62|108:98,1,54,2|0,0:0|0:0,0:0:0:0:
136,116,58240,6,0,B|136:179|44:181|44:181|49:228|12:281|12:281|34:273|46:263,1,270,2|0,0:0|0:0,0:0:0:0:
195,374,60091,1,0,0:0:0:0:
327,342,60462,2,0,B|271:276|160:290|150:321|145:363|185:379|208:374,1,242.999992584229,2|0,0:0|0:0,0:0:0:0:
327,342,62314,1,0,0:0:0:0:
430,363,62684,2,0,B|430:307|466:277|466:277|424:260|401:231|401:231|446:189|432:127,1,276.75000422287,2|0,0:0|0:0,0:0:0:0:
420,32,64533,1,0,0:0:0:0:
325,113,64906,2,0,P|282:120|211:-2,1,202.499993820191,2|0,0:0|0:0,0:0:0:0:
284,35,66031,6,0,L|298:37,11,13.4999995880127
284,35,67156,6,0,P|224:37|171:89,1,125.999996154785,2|0,0:0|0:0,0:0:0:0:
67,94,67711,2,0,P|127:95|185:153,1,125.999996154785
203,210,68253,2,0,P|207:163|285:117,2,125.999996154785
178,315,69332,6,0,P|115:304|34:300,1,125.999996154785,2|0,0:0|0:0,0:0:0:0:
131,354,69886,2,0,P|194:343|277:338,1,125.999996154785
361,373,70456,2,0,P|375:307|426:270,2,125.999996154785
375,170,71567,6,0,P|331:150|306:64,1,125.999996154785,2|0,0:0|0:0,0:0:0:0:
388,77,72122,2,0,P|420:47|508:50,1,125.999996154785
467,138,72678,2,0,P|476:195|412:253,2,125.999996154785
262,97,73789,6,0,P|201:83|117:90,1,135,2|0,0:0|0:0,0:0:0:0:
58,111,74520,1,0,0:0:0:0:
35,125,74720,1,0,0:0:0:0:
20,17,74920,2,0,P|104:41|130:101,1,144,2|0,0:0|0:0,0:0:0:0:
10,331,76017,6,0,P|55:335|116:368,1,94.499997116089,6|0,0:0|0:0,0:0:0:0:
99,355,76387,1,0,0:0:0:0:
153,268,76572,2,0,P|202:318|206:378,1,125.999996154785
58,251,77128,2,0,P|90:187|150:169,2,125.999996154785
173,91,78239,6,0,P|207:120|234:189,1,94.499997116089,2|0,0:0|0:0,0:0:0:0:
229,164,78611,1,0,0:0:0:0:
327,125,78798,2,0,P|337:194|308:243,1,125.999996154785
233,69,79357,2,0,P|274:24|359:15,1,125.999996154785
464,182,80102,1,0,0:0:0:0:
464,182,80475,6,0,B|412:164|381:123|381:123|422:115|444:98|444:98|480:113|500:125,1,215.999993408203,2|0,0:0|0:0,0:0:0:0:
484,116,81406,1,0,0:0:0:0:
307,289,81593,2,0,P|298:186|307:170,1,107.999996704102,2|0,0:0|0:0,0:0:0:0:
328,107,82338,1,0,0:0:0:0:
98,354,82683,6,0,P|119:302|111:255,1,101.25,2|0,0:0|0:0,0:0:0:0:
0,159,83842,6,0,P|60:162|170:122,1,178.200004350586,2|0,0:0|0:0,0:0:0:0:
251,94,84933,6,0,L|248:110,34,15
251,94,87560,6,0,B|338:96|393:65|393:65|392:103|346:134,1,215.999993408203,2|0,0:0|0:0,0:0:0:0:
309,374,88916,6,0,P|282:301|312:231,1,157.5,2|0,0:0|0:0,0:0:0:0:
311,231,89839,2,0,P|270:217|212:216,1,72
19,258,90259,6,0,P|61:272|46:286,1,80.9999975280763,6|0,0:3|0:0,0:0:0:0:
68,150,90629,2,0,P|135:167|130:223,1,108,2|0,0:0|0:0,0:0:0:0:
178,27,90999,2,0,P|235:73|222:161,1,135,2|0,0:0|0:0,0:0:0:0:
219,222,91370,6,0,P|241:166|369:149,1,180,2|0,0:0|0:0,0:0:0:0:
393,241,91925,1,0,0:0:0:0:
450,92,92110,2,0,P|451:151|427:190,1,90
317,244,92481,6,0,P|269:228|133:253,1,180,2|0,0:0|0:0,0:0:0:0:
55,384,93036,2,0,L|67:317,1,67.5000025749208
37,185,93407,1,0,0:0:0:0:
171,384,93592,6,0,L|209:185,1,180,2|0,0:0|0:0,0:0:0:0:
222,129,94147,1,0,0:0:0:0:
282,205,94333,1,0,0:0:0:0:
122,107,94518,1,0,0:0:0:0:
304,47,94703,2,0,L|316:83,2,36,2|0|0,0:0|0:0|0:0,0:0:0:0:
474,163,95073,2,0,P|395:95|430:53,1,180
503,32,95629,1,0,0:0:0:0:
327,159,95814,6,0,P|304:137|244:138,1,94.499997116089,2|0,0:0|0:0,0:0:0:0:
250,51,96184,2,0,P|186:62|162:114,1,114.750002188683,2|0,0:0|0:0,0:0:0:0:
91,33,96555,2,0,P|76:85|119:180,1,135,2|0,0:0|0:0,0:0:0:0:
143,240,96925,6,0,B|103:247|35:217|35:217|66:252|76:274,1,180,2|0,0:0|0:0,0:0:0:0:
207,384,97481,1,0,0:0:0:0:
330,325,97666,2,0,P|293:310|234:301,1,90
43,349,98036,6,0,B|156:376|124:280|250:303,1,215.999993408203,2|0,0:0|0:0,0:0:0:0:
207,383,98592,1,0,0:0:0:0:
83,282,98777,1,0,0:0:0:0:
121,202,98962,1,0,0:0:0:0:
20,197,99147,6,0,P|11:245|7:281,1,80.9999975280763,6|0,0:3|0:0,0:0:0:0:
137,95,99518,2,0,P|127:147|119:213,1,108,2|0,0:0|0:0,0:0:0:0:
259,10,99888,2,0,P|246:76|238:153,1,135,2|0,0:0|0:0,0:0:0:0:
232,232,100258,6,0,B|313:195|370:231|370:231|353:273,1,180,2|0,0:0|0:0,0:0:0:0:
330,343,100814,1,0,0:0:0:0:
452,238,100999,2,0,P|441:184|391:149,1,90
197,151,101370,6,0,L|80:130,1,94.499997116089,2|0,0:0|0:0,0:0:0:0:
69,103,101740,2,0,L|194:87,1,125.999996154785
285,115,102296,1,0,0:0:0:0:
244,320,102481,6,0,P|216:314|167:339,1,80.9999975280763,2|0,0:0|0:0,0:0:0:0:
135,231,102851,2,0,P|101:276|93:326,1,108,2|0,0:0|0:0,0:0:0:0:
13,259,103221,2,0,P|2:323|48:398,1,135,2|0,0:0|0:0,0:0:0:0:
244,320,103592,6,0,P|235:291|166:257,1,108,2|0,0:0|0:0,0:0:0:0:
281,167,103962,2,0,P|221:133|144:145,1,141.749995674133,2|0,0:0|0:0,0:0:0:0:
198,23,104333,2,0,P|125:25|48:123,1,182.250000695229,2|0,0:0|0:0,0:0:0:0:
0,165,104703,2,0,P|77:211|113:302,1,180,2|0,0:0|0:0,0:0:0:0:
118,363,105258,1,0,0:0:0:0:
369,192,105444,5,0,0:0:0:0:
328,279,105629,1,0,0:0:0:0:
252,134,105814,5,2,0:0:0:0:
180,310,105999,1,0,0:0:0:0:
415,288,106184,6,0,B|248:321|323:186|171:217,1,270
36,278,106925,2,0,P|18:233|33:180,1,90,2|0,0:0|0:0,0:0:0:0:
119,61,107296,2,0,P|159:59|219:86,1,80.9999975280763,4|0,0:0|0:0,0:0:0:0:
317,109,107666,2,0,P|312:149|299:183,1,72
213,172,108036,6,0,B|151:225|143:301|199:368|199:368|272:317|253:257,1,345.6,6|0,0:0|0:0,0:0:0:0:
466,136,111740,2,0,P|434:133|401:140,1,57.6
385,57,112481,6,0,B|327:89|307:145|307:145|260:96|224:62|174:49|129:69|64:96|112:158|171:163,1,432
14,356,116184,2,0,L|7:388,3,26.9999991760254
14,356,116925,6,0,B|148:251|197:407|326:309,1,323.999990112305,0|2,0:0|0:0,0:0:0:0:
487,159,121370,6,0,P|459:152|425:147,2,53.9999983520508
365,50,122481,2,0,P|393:43|427:38,2,53.9999983520508
280,81,123592,1,2,0:0:0:0:
474,375,125814,6,0,P|474:339|476:320,1,53.9999983520508
392,241,126555,2,0,P|405:237|418:235,2,26.9999991760254
317,266,127296,1,0,0:0:0:0:
493,219,128036,1,2,0:0:0:0:
12,41,130244,6,0,B|59:49|87:86|87:86|150:32|238:34|238:34|201:75|192:124,1,345.6000084375,2|0,0:0|0:0,0:0:0:0:
181,203,132184,1,0,0:0:0:0:
77,368,132618,6,0,B|114:319|113:259|113:259|127:320|170:342|170:342|212:364|272:370|287:327|284:296|263:277|221:275,1,409.499987503052,2|0,0:0|0:0,0:0:0:0:
472,53,135351,6,0,B|353:19|395:151|236:93,1,251.999992309571,6|0,3:0|0:0,0:0:0:0:
239,94,136276,1,0,0:0:0:0:
141,13,136462,2,0,P|154:57|147:140,1,107.999996704102,2|0,0:0|0:0,0:0:0:0:
23,317,137202,1,0,0:0:0:0:
23,317,137573,6,0,B|79:320|106:298|106:298|131:341|131:341|180:322|219:337,1,215.999993408203,2|0,0:0|0:0,0:0:0:0:
361,378,138684,2,0,P|319:335|423:307,1,215.999993408203,2|0,0:0|0:0,0:0:0:0:
283,178,139795,6,0,B|216:182|156:166|156:166|201:207|249:208,1,215.999993408203,2|0,0:0|0:0,0:0:0:0:
232,206,140721,1,0,0:0:0:0:
346,107,140906,2,0,P|374:154|365:215,1,107.999996704102,2|0,0:0|0:0,0:0:0:0:
236,91,141647,1,0,0:0:0:0:
236,91,142017,6,0,P|344:113|457:60,1,215.999993408203,2|0,0:0|0:0,0:0:0:0:
385,250,143128,1,2,0:0:0:0:
242,176,143499,2,0,P|190:163|123:168,1,107.999996704102
268,259,144239,6,0,P|323:199|261:94,1,215.999993408203,2|0,0:0|0:0,0:0:0:0:
265,96,145165,1,0,0:0:0:0:
397,99,145351,2,0,P|460:110|508:107,1,107.999996704102,2|0,0:0|0:0,0:0:0:0:
297,153,146091,2,0,P|249:147|194:149,1,80.9999975280763
194,161,146462,6,0,P|153:175|184:80,1,215.999993408203,2|0,0:0|0:0,0:0:0:0:
17,138,147388,1,0,0:0:0:0:
17,138,147573,2,0,B|-10:210|49:273|49:273|48:230|59:204,1,215.999993408203,2|0,0:0|0:0,0:0:0:0:
228,284,148684,6,0,P|174:256|109:254,1,107.999996704102,2|0,0:0|0:0,0:0:0:0:
0,290,149424,1,0,0:0:0:0:
59,384,149610,1,0,0:0:0:0:
59,384,149795,2,0,P|106:358|159:351,1,107.999996704102,2|0,0:0|0:0,0:0:0:0:
299,367,150536,1,0,0:0:0:0:
299,367,150906,6,0,P|314:253|384:311,1,215.999993408203,2|2,0:0|0:0,0:0:0:0:
371,276,152017,2,0,B|371:227|401:191|401:191|376:170|376:170|399:128|374:76,1,215.999993408203,2|0,0:0|0:0,0:0:0:0:
294,127,153128,6,0,P|208:80|184:183,1,215.999993408203,6|0,0:3|0:0,0:0:0:0:
199,245,154054,1,0,0:0:0:0:
44,177,154239,2,0,P|101:206|116:260,1,107.999996704102,2|0,0:0|0:0,0:0:0:0:
115,378,154980,1,0,0:0:0:0:
223,281,155350,6,0,B|101:257|146:370|18:337,1,215.999993408203,6|0,0:3|0:0,0:0:0:0:
42,160,156462,2,0,P|66:220|50:268,2,107.999996704102,2|0|0,0:0|0:0|0:0,0:0:0:0:
139,188,157573,6,0,P|185:175|267:182,1,107.999996704102,6|0,0:3|0:0,0:0:0:0:
405,246,158313,1,0,0:0:0:0:
396,332,158499,1,0,0:0:0:0:
325,291,158684,2,0,P|312:230|370:148,1,161.999995056153,2|0,0:0|0:0,0:0:0:0:
455,64,159425,2,0,P|426:68|361:58,1,80.9999975280763
347,47,159795,6,0,P|298:47|244:84,2,107.999996704102,6|0|0,0:3|0:0|0:0,0:0:0:0:
455,64,160906,1,2,0:0:0:0:
446,248,161276,2,0,P|431:211|429:180,1,53.9999983520508,2|0,0:0|0:0,0:0:0:0:
388,116,161647,2,0,P|357:142|329:154,1,53.9999983520508,2|0,0:0|0:0,0:0:0:0:
277,189,162017,6,0,P|218:171|103:176,1,161.999995056153,6|0,0:3|0:0,0:0:0:0:
45,192,162758,1,0,0:0:0:0:
130,356,162943,1,0,0:0:0:0:
130,356,163128,2,0,P|136:313|108:236,1,107.999996704102,2|0,0:0|0:0,0:0:0:0:
219,307,163869,1,0,0:0:0:0:
219,307,164239,6,0,P|282:298|390:333,1,161.999995056153,2|0,0:0|0:0,0:0:0:0:
451,358,164980,1,0,0:0:0:0:
470,211,165165,1,0,0:0:0:0:
470,211,165350,2,0,P|482:260|472:315,1,107.999996704102,2|0,0:0|0:0,0:0:0:0:
331,365,165906,1,0,0:0:0:0:
331,365,166091,2,0,L|317:310,1,53.9999983520508
299,232,166462,6,0,P|377:244|412:274,1,107.999996704102,2|0,0:0|0:0,0:0:0:0:
399,260,167017,1,0,0:0:0:0:
230,283,167202,1,0,0:0:0:0:
230,283,167573,2,0,P|214:231|238:169,2,107.999996704102,2|0|0,0:0|0:0|0:0,0:0:0:0:
155,137,168684,6,0,P|278:115|306:206,1,215.999993408203,2|0,0:0|0:0,0:0:0:0:
240,311,169656,1,0,0:0:0:0:
240,311,169795,2,0,B|183:274|116:293|92:330|92:330|156:331|161:259,1,269.999991760254,2|0,0:0|0:0,0:0:0:0:
78,190,170906,6,0,P|47:185|6:181,1,67.5000025749208,6|0,0:3|0:0,0:0:0:0:
161,262,171276,1,0,0:0:0:0:
161,262,171462,2,0,P|204:256|233:253,1,67.5000025749208
315,116,171832,1,0,0:0:0:0:
315,116,172018,6,0,P|308:156|306:188,1,67.5000025749208,2|0,0:3|0:0,0:0:0:0:
395,333,172388,2,0,P|392:297|386:261,1,67.5000025749208
489,254,172758,2,0,P|487:220|479:181,1,67.5000025749208
311,307,173128,6,0,P|279:301|215:295,1,67.5000025749208,2|0,0:3|0:0,0:0:0:0:
125,221,173499,1,0,0:0:0:0:
125,221,173684,2,0,P|157:215|221:209,1,67.5000025749208
170,54,174054,1,0,0:0:0:0:
170,54,174239,6,0,P|174:106|172:146,1,67.5000025749208,2|0,0:3|0:0,0:0:0:0:
43,260,174610,2,0,P|43:226|46:192,1,67.5000025749208
9,105,174980,2,0,P|42:104|76:101,1,67.5000025749208
217,204,175350,6,0,P|250:204|284:207,1,67.5000025749208,6|0,0:3|0:0,0:0:0:0:
323,119,175721,1,0,0:0:0:0:
323,119,175906,2,0,P|348:140|372:165,1,67.5000025749208
463,132,176276,1,0,0:0:0:0:
463,132,176462,6,0,P|468:165|470:198,1,67.5000025749208,2|0,0:3|0:0,0:0:0:0:
347,356,176832,2,0,P|352:322|354:289,1,67.5000025749208
263,192,177202,2,0,P|318:186|361:190,1,67.5000025749208
193,284,177573,6,0,B|129:306|60:281|60:281|104:279|136:255,1,202.500007724762,2|0,0:3|0:0,0:0:0:0:
71,195,178313,2,0,P|76:156|95:121,1,67.5000025749208
145,60,178684,5,2,0:3:0:0:
174,62,178807,5,0,0:0:0:0:
204,64,178930,5,0,0:0:0:0:
234,66,179054,6,0,L|293:71,2,45.0000017166138
457,148,179425,2,0,L|353:157,1,90.0000034332277
281,264,179795,6,0,B|263:201|285:149|285:149|289:176|297:199,1,153.000002918243,6|0,0:3|0:0,0:0:0:0:
405,359,180350,2,0,B|423:296|401:244|401:244|397:271|389:294,1,153.000002918243
217,319,180906,2,0,P|246:340|308:346,1,76.5000014591217,2|0,0:3|0:0,0:0:0:0:
192,213,181276,2,0,P|159:227|123:278,1,76.5000014591217,2|0,0:3|0:0,0:0:0:0:
296,242,181647,2,0,P|299:206|273:149,1,76.5000014591217,2|0,0:3|0:0,0:0:0:0:
0,69,182017,6,0,P|90:54|153:51,1,153.000002918243,6|0,0:3|0:0,0:0:0:0:
287,168,182573,2,0,P|197:153|134:150,1,153.000002918243
344,45,183128,2,0,P|311:59|275:110,1,76.5000014591217,2|0,0:3|0:0,0:0:0:0:
448,76,183498,2,0,P|451:40|425:-16,1,76.5000014591217,2|0,0:3|0:0,0:0:0:0:
371,151,183869,2,0,P|400:171|462:177,1,76.5000014591217,2|0,0:3|0:0,0:0:0:0:
378,349,184239,6,0,P|371:250|315:315,1,229.500004377365,6|0,0:3|0:0,0:0:0:0:
142,201,184980,1,2,0:3:0:0:
219,346,185165,1,0,0:0:0:0:
219,346,185350,2,0,P|152:339|63:354,2,153.000002918243,2|0|2,0:3|0:0|0:3,0:0:0:0:
380,257,186462,6,0,B|310:230|265:272|265:272|219:224|219:224|166:277|102:244,1,306.000005836487,6|2,0:3|0:3,0:0:0:0:
39,107,187388,1,0,0:0:0:0:
39,107,187573,2,0,B|106:129|150:173|150:173|164:117|219:68|219:68|251:120|293:136|293:136|328:101|367:95,1,420.75000802517,2|0,0:3|0:0,0:0:0:0:
410,63,188692,6,0,L|401:52,34,8.99999972534181,4|0|0|0|0|0|0|0|0|0|0|0|0|0|0|0|0|0|0|0|0|0|0|0|0|0|0|0|0|0|0|0|0|0|0,0:0|0:0|0:0|0:0|0:0|0:0|0:0|0:0|0:0|0:0|0:0|0:0|0:0|0:0|0:0|0:0|0:0|0:0|0:0|0:0|0:0|0:0|0:0|0:0|0:0|0:0|0:0|0:0|0:0|0:0|0:0|0:0|0:0|0:0|0:0,0:0:0:0:
410,63,191319,6,0,P|399:151|396:256,1,180,2|0,0:0|0:0,0:0:0:0:
310,101,192682,6,0,P|250:88|161:83,1,144,2|0,0:0|0:0,0:0:0:0:
10,228,193591,2,0,P|52:231|114:215,1,90
378,100,194126,6,0,P|387:141|384:185,1,80.9999975280763,6|0,0:3|0:0,0:0:0:0:
451,249,194526,2,0,P|403:273|325:265,1,108,2|0,0:0|0:0,0:0:0:0:
253,355,194926,2,0,P|235:282|278:218,1,135,2|0,0:0|0:0,0:0:0:0:
284,130,195274,2,0,B|317:81|310:30|274:-1|274:-1|284:41|257:85,1,215.999993408203,2|2,0:3|0:0,0:0:0:0:
183,25,195829,1,0,0:0:0:0:
114,101,196014,2,0,P|127:149|149:193,1,72,2|2,0:0|0:0,0:0:0:0:
234,251,196385,6,0,P|180:243|50:260,1,180,2|0,0:3|0:0,0:0:0:0:
90,383,196940,2,0,P|121:348|131:316,1,72,2|2,0:0|0:3,0:0:0:0:
112,156,197310,1,2,0:0:0:0:
293,322,197496,6,0,P|266:238|169:183,1,180,2|0,0:0|0:0,0:0:0:0:
112,156,198051,1,2,0:0:0:0:
222,109,198236,1,2,0:3:0:0:
291,160,198422,1,2,0:0:0:0:
455,117,198607,1,6,0:3:0:0:
512,176,198792,1,0,0:0:0:0:
437,198,198977,2,0,P|368:100|392:57,1,180,2|0,0:0|0:0,0:0:0:0:
452,10,199533,1,2,0:0:0:0:
238,147,199718,6,0,P|273:158|321:159,1,80.9999975280763,2|0,0:3|0:0,0:0:0:0:
229,47,200088,2,0,P|189:60|143:113,1,108,2|0,0:0|0:0,0:0:0:0:
53,9,200459,2,0,P|34:63|64:151,1,135,2|0,0:0|0:0,0:0:0:0:
76,216,200829,2,0,B|147:314|29:295|112:409,1,180,2|0,0:3|0:0,0:0:0:0:
202,384,201385,1,2,0:0:0:0:
420,332,201570,2,0,P|378:316|334:309,1,90,2|2,0:3|0:0,0:0:0:0:
171,271,201940,6,0,B|283:298|251:202|372:225,1,215.999993408203,2|2,0:3|0:0,0:0:0:0:
333,309,202496,1,2,0:0:0:0:
206,195,202681,1,2,0:3:0:0:
185,106,202866,1,2,0:0:0:0:
278,129,203051,6,0,P|301:151|313:204,1,80.9999975280763,6|0,0:3|0:0,0:0:0:0:
427,204,203422,2,0,P|424:246|381:298,1,108,2|0,0:0|0:0,0:0:0:0:
261,348,203792,2,0,P|218:333|126:333,1,135,2|0,0:0|0:0,0:0:0:0:
47,355,204162,2,0,B|20:363|0:374|0:374|29:313|26:219,1,180,2|2,0:3|0:0,0:0:0:0:
75,147,204718,1,2,0:0:0:0:
226,258,204903,2,0,P|278:251|333:253,1,90,2|2,0:0|0:0,0:0:0:0:
454,35,205273,6,0,P|442:82|434:154,1,94.499997116089,2|0,0:3|0:0,0:0:0:0:
357,187,205644,2,0,P|356:125|335:45,1,125.999996154785,2|2,0:0|0:3,0:0:0:0:
445,207,206199,1,0,0:0:0:0:
238,79,206385,6,0,P|208:78|141:89,1,80.9999975280763,2|0,0:0|0:0,0:0:0:0:
45,172,206755,2,0,P|95:168|158:182,1,108,2|0,0:0|0:0,0:0:0:0:
248,307,207125,2,0,P|253:231|190:276,1,161.999995056153,2|0,0:3|0:0,0:0:0:0:
160,326,207496,6,0,P|167:351|239:387,1,108,6|0,0:3|0:0,0:0:0:0:
322,192,207866,2,0,P|280:159|183:156,1,141.749995674133,2|0,0:0|0:0,0:0:0:0:
315,338,208236,2,0,P|382:333|434:221,1,182.250000695229,2|0,0:0|0:0,0:0:0:0:
512,127,208607,2,0,P|438:148|395:5,1,243.000000926971,2|2,0:3|0:0,0:0:0:0:
453,67,209162,1,2,0:0:0:0:
297,217,209348,5,2,0:0:0:0:
281,116,209533,1,2,0:0:0:0:
170,244,209718,5,2,0:3:0:0:
146,77,209903,1,2,0:3:0:0:
289,280,210088,6,0,B|214:247|159:302|159:302|104:360|37:314,1,270,2|0,0:0|0:0,0:0:0:0:
65,134,210829,2,0,P|64:77|77:19,1,90,2|0,0:0|0:0,0:0:0:0:
220,157,211199,2,0,P|220:196|211:257,1,80.9999975280763,6|0,0:0|0:0,0:0:0:0:
349,118,211570,2,0,P|347:77|354:43,1,72,2|0,0:3|0:0,0:0:0:0:
416,230,211940,6,0,P|477:246|425:211,1,180,6|0,0:3|0:0,0:0:0:0:
341,322,212496,1,0,0:0:0:0:
243,363,212681,2,0,P|201:348|133:351,1,90,2|0,0:3|0:0,0:0:0:0:
46,345,213051,6,0,P|32:296|51:229,1,90,2|2,0:0|0:3,0:0:0:0:
100,183,213422,1,2,0:3:0:0:
152,260,213607,1,0,0:0:0:0:
219,165,213792,2,0,P|258:136|305:119,1,72,2|2,0:3|0:3,0:0:0:0:
365,218,214144,6,0,P|329:204|158:207,1,180,2|2,0:3|0:0,0:0:0:0:
84,224,214699,1,0,0:0:0:0:
27,384,214884,2,0,P|37:324|35:275,1,90,2|0,0:3|0:0,0:0:0:0:
26,152,215255,5,2,0:3:0:0:
175,248,215625,2,0,P|163:300|170:353,1,107.999996704102
446,171,216366,2,0,B|291:141|231:194|231:194|206:169|197:135|197:135|161:146|139:173|139:173|113:152|64:144,1,432,6|2,0:0|0:0,0:0:0:0:
344,285,219699,1,2,0:0:0:0:
485,378,220440,1,2,0:0:0:0:
485,378,220810,6,0,P|486:335|489:302,2,72,2|0|0,0:0|0:0|0:0,0:0:0:0:
325,243,221921,2,0,P|392:208|467:232,1,144,2|0,0:0|0:0,0:0:0:0:
245,334,223032,2,0,P|200:243|305:132,1,269.999991760254,2|0,0:0|0:0,0:0:0:0:
140,111,225268,6,0,P|147:148|128:195,1,62.9999980773926,6|0,0:0|0:0,0:0:0:0:
59,144,225629,2,0,P|23:131|-7:91,1,62.9999980773926
67,58,225990,2,0,P|95:33|148:27,1,62.9999980773926
232,53,226365,1,0,0:0:0:0:
305,98,226552,1,0,0:0:0:0:
344,149,226740,1,0,0:0:0:0:
360,190,226924,1,0,0:0:0:0:
366,216,227108,1,0,0:0:0:0:
368,233,227288,1,0,0:0:0:0:
369,246,227469,6,0,L|361:331,1,62.9999980773926,2|0,0:0|0:0,0:0:0:0:
258,288,227848,2,0,L|250:373,1,62.9999980773926
120,384,228220,2,0,L|112:299,1,62.9999980773926
104,229,228577,1,0,0:0:0:0:
95,149,228764,1,0,0:0:0:0:
86,93,228952,1,0,0:0:0:0:
83,58,229139,1,0,0:0:0:0:
79,33,229327,1,0,0:0:0:0:
77,18,229507,1,0,0:0:0:0:
77,8,229688,6,0,P|125:13|156:35,1,62.9999980773926,2|0,0:0|0:0,0:0:0:0:
248,85,230067,2,0,P|219:124|183:134,1,62.9999980773926
45,207,230442,2,0,P|88:228|107:257,1,62.9999980773926
163,334,230821,1,0,0:0:0:0:
233,370,231005,1,0,0:0:0:0:
286,318,231189,1,0,0:0:0:0:
277,277,231376,1,0,0:0:0:0:
256,251,231564,1,0,0:0:0:0:
241,243,231751,1,0,0:0:0:0:
227,239,231937,6,0,P|171:185|224:82,1,188.999994232178,2|2,0:0|0:0,0:0:0:0:
305,41,232677,1,2,0:0:0:0:
395,164,233048,2,0,P|331:151|258:151,2,125.999996154785,2|0|0,0:0|0:0|0:0,0:0:0:0:
25,67,234149,5,2,0:0:0:0:
158,49,234333,1,0,0:0:0:0:
28,100,234517,5,2,0:0:0:0:
148,104,234701,1,0,0:0:0:0:
22,133,234885,5,2,0:0:0:0:
127,154,235069,1,0,0:0:0:0:
11,166,235253,5,2,0:0:0:0:
54,186,235437,1,2,0:0:0:0:
97,224,235621,1,2,0:0:0:0:
136,284,235805,1,2,0:0:0:0:
211,320,235989,1,2,0:0:0:0:
298,296,236173,1,2,0:0:0:0:
222,234,236357,5,2,0:0:0:0:
284,157,236542,1,0,0:0:0:0:
361,219,236727,1,0,0:0:0:0:
298,296,236912,1,0,0:0:0:0:
254,195,237097,5,0,0:0:0:0:
332,186,237282,1,0,0:0:0:0:
340,264,237468,5,2,0:0:0:0:
261,272,237652,1,2,0:0:0:0:
184,223,237838,1,2,0:0:0:0:
181,124,238023,1,2,0:0:0:0:
253,54,238208,1,2,0:0:0:0:
364,62,238393,1,2,0:0:0:0:
465,191,238579,5,2,0:0:0:0:
305,109,238764,1,0,0:0:0:0:
464,145,238949,5,0,0:0:0:0:
303,153,239134,1,0,0:0:0:0:
444,113,239319,5,0,0:0:0:0:
323,191,239504,1,0,0:0:0:0:
200,110,239690,5,2,0:0:0:0:
167,219,239875,1,2,0:0:0:0:
159,123,240060,5,2,0:0:0:0:
196,204,240245,1,2,0:0:0:0:
81,277,240431,2,0,P|134:290|172:321,1,90,2|2,0:0|0:0,0:0:0:0:
250,334,240801,6,0,P|339:328|475:385,1,216,2|2,0:0|0:0,0:0:0:0:
363,230,241542,1,2,0:0:0:0:
158,141,241912,2,0,P|234:137|312:106,2,144,2|2|2,0:0|0:0|0:0,0:0:0:0:
47,24,243023,6,0,L|38:76,1,36,6|0,0:3|0:0,0:0:0:0:
158,141,243208,1,2,0:0:0:0:
158,141,243301,1,0,0:0:0:0:
158,141,243394,6,0,L|144:74,1,36,2|0,0:0|0:0,0:0:0:0:
25,170,243579,1,2,0:0:0:0:
22,183,243671,1,0,0:0:0:0:
20,197,243764,2,0,L|11:241,1,36,2|0,0:0|0:0,0:0:0:0:
150,256,243949,1,2,0:0:0:0:
153,269,244041,1,2,0:0:0:0:
155,283,244134,6,0,L|214:263,1,36,2|0,0:3|0:0,0:0:0:0:
298,248,244319,1,2,0:0:0:0:
242,364,244505,6,0,L|180:353,1,36,2|0,0:0|0:0,0:0:0:0:
103,339,244690,1,2,0:0:0:0:
298,248,244875,2,0,P|341:300|330:382,1,144,2|2,0:0|0:3,0:0:0:0:
420,293,245431,1,2,0:3:0:0:
259,328,245616,5,0,0:0:0:0:
192,213,245801,1,2,0:0:0:0:
78,316,245986,2,0,P|121:312|162:313,1,72,2|2,0:3|0:3,0:0:0:0:
34,233,246357,1,2,0:0:0:0:
120,384,246542,1,0,0:0:0:0:
154,237,246727,1,2,0:0:0:0:
8,342,246912,1,0,0:0:0:0:
0,151,247097,2,0,P|-7:191|-10:247,1,72,2|2,0:3|0:3,0:0:0:0:
126,157,247468,6,0,P|126:89|115:-2,1,144,2|2,0:3|0:0,0:0:0:0:
230,112,248023,1,2,0:0:0:0:
391,51,248208,2,0,P|352:46|290:54,1,72,2|0,0:0|0:0,0:0:0:0:
308,178,248579,6,0,P|347:183|409:175,1,72,2|0,0:3|0:0,0:0:0:0:
512,104,248949,1,2,0:0:0:0:
512,104,249042,1,0,0:0:0:0:
512,104,249134,1,2,0:0:0:0:
512,288,249319,1,2,0:3:0:0:
389,206,249505,1,2,0:3:0:0:
392,384,249690,6,0,P|308:357|226:360,1,144,2|2,0:3|0:0,0:0:0:0:
116,196,250245,1,2,0:0:0:0:
129,219,250337,1,0,0:0:0:0:
138,244,250430,1,2,0:3:0:0:
141,271,250522,1,2,0:0:0:0:
139,298,250616,6,0,L|125:343,1,36,2|2,0:3|0:0,0:0:0:0:
252,233,250801,2,0,L|223:195,1,36,2|2,0:0|0:0,0:0:0:0:
268,360,250986,2,0,L|301:350,1,36,2|2,0:0|0:0,0:0:0:0:
395,256,251171,2,0,L|442:266,2,48,2|0|0,0:3|0:0|0:0,0:0:0:0:
364,245,251542,5,2,0:3:0:0:
340,204,251665,5,2,0:0:0:0:
340,130,251789,5,2,0:0:0:0:
389,60,251912,6,0,L|441:64,1,36,2|0,0:3|0:0,0:0:0:0:
249,143,252097,1,2,0:3:0:0:
249,143,252190,1,0,0:0:0:0:
249,143,252283,6,0,L|181:133,1,36,2|0,0:0|0:0,0:0:0:0:
20,68,252468,2,0,L|43:15,1,36,2|0,0:0|0:0,0:0:0:0:
122,130,252653,2,0,L|137:190,1,36,2|0,0:3|0:0,0:0:0:0:
26,213,252838,1,2,0:0:0:0:
18,234,252930,1,2,0:0:0:0:
10,253,253023,6,0,L|28:304,1,36,2|0,0:3|0:0,0:0:0:0:
111,384,253208,1,2,0:3:0:0:
111,384,253301,1,0,0:0:0:0:
111,384,253394,2,0,L|137:318,1,36,2|0,0:0|0:0,0:0:0:0:
198,204,253579,6,0,L|216:255,1,36,2|0,0:0|0:0,0:0:0:0:
265,360,253764,2,0,L|291:294,1,36,2|2,0:3|0:0,0:0:0:0:
335,172,253949,1,2,0:3:0:0:
156,63,254134,2,0,P|126:53|53:52,1,72,2|2,0:3|0:3,0:0:0:0:
21,202,254505,6,0,P|108:173|173:173,1,144,2|2,0:0|0:3,0:0:0:0:
247,180,255060,1,2,0:3:0:0:
106,302,255245,1,2,0:0:0:0:
106,302,255337,1,0,0:0:0:0:
106,302,255431,1,0,0:0:0:0:
247,180,255616,1,2,0:0:0:0:
245,206,255708,1,0,0:0:0:0:
243,233,255801,6,0,L|234:297,1,36,2|0,0:0|0:0,0:0:0:0:
342,384,255986,2,0,L|333:320,1,36,2|0,0:3|0:0,0:0:0:0:
443,227,256171,2,0,L|461:261,2,24,2|0|0,0:3|0:0|0:0,0:0:0:0:
446,215,256356,6,0,L|461:123,1,72,2|0,0:3|0:0,0:0:0:0:
337,154,256727,1,2,0:0:0:0:
486,55,256912,1,0,0:0:0:0:
313,38,257097,2,0,P|281:31|223:29,1,72,2|0,0:0|0:0,0:0:0:0:
142,150,257468,2,0,P|185:142|213:142,1,72,2|0,0:3|0:0,0:0:0:0:
364,136,257838,1,2,0:0:0:0:
362,162,257930,1,0,0:0:0:0:
360,189,258023,1,2,0:0:0:0:
359,216,258115,1,0,0:0:0:0:
357,243,258208,6,0,B|345:400,1,144,2|2,0:0|0:3,0:0:0:0:
431,341,258764,5,2,0:3:0:0:
330,367,258949,1,2,0:0:0:0:
225,306,259134,1,0,0:0:0:0:
231,170,259319,1,2,0:3:0:0:
390,121,259505,1,2,0:3:0:0:
447,187,259690,5,2,0:0:0:0:
423,283,259875,1,2,0:0:0:0:
325,321,260060,5,2,0:0:0:0:
204,263,260246,1,2,0:0:0:0:
58,187,260431,5,2,0:0:0:0:
93,354,260616,1,2,0:0:0:0:
269,159,260801,6,0,P|236:145|167:163,1,90,6|0,0:3|0:0,0:0:0:0:
58,187,261171,1,2,0:0:0:0:
204,263,261356,1,0,0:0:0:0:
204,263,261449,1,0,0:0:0:0:
204,263,261542,2,0,L|188:356,2,60,2|2|2,0:3|0:0|0:0,0:0:0:0:
341,322,261912,2,0,L|357:415,2,60,2|2|2,0:3|0:0|0:0,0:0:0:0:
451,152,262283,5,2,0:0:0:0:
459,194,262406,5,2,0:0:0:0:
433,230,262530,5,2,0:0:0:0:
390,235,262653,6,0,P|336:221|257:223,1,135,2|0,0:3|0:0,0:0:0:0:
170,355,263023,2,0,P|177:303|173:235,1,90,2|0,0:3|0:0,0:0:0:0:
146,83,263394,1,2,0:0:0:0:
219,181,263579,1,2,0:0:0:0:
2,189,263764,2,0,B|64:213|120:195|120:195|107:226|57:255,1,180,2|2,0:3|0:3,0:0:0:0:
5,290,264319,1,0,0:0:0:0:
102,109,264505,2,0,P|157:110|199:121,1,90,2|2,0:0|0:0,0:0:0:0:
265,45,264875,2,0,P|291:93|303:135,1,90,2|0,0:3|0:0,0:0:0:0:
486,149,265245,6,0,P|441:153|401:173,1,90,6|0,0:3|0:0,0:0:0:0:
291,275,265616,1,2,0:0:0:0:
491,243,265801,1,0,0:0:0:0:
491,243,265894,1,0,0:0:0:0:
491,243,265986,2,0,L|480:326,2,60,2|2|2,0:3|0:0|0:0,0:0:0:0:
363,325,266356,2,0,L|374:408,2,60,2|2|2,0:3|0:0|0:0,0:0:0:0:
239,353,266727,5,2,0:0:0:0:
209,350,266850,5,2,0:0:0:0:
179,348,266973,5,2,0:0:0:0:
149,345,267097,6,0,P|109:342|28:350,1,90,2|0,0:3|0:0,0:0:0:0:
66,162,267468,2,0,P|57:222|54:274,1,90,2|0,0:3|0:0,0:0:0:0:
136,83,267838,1,2,0:0:0:0:
204,219,268023,1,2,0:0:0:0:
136,83,268208,2,0,B|133:73|94:47|94:47|170:53|213:83,1,180,2|2,0:3|0:3,0:0:0:0:
211,82,268764,1,0,0:0:0:0:
410,46,268949,1,2,0:0:0:0:
360,154,269134,1,2,0:0:0:0:
451,123,269319,2,0,P|443:187|448:274,1,135,2|0,0:3|0:0,0:0:0:0:
455,347,269690,6,0,P|408:335|354:351,1,90,2|0,0:3|0:0,0:0:0:0:
319,256,270060,2,0,P|284:301|274:356,1,90,2|0,0:0|0:0,0:0:0:0:
432,258,270431,5,2,0:3:0:0:
427,224,270554,5,2,0:0:0:0:
413,194,270677,5,2,0:0:0:0:
390,169,270801,6,0,P|332:153|281:158,1,90,2|0,0:3|0:0,0:0:0:0:
158,197,271171,1,2,0:0:0:0:
220,89,271356,1,0,0:0:0:0:
220,89,271449,1,0,0:0:0:0:
220,89,271542,2,0,P|204:160|214:277,1,180,2|2,0:3|0:3,0:0:0:0:
236,346,272097,1,2,0:3:0:0:
413,299,272282,2,0,P|345:282|310:284,1,90,0|2,0:0|0:0,0:0:0:0:
202,174,272653,2,0,P|205:226|211:268,1,90,2|0,0:3|0:0,0:0:0:0:
79,358,273023,2,0,P|82:306|88:264,1,90,2|0,0:0|0:0,0:0:0:0:
99,177,273394,5,2,0:0:0:0:
282,226,273579,1,0,0:0:0:0:
149,87,273764,5,2,0:3:0:0:
266,134,273949,1,0,0:0:0:0:
232,25,274134,6,0,B|302:44|374:34|374:34|363:56|358:74,1,180,2|0,0:3|0:0,0:0:0:0:
366,255,274690,1,2,0:0:0:0:
427,182,274875,2,0,P|438:122|434:84,1,90,0|2,0:0|0:0,0:0:0:0:
266,134,275245,6,0,B|212:139|177:175|177:175|156:130|104:110,1,180,2|0,0:3|0:0,0:0:0:0:
83,229,275801,1,2,0:0:0:0:
258,334,275986,2,0,P|261:273|256:238,1,90,0|2,0:0|0:0,0:0:0:0:
213,360,276356,5,2,0:3:0:0:
297,351,276542,1,2,0:3:0:0:
163,264,276727,5,0,0:0:0:0:
351,277,276912,1,2,0:0:0:0:
133,166,277097,5,2,0:3:0:0:
383,143,277282,1,2,0:0:0:0:
254,244,277468,2,0,P|257:183|252:148,1,90,2|0,0:0|0:0,0:0:0:0:
220,3,277838,5,2,0:3:0:0:
175,208,278023,1,2,0:3:0:0:
3,97,278208,1,6,0:0:0:0:
88,155,278394,1,0,0:0:0:0:
114,47,278579,5,6,0:0:0:0:
114,47,278954,2,0,L|138:58,1,26.9999991760254
243,112,279329,2,0,L|210:127,1,26.9999991760254
104,29,279704,2,0,L|128:40,1,26.9999991760254
257,119,280079,2,0,L|224:134,1,26.9999991760254
99,15,280454,1,0,0:0:0:0:
156,162,280641,1,0,0:0:0:0:
266,43,280829,6,0,L|276:91,1,36,2|0,0:0|0:0,0:0:0:0:
305,215,281199,1,0,0:0:0:0:
377,103,281384,1,0,0:0:0:0:
287,127,281569,1,0,0:0:0:0:
395,195,281754,1,0,0:0:0:0:
277,295,281940,5,0,0:0:0:0:
143,200,282125,1,0,0:0:0:0:
160,315,282310,1,0,0:0:0:0:
262,180,282495,1,0,0:0:0:0:
342,340,282680,5,0,0:0:0:0:
210,245,282866,1,0,0:0:0:0:
268,79,283051,1,6,0:0:0:0:
256,192,283074,12,0,285327,0:0:0:0:
256,192,285434,5,6,0:0:0:0:
256,192,285461,12,2,286738,0:0:0:0:
463,98,287647,6,0,P|422:83|349:80,1,90,2|0,0:0|0:0,0:0:0:0:
187,303,288042,5,6,0:3:0:0:
187,303,288149,2,0,P|185:347|212:306,1,107.999996704102,2|0,0:0|0:0,0:0:0:0:
126,186,288470,2,0,P|76:190|129:191,1,175.499991966248,2|0,0:0|0:0,0:0:0:0:
231,52,288840,2,0,P|193:-6|221:56,1,202.500007724762,2|0,0:3|0:0,0:0:0:0:
389,263,289219,6,0,P|362:211|239:190,1,180,2|2,0:3|0:0,0:0:0:0:
178,213,289778,1,2,0:0:0:0:
376,77,289964,2,0,P|375:135|353:175,1,90,2|2,0:3|0:0,0:0:0:0:
236,299,290337,6,0,P|181:321|79:243,1,180,2|0,0:3|0:0,0:0:0:0:
90,131,290892,2,0,P|102:80|105:37,1,72,2|2,0:3|0:3,0:0:0:0:
0,243,291263,1,2,0:0:0:0:
259,221,291448,6,0,B|180:182|184:280|67:209,1,180,2|2,0:0|0:3,0:0:0:0:
240,126,292003,1,2,0:0:0:0:
208,303,292189,1,2,0:3:0:0:
331,272,292374,1,2,0:0:0:0:
302,384,292559,5,6,0:3:0:0:
302,384,292651,1,0,0:0:0:0:
302,384,292744,1,2,0:0:0:0:
411,309,292929,2,0,P|418:257|391:198,1,90,2|0,0:0|0:0,0:0:0:0:
356,98,293299,1,0,0:0:0:0:
475,152,293485,1,2,0:0:0:0:
324,198,293670,6,0,P|289:199|241:177,1,80.9999975280763,2|0,0:3|0:0,0:0:0:0:
141,231,294040,2,0,P|112:206|109:125,1,108,2|0,0:0|0:0,0:0:0:0:
39,25,294411,2,0,P|70:5|165:24,1,135,2|0,0:3|0:0,0:0:0:0:
250,101,294781,2,0,P|242:172|247:298,1,180,2|0,0:3|0:0,0:0:0:0:
252,384,295337,1,2,0:3:0:0:
86,273,295522,2,0,B|65:256|33:258|33:258|54:267|71:289,1,90,2|0,0:3|0:0,0:0:0:0:
251,304,295892,6,0,B|131:282|163:378|50:351,1,215.999993408203,2|2,0:0|0:3,0:0:0:0:
86,273,296448,1,2,0:0:0:0:
217,161,296633,1,2,0:3:0:0:
274,224,296818,1,2,0:0:0:0:
296,141,297003,6,0,P|299:97|326:53,1,80.9999975280763,6|0,0:3|0:0,0:0:0:0:
392,174,297374,2,0,P|400:217|377:278,1,108,2|0,0:0|0:0,0:0:0:0:
247,360,297744,2,0,P|178:359|106:315,1,135,2|0,0:3|0:0,0:0:0:0:
30,156,298114,2,0,B|58:120|94:108|152:115|187:156|154:190|118:192,1,180,2|2,0:3|0:0,0:0:0:0:
62,252,298670,1,2,0:0:0:0:
239,161,298855,2,0,P|221:110|178:72,1,90,2|2,0:3|0:0,0:0:0:0:
331,82,299226,6,0,L|456:98,1,108,2|0,0:3|0:0,0:0:0:0:
512,171,299596,2,0,L|348:185,1,144,2|2,0:0|0:3,0:0:0:0:
161,170,300152,1,2,0:0:0:0:
237,341,300337,6,0,P|269:347|322:324,1,80.9999975280763,2|0,0:3|0:0,0:0:0:0:
182,251,300707,2,0,P|138:293|130:339,1,108,2|0,0:3|0:0,0:0:0:0:
280,212,301077,2,0,P|307:151|267:65,1,135,2|0,0:3|0:0,0:0:0:0:
24,77,301448,6,0,P|41:124|96:158,1,108,6|0,0:3|0:0,0:0:0:0:
74,265,301818,2,0,P|123:273|201:228,1,135,2|0,0:0|0:0,0:0:0:0:
306,292,302188,2,0,P|338:253|334:134,1,161.999995056153,2|0,0:0|0:0,0:0:0:0:
234,6,302559,2,0,P|231:86|347:143,1,215.999993408203,2|2,0:3|0:0,0:0:0:0:
428,120,303114,1,2,0:0:0:0:
345,245,303300,5,2,0:0:0:0:
314,145,303485,1,2,0:0:0:0:
259,367,303670,5,2,0:3:0:0:
433,211,303855,1,2,0:3:0:0:
230,133,304040,1,2,0:0:0:0:
189,242,304225,1,0,0:0:0:0:
45,81,304411,6,0,P|55:129|58:202,1,107.999996704102,2|0,0:3|0:0,0:0:0:0:
202,348,304781,2,0,P|191:295|188:241,1,107.999996704102,2|0,0:0|0:0,0:0:0:0:
309,73,305152,2,0,P|315:124|315:181,1,107.999996704102,6|0,0:3|0:0,0:0:0:0:
98,272,305522,1,2,0:3:0:0:
202,348,305707,1,2,0:0:0:0:
138,123,305892,6,0,P|74:108|46:71,1,108,6|0,0:3|0:0,0:0:0:0:
235,65,306262,2,0,P|251:110|215:204,1,135,2|0,0:0|0:0,0:0:0:0:
276,289,306633,2,0,P|193:309|121:232,1,161.999995056153,2|0,0:3|0:0,0:0:0:0:
358,172,307003,2,0,P|375:256|349:392,1,215.999993408203,2|2,0:3|0:0,0:0:0:0:
276,289,307559,1,2,0:0:0:0:
451,229,307744,1,2,0:0:0:0:
505,131,307929,1,2,0:0:0:0:
397,52,308114,6,0,B|341:3|314:45|265:17|265:17|290:63|334:53,1,215.999993408203,2|0,0:3|0:0,0:0:0:0:
381,154,308670,2,0,P|372:193|354:229,1,80.9999975280763,2|2,0:0|0:3,0:0:0:0:
226,344,309040,1,0,0:0:0:0:
75,293,309225,2,0,B|125:312|178:271|159:243|224:211|279:244,1,215.999993408203,2|2,0:0|0:3,0:0:0:0:
234,307,309781,1,0,0:0:0:0:
102,218,309966,1,2,0:3:0:0:
145,141,310151,1,2,0:0:0:0:
76,58,310337,5,6,0:3:0:0:
136,113,310522,1,2,0:0:0:0:
331,80,310707,2,0,B|295:78|249:52|249:52|220:91|238:178,1,215.999993408203,2|0,0:0|0:0,0:0:0:0:
260,353,311262,1,2,0:0:0:0:
380,235,311448,5,2,0:3:0:0:
341,326,311633,1,0,0:0:0:0:
267,175,311818,5,2,0:0:0:0:
305,339,312003,1,0,0:0:0:0:
151,157,312188,5,2,0:0:0:0:
275,360,312374,1,0,0:0:0:0:
63,157,312559,6,0,P|131:65|193:75,1,180,2|0,0:3|0:0,0:0:0:0:
313,209,313114,1,2,0:0:0:0:
194,306,313299,2,0,P|154:309|105:298,1,90,2|0,0:3|0:0,0:0:0:0:
261,133,313670,2,0,P|311:123|371:138,1,90,2|2,0:0|0:0,0:0:0:0:
448,322,314040,2,0,P|456:278|455:234,1,90,2|2,0:3|0:0,0:0:0:0:
420,164,314411,1,2,0:3:0:0:
483,100,314596,1,2,0:0:0:0:
352,233,314781,6,0,P|312:246|245:219,1,108,6|0,0:3|0:0,0:0:0:0:
147,278,315151,2,0,P|130:187|178:126,1,135,2|0,0:0|0:0,0:0:0:0:
98,48,315522,2,0,P|177:32|255:97,1,161.999995056153,2|0,0:3|0:0,0:0:0:0:
370,60,315892,2,0,P|380:160|263:220,1,215.999993408203,2|2,0:3|0:0,0:0:0:0:
176,195,316448,1,2,0:0:0:0:
258,379,316633,1,2,0:3:0:0:
298,283,316818,1,2,0:0:0:0:
171,345,317003,6,0,P|116:348|48:362,1,108,2|0,0:3|0:0,0:0:0:0:
0,254,317374,2,0,P|74:255|149:273,1,144,0|2,0:0|0:3,0:0:0:0:
353,179,317929,1,0,0:0:0:0:
112,95,318114,5,2,0:3:0:0:
123,185,318299,1,0,0:0:0:0:
136,102,318485,5,2,0:0:0:0:
198,220,318670,1,0,0:0:0:0:
157,100,318855,5,2,0:3:0:0:
291,237,319040,1,0,0:0:0:0:
419,86,319225,5,6,0:3:0:0:
373,283,319411,1,0,0:0:0:0:
394,61,319596,5,2,0:0:0:0:
253,266,319781,1,0,0:0:0:0:
380,35,319966,5,2,0:0:0:0:
114,177,320151,1,0,0:0:0:0:
132,0,320336,1,2,0:3:0:0:
166,9,320428,1,0,0:0:0:0:
195,30,320521,1,0,0:0:0:0:
228,241,320707,5,2,0:0:0:0:
100,88,320892,1,2,0:0:0:0:
12,269,321077,1,2,0:0:0:0:
91,223,321262,1,2,0:0:0:0:
261,320,321448,6,0,B|163:302|188:402|59:372,1,180,6|2,0:3|0:0,0:0:0:0:
352,270,322003,1,0,0:0:0:0:
355,124,322188,2,0,P|348:165|343:212,1,67.5000025749208,2|0,0:0|0:0,0:0:0:0:
445,101,322559,6,0,P|398:34|307:45,1,180,2|2,0:3|0:0,0:0:0:0:
151,180,323114,1,2,0:0:0:0:
250,93,323299,1,2,0:0:0:0:
132,40,323485,1,2,0:0:0:0:
264,204,323670,5,2,0:3:0:0:
373,374,323855,2,0,P|381:330|368:287,1,90,2|0,0:3|0:0,0:0:0:0:
194,252,324225,1,2,0:0:0:0:
169,374,324411,5,2,0:3:0:0:
285,349,324596,1,0,0:0:0:0:
81,293,324781,2,0,P|72:332|72:375,1,80.9999975280763,2|0,0:0|0:0,0:0:0:0:
0,237,325151,2,0,P|63:196|141:215,1,135,2|0,0:3|0:0,0:0:0:0:
225,276,325522,2,0,P|290:325|374:302,1,161.999995056153,2|0,0:3|0:0,0:0:0:0:
348,90,325892,6,0,P|336:46|308:82,1,108,6|0,0:3|0:0,0:0:0:0:
169,159,326262,2,0,P|125:133|163:166,1,135,2|0,0:0|0:0,0:0:0:0:
144,334,326633,2,0,P|97:373|151:346,1,161.999995056153,2|0,0:0|0:0,0:0:0:0:
318,372,327003,6,0,P|304:287|314:139,1,215.999993408203,6|2,0:3|0:0,0:0:0:0:
329,58,327559,1,2,0:0:0:0:
386,259,327744,5,2,0:0:0:0:
211,167,327929,1,2,0:0:0:0:
51,304,328114,5,6,0:3:0:0:
148,275,328299,1,2,0:3:0:0:
274,360,328485,2,0,P|289:296|288:244,1,90,2|2,0:0|0:3,0:0:0:0:
232,74,328855,5,2,0:3:0:0:
290,178,329040,1,0,0:0:0:0:
149,99,329225,2,0,B|125:82|100:58|100:58|78:110|76:192,1,180,2|2,0:0|0:3,0:0:0:0:
59,265,329781,1,2,0:0:0:0:
278,355,329966,2,0,P|235:343|180:340,1,90,6|2,0:3|0:0,0:0:0:0:
185,175,330336,6,0,B|256:157|256:157|298:167|298:167|369:154,1,180,6|0,0:3|0:0,0:0:0:0:
442,139,330892,1,2,0:0:0:0:
412,244,331077,1,2,0:3:0:0:
314,320,331262,1,2,0:3:0:0:
171,262,331448,5,2,0:3:0:0:
358,185,331633,1,2,0:3:0:0:
125,157,331818,5,2,0:3:0:0:
376,167,332003,1,2,0:3:0:0:
126,42,332188,5,2,0:3:0:0:
398,167,332374,1,2,0:3:0:0:
72,235,332559,6,0,L|13:245,2,53.9999983520508,4|0|0,0:0|0:0|0:0,0:0:0:0:
398,167,333630,5,0,0:0:0:0:
120,384,334475,2,0,P|116:353|116:325,1,45
121,193,334790,5,6,0:3:0:0:
33,354,334975,1,0,0:0:0:0:
262,300,335160,2,0,P|217:284|154:280,1,90,0|2,0:0|0:0,0:0:0:0:
304,169,335530,2,0,P|349:153|412:149,1,90,0|2,0:0|0:0,0:0:0:0:
369,384,335901,6,0,P|403:316|363:218,1,180,2|0,0:3|0:0,0:0:0:0:
231,101,336449,1,2,0:3:0:0:
143,234,336632,2,0,P|97:222|26:220,1,90,2|2,0:3|0:0,0:0:0:0:
303,158,336998,6,0,P|320:98|312:63,1,90,2|2,0:3|0:3,0:0:0:0:
249,237,337368,1,0,0:0:0:0:
404,146,337553,1,2,0:3:0:0:
188,315,337738,2,0,P|127:315|98:304,1,90,2|2,0:3|0:0,0:0:0:0:
130,54,338109,6,0,P|142:144|142:237,1,180,2|2,0:3|0:3,0:0:0:0:
105,384,338664,1,0,0:0:0:0:
275,207,338849,2,0,P|266:245|266:321,1,90,2|2,0:3|0:0,0:0:0:0:
214,136,339220,5,6,0:3:0:0:
355,275,339405,1,2,0:0:0:0:
214,136,339590,2,0,P|273:122|322:134,1,90,2|2,0:3|0:3,0:0:0:0:
442,284,339960,2,0,P|397:287|354:274,1,90,2|2,0:3|0:0,0:0:0:0:
95,269,340331,6,0,B|200:251|171:347|293:311,1,180,2|0,0:3|0:0,0:0:0:0:
122,351,340886,1,2,0:3:0:0:
252,149,341072,2,0,P|254:193|245:238,1,90,2|2,0:3|0:0,0:0:0:0:
93,33,341442,5,2,0:3:0:0:
40,224,341627,1,2,0:3:0:0:
178,195,341812,5,2,0:3:0:0:
135,127,341998,1,2,0:3:0:0:
168,300,342183,5,2,0:3:0:0:
317,139,342368,1,2,0:0:0:0:
437,384,342553,2,0,P|437:335|446:277,1,90,2|2,0:3|0:3,0:0:0:0:
273,213,342923,5,2,0:3:0:0:
363,291,343109,1,2,0:0:0:0:
242,345,343294,5,2,0:3:0:0:
399,154,343479,1,2,0:0:0:0:
187,267,343664,6,0,P|71:254|48:194,1,180,6|2,0:3|0:0,0:0:0:0:
137,73,344220,1,0,0:0:0:0:
246,196,344405,2,0,P|269:245|267:298,1,90,2|2,0:3|0:0,0:0:0:0:
92,369,344775,6,0,P|89:310|101:274,1,90,2|0,0:3|0:0,0:0:0:0:
148,145,345146,1,2,0:0:0:0:
183,316,345331,1,2,0:3:0:0:
333,205,345516,2,0,P|290:192|245:195,1,90,2|2,0:3|0:0,0:0:0:0:
440,101,345886,6,0,P|418:197|442:284,1,180,2|0,0:3|0:0,0:0:0:0:
320,97,346442,1,2,0:3:0:0:
241,283,346627,2,0,P|236:233|260:166,1,90,2|2,0:3|0:0,0:0:0:0:
26,266,346998,6,0,P|70:267|114:259,1,90,2|2,0:3|0:3,0:0:0:0:
324,188,347368,1,2,0:3:0:0:
151,146,347553,1,2,0:0:0:0:
231,370,347738,2,0,P|228:325|241:282,1,90,2|0,0:3|0:0,0:0:0:0:
307,102,348109,6,0,B|412:84|383:180|505:144,1,180,6|2,0:3|0:0,0:0:0:0:
240,282,348664,1,0,0:0:0:0:
405,364,348849,2,0,P|413:319|411:275,1,90,2|0,0:3|0:0,0:0:0:0:
451,69,349220,5,6,0:3:0:0:
324,188,349405,1,0,0:0:0:0:
217,87,349590,5,2,0:0:0:0:
201,5,349776,1,0,0:0:0:0:
107,195,349961,5,2,0:3:0:0:
332,82,350146,1,0,0:0:0:0:
199,343,350331,2,0,P|199:294|208:236,1,90,6|2,0:3|0:3,0:0:0:0:
217,87,350701,5,2,0:3:0:0:
237,178,350887,1,2,0:3:0:0:
66,354,351072,5,2,0:3:0:0:
107,195,351257,1,2,0:3:0:0:
296,322,351442,5,6,0:3:0:0:
188,267,351627,1,2,0:3:0:0:
336,174,351812,5,2,0:3:0:0:
231,384,351998,1,2,0:3:0:0:
438,326,352183,5,2,0:3:0:0:
228,127,352368,1,2,0:3:0:0:
512,36,352553,6,0,B|421:5|426:62|325:57|325:57|438:111|416:218,1,377.999988464356,6|0,0:3|0:0,0:0:0:0:
101,332,356257,2,0,P|68:324|9:321,1,62.9999980773926,2|0,0:0|0:0,0:0:0:0:
151,253,356998,6,0,B|189:297|198:342|198:342|247:309|265:262|265:262|349:317|474:289,1,377.999988464356
242,97,360331,1,0,0:0:0:0:
472,229,361164,6,0,L|465:252,3,15.7499995193482,2|0|0|2,0:0|0:0|0:0|0:0,0:0:0:0:
470,149,362553,1,0,0:0:0:0:
405,76,363664,1,2,0:0:0:0:
298,35,364683,2,0,L|274:45,2,15.7499995193482,2|0|2,0:0|0:0|0:0,0:0:0:0:
127,96,365886,2,0,B|120:123|141:157|141:157|126:195|126:195|154:224|150:272,2,188.999994232178,2|0|2,0:0|0:0|0:0,0:0:0:0:
295,244,369590,2,0,P|268:238|223:238,1,62.9999980773926,2|0,0:0|0:0,0:0:0:0:
335,344,370331,6,0,P|391:255|303:133,1,269.999991760254,2|0,0:0|0:0,0:0:0:0:
123,142,372775,2,0,P|181:158|256:233,1,161.999995056153,2|0,0:0|0:0,0:0:0:0:
261,198,375675,6,0,L|255:223,2,22.5,2|0|2,0:0|0:0|0:0,0:0:0:0:
256,192,375831,12,0,381738,0:0:0:0:
