osu file format v14

[General]
AudioFilename: audio.mp3
AudioLeadIn: 0
PreviewTime: 3567
Countdown: 1
SampleSet: Soft
StackLeniency: 0.7
Mode: 0
LetterboxInBreaks: 0
WidescreenStoryboard: 0

[Editor]
DistanceSpacing: 1
BeatDivisor: 8
GridSize: 4
TimelineZoom: 1.2

[Metadata]
Title:Africa
TitleUnicode:Africa
Artist:Toto
ArtistUnicode:Toto
Creator:TheDustOfTimes
Version:Deep Inside of Africa
Source:Toto IV
Tags:africa right version bless the rains gachi
BeatmapID:1803949
BeatmapSetID:862399

[Difficulty]
HPDrainRate:5.5
CircleSize:4.3
OverallDifficulty:7
ApproachRate:9
SliderMultiplier:1.4
SliderTickRate:1

[Events]
//Background and Video events
0,0,"Africa.jpg",0,0
//Break Periods
//Storyboard Layer 0 (Background)
//Storyboard Layer 1 (Fail)
//Storyboard Layer 2 (Pass)
//Storyboard Layer 3 (Foreground)
//Storyboard Sound Samples

[TimingPoints]
3567,647.004906453874,4,2,0,68,1,0
11007,-66.6666666666667,4,2,0,68,0,0
19095,650.759219088937,4,2,0,100,1,0
19095,-66.6666666666667,4,2,0,100,0,0
32110,-149.253731343284,4,2,0,68,0,0
33411,-66.6666666666667,4,2,0,68,0,0
65624,-133.333333333333,4,2,0,68,0,0
67251,422.535211267606,4,2,0,68,1,0
67673,394.736842105263,4,2,0,68,1,0
68067,779.220779220779,4,2,0,68,1,0
68261,375,4,2,0,68,1,0
68636,558.139534883721,4,2,0,68,1,0
69194,582.52427184466,4,2,0,68,1,0
69776,645.161290322581,4,2,0,68,1,0
70421,540.540540540541,4,2,0,68,1,0
70961,666.666666666667,4,2,0,68,1,0
71966,650.759219088937,4,2,0,68,1,0
71966,-100,4,2,0,68,0,1
72942,-25,4,2,0,68,0,1
74569,-100,4,2,0,68,0,1
75545,-59.1715976331361,4,2,0,68,0,1
76033,-33.4448160535117,4,2,0,68,0,1
78473,-25,4,2,0,68,0,1
80588,-25,4,2,0,68,0,1
82784,-52.9100529100529,4,2,0,68,0,1
83598,-43.6681222707424,4,2,0,68,0,1
84329,-34.6020761245675,4,2,0,68,0,1
90187,-133.333333333333,4,2,0,68,0,1
95393,-100,4,2,0,68,0,0
111011,651.465798045603,4,2,0,100,1,0
121923,-71.9424460431655,4,2,0,68,0,0
138372,545.454545454546,4,2,0,68,1,0
138917,480,4,2,0,68,1,0
139397,628.272251308901,4,2,0,68,1,0
139711,500,4,2,0,68,1,0
139974,461.538461538462,4,2,0,68,1,0
140206,650.011916885143,4,2,0,68,1,1
140342,652.173913043478,4,2,0,68,1,1
140994,651.465798045603,4,2,0,68,1,1
140994,-25,4,2,0,68,0,1
142296,-33.4448160535117,4,2,0,68,0,1
146205,-62.8930817610063,4,2,0,68,0,1
150765,-50.251256281407,4,2,0,68,0,1
151661,-40.1606425702811,4,2,0,68,0,1
152472,-34.6020761245675,4,2,0,68,0,1
154043,651.465798045603,4,2,0,100,1,1
156648,-62.8930817610063,4,2,0,68,0,1
158196,-344.827586206897,4,2,0,68,0,1
159824,-71.9424460431655,4,2,0,68,0,1
163163,-100,4,2,0,68,0,0
173586,655.021834061135,4,2,0,68,1,0
173586,-45.662100456621,4,2,0,68,0,0
178171,-59.1715976331361,4,2,0,68,0,0
194540,480,4,2,0,68,1,0
195020,500,4,2,0,68,1,0
195520,628.272251308901,4,2,0,68,1,0
195834,568.720379146919,4,2,0,68,1,0
195976,500,4,2,0,68,1,1
196163,600,4,2,0,68,1,1
196313,647.004906453874,4,2,0,68,1,1
197121,655.021834061135,4,2,0,100,1,1
200068,-28.6532951289398,4,2,0,68,0,1
200559,-41.8410041841004,4,2,0,68,0,1
205581,-25.062656641604,4,2,0,68,0,1
206072,-25,4,2,0,68,0,1
206946,-34.6020761245675,4,2,0,68,0,1
212186,-43.6681222707424,4,2,0,68,0,1
228562,-43.6681222707424,4,2,0,68,0,1
233065,-112.359550561798,4,2,0,68,0,1
240352,-100,4,2,0,68,0,0

[HitObjects]
128,39,3567,5,0,0:0:0:0:
226,127,4052,1,0,0:0:0:0:
226,127,4214,2,0,P|284:117|369:148,1,140
360,262,5184,1,0,0:0:0:0:
258,206,5508,1,0,0:0:0:0:
290,58,5831,5,0,0:0:0:0:
246,86,5993,1,0,0:0:0:0:
193,93,6155,5,0,0:0:0:0:
149,63,6316,1,0,0:0:0:0:
99,80,6478,1,0,0:0:0:0:
68,122,6640,1,0,0:0:0:0:
88,170,6802,5,0,0:0:0:0:
130,205,6963,1,0,0:0:0:0:
138,260,7125,1,0,0:0:0:0:
108,307,7287,1,0,0:0:0:0:
152,347,7449,5,0,0:0:0:0:
204,374,7610,1,0,0:0:0:0:
263,382,7772,1,0,0:0:0:0:
315,354,7934,1,0,0:0:0:0:
352,303,8096,5,0,0:0:0:0:
320,248,8257,1,0,0:0:0:0:
337,187,8419,1,0,0:0:0:0:
402,54,8743,5,0,0:0:0:0:
247,57,9228,1,0,0:0:0:0:
247,57,9390,2,0,B|227:52|227:52|133:126,1,140
217,219,10360,1,0,0:0:0:0:
102,255,10684,1,0,0:0:0:0:
281,329,11007,5,0,0:0:0:0:
237,301,11169,1,0,0:0:0:0:
184,294,11331,5,0,0:0:0:0:
140,324,11492,1,0,0:0:0:0:
90,307,11654,1,0,0:0:0:0:
59,265,11816,1,0,0:0:0:0:
91,213,11978,5,0,0:0:0:0:
84,158,12139,1,0,0:0:0:0:
115,113,12301,1,0,0:0:0:0:
169,100,12463,1,0,0:0:0:0:
205,49,12625,5,0,0:0:0:0:
257,76,12786,1,0,0:0:0:0:
316,84,12948,1,0,0:0:0:0:
368,56,13110,1,0,0:0:0:0:
367,125,13272,5,0,0:0:0:0:
335,180,13433,1,0,0:0:0:0:
352,241,13595,1,0,0:0:0:0:
290,326,13919,5,0,0:0:0:0:
252,185,14404,1,0,0:0:0:0:
171,275,14566,2,0,P|282:256|413:264,1,210.000008010865
418,130,15536,1,0,0:0:0:0:
293,153,15860,1,0,0:0:0:0:
101,100,16183,5,0,0:0:0:0:
64,34,16345,1,0,0:0:0:0:
167,57,16507,5,0,0:0:0:0:
196,112,16668,1,0,0:0:0:0:
224,168,16830,1,0,0:0:0:0:
250,225,16992,1,0,0:0:0:0:
353,252,17154,5,0,0:0:0:0:
323,195,17315,1,0,0:0:0:0:
294,136,17477,1,0,0:0:0:0:
267,77,17639,1,0,0:0:0:0:
374,76,17801,5,0,0:0:0:0:
406,138,17962,1,0,0:0:0:0:
438,201,18124,1,0,0:0:0:0:
468,267,18286,1,0,0:0:0:0:
353,252,18448,5,0,0:0:0:0:
279,282,18609,1,0,0:0:0:0:
206,314,18771,1,0,0:0:0:0:
48,181,19095,5,0,0:0:0:0:
163,63,19583,1,0,0:0:0:0:
163,63,19745,2,0,B|249:63|261:137|364:135,1,210.000008010865
244,258,20721,1,0,0:0:0:0:
431,294,21047,1,0,0:0:0:0:
427,209,21372,5,0,0:0:0:0:
408,257,21535,1,0,0:0:0:0:
335,184,21698,5,0,0:0:0:0:
311,218,21860,1,0,0:0:0:0:
278,245,22023,1,0,0:0:0:0:
241,263,22186,1,0,0:0:0:0:
265,127,22348,5,0,0:0:0:0:
241,148,22511,1,0,0:0:0:0:
213,164,22674,1,0,0:0:0:0:
181,166,22836,1,0,0:0:0:0:
231,47,22999,5,0,0:0:0:0:
210,51,23162,1,0,0:0:0:0:
190,51,23324,1,0,0:0:0:0:
169,48,23487,1,0,0:0:0:0:
231,47,23650,5,0,0:0:0:0:
265,127,23813,1,0,0:0:0:0:
335,184,23975,1,0,0:0:0:0:
421,373,24301,5,0,0:0:0:0:
289,295,24789,1,0,0:0:0:0:
245,301,24951,1,0,0:0:0:0:
165,355,25602,1,0,0:0:0:0:
120,360,25765,2,0,P|81:327|65:277,1,105.000004005432
42,56,26253,5,0,0:0:0:0:
108,193,26578,1,0,0:0:0:0:
149,216,26741,1,0,0:0:0:0:
190,237,26904,1,0,0:0:0:0:
389,176,27392,1,0,0:0:0:0:
345,195,27554,1,0,0:0:0:0:
269,92,28205,5,0,0:0:0:0:
269,92,28856,5,0,0:0:0:0:
114,4,29507,1,0,0:0:0:0:
0,134,29995,1,0,0:0:0:0:
26,172,30157,1,0,0:0:0:0:
235,118,30483,5,0,0:0:0:0:
188,285,30808,1,0,0:0:0:0:
354,142,31134,1,0,0:0:0:0:
292,311,31459,1,0,0:0:0:0:
456,170,31947,1,0,0:0:0:0:
434,212,32110,2,0,P|346:217|248:177,1,187.599991126099
146,77,33899,5,0,0:0:0:0:
160,122,34062,1,0,0:0:0:0:
173,167,34225,1,0,0:0:0:0:
325,20,34550,1,0,0:0:0:0:
315,66,34713,1,0,0:0:0:0:
301,111,34875,1,0,0:0:0:0:
288,156,35038,1,0,0:0:0:0:
391,0,35363,5,0,0:0:0:0:
363,146,36014,1,0,0:0:0:0:
489,72,36340,1,0,0:0:0:0:
485,300,36665,5,0,0:0:0:0:
475,346,36828,1,0,0:0:0:0:
295,360,37153,1,0,0:0:0:0:
341,355,37315,1,0,0:0:0:0:
485,300,37641,1,0,0:0:0:0:
56,337,37968,5,0,0:0:0:0:
77,294,38129,1,0,0:0:0:0:
42,171,38455,1,0,0:0:0:0:
25,215,38617,1,0,0:0:0:0:
156,302,38943,2,0,P|174:273|191:237,1,52.5000020027161
189,210,39268,1,0,0:0:0:0:
174,207,39919,5,0,0:0:0:0:
269,17,40407,2,0,L|214:28,1,52.5000020027161
51,30,40895,1,0,0:0:0:0:
246,108,41220,5,0,0:0:0:0:
109,161,41546,1,0,0:0:0:0:
82,121,41708,1,0,0:0:0:0:
55,81,41871,1,0,0:0:0:0:
283,153,42196,1,0,0:0:0:0:
298,310,42522,1,0,0:0:0:0:
214,178,42847,1,0,0:0:0:0:
247,211,43010,1,0,0:0:0:0:
279,245,43173,1,0,0:0:0:0:
315,274,43335,1,0,0:0:0:0:
124,218,43823,6,0,B|124:114|260:-17|389:122|388:219,1,420.000016021729
117,307,45613,1,0,0:0:0:0:
162,317,45776,1,0,0:0:0:0:
208,325,45938,1,0,0:0:0:0:
335,238,46264,1,0,0:0:0:0:
289,250,46426,1,0,0:0:0:0:
243,261,46589,1,0,0:0:0:0:
196,268,46752,1,0,0:0:0:0:
342,328,47077,1,0,0:0:0:0:
17,281,47728,5,0,0:0:0:0:
61,168,48053,1,0,0:0:0:0:
164,134,48379,1,0,0:0:0:0:
56,332,48704,1,0,0:0:0:0:
73,288,48867,1,0,0:0:0:0:
95,246,49029,1,0,0:0:0:0:
115,203,49192,1,0,0:0:0:0:
250,334,49517,1,0,0:0:0:0:
247,286,49680,1,0,0:0:0:0:
95,246,50006,1,0,0:0:0:0:
134,272,50168,1,0,0:0:0:0:
231,233,50331,5,0,0:0:0:0:
214,140,50982,5,0,0:0:0:0:
128,0,51632,1,0,0:0:0:0:
172,15,51795,1,0,0:0:0:0:
216,29,51958,1,0,0:0:0:0:
262,39,52121,1,0,0:0:0:0:
323,17,52609,1,0,0:0:0:0:
363,180,52934,1,0,0:0:0:0:
417,30,53259,1,0,0:0:0:0:
380,60,53422,2,0,L|349:110,1,52.5000020027161
459,159,53747,1,0,0:0:0:0:
471,203,53910,2,0,P|457:253|426:295,1,105.000004005432
280,123,54724,5,0,0:0:0:0:
243,153,54886,1,0,0:0:0:0:
184,307,55212,1,0,0:0:0:0:
82,116,55537,2,0,B|194:116|194:116|308:255|308:255|451:255|451:255,1,420.000016021729
455,140,57327,5,0,0:0:0:0:
439,184,57490,1,0,0:0:0:0:
455,268,57653,1,0,0:0:0:0:
304,192,57977,1,0,0:0:0:0:
334,290,58140,1,0,0:0:0:0:
367,323,58465,1,0,0:0:0:0:
183,301,58791,5,0,0:0:0:0:
183,301,59442,5,0,0:0:0:0:
92,248,59767,1,0,0:0:0:0:
55,210,59930,1,0,0:0:0:0:
50,157,60093,1,0,0:0:0:0:
61,105,60255,1,0,0:0:0:0:
89,61,60580,6,0,P|78:36|72:11,2,52.5000020027161
176,168,61068,1,0,0:0:0:0:
255,47,61394,1,0,0:0:0:0:
334,181,61719,1,0,0:0:0:0:
334,181,61882,5,0,0:0:0:0:
395,184,63346,5,0,0:0:0:0:
302,126,63834,1,0,0:0:0:0:
408,90,64322,1,0,0:0:0:0:
345,166,64648,1,0,0:0:0:0:
335,212,64973,1,0,0:0:0:0:
508,140,65136,1,0,0:0:0:0:
264,72,65461,1,0,0:0:0:0:
302,49,65624,2,0,L|362:210,1,157.500006008148
82,210,67251,5,0,0:0:0:0:
89,73,67673,1,0,0:0:0:0:
242,207,68067,5,0,0:0:0:0:
242,207,68261,1,0,0:0:0:0:
354,91,68636,5,0,0:0:0:0:
383,200,68915,1,0,0:0:0:0:
333,295,69194,1,0,0:0:0:0:
21,85,69776,5,0,0:0:0:0:
452,359,70421,1,0,0:0:0:0:
207,27,70961,1,0,0:0:0:0:
76,375,71294,1,0,0:0:0:0:
371,18,71966,5,0,0:0:0:0:
242,57,72454,1,0,0:0:0:0:
218,111,72616,1,0,0:0:0:0:
218,111,72942,2,0,B|292:55|360:58|411:114|340:203|340:203|352:213|352:213|339:221|339:221|356:226|356:226|343:237|343:237|360:243|360:243|345:253|345:253|363:258|363:258|348:268|348:268|403:330|387:381|258:274|150:371,1,700
164,281,73918,1,0,0:0:0:0:
314,327,74569,2,0,B|358:319|358:319|413:203,1,140
475,203,75545,2,0,B|450:159|406:172|361:113,1,118.300002211266
95,51,76033,6,0,P|131:106|113:231,1,104.649998323326
66,182,76358,2,0,P|108:301|311:369,1,313.949994969978
421,45,77172,1,0,0:0:0:0:
370,131,77334,1,0,0:0:0:0:
187,41,77660,5,0,0:0:0:0:
450,222,77904,1,0,0:0:0:0:
274,148,78148,5,0,0:0:0:0:
352,127,78310,1,0,0:0:0:0:
286,90,78473,2,0,B|276:48|285:11|317:-8|369:-4|405:5|427:47|417:79|404:122|382:149|363:177|354:199|351:224|352:261|372:288|416:314,1,420
412,345,79124,5,0,0:0:0:0:
117,102,79287,2,0,B|82:102|53:118|50:137|49:162|55:183|71:187|93:194|109:197|122:207|127:222|128:243|124:258|116:275|101:283|83:301|16:278,1,280
254,191,79775,1,0,0:0:0:0:
63,183,80019,2,0,B|75:191|96:201|113:203|129:198|146:187|157:175|158:155|149:138|131:121|125:110|116:98|109:77|122:56|131:47|147:38|159:39|177:39|197:47|206:51,1,280
223,112,80588,6,0,B|245:175|245:175|309:134|309:134|363:179|363:179|430:53,1,280
319,292,81076,5,0,0:0:0:0:
216,370,81564,1,0,0:0:0:0:
202,311,81727,1,0,0:0:0:0:
48,215,82378,1,0,0:0:0:0:
152,85,82784,2,0,L|344:288,1,264.599998284073
308,94,83598,2,0,L|174:256,1,200.375004280472
511,20,84330,2,0,P|502:137|290:261,1,354.024986089869
256,192,85062,12,0,87584,0:0:0:0:
112,105,88072,5,0,0:0:0:0:
64,226,88234,1,0,0:0:0:0:
357,44,88560,5,0,0:0:0:0:
346,120,88723,1,0,0:0:0:0:
310,192,88885,1,0,0:0:0:0:
255,231,89048,1,0,0:0:0:0:
188,336,89373,5,0,0:0:0:0:
121,370,89536,1,0,0:0:0:0:
463,273,90187,6,0,L|369:347,1,105.000004005432
244,34,91488,1,0,0:0:0:0:
332,92,91651,2,0,L|285:97,1,43.7500016689301
111,144,92139,1,0,0:0:0:0:
262,188,92627,5,0,0:0:0:0:
340,73,92790,2,0,L|381:150,1,78.7500030040742
430,251,93441,2,0,L|434:215,1,26.2500010013581
512,106,94091,1,0,0:0:0:0:
438,12,94579,2,0,L|474:42,1,26.2500010013581
512,106,95393,1,0,0:0:0:0:
485,215,95881,2,0,L|464:243,1,35
506,309,96532,2,0,B|501:343|501:343,1,35
309,339,97020,1,0,0:0:0:0:
309,339,97345,1,0,0:0:0:0:
261,288,97670,5,0,0:0:0:0:
248,229,97833,1,0,0:0:0:0:
194,304,97996,5,0,0:0:0:0:
141,331,98159,1,0,0:0:0:0:
90,298,98321,1,0,0:0:0:0:
63,244,98484,1,0,0:0:0:0:
191,205,98647,5,0,0:0:0:0:
136,182,98809,1,0,0:0:0:0:
97,136,98972,1,0,0:0:0:0:
95,76,99135,1,0,0:0:0:0:
238,64,99297,5,0,0:0:0:0:
226,122,99460,1,0,0:0:0:0:
243,178,99623,1,0,0:0:0:0:
210,228,99785,1,0,0:0:0:0:
170,101,99948,5,0,0:0:0:0:
145,155,100111,1,0,0:0:0:0:
99,193,100274,1,0,0:0:0:0:
28,354,100599,5,0,0:0:0:0:
156,304,101087,1,0,0:0:0:0:
156,304,101250,2,0,L|261:222,1,105
321,216,101900,2,0,P|367:241|411:222,2,70
297,139,102877,5,0,0:0:0:0:
348,108,103039,1,0,0:0:0:0:
353,9,103202,5,0,0:0:0:0:
301,38,103365,1,0,0:0:0:0:
242,30,103527,1,0,0:0:0:0:
187,54,103690,1,0,0:0:0:0:
128,44,103853,5,0,0:0:0:0:
223,128,104015,1,0,0:0:0:0:
156,215,104178,1,0,0:0:0:0:
222,288,104341,1,0,0:0:0:0:
298,191,104503,5,0,0:0:0:0:
321,74,104666,1,0,0:0:0:0:
438,93,104829,1,0,0:0:0:0:
418,209,104992,1,0,0:0:0:0:
421,366,105154,5,0,0:0:0:0:
277,309,105317,1,0,0:0:0:0:
144,376,105480,1,0,0:0:0:0:
133,178,105805,5,0,0:0:0:0:
81,15,106456,2,0,P|48:39|44:141,1,140
206,46,107595,1,0,0:0:0:0:
206,46,107757,1,0,0:0:0:0:
451,66,108408,5,0,0:0:0:0:
505,225,108896,1,0,0:0:0:0:
505,225,109059,1,0,0:0:0:0:
419,325,109384,2,0,P|384:350|344:362,1,70
262,278,109872,2,0,P|245:308|217:328,1,70
50,112,110360,5,0,0:0:0:0:
0,234,110848,1,0,0:0:0:0:
143,213,111011,2,0,B|229:195|190:254|292:236,1,140
231,36,112313,6,0,B|254:62|254:62|263:195,1,140
285,354,113616,2,0,B|406:274|171:207|405:262|433:194|401:105,1,280
408,133,115571,1,0,0:0:0:0:
130,235,116222,1,0,0:0:0:0:
130,235,116548,1,0,0:0:0:0:
130,235,116874,1,0,0:0:0:0:
187,56,117525,1,0,0:0:0:0:
281,170,117851,6,0,L|273:122,1,35
307,68,118177,2,0,P|353:31|436:46,1,140
493,144,118991,2,0,P|478:185|457:207,1,70
386,206,119480,1,0,0:0:0:0:
442,320,119724,1,0,0:0:0:0:
337,380,119968,2,0,P|306:370|295:360,1,35
158,280,120782,6,0,B|146:237|105:249|73:189,1,105
141,64,121434,1,0,0:0:0:0:
192,41,121597,1,0,0:0:0:0:
215,92,121760,1,0,0:0:0:0:
164,115,121923,2,0,P|211:151|265:148,1,97.3000029693604
393,69,122737,6,0,P|412:33|464:-1,2,97.3000029693604
380,149,123714,1,0,0:0:0:0:
453,213,123877,2,0,P|451:240|441:264,1,48.6500014846802
391,342,124203,1,0,0:0:0:0:
295,360,124528,1,0,0:0:0:0:
295,360,124691,2,0,B|177:368|232:305|88:308,1,194.600005938721
105,163,125994,5,0,0:0:0:0:
149,72,126157,1,0,0:0:0:0:
201,149,126320,1,0,0:0:0:0:
287,108,126483,2,0,P|258:217|113:200,1,243.250007423401
74,57,127623,5,0,0:0:0:0:
247,33,127786,1,0,0:0:0:0:
180,166,127949,1,0,0:0:0:0:
341,128,128274,2,0,B|361:175|375:143|410:220,1,97.3000029693604
445,340,129252,1,0,0:0:0:0:
306,262,129577,6,0,P|269:244|226:194,1,97.3000029693604
356,114,130229,2,0,P|347:88|322:73,1,48.6500014846802
210,27,130554,1,0,0:0:0:0:
66,64,130717,1,0,0:0:0:0:
66,64,131043,2,0,P|139:72|163:98,1,97.3000029693604
154,85,131532,2,0,L|125:157,1,48.6500014846802
37,171,131857,2,0,B|52:210|52:210|192:257,1,145.950004454041
61,315,132509,5,0,0:0:0:0:
107,234,133160,2,0,P|174:218|239:224,1,97.3000029693604
276,290,133649,1,0,0:0:0:0:
371,223,134138,2,0,P|394:198|428:107,1,97.3000029693604
369,55,134789,1,0,0:0:0:0:
369,55,134952,1,0,0:0:0:0:
190,48,135278,1,0,0:0:0:0:
93,206,135440,2,0,B|168:217|232:224|206:117|206:117|288:182|413:157,1,389.200011877442
406,196,137069,1,0,0:0:0:0:
417,233,137721,1,0,0:0:0:0:
157,223,138372,5,0,0:0:0:0:
157,223,138917,1,0,0:0:0:0:
185,6,139397,5,0,0:0:0:0:
315,242,139711,1,0,0:0:0:0:
511,54,139974,5,0,0:0:0:0:
193,189,140206,1,0,0:0:0:0:
346,0,140342,1,0,0:0:0:0:
283,156,140994,6,0,B|276:132|216:110|174:133|146:191|143:244|162:284|220:304|261:308|313:286|329:235|328:185|328:185|325:140|360:91|390:82|390:82|413:108|413:108|398:67|399:28|399:28|335:66|279:63,1,770
230,49,142296,2,0,P|29:165|166:352,1,523.249991616631
369,288,143274,1,0,0:0:0:0:
418,258,143436,2,0,B|310:9|194:293|81:30,1,418.599993293305
27,69,144414,2,0,L|150:370,1,313.949994969978
173,193,145228,5,0,0:0:0:0:
323,49,145554,1,0,0:0:0:0:
343,225,145879,1,0,0:0:0:0:
298,136,146205,2,0,B|271:145|250:122|250:122|230:102|196:115,1,111.30000016983
83,86,146694,6,0,P|88:113|105:144,1,55.6500000849152
148,202,147182,2,0,P|208:217|284:269,2,111.30000016983
197,324,147997,1,0,0:0:0:0:
33,268,148160,1,0,0:0:0:0:
183,112,148322,2,0,L|305:147,1,111.30000016983
363,226,148811,1,0,0:0:0:0:
286,275,149300,5,0,0:0:0:0:
286,275,149463,2,0,B|219:173|235:282|134:182,1,166.950000254745
149,196,150114,1,0,0:0:0:0:
49,284,150603,5,0,0:0:0:0:
0,185,150765,2,0,B|0:65|191:65|190:203,1,278.600006908035
479,185,151661,2,0,B|479:290|292:290|291:151,1,261.450012067967
185,57,152476,2,0,B|221:228|221:228|284:111|284:111|258:257|377:361,1,505.749980128384
256,192,153371,12,0,155997,0:0:0:0:
199,119,156648,6,0,L|318:198,1,111.30000016983
348,99,157137,1,0,0:0:0:0:
428,145,157300,2,0,P|451:163|468:207,1,55.6500000849152
462,258,157626,1,0,0:0:0:0:
325,258,157951,1,0,0:0:0:0:
231,350,158196,2,0,L|166:359,1,65.9750020133973
199,244,159824,6,0,P|126:244|69:174,1,145.950004454041
91,47,160557,1,0,0:0:0:0:
209,0,161046,1,0,0:0:0:0:
230,18,161209,2,0,L|285:169,1,145.950004454041
199,244,161860,1,0,0:0:0:0:
264,351,162349,2,0,L|322:333,1,48.6500014846802
458,252,163163,5,0,0:0:0:0:
402,78,163652,2,0,L|352:89,1,35
307,155,164303,2,0,L|254:128,1,35
210,31,164792,1,0,0:0:0:0:
120,106,165117,1,0,0:0:0:0:
39,194,165443,5,0,0:0:0:0:
67,238,165606,1,0,0:0:0:0:
37,345,165769,5,0,0:0:0:0:
86,324,165932,2,0,L|137:334,1,35
174,316,166257,1,0,0:0:0:0:
254,326,166420,5,0,0:0:0:0:
325,357,166583,2,0,P|351:365|385:356,2,35
323,283,167072,5,0,0:0:0:0:
368,253,167235,1,0,0:0:0:0:
412,318,167398,1,0,0:0:0:0:
498,366,167560,1,0,0:0:0:0:
509,252,167723,6,0,L|482:206,1,35
426,178,168049,2,0,L|429:113,1,35
356,43,168375,1,0,0:0:0:0:
5,127,168863,5,0,0:0:0:0:
112,39,169026,1,0,0:0:0:0:
158,167,169189,1,0,0:0:0:0:
261,68,169515,5,0,0:0:0:0:
178,257,169678,1,0,0:0:0:0:
29,191,170003,5,0,0:0:0:0:
29,191,170329,1,0,0:0:0:0:
116,309,170655,5,0,0:0:0:0:
116,309,170818,2,0,P|159:285|169:284,1,35
198,347,171143,5,0,0:0:0:0:
198,347,171306,2,0,P|243:327|249:319,1,35
235,263,171632,5,0,0:0:0:0:
235,263,171795,2,0,P|278:239|288:238,1,35
317,301,172121,5,0,0:0:0:0:
317,301,172284,2,0,P|362:281|368:273,1,35
407,215,172609,2,0,P|439:209|457:218,3,35
333,165,173261,1,0,0:0:0:0:
356,51,173424,1,0,0:0:0:0:
179,158,173586,5,0,0:0:0:0:
165,75,173749,1,0,0:0:0:0:
164,68,173913,2,0,P|204:52|252:40,1,76.6499978362656
254,137,174241,1,0,0:0:0:0:
254,137,174404,2,0,P|301:117|326:88,1,76.6499978362656
418,82,174732,6,0,P|454:33|520:8,2,76.6499978362656
476,161,175223,1,0,0:0:0:0:
476,161,175387,2,0,P|496:206|491:244,1,76.6499978362656
431,292,175714,1,0,0:0:0:0:
431,292,175878,2,0,P|391:335|349:344,1,76.6499978362656
248,277,176206,5,0,0:0:0:0:
248,277,176369,2,0,P|221:298|163:325,1,76.6499978362656
92,354,176697,2,0,P|48:311|31:267,2,76.6499978362656
24,152,177188,6,0,B|87:182|141:139|141:139|206:97|266:129,1,229.949993508797
325,83,177843,1,0,0:0:0:0:
389,41,178007,1,0,0:0:0:0:
454,82,178171,2,0,B|368:178|504:198|409:309,1,236.600004422531
383,83,178989,6,0,P|371:84|329:111,1,59.1500011056328
247,289,179317,1,0,0:0:0:0:
233,89,179481,1,0,0:0:0:0:
167,281,179644,1,0,0:0:0:0:
151,48,179808,5,0,0:0:0:0:
52,295,179972,1,0,0:0:0:0:
0,44,180136,1,0,0:0:0:0:
86,293,180299,1,0,0:0:0:0:
390,25,180627,6,0,P|390:60|397:91,1,59.1500011056328
425,364,180954,1,0,0:0:0:0:
329,228,181200,1,0,0:0:0:0:
414,156,181446,2,0,P|452:176|506:161,2,88.7250016584492
341,79,182101,2,0,P|302:81|259:58,2,88.7250016584492
341,79,182674,1,0,0:0:0:0:
341,79,182756,1,0,0:0:0:0:
452,70,183083,5,0,0:0:0:0:
466,154,183247,1,0,0:0:0:0:
480,233,183411,1,0,0:0:0:0:
92,142,183902,1,0,0:0:0:0:
95,209,184066,1,0,0:0:0:0:
493,311,184393,1,0,0:0:0:0:
99,278,184721,1,0,0:0:0:0:
106,348,185376,6,0,P|55:334|41:318,2,59.1500011056328
163,275,185867,2,0,P|214:289|228:305,2,59.1500011056328
93,202,186358,2,0,L|131:145,1,59.1500011056328
95,88,186686,2,0,L|157:61,1,59.1500011056328
186,128,187013,2,0,L|273:71,1,59.1500011056328
234,27,187341,2,0,L|311:25,1,59.1500011056328
443,52,187832,2,0,B|462:78|384:111|384:111|401:179|401:179|393:187|393:187|409:187|409:187|395:201|395:201|410:199|410:199|411:214|340:206|343:289,1,295.750005528164
506,322,189306,6,0,B|451:356|451:356|380:358,1,118.300002211266
395,357,189961,1,0,0:0:0:0:
290,357,190289,2,0,P|315:300|376:273,1,118.300002211266
343,211,190780,2,0,B|275:195|285:239|230:231,1,118.300002211266
137,239,191271,2,0,P|111:213|105:187,1,59.1500011056328
109,49,191599,6,0,B|181:178|257:69|335:-37|423:107,1,354.900006633797
447,169,193236,1,0,0:0:0:0:
449,216,193891,1,0,0:0:0:0:
345,300,194540,5,0,0:0:0:0:
155,137,195020,1,0,0:0:0:0:
378,37,195520,1,0,0:0:0:0:
314,124,195834,5,0,0:0:0:0:
210,142,195976,1,0,0:0:0:0:
228,247,196163,1,0,0:0:0:0:
336,222,196313,1,0,0:0:0:0:
78,115,197121,5,0,0:0:0:0:
284,58,197612,5,0,0:0:0:0:
286,143,197776,1,0,0:0:0:0:
78,115,198431,5,0,0:0:0:0:
286,143,198922,5,0,0:0:0:0:
284,58,199086,2,0,B|371:65|330:106|432:103,1,140
485,178,200068,2,0,P|417:312|231:336,1,244.299996691647
363,374,200559,2,0,P|467:315|513:198,1,250.950004595032
220,267,201214,1,0,0:0:0:0:
220,155,201542,2,0,P|244:107|271:89,1,83.6500015316773
411,98,201869,5,0,0:0:0:0:
409,187,202033,1,0,0:0:0:0:
220,155,202197,5,0,0:0:0:0:
409,187,202361,1,0,0:0:0:0:
283,49,202688,2,0,B|307:191|307:191|389:234,1,167.300003063355
319,149,203343,2,0,B|288:165|269:192|275:210|285:233|299:249|315:246|338:242|354:238|370:241|381:253|391:271|394:286|394:305|384:319|376:343|301:353,1,292.77500536087
195,358,204162,2,0,L|209:261,1,83.6500015316773
61,67,204653,2,0,B|65:58|71:52|76:47|81:45|89:45|93:46|98:48|105:50|109:56|113:64|110:71|112:81|109:85|107:90|109:95|107:98|106:102|104:108|104:108|115:124|154:182,1,167.300003063355
332,60,205581,6,0,B|233:65|233:65|249:363,1,279.300002663612
238,152,206072,2,0,L|370:145,1,93.3333333333333
331,147,206291,1,0,0:0:0:0:
71,118,206946,6,0,P|183:28|352:87,1,303.449988077031
256,175,207683,2,0,P|376:191|463:105,1,252.874990064192
368,10,208256,5,0,0:0:0:0:
50,42,208420,2,0,B|312:172|52:205|395:342,1,404.599984102708
256,192,209320,12,0,211531,0:0:0:0:
163,42,212022,5,0,0:0:0:0:
251,69,212186,2,0,P|306:46|450:127,1,160.300003424378
479,158,212677,1,0,0:0:0:0:
479,158,212841,2,0,B|297:224|460:235|272:350,1,240.450005136566
102,160,213496,2,0,L|188:340,1,160.300003424378
76,346,213987,2,0,P|89:244|221:243,1,240.450005136566
276,351,214642,1,0,0:0:0:0:
276,351,214806,1,0,0:0:0:0:
288,191,215134,5,0,0:0:0:0:
288,191,215297,2,0,L|356:130,1,80.1500017121888
210,27,215952,5,0,0:0:0:0:
176,110,216116,1,0,0:0:0:0:
110,46,216607,1,0,0:0:0:0:
110,46,216771,2,0,P|53:152|56:205,1,160.300003424378
274,201,217262,5,0,0:0:0:0:
351,162,217426,2,0,P|369:163|424:202,1,80.1500017121888
411,304,217917,1,0,0:0:0:0:
362,361,218081,2,0,B|366:345|366:345|268:236,1,160.300003424378
61,328,218572,1,0,0:0:0:0:
61,328,218736,1,0,0:0:0:0:
256,192,219146,1,0,0:0:0:0:
256,192,219391,12,0,222011,0:0:0:0:
27,61,222421,5,0,0:0:0:0:
27,61,222584,1,0,0:0:0:0:
138,46,223321,2,0,B|156:90|156:90|355:126,1,240.450005136566
443,171,223976,1,0,0:0:0:0:
356,327,224304,1,0,0:0:0:0:
356,327,224468,1,0,0:0:0:0:
259,370,224631,2,0,B|159:298|161:398|69:333,1,200.375004280472
82,304,225205,1,0,0:0:0:0:
24,182,225860,5,0,0:0:0:0:
118,96,226351,2,0,P|155:104|199:132,1,80.1500017121888
244,137,227088,2,0,B|429:120|326:214|551:182,1,280.525005992661
506,281,227907,2,0,P|472:338|410:348,1,125.300001720734
167,361,228398,1,0,0:0:0:0:
167,361,228562,2,0,P|103:316|76:100,1,240.450005136566
54,167,229217,5,0,0:0:0:0:
87,76,229626,2,0,P|118:42|153:24,1,80.1500017121888
256,192,230035,12,0,232492,0:0:0:0:
117,167,232737,5,0,0:0:0:0:
117,167,232901,1,0,0:0:0:0:
170,140,233065,2,0,P|222:84|291:56,1,124.600000095062
282,214,234211,1,0,0:0:0:0:
420,132,234375,1,0,0:0:0:0:
469,313,234702,2,0,P|452:312|438:305,2,31.1500000237656
296,384,235357,2,0,B|277:387|277:387|212:363,1,77.8750000594139
51,273,236422,2,0,P|74:185|99:152,2,124.600000095062
51,273,238387,1,0,0:0:0:0:
354,47,239042,6,0,P|407:42|429:55,1,62.3000000475311
381,188,239697,1,0,0:0:0:0:
166,111,239861,2,0,P|212:75|248:76,1,93.4500000712967
410,112,241007,6,0,P|420:170|390:258,1,140
275,246,241989,1,0,0:0:0:0:
331,144,242317,1,0,0:0:0:0:
302,50,242645,5,0,0:0:0:0:
244,35,242808,1,0,0:0:0:0:
187,54,242972,5,0,0:0:0:0:
135,30,243136,1,0,0:0:0:0:
80,41,243300,1,0,0:0:0:0:
52,89,243463,1,0,0:0:0:0:
89,125,243627,5,0,0:0:0:0:
113,171,243791,1,0,0:0:0:0:
101,222,243955,1,0,0:0:0:0:
67,262,244118,1,0,0:0:0:0:
78,313,244282,5,0,0:0:0:0:
113,352,244446,1,0,0:0:0:0:
161,371,244610,1,0,0:0:0:0:
206,344,244773,1,0,0:0:0:0:
255,348,244937,5,0,0:0:0:0:
286,315,245101,1,0,0:0:0:0:
302,272,245265,2,0,P|258:233|244:207,1,70
385,167,246083,5,0,0:0:0:0:
311,102,246247,1,0,0:0:0:0:
288,191,246411,1,0,0:0:0:0:
461,222,246738,1,0,0:0:0:0:
311,102,246902,1,0,0:0:0:0:
385,167,247230,1,0,0:0:0:0:
288,191,247557,1,0,0:0:0:0:
180,33,247885,5,0,0:0:0:0:
225,23,248048,1,0,0:0:0:0:
271,29,248212,5,0,0:0:0:0:
312,50,248376,1,0,0:0:0:0:
304,84,248540,1,0,0:0:0:0:
304,119,248703,1,0,0:0:0:0:
385,169,248867,6,0,L|408:115,3,35
481,245,249522,2,0,L|461:191,3,35
444,310,250177,1,0,0:0:0:0:
361,361,250341,1,0,0:0:0:0:
264,345,250505,1,0,0:0:0:0:
116,209,250832,5,0,0:0:0:0:
216,126,251324,1,0,0:0:0:0:
216,126,251487,1,0,0:0:0:0:
116,209,251651,1,0,0:0:0:0:
276,317,251979,1,0,0:0:0:0:
172,357,252142,1,0,0:0:0:0:
276,317,252470,1,0,0:0:0:0:
172,357,252797,1,0,0:0:0:0:
216,126,253125,5,0,0:0:0:0:
273,80,253289,1,0,0:0:0:0:
346,73,253452,5,0,0:0:0:0:
391,130,253616,1,0,0:0:0:0:
388,203,253780,1,0,0:0:0:0:
347,264,253944,1,0,0:0:0:0:
274,250,254107,5,0,0:0:0:0:
221,198,254271,1,0,0:0:0:0:
151,175,254435,1,0,0:0:0:0:
81,197,254599,1,0,0:0:0:0:
23,141,254762,5,0,0:0:0:0:
59,68,254926,1,0,0:0:0:0:
135,43,255090,1,0,0:0:0:0:
214,57,255254,1,0,0:0:0:0:
271,123,255417,5,0,0:0:0:0:
354,148,255581,1,0,0:0:0:0:
402,75,255745,2,0,L|440:162,1,70
512,346,256564,5,0,0:0:0:0:
480,331,256727,1,0,0:0:0:0:
451,317,256891,1,0,0:0:0:0:
225,359,257219,1,0,0:0:0:0:
238,311,257383,1,0,0:0:0:0:
448,317,257710,1,0,0:0:0:0:
225,359,258038,1,0,0:0:0:0:
66,313,258365,5,0,0:0:0:0:
82,266,258529,1,0,0:0:0:0:
156,176,258693,5,0,0:0:0:0:
194,216,258856,1,0,0:0:0:0:
237,176,259020,1,0,0:0:0:0:
196,138,259184,1,0,0:0:0:0:
35,29,259348,6,0,P|73:9|86:-9,3,35
194,216,260003,6,0,P|156:196|143:178,3,35
366,46,260658,5,0,0:0:0:0:
468,228,260821,1,0,0:0:0:0:
259,225,260985,1,0,0:0:0:0:
216,56,261313,5,0,0:0:0:0:
332,161,261804,2,0,L|391:126,2,35
209,279,262459,2,0,L|250:334,1,35
378,247,262950,2,0,P|421:201|426:177,1,81.6666666666667
291,362,263605,5,0,0:0:0:0:
291,362,263769,1,0,0:0:0:0:
206,363,263933,5,0,0:0:0:0:
178,354,264096,2,0,P|139:327|132:316,1,35
124,313,264424,1,0,0:0:0:0:
34,234,264588,6,0,P|58:197|60:184,1,35
142,153,264915,2,0,P|139:111|143:100,1,35
214,38,265243,6,0,L|275:49,3,35
303,93,265898,5,0,0:0:0:0:
331,161,266062,1,0,0:0:0:0:
301,228,266225,2,0,P|346:249|374:239,1,70
385,92,267044,5,0,0:0:0:0:
361,117,267208,1,0,0:0:0:0:
337,143,267372,1,0,0:0:0:0:
290,194,267699,5,0,0:0:0:0:
266,220,267863,1,0,0:0:0:0:
218,271,268190,5,0,0:0:0:0:
171,323,268518,5,0,0:0:0:0:
256,192,268845,12,0,273758,0:0:0:0:
