osu file format v14

[General]
AudioFilename: audio.mp3
AudioLeadIn: 0
PreviewTime: 76494
Countdown: 1
SampleSet: Soft
StackLeniency: 0.7
Mode: 0
LetterboxInBreaks: 0
WidescreenStoryboard: 1

[Editor]
Bookmarks: 99786,110155,167141,177521
DistanceSpacing: 1.2
BeatDivisor: 4
GridSize: 8
TimelineZoom: 1

[Metadata]
Title:Africa
TitleUnicode:Africa
Artist:Toto
ArtistUnicode:Toto
Creator:Kyshiro
Version:Normal
Source:
Tags:
BeatmapID:1419712
BeatmapSetID:652816

[Difficulty]
HPDrainRate:4
CircleSize:3.8
OverallDifficulty:4.5
ApproachRate:4.5
SliderMultiplier:1.6
SliderTickRate:1

[Events]
//Background and Video events
0,0,"123.jpg",0,0
//Break Periods
2,99986,108895
2,167341,176261
//Storyboard Layer 0 (Background)
//Storyboard Layer 1 (Fail)
//Storyboard Layer 2 (Pass)
//Storyboard Layer 3 (Foreground)
//Storyboard Sound Samples

[TimingPoints]
10500,647.004906453874,4,2,0,40,1,0
76494,-90.9090909090909,4,2,0,55,0,1
99786,648.104906453874,4,2,0,40,1,0
133466,647.604906453874,4,2,0,40,1,0
143827,-86.9565217391304,4,2,0,55,0,1
167141,-86.9565217391304,4,2,0,40,0,0
177521,648.404906453874,4,2,0,40,1,0
177521,-100,4,2,0,40,0,0
199566,648.804906453874,4,2,0,55,1,1
199566,-86.9565217391304,4,2,0,55,0,1
214975,-86.9565217391304,4,2,0,55,0,0
215137,-86.9565217391304,4,2,0,55,0,1
220165,-86.9565217391304,4,2,0,55,0,0
220327,-86.9565217391304,4,2,0,55,0,1
225355,-86.9565217391304,4,2,0,55,0,0
225518,-86.9565217391304,4,2,0,55,0,1
230546,-86.9565217391304,4,2,0,55,0,0
230708,-86.9565217391304,4,2,0,55,0,1
235736,-86.9565217391304,4,2,0,55,0,0
235899,-86.9565217391304,4,2,0,55,0,1
239629,-86.9565217391304,4,2,0,55,0,0
239791,-86.9565217391304,4,2,0,55,0,1
240927,-86.9565217391304,4,2,0,55,0,0
241089,-86.9565217391304,4,2,0,55,0,1
242224,-86.9565217391304,4,2,0,55,0,0
242387,-86.9565217391304,4,2,0,55,0,1
243522,-86.9565217391304,4,2,0,55,0,0
243684,-86.9565217391304,4,2,0,55,0,1
243846,-86.9565217391304,4,2,0,55,0,0

[Colours]
Combo1 : 255,233,166
Combo2 : 237,177,211
Combo3 : 145,194,255
Combo4 : 220,183,240

[HitObjects]
76,130,10499,6,0,P|126:103|173:104,1,80,2|0,0:0|0:0,0:0:0:0:
183,106,10985,1,2,0:0:0:0:
149,204,11308,2,0,L|171:304,1,80,2|0,0:0|0:0,0:0:0:0:
187,307,11794,2,0,P|248:321|289:311,1,80,2|0,0:0|0:0,0:0:0:0:
241,217,12441,1,2,0:0:0:0:
342,239,12764,5,0,0:0:0:0:
307,140,13088,2,0,P|284:86|280:58,1,80,2|0,0:0|0:0,0:0:0:0:
377,27,13735,2,0,L|475:41,1,80,2|0,0:0|0:0,0:0:0:0:
490,136,14382,2,0,L|475:231,2,80,2|0|2,0:0|0:0|0:0,0:0:0:0:
304,337,15676,6,0,P|229:327|201:308,1,80,2|0,0:0|0:0,0:0:0:0:
198,308,16161,1,2,0:0:0:0:
152,214,16484,2,0,L|61:219,1,80,2|0,0:0|0:0,0:0:0:0:
40,216,16970,2,0,P|8:164|6:122,1,80,2|0,0:0|0:0,0:0:0:0:
66,62,17617,1,2,0:0:0:0:
144,130,17940,5,0,0:0:0:0:
221,60,18264,2,0,P|268:43|305:44,1,80,2|0,0:0|0:0,0:0:0:0:
393,83,18911,2,0,L|407:164,1,80,2|0,0:0|0:0,0:0:0:0:
309,193,19558,2,0,L|295:274,2,80,2|0|2,0:0|0:0|0:0,0:0:0:0:
118,314,20852,6,0,P|126:262|117:219,1,80,2|0,0:0|0:0,0:0:0:0:
107,208,21337,1,2,0:0:0:0:
40,128,21660,2,0,P|83:106|134:107,1,80,2|0,0:0|0:0,0:0:0:0:
144,108,22146,2,0,P|183:103|218:83,1,80,2|0,0:0|0:0,0:0:0:0:
293,11,22793,1,2,0:0:0:0:
361,89,23116,5,0,0:0:0:0:
463,72,23440,2,0,P|489:17|493:-4,2,80,2|0|2,0:0|0:0|0:0,0:0:0:0:
500,168,24410,1,0,0:0:0:0:
396,152,24734,2,0,P|374:213|376:237,2,80,2|0|2,0:0|0:0|0:0,0:0:0:0:
234,38,26028,6,0,P|181:46|147:61,1,80,2|0,0:0|0:0,0:0:0:0:
132,76,26513,1,2,0:0:0:0:
88,170,26836,2,0,L|91:265,1,80,2|0,0:0|0:0,0:0:0:0:
93,277,27322,2,0,L|188:274,1,80,2|0,0:0|0:0,0:0:0:0:
276,266,27969,1,2,0:0:0:0:
212,183,28292,5,0,0:0:0:0:
315,171,28616,2,0,P|372:223|373:301,1,160,2|2,0:0|0:0,0:0:0:0:
276,266,29586,1,0,0:0:0:0:
237,362,29910,2,0,P|179:309|178:231,1,160,2|2,0:0|0:0,0:0:0:0:
81,28,31204,5,4,0:0:0:0:
29,117,31527,1,0,0:0:0:0:
124,158,31851,2,0,L|215:147,1,80,2|0,0:0|0:0,0:0:0:0:
290,90,32498,2,0,P|376:92|445:161,1,160,2|2,0:0|0:0,0:0:0:0:
359,211,33468,1,0,0:0:0:0:
448,264,33792,2,0,L|437:353,1,80,2|0,0:0|0:0,0:0:0:0:
339,376,34439,1,0,0:0:0:0:
195,214,35086,6,0,P|177:162|176:132,1,80,2|0,0:0|0:0,0:0:0:0:
85,85,35733,2,0,P|80:124|65:161,1,80,2|0,0:0|0:0,0:0:0:0:
36,179,36218,2,0,L|55:325,1,120,2|0,0:0|0:0,0:0:0:0:
139,353,37027,2,0,L|233:336,1,80,2|0,0:0|0:0,0:0:0:0:
287,261,37674,6,0,P|367:251|461:311,1,160,2|2,0:0|0:0,0:0:0:0:
503,204,38644,1,0,0:0:0:0:
416,145,38968,2,0,B|282:214|282:45|113:130,2,320,2|2|2,0:0|0:0|0:0,0:0:0:0:
200,237,42203,5,2,0:0:0:0:
392,316,42850,1,2,0:0:0:0:
306,374,43173,1,0,0:0:0:0:
221,312,43497,2,0,P|202:265|200:220,1,80,2|0,0:0|0:0,0:0:0:0:
290,187,44144,6,0,B|236:210|236:210|125:182,1,160,2|2,0:0|0:0,0:0:0:0:
57,119,45114,1,0,0:0:0:0:
39,221,45438,2,0,L|56:308,1,80,2|0,0:0|0:0,0:0:0:0:
135,364,46085,1,0,0:0:0:0:
312,254,46732,6,0,P|331:190|329:125,2,120,2|2|0,0:0|0:0|0:0,0:0:0:0:
211,208,48026,2,0,B|183:132|183:132|150:101,2,120,2|2|0,0:0|0:0|0:0,0:0:0:0:
106,211,49320,2,0,P|41:194|64:274,1,160,2|0,0:0|0:0,0:0:0:0:
134,309,50290,1,0,0:0:0:0:
206,233,50614,2,0,B|267:244|304:291|304:291|347:227|411:197|477:201,1,320,2|2,0:0|0:0,0:0:0:0:
201,355,52555,5,0,0:0:0:0:
38,225,53202,2,0,P|26:172|34:133,1,80,2|0,0:0|0:0,0:0:0:0:
119,95,53849,2,0,L|291:117,1,160,2|2,0:0|0:0,0:0:0:0:
369,66,54819,5,0,0:0:0:0:
454,124,55143,2,0,P|475:183|431:281,1,160,2|2,0:0|0:0,0:0:0:0:
349,225,56113,1,0,0:0:0:0:
256,272,56437,2,0,L|155:262,1,80,2|0,0:0|0:0,0:0:0:0:
87,209,57084,2,0,P|51:283|46:375,1,160,2|0,0:0|0:0,0:0:0:0:
204,162,58378,6,0,L|195:72,1,80,2|0,0:0|0:0,0:0:0:0:
285,28,59025,2,0,L|294:118,1,80,0|0,0:0|0:0,0:0:0:0:
362,185,59672,2,0,P|440:172|478:144,2,120,2|2|0,0:0|0:0|0:0,0:0:0:0:
272,239,60966,2,0,P|198:193|111:209,1,160,2|0,0:0|0:0,0:0:0:0:
49,267,61936,1,0,0:0:0:0:
117,345,62260,2,0,B|177:361|230:321|230:321|263:354|308:363|308:363|347:320|408:306,1,320,2|2,0:0|0:0,0:0:0:0:
309,35,64201,6,0,L|299:127,1,80
381,180,64848,2,0,L|475:166,1,80,2|0,0:0|0:0,0:0:0:0:
436,269,65495,2,0,P|376:229|271:231,1,160,2|2,0:0|0:0,0:0:0:0:
206,286,66465,5,0,0:0:0:0:
111,242,66789,2,0,P|82:193|102:76,1,160,2|2,0:0|0:0,0:0:0:0:
182,44,67759,1,0,0:0:0:0:
271,97,68083,2,0,P|289:142|290:185,1,80,2|0,0:0|0:0,0:0:0:0:
198,220,68730,2,0,L|375:216,1,160,2|0,0:0|0:0,0:0:0:0:
129,335,70024,6,0,P|79:299|58:216,2,120,2|2|2,0:0|0:0|0:0,0:0:0:0:
161,235,71318,2,0,L|167:97,2,120,2|2|0,0:0|0:0|0:0,0:0:0:0:
250,181,72612,2,0,B|310:159|310:159|423:196,1,160,2|2,0:0|0:0,0:0:0:0:
256,192,73906,12,4,76494,0:0:0:0:
27,116,77788,6,0,P|140:104|186:148,1,176.000005371094,2|0,0:0|0:0,0:0:0:0:
93,199,78759,1,0,0:0:0:0:
188,243,79082,2,0,B|260:243|298:185|289:125|289:125|335:153|381:147,1,264.000008056641,2|0,0:0|0:0,0:0:0:0:
453,83,80376,2,0,P|477:152|446:222,2,132.00000402832,2|2|0,0:0|0:0|0:0,0:0:0:0:
352,48,81670,5,4,0:0:0:0:
268,113,81994,1,0,0:0:0:0:
166,84,82317,2,0,P|117:50|97:22,1,88.000002685547,2|0,0:0|0:0,0:0:0:0:
32,108,82964,2,0,L|21:197,1,88.000002685547,2|0,0:0|0:0,0:0:0:0:
17,223,83449,1,2,0:0:0:0:
72,313,83773,1,0,0:0:0:0:
142,234,84096,6,0,P|246:231|301:284,1,176.000005371094,2|0,0:0|0:0,0:0:0:0:
304,306,84905,2,0,P|342:328|401:328,1,88.000002685547,2|0,0:0|0:0,0:0:0:0:
465,262,85552,2,0,L|481:121,2,132.00000402832,2|2|0,0:0|0:0|0:0,0:0:0:0:
371,212,86846,5,4,0:0:0:0:
273,253,87170,1,0,0:0:0:0:
202,174,87493,2,0,P|185:126|185:76,1,88.000002685547,2|0,0:0|0:0,0:0:0:0:
191,58,87978,2,0,P|104:83|46:73,1,132.00000402832,2|0,0:0|0:0,0:0:0:0:
35,180,88787,2,0,L|49:276,1,88.000002685547,2|0,0:0|0:0,0:0:0:0:
116,347,89434,6,0,B|163:263|240:196|355:146|432:184|412:340|347:379|247:337|178:256|188:158|263:68|399:127,1,704.000021484376,2|4,0:0|0:0,0:0:0:0:
467,170,92346,5,0,0:0:0:0:
484,273,92669,2,0,L|467:360,1,88.000002685547,2|0,0:0|0:0,0:0:0:0:
442,368,93154,2,0,L|302:346,1,132.00000402832,2|0,0:0|0:0,0:0:0:0:
226,285,93963,1,2,0:0:0:0:
137,343,94287,1,0,0:0:0:0:
55,276,94610,2,0,P|34:222|55:144,2,132.00000402832,2|2|0,0:0|0:0|0:0,0:0:0:0:
138,211,95904,5,6,0:0:0:0:
424,279,97198,5,6,0:0:0:0:
334,55,98492,5,6,0:0:0:0:
265,343,99786,5,6,0:0:0:0:
69,66,110155,6,0,L|58:160,1,80,0|2,0:0|0:0,0:0:0:0:
124,216,110803,2,0,P|207:202|280:253,1,160,2|2,0:0|0:0,0:0:0:0:
315,322,111775,1,0,0:0:0:0:
404,287,112099,2,0,P|431:237|431:198,1,80,2|0,0:0|0:0,0:0:0:0:
421,188,112586,2,0,P|390:137|379:62,1,120,2|0,0:0|0:0,0:0:0:0:
459,26,113396,1,0,0:0:0:0:
204,37,114044,6,0,P|246:82|267:148,2,120,2|2|0,0:0|0:0|0:0,0:0:0:0:
116,77,115340,2,0,L|101:245,1,160,2|2,0:0|0:0,0:0:0:0:
38,308,116312,1,0,0:0:0:0:
132,324,116636,2,0,B|209:353|209:294|287:324,1,160,2|2,0:0|0:0,0:0:0:0:
372,369,117608,1,0,0:0:0:0:
453,318,117932,2,0,P|500:226|339:237,2,320,2|2|2,0:0|0:0|0:0,0:0:0:0:
167,355,121173,5,2,0:0:0:0:
39,164,121821,5,2,0:0:0:0:
117,108,122145,1,0,0:0:0:0:
207,140,122469,2,0,P|235:192|242:232,1,80,2|0,0:0|0:0,0:0:0:0:
318,156,123117,2,0,P|329:117|350:84,1,80,2|0,0:0|0:0,0:0:0:0:
422,147,123765,2,0,L|433:235,1,80,2|0,0:0|0:0,0:0:0:0:
383,309,124413,2,0,L|221:289,1,160,2|2,0:0|0:0,0:0:0:0:
158,219,125386,1,0,0:0:0:0:
67,249,125710,6,0,P|48:284|33:371,2,120,2|2|0,0:0|0:0|0:0,0:0:0:0:
158,219,127006,2,0,P|177:138|174:110,1,80,2|0,0:0|0:0,0:0:0:0:
166,46,127654,2,0,L|259:35,1,80,0|0,0:0|0:0,0:0:0:0:
271,38,128140,2,0,L|364:49,2,80,2|0|0,0:0|0:0|0:0,0:0:0:0:
250,71,128950,2,0,P|246:130|255:172,1,80,2|0,0:0|0:0,0:0:0:0:
339,183,129598,6,0,B|313:128|236:124|198:160|221:207|195:258|102:267|79:191,2,320,2|2|2,0:0|0:0|0:0,0:0:0:0:
240,348,132839,5,2,0:0:0:0:
66,281,133466,2,0,P|58:225|63:165,1,80,2|0,0:0|0:0,0:0:0:0:
137,147,134113,2,0,L|229:160,1,80,2|0,0:0|0:0,0:0:0:0:
243,163,134599,1,2,0:0:0:0:
326,116,134923,1,0,0:0:0:0:
399,177,135246,2,0,P|414:230|406:295,1,120,2|0,0:0|0:0,0:0:0:0:
316,328,136056,2,0,L|149:313,1,160,2|0,0:0|0:0,0:0:0:0:
42,103,137351,6,0,P|91:97|179:140,2,120,2|2|0,0:0|0:0|0:0,0:0:0:0:
28,198,138646,2,0,L|46:291,1,80,2|0,0:0|0:0,0:0:0:0:
63,298,139132,2,0,L|168:281,1,80,2|0,0:0|0:0,0:0:0:0:
164,264,139618,2,0,P|257:242|334:284,1,160,2|0,0:0|0:0,0:0:0:0:
372,341,140589,1,2,0:0:0:0:
256,192,141237,12,4,143827,0:0:0:0:
477,105,145122,6,0,P|406:84|311:153,1,184.000003509522,2|0,0:0|0:0,0:0:0:0:
413,194,146094,1,0,0:0:0:0:
366,294,146418,2,0,B|325:347|204:401|204:186|82:240|42:294,2,368.000007019043,2|2|4,0:0|0:0|0:0,0:0:0:0:
413,194,149332,5,2,0:0:0:0:
318,137,149656,2,0,P|301:200|307:230,1,92.0000017547608,2|0,0:0|0:0,0:0:0:0:
413,194,150303,2,0,L|409:92,1,92.0000017547608,2|0,0:0|0:0,0:0:0:0:
407,75,150789,1,2,0:0:0:0:
309,23,151113,1,0,0:0:0:0:
241,110,151437,6,0,P|171:131|66:23,1,230.000004386902,2|2,0:0|0:0,0:0:0:0:
176,19,152570,1,0,0:0:0:0:
285,31,152894,2,0,L|289:175,2,138.000002632141,2|2|0,0:0|0:0|0:0,0:0:0:0:
381,84,154189,6,0,P|397:142|438:186,1,92.0000017547608,4|0,0:0|0:0,0:0:0:0:
483,241,154836,2,0,L|388:261,1,92.0000017547608,2|0,0:0|0:0,0:0:0:0:
363,264,155322,2,0,P|295:241|211:251,1,138.000002632141,2|0,0:0|0:0,0:0:0:0:
137,306,156132,2,0,P|76:318|33:311,1,92.0000017547608,2|0,0:0|0:0,0:0:0:0:
36,204,156779,6,0,B|107:152|193:142|287:184|312:265|301:319|304:359|234:371|161:366|121:328|127:255|170:166|306:162|335:192|305:281|370:308|438:265|456:210,1,736.000014038086,2|4,0:0|0:0,0:0:0:0:
426,121,159693,5,2,0:0:0:0:
315,129,160017,2,0,P|292:175|280:222,1,92.0000017547608,2|0,0:0|0:0,0:0:0:0:
275,242,160503,2,0,P|232:171|182:119,1,138.000002632141,2|0,0:0|0:0,0:0:0:0:
89,92,161313,1,2,0:0:0:0:
49,194,161636,1,0,0:0:0:0:
151,234,161960,2,0,L|140:375,2,138.000002632141,2|2|0,0:0|0:0|0:0,0:0:0:0:
243,174,163255,5,6,0:0:0:0:
438,283,164551,5,6,0:0:0:0:
391,39,165846,5,6,0:0:0:0:
132,220,167141,5,4,0:0:0:0:
67,90,177521,5,2,0:0:0:0:
160,134,177845,1,0,0:0:0:0:
73,192,178169,2,0,L|83:278,1,80,2|0,0:0|0:0,0:0:0:0:
185,256,178817,2,0,L|175:342,1,80,2|0,0:0|0:0,0:0:0:0:
273,372,179466,2,0,P|327:364|357:353,1,80,2|0,0:0|0:0,0:0:0:0:
426,284,180114,2,0,P|381:259|332:252,2,80,2|0|2,0:0|0:0|0:0,0:0:0:0:
499,209,181087,2,0,P|428:158|269:153,1,240,2|0,0:0|0:0,0:0:0:0:
1,73,182708,5,0,0:0:0:0:
94,119,183032,1,0,0:0:0:0:
195,98,183356,2,0,P|240:73|270:40,1,80,2|0,0:0|0:0,0:0:0:0:
360,23,184005,2,0,P|382:84|425:139,2,120,2|2|0,0:0|0:0|0:0,0:0:0:0:
288,98,185301,2,0,P|271:154|211:217,2,120,2|2|0,0:0|0:0|0:0,0:0:0:0:
362,170,186598,6,0,P|387:214|410:241,1,80,2|0,0:0|0:0,0:0:0:0:
427,256,187084,1,2,0:0:0:0:
483,168,187409,2,0,L|496:80,1,80,2|0,0:0|0:0,0:0:0:0:
495,56,187895,2,0,P|420:40|322:63,1,160,2|2,0:0|0:0,0:0:0:0:
94,177,189192,6,0,P|61:141|50:105,1,80,2|0,0:0|0:0,0:0:0:0:
153,92,189840,2,0,P|189:59|225:48,1,80,2|0,0:0|0:0,0:0:0:0:
239,151,190489,2,0,P|272:187|283:223,1,80,2|0,0:0|0:0,0:0:0:0:
180,236,191137,2,0,P|144:269|108:280,1,80,2|0,0:0|0:0,0:0:0:0:
13,299,191785,2,0,B|113:247|113:373|239:310,1,240,2|0,0:0|0:0,0:0:0:0:
310,235,193082,6,0,P|391:239|446:271,2,120,2|2|0,0:0|0:0|0:0,0:0:0:0:
207,217,194379,2,0,B|191:134|191:134|202:89,2,120,2|2|0,0:0|0:0|0:0,0:0:0:0:
238,310,195676,2,0,L|158:301,1,80,2|0,0:0|0:0,0:0:0:0:
55,287,196324,1,2,0:0:0:0:
256,192,196973,12,4,199566,0:0:0:0:
185,72,200863,6,0,L|156:268,1,184.000003509522,2|0,0:0|0:0,0:0:0:0:
60,306,201836,1,0,0:0:0:0:
63,199,202161,2,0,P|131:150|270:267,1,276.000005264282,2|0,0:0|0:0,0:0:0:0:
331,336,203458,2,0,P|417:342|468:301,2,138.000002632141,2|2|0,0:0|0:0|0:0,0:0:0:0:
380,237,204756,5,4,0:0:0:0:
270,246,205080,1,0,0:0:0:0:
311,143,205405,2,0,L|414:149,1,92.0000017547608,2|0,0:0|0:0,0:0:0:0:
359,46,206054,2,0,L|256:40,1,92.0000017547608,2|0,0:0|0:0,0:0:0:0:
234,39,206540,2,0,P|200:111|199:183,1,138.000002632141,2|0,0:0|0:0,0:0:0:0:
209,278,207351,6,0,P|178:196|95:134,1,184.000003509522,2|2,0:0|0:0,0:0:0:0:
73,243,208324,1,0,0:0:0:0:
145,326,208649,2,0,L|317:306,2,138.000002632141,2|2|0,0:0|0:0|0:0,0:0:0:0:
73,243,209946,5,4,0:0:0:0:
165,181,210271,1,0,0:0:0:0:
72,120,210595,2,0,P|48:69|46:23,1,92.0000017547608,2|0,0:0|0:0,0:0:0:0:
62,12,211082,2,0,L|221:32,1,138.000002632141,2|0,0:0|0:0,0:0:0:0:
282,101,211893,2,0,P|336:91|376:73,1,92.0000017547608,2|0,0:0|0:0,0:0:0:0:
471,32,212542,6,0,B|396:91|383:173|434:266|434:266|390:222|311:204|261:259|232:331|202:346|95:334|80:272|95:193|162:185,1,736.000014038086,2|4,0:0|0:0,0:0:0:0:
265,147,215461,5,0,0:0:0:0:
175,81,215786,2,0,P|105:65|65:69,1,92.0000017547608,2|0,0:0|0:0,0:0:0:0:
57,74,216272,2,0,L|23:217,1,138.000002632141,2|0,0:0|0:0,0:0:0:0:
63,312,217083,2,0,P|123:302|160:277,1,92.0000017547608,2|0,0:0|0:0,0:0:0:0:
220,202,217732,6,0,B|266:172|307:177|351:228|343:262|307:287|336:342|336:342|349:299|372:269|416:260|475:235|481:197|495:145|474:67|402:48|368:125|327:130|282:123|254:53,1,736.000014038086,2|4,0:0|0:0,0:0:0:0:
151,12,220652,5,0,0:0:0:0:
77,94,220976,2,0,L|65:193,1,92.0000017547608,2|0,0:0|0:0,0:0:0:0:
80,210,221463,2,0,L|236:195,1,138.000002632141,2|0,0:0|0:0,0:0:0:0:
295,118,222274,2,0,P|347:114|400:142,1,92.0000017547608,2|0,0:0|0:0,0:0:0:0:
449,216,222922,6,0,B|506:261|486:328|422:360|342:353|362:297|399:241|341:206|276:211|188:249|225:284|276:309|262:362|173:348|81:383|83:306|136:228|66:228|-9:258|-3:311|14:343|14:343|105:330,1,736.000014038086,2|4,0:0|0:0,0:0:0:0:
171,247,225842,5,0,0:0:0:0:
112,152,226167,2,0,P|64:126|21:118,1,92.0000017547608,2|0,0:0|0:0,0:0:0:0:
0,110,226653,2,0,P|64:98|139:55,1,138.000002632141,2|0,0:0|0:0,0:0:0:0:
232,28,227464,2,0,P|299:38|341:74,1,92.0000017547608,2|0,0:0|0:0,0:0:0:0:
424,82,228113,6,0,B|379:139|356:213|356:319|356:319|329:221|284:150|185:92|185:92|172:167|176:231|215:303,1,736.000014038086,2|4,0:0|0:0,0:0:0:0:
120,352,231033,5,0,0:0:0:0:
37,278,231357,2,0,P|17:223|17:183,1,92.0000017547608,2|0,0:0|0:0,0:0:0:0:
24,163,231844,2,0,L|174:186,1,138.000002632141,2|0,0:0|0:0,0:0:0:0:
264,145,232655,2,0,P|299:95|306:44,1,92.0000017547608,2|0,0:0|0:0,0:0:0:0:
195,64,233303,6,0,B|134:42|55:71|25:130|26:224|41:287|165:309|215:290|285:229|285:229|337:180|395:169|442:185|484:231,1,736.000014038086,2|4,0:0|0:0,0:0:0:0:
390,291,236223,5,2,0:0:0:0:
290,338,236547,2,0,P|234:332|192:317,1,92.0000017547608,2|0,0:0|0:0,0:0:0:0:
178,304,237034,2,0,L|190:156,1,138.000002632141,2|0,0:0|0:0,0:0:0:0:
191,135,237683,2,0,P|148:101|47:108,1,138.000002632141,2|0,0:0|0:0,0:0:0:0:
106,201,238494,2,0,L|303:178,1,184.000003509522,2|0,0:0|0:0,0:0:0:0:
386,230,239467,1,0,0:0:0:0:
291,286,239791,1,6,0:0:0:0:
256,192,240116,12,6,243684,0:0:0:0:
