osu file format v14

[General]
AudioFilename: audio.mp3
AudioLeadIn: 0
PreviewTime: 77126
Countdown: 0
SampleSet: Soft
StackLeniency: 0.7
Mode: 3
LetterboxInBreaks: 0
SpecialStyle: 0
WidescreenStoryboard: 0

[Editor]
Bookmarks: 31723
DistanceSpacing: 1.2
BeatDivisor: 4
GridSize: 4
TimelineZoom: 1

[Metadata]
Title:Africa
TitleUnicode:Africa
Artist:Toto
ArtistUnicode:Toto
Creator:Captain Cusheen
Version:Easy
Source:
Tags:Classic Rock Pop 90
BeatmapID:1699756
BeatmapSetID:809596

[Difficulty]
HPDrainRate:8
CircleSize:7
OverallDifficulty:8
ApproachRate:5
SliderMultiplier:1.4
SliderTickRate:1

[Events]
//Background and Video events
0,0,"AFrica.png",0,0
//Break Periods
//Storyboard Layer 0 (Background)
//Storyboard Layer 1 (Fail)
//Storyboard Layer 2 (Pass)
//Storyboard Layer 3 (Foreground)
//Storyboard Sound Samples

[TimingPoints]
756,645.161290322581,4,2,0,100,1,0
26643,645.161290322581,4,2,0,100,1,0
48659,645.161290322581,4,2,0,100,1,0
72449,645.161290322581,4,2,0,100,1,0
77126,645.161290322581,4,2,0,100,1,0
77126,-100,4,2,0,100,0,1
99948,645.161290322581,4,2,0,100,1,0

[HitObjects]
329,192,756,5,0,0:0:0:0:
182,192,1401,1,0,0:0:0:0:
402,192,2046,1,0,0:0:0:0:
109,192,2691,1,0,0:0:0:0:
182,192,3336,1,0,0:0:0:0:
329,192,3981,1,0,0:0:0:0:
109,192,4626,1,0,0:0:0:0:
402,192,5272,1,0,0:0:0:0:
256,192,5917,1,0,0:0:0:0:
475,192,6562,1,0,0:0:0:0:
256,192,7207,1,0,0:0:0:0:
36,192,7852,1,0,0:0:0:0:
475,192,8497,1,0,0:0:0:0:
182,192,9143,1,0,0:0:0:0:
329,192,9788,1,0,0:0:0:0:
36,192,10433,1,0,0:0:0:0:
182,192,11078,1,0,0:0:0:0:
402,192,11562,1,0,0:0:0:0:
402,192,11885,1,0,0:0:0:0:
109,192,12207,1,0,0:0:0:0:
329,192,12368,1,0,0:0:0:0:
182,192,12691,1,0,0:0:0:0:
475,192,13014,128,0,15917:0:0:0:0:
109,192,13336,128,0,13659:0:0:0:0:
182,192,13659,128,0,13981:0:0:0:0:
329,192,13981,128,0,14304:0:0:0:0:
402,192,14304,128,0,14626:0:0:0:0:
109,192,14626,128,0,14949:0:0:0:0:
182,192,14949,128,0,15272:0:0:0:0:
329,192,15272,128,0,15594:0:0:0:0:
402,192,15594,128,0,15917:0:0:0:0:
256,192,15917,128,0,16239:0:0:0:0:
329,192,16239,1,0,0:0:0:0:
109,192,16723,1,0,0:0:0:0:
109,192,17046,1,0,0:0:0:0:
402,192,17368,1,0,0:0:0:0:
182,192,17530,1,0,0:0:0:0:
329,192,17852,1,0,0:0:0:0:
36,192,18175,128,0,21078:0:0:0:0:
402,192,18497,128,0,18820:0:0:0:0:
329,192,18820,128,0,19143:0:0:0:0:
182,192,19143,128,0,19465:0:0:0:0:
109,192,19465,128,0,19788:0:0:0:0:
402,192,19788,128,0,20110:0:0:0:0:
329,192,20110,128,0,20433:0:0:0:0:
182,192,20433,128,0,20756:0:0:0:0:
109,192,20756,128,0,21078:0:0:0:0:
256,192,21078,128,0,21401:0:0:0:0:
402,192,21401,1,0,0:0:0:0:
182,192,21885,1,0,0:0:0:0:
329,192,22207,1,0,0:0:0:0:
109,192,22530,1,0,0:0:0:0:
256,192,22691,1,0,0:0:0:0:
329,192,23014,1,0,0:0:0:0:
402,192,23336,128,0,26239:0:0:0:0:
36,192,23659,128,0,23981:0:0:0:0:
109,192,23981,128,0,24304:0:0:0:0:
256,192,24304,128,0,24626:0:0:0:0:
329,192,24626,128,0,24949:0:0:0:0:
36,192,24949,128,0,25272:0:0:0:0:
109,192,25272,128,0,25594:0:0:0:0:
256,192,25594,128,0,25917:0:0:0:0:
329,192,25917,128,0,26239:0:0:0:0:
475,192,26239,128,0,26643:0:0:0:0:
256,192,26643,128,0,27126:0:0:0:0:
109,192,27126,1,0,0:0:0:0:
329,192,27449,1,0,0:0:0:0:
182,192,27772,1,0,0:0:0:0:
256,192,27933,1,0,0:0:0:0:
402,192,28255,1,0,0:0:0:0:
109,192,28578,128,0,31481:0:0:0:0:
475,192,28901,128,0,29223:0:0:0:0:
402,192,29223,128,0,29546:0:0:0:0:
256,192,29546,128,0,29868:0:0:0:0:
182,192,29868,128,0,30191:0:0:0:0:
475,192,30191,128,0,30513:0:0:0:0:
402,192,30513,128,0,30836:0:0:0:0:
256,192,30836,128,0,31159:0:0:0:0:
182,192,31159,128,0,31481:0:0:0:0:
36,192,31481,128,0,31804:0:0:0:0:
329,192,31804,1,0,0:0:0:0:
402,192,32449,1,0,0:0:0:0:
182,192,33094,1,0,0:0:0:0:
109,192,33739,1,0,0:0:0:0:
475,192,34384,1,0,0:0:0:0:
329,192,35030,1,0,0:0:0:0:
36,192,35675,1,0,0:0:0:0:
182,192,36320,1,0,0:0:0:0:
402,192,36965,1,0,0:0:0:0:
256,192,37610,1,0,0:0:0:0:
109,192,38255,1,0,0:0:0:0:
256,192,38901,1,0,0:0:0:0:
475,192,39546,1,0,0:0:0:0:
256,192,40191,1,0,0:0:0:0:
36,192,40836,1,0,0:0:0:0:
329,192,41320,1,0,0:0:0:0:
182,192,41643,1,0,0:0:0:0:
475,192,41965,1,0,0:0:0:0:
329,192,42126,1,0,0:0:0:0:
36,192,42449,1,0,0:0:0:0:
182,192,42772,128,0,43417:0:0:0:0:
402,192,43417,1,0,0:0:0:0:
329,192,44062,1,0,0:0:0:0:
109,192,44707,1,0,0:0:0:0:
182,192,45352,1,0,0:0:0:0:
402,192,45997,1,0,0:0:0:0:
256,192,46643,1,0,0:0:0:0:
109,192,47288,1,0,0:0:0:0:
256,192,47933,1,0,0:0:0:0:
475,192,48659,1,0,0:0:0:0:
329,192,49304,1,0,0:0:0:0:
36,192,49949,1,0,0:0:0:0:
182,192,50594,1,0,0:0:0:0:
402,192,51239,1,0,0:0:0:0:
256,192,51884,1,0,0:0:0:0:
109,192,52529,1,0,0:0:0:0:
402,192,53013,1,0,0:0:0:0:
329,192,53336,1,0,0:0:0:0:
182,192,53659,1,0,0:0:0:0:
256,192,53820,1,0,0:0:0:0:
109,192,54142,1,0,0:0:0:0:
475,192,54465,128,0,55110:0:0:0:0:
256,192,55110,1,0,0:0:0:0:
109,192,55755,1,0,0:0:0:0:
402,192,56400,1,0,0:0:0:0:
256,192,57046,1,0,0:0:0:0:
36,192,57691,1,0,0:0:0:0:
329,192,58336,1,0,0:0:0:0:
182,192,58981,1,0,0:0:0:0:
475,192,59626,1,0,0:0:0:0:
182,192,60271,1,0,0:0:0:0:
329,192,60917,1,0,0:0:0:0:
36,192,61562,1,0,0:0:0:0:
182,192,62207,1,0,0:0:0:0:
402,192,62852,1,0,0:0:0:0:
256,192,63497,1,0,0:0:0:0:
475,192,64142,1,0,0:0:0:0:
329,192,64626,1,0,0:0:0:0:
182,192,64949,1,0,0:0:0:0:
36,192,65271,1,0,0:0:0:0:
182,192,65433,1,0,0:0:0:0:
329,192,65755,1,0,0:0:0:0:
402,192,66078,128,0,66723:0:0:0:0:
109,192,66723,1,0,0:0:0:0:
256,192,67368,1,0,0:0:0:0:
402,192,68013,1,0,0:0:0:0:
256,192,68659,1,0,0:0:0:0:
182,192,69304,1,0,0:0:0:0:
329,192,69949,1,0,0:0:0:0:
36,192,70594,1,0,0:0:0:0:
475,192,71239,1,0,0:0:0:0:
182,192,71884,1,0,0:0:0:0:
402,192,72449,1,0,0:0:0:0:
109,192,73094,1,0,0:0:0:0:
256,192,73739,1,0,0:0:0:0:
475,192,74384,1,0,0:0:0:0:
329,192,74384,1,0,0:0:0:0:
109,192,75029,1,0,0:0:0:0:
256,192,75190,1,0,0:0:0:0:
402,192,75674,1,0,0:0:0:0:
182,192,75836,1,0,0:0:0:0:
329,192,76158,1,0,0:0:0:0:
109,192,76481,1,0,0:0:0:0:
182,192,76481,1,0,0:0:0:0:
36,192,76803,1,0,0:0:0:0:
256,192,76965,1,0,0:0:0:0:
475,192,77126,1,0,0:0:0:0:
329,192,77126,1,0,0:0:0:0:
109,192,77771,1,0,0:0:0:0:
182,192,77771,1,0,0:0:0:0:
256,192,78416,1,0,0:0:0:0:
402,192,78416,1,0,0:0:0:0:
36,192,79061,1,0,0:0:0:0:
109,192,79061,1,0,0:0:0:0:
182,192,79706,1,0,0:0:0:0:
329,192,79706,1,0,0:0:0:0:
402,192,80351,1,0,0:0:0:0:
475,192,80351,1,0,0:0:0:0:
36,192,80996,1,0,0:0:0:0:
256,192,80996,1,0,0:0:0:0:
109,192,81642,1,0,0:0:0:0:
329,192,81642,1,0,0:0:0:0:
256,192,82287,1,0,0:0:0:0:
475,192,82287,1,0,0:0:0:0:
402,192,82932,1,0,0:0:0:0:
182,192,82932,1,0,0:0:0:0:
256,192,83577,1,0,0:0:0:0:
329,192,83577,1,0,0:0:0:0:
109,192,84222,1,0,0:0:0:0:
182,192,84222,1,0,0:0:0:0:
402,192,84867,1,0,0:0:0:0:
475,192,84867,1,0,0:0:0:0:
36,192,85513,1,0,0:0:0:0:
109,192,85513,1,0,0:0:0:0:
182,192,86158,1,0,0:0:0:0:
256,192,86158,1,0,0:0:0:0:
329,192,86803,1,0,0:0:0:0:
402,192,86803,1,0,0:0:0:0:
475,192,87448,1,0,0:0:0:0:
36,192,87448,1,0,0:0:0:0:
402,192,88093,1,0,0:0:0:0:
109,192,88093,1,0,0:0:0:0:
329,192,88738,1,0,0:0:0:0:
182,192,88738,1,0,0:0:0:0:
36,192,89384,1,0,0:0:0:0:
475,192,89384,1,0,0:0:0:0:
182,192,90029,1,0,0:0:0:0:
402,192,90029,1,0,0:0:0:0:
109,192,90674,1,0,0:0:0:0:
329,192,90674,1,0,0:0:0:0:
182,192,91319,1,0,0:0:0:0:
402,192,91319,1,0,0:0:0:0:
475,192,91964,1,0,0:0:0:0:
256,192,91964,1,0,0:0:0:0:
36,192,92609,1,0,0:0:0:0:
329,192,92609,1,0,0:0:0:0:
109,192,93255,1,0,0:0:0:0:
402,192,93255,1,0,0:0:0:0:
182,192,93900,1,0,0:0:0:0:
475,192,93900,1,0,0:0:0:0:
256,192,94545,1,0,0:0:0:0:
402,192,94545,1,0,0:0:0:0:
36,192,95190,1,0,0:0:0:0:
182,192,95190,1,0,0:0:0:0:
109,192,95835,1,0,0:0:0:0:
256,192,95835,1,0,0:0:0:0:
329,192,96480,1,0,0:0:0:0:
475,192,96480,128,0,97771:0:0:0:0:
182,192,97771,128,0,99061:0:0:0:0:
329,192,97771,1,0,0:0:0:0:
36,192,99061,1,0,0:0:0:0:
402,192,99061,128,0,99948:0:0:0:0:
109,192,99948,1,0,0:0:0:0:
256,192,100431,1,0,0:0:0:0:
