osu file format v14

[General]
AudioFilename: audio.mp3
AudioLeadIn: 0
PreviewTime: 0
Countdown: 0
SampleSet: Soft
StackLeniency: 0.7
Mode: 0
LetterboxInBreaks: 0
WidescreenStoryboard: 0

[Editor]
DistanceSpacing: 1
BeatDivisor: 4
GridSize: 4
TimelineZoom: 1

[Metadata]
Title:Wii Sports Theme
TitleUnicode:Wii Sports Theme
Artist:Totaka Kazumi
ArtistUnicode:戸高一生
Creator:Nyantiaz
Version:Hard
Source:Wii Sports
Tags:instrumental nintendo piano Wiiスポーツ video game
BeatmapID:2261823
BeatmapSetID:1081181

[Difficulty]
HPDrainRate:5
CircleSize:3.5
OverallDifficulty:6
ApproachRate:7
SliderMultiplier:1.6
SliderTickRate:1

[Events]
//Background and Video events
0,0,"background.jpg",0,0
//Break Periods
//Storyboard Layer 0 (Background)
//Storyboard Layer 1 (Fail)
//Storyboard Layer 2 (Pass)
//Storyboard Layer 3 (Foreground)
//Storyboard Layer 4 (Overlay)
//Storyboard Sound Samples

[TimingPoints]
-196,500,4,2,1,40,1,0
5804,-100,4,2,1,5,0,0
6284,500,4,2,1,5,1,0
6284,-100,4,2,1,50,0,0
30284,-100,4,2,1,60,0,0
44284,-100,4,2,1,55,0,0
62284,-100,4,2,1,65,0,0
64284,-100,4,2,1,50,0,0
88284,-100,4,2,1,60,0,0
102284,-100,4,2,1,50,0,0
120284,-100,4,2,1,65,0,0
122284,-100,4,2,1,50,0,0

[Colours]
Combo1 : 18,124,255
Combo2 : 0,255,255
SliderBorder : 255,255,255
SliderTrackOverride : 0,26,26

[HitObjects]
391,95,54,5,0,0:0:0:0:
391,95,179,1,0,0:0:0:0:
391,95,304,2,0,P|402:188|398:245,2,120,2|2|2,0:0|0:0|0:0,0:0:0:0:
322,53,1304,1,2,0:0:0:0:
168,99,1804,5,4,0:0:0:0:
256,192,1929,12,0,5804,0:0:0:0:
50,103,6284,6,0,P|105:125|214:88,1,160,6|8,0:0|0:0,0:0:0:0:
265,54,7034,1,0,0:0:0:0:
331,98,7284,2,0,B|320:165|320:165|326:187|326:187|312:263,1,160,2|8,0:0|0:0,0:0:0:0:
350,325,8034,1,0,0:0:0:0:
423,292,8284,6,0,P|480:283|519:335,2,120,2|0|0,0:0|0:0|0:0,0:0:0:0:
350,325,9284,2,0,P|312:368|255:359,2,120,2|0|0,0:0|0:0|0:0,0:0:0:0:
363,246,10284,2,0,L|349:112,2,120,2|0|0,0:0|0:0|0:0,0:0:0:0:
287,273,11284,2,0,L|202:268,1,80,2|0,0:0|0:0,0:0:0:0:
138,310,11784,2,0,L|53:315,1,80,8|0,0:0|0:0,0:0:0:0:
16,245,12284,5,2,0:0:0:0:
16,245,12534,1,0,0:0:0:0:
52,173,12784,2,0,L|131:177,1,80,8|0,0:0|0:0,0:0:0:0:
209,156,13284,1,2,0:0:0:0:
279,193,13534,1,0,0:0:0:0:
346,150,13784,2,0,P|350:104|338:64,1,80,8|0,0:0|0:0,0:0:0:0:
271,31,14284,6,0,P|317:-5|409:29,1,160,6|8,0:0|0:0,0:0:0:0:
341,71,15034,1,0,0:0:0:0:
270,109,15284,2,0,B|186:95|222:139|99:122,1,160,2|8,0:0|0:0,0:0:0:0:
33,114,16034,1,0,0:0:0:0:
33,114,16159,1,0,0:0:0:0:
33,114,16284,6,0,L|39:237,2,120,2|0|0,0:0|0:0|0:0,0:0:0:0:
90,58,17284,2,0,P|144:51|190:60,1,80,2|0,0:0|0:0,0:0:0:0:
237,96,17784,1,8,0:0:0:0:
311,67,18034,1,0,0:0:0:0:
311,67,18159,1,0,0:0:0:0:
311,67,18284,6,0,B|357:88|357:88|454:77,2,120,2|0|0,0:0|0:0|0:0,0:0:0:0:
237,96,19284,2,0,L|229:178,1,80,2|0,0:0|0:0,0:0:0:0:
159,215,19784,2,0,L|167:297,1,80,8|0,0:0|0:0,0:0:0:0:
226,347,20284,5,2,0:0:0:0:
297,310,20534,2,0,P|342:303|397:322,2,80,0|8|0,0:0|0:0|0:0,0:0:0:0:
226,347,21284,1,2,0:0:0:0:
226,347,21534,1,0,0:0:0:0:
148,327,21784,2,0,P|103:334|48:315,1,80,8|0,0:0|0:0,0:0:0:0:
39,300,22159,1,0,0:0:0:0:
39,300,22284,6,0,P|36:229|21:177,2,120,6|0|0,0:0|0:0|0:0,0:0:0:0:
112,266,23284,2,0,P|166:253|205:254,1,80,2|0,0:0|0:0,0:0:0:0:
237,187,23784,2,0,P|291:200|330:199,1,80,8|0,0:0|0:0,0:0:0:0:
389,170,24284,6,0,P|413:113|367:29,1,160,2|8,0:0|0:0,0:0:0:0:
302,74,25034,1,0,0:0:0:0:
302,74,25159,1,0,0:0:0:0:
302,74,25284,2,0,P|245:79|196:65,1,80,2|0,0:0|0:0,0:0:0:0:
150,40,25784,1,8,0:0:0:0:
83,84,26034,1,0,0:0:0:0:
83,84,26159,1,0,0:0:0:0:
83,84,26284,6,0,B|50:116|50:116|60:203,2,120,6|0|0,0:0|0:0|0:0,0:0:0:0:
160,105,27284,2,0,P|207:106|269:83,1,80,2|0,0:0|0:0,0:0:0:0:
310,61,27784,2,0,P|357:60|422:110,1,120,8|0,0:0|0:0,0:0:0:0:
442,129,28284,6,0,L|431:216,1,80,2|0,0:0|0:0,0:0:0:0:
360,245,28784,2,0,L|371:332,1,80,8|0,0:0|0:0,0:0:0:0:
296,355,29284,1,2,0:0:0:0:
296,355,29534,1,0,0:0:0:0:
224,319,29784,1,8,0:0:0:0:
276,258,30034,1,0,0:0:0:0:
276,258,30159,1,0,0:0:0:0:
276,258,30284,6,0,P|297:214|283:108,2,120,6|0|0,0:0|0:0|0:0,0:0:0:0:
199,282,31284,2,0,L|110:282,1,80,2|0,0:0|0:0,0:0:0:0:
53,236,31784,1,8,0:0:0:0:
104,174,32034,1,0,0:0:0:0:
45,119,32284,6,0,P|25:61|28:-30,2,120,2|0|0,0:0|0:0|0:0,0:0:0:0:
104,174,33284,2,0,L|201:173,1,80,2|0,0:0|0:0,0:0:0:0:
240,116,33784,1,2,0:0:0:0:
351,159,34159,1,2,0:0:0:0:
460,109,34534,2,0,P|456:165|454:244,2,120,2|0|2,0:0|0:0|0:0,0:0:0:0:
384,15,35659,1,2,0:0:0:0:
275,66,36034,1,2,0:0:0:0:
204,29,36284,6,0,L|34:40,1,160,6|8,0:0|0:0,0:0:0:0:
15,113,37034,1,0,0:0:0:0:
53,182,37284,2,0,L|223:171,1,160,2|8,0:0|0:0,0:0:0:0:
275,122,38034,1,0,0:0:0:0:
275,122,38159,1,0,0:0:0:0:
275,122,38284,6,0,P|292:181|229:249,1,160,2|8,0:0|0:0,0:0:0:0:
210,326,39034,1,0,0:0:0:0:
210,326,39159,1,0,0:0:0:0:
210,326,39284,2,0,P|267:336|316:328,1,80,2|0,0:0|0:0,0:0:0:0:
341,274,39784,2,0,P|398:264|447:272,1,80,8|0,0:0|0:0,0:0:0:0:
487,308,40284,6,0,B|457:251|457:251|469:136,1,160,6|8,0:0|0:0,0:0:0:0:
432,83,41034,1,0,0:0:0:0:
358,113,41284,2,0,B|298:99|298:99|256:100|256:100|200:83,1,160,2|8,0:0|0:0,0:0:0:0:
127,54,42034,1,0,0:0:0:0:
127,54,42159,1,0,0:0:0:0:
127,54,42284,6,0,L|132:134,1,80,2|0,0:0|0:0,0:0:0:0:
73,188,42784,2,0,L|68:268,1,80,8|0,0:0|0:0,0:0:0:0:
125,323,43284,2,0,L|166:320,3,40,2|0|0|0,0:0|0:0|0:0|0:0,0:0:0:0:
196,295,43784,2,0,L|237:298,3,40,8|0|0|0,0:0|0:0|0:0|0:0,0:0:0:0:
273,283,44284,6,0,P|304:248|287:128,1,160,6|8,0:0|0:0,0:0:0:0:
234,91,45034,1,0,0:0:0:0:
296,40,45284,2,0,P|342:29|374:36,1,80,2|0,0:0|0:0,0:0:0:0:
442,75,45784,2,0,L|438:158,1,80,8|0,0:0|0:0,0:0:0:0:
470,228,46284,6,0,B|377:203|416:252|290:217,1,160,2|8,0:0|0:0,0:0:0:0:
251,170,47034,1,0,0:0:0:0:
251,170,47159,1,0,0:0:0:0:
251,170,47284,2,0,L|241:83,2,80,2|0|8,0:0|0:0|0:0,0:0:0:0:
189,220,48034,1,0,0:0:0:0:
189,220,48159,1,0,0:0:0:0:
189,220,48284,6,0,P|116:237|41:186,1,160,2|8,0:0|0:0,0:0:0:0:
18,120,49034,1,0,0:0:0:0:
78,67,49284,2,0,L|163:72,1,80,2|0,0:0|0:0,0:0:0:0:
225,28,49784,2,0,L|310:33,1,80,8|0,0:0|0:0,0:0:0:0:
336,57,50159,1,0,0:0:0:0:
336,57,50284,6,0,P|370:125|331:203,1,160,2|8,0:0|0:0,0:0:0:0:
273,245,51034,1,0,0:0:0:0:
273,245,51159,1,0,0:0:0:0:
273,245,51284,2,0,B|203:226|203:226|116:257,1,160,2|8,0:0|0:0,0:0:0:0:
126,339,52034,1,0,0:0:0:0:
126,339,52159,1,0,0:0:0:0:
126,339,52284,6,0,L|214:329,1,80,2|0,0:0|0:0,0:0:0:0:
282,349,52784,2,0,L|370:359,1,80,8|0,0:0|0:0,0:0:0:0:
423,306,53284,2,0,P|434:258|424:211,1,80,2|0,0:0|0:0,0:0:0:0:
364,180,53784,1,8,0:0:0:0:
426,129,54034,1,0,0:0:0:0:
426,129,54159,1,0,0:0:0:0:
426,129,54284,6,0,P|448:73|403:41,2,120,6|0|0,0:0|0:0|0:0,0:0:0:0:
346,118,55284,2,0,P|295:112|241:125,1,80,2|0,0:0|0:0,0:0:0:0:
201,161,55784,2,0,L|208:246,1,80,8|0,0:0|0:0,0:0:0:0:
141,286,56284,6,0,B|68:276|68:276|12:330,2,120,2|0|0,0:0|0:0|0:0,0:0:0:0:
208,328,57284,1,2,0:0:0:0:
281,295,57534,1,0,0:0:0:0:
355,325,57784,2,0,L|439:315,1,80,8|0,0:0|0:0,0:0:0:0:
463,288,58159,1,0,0:0:0:0:
463,288,58284,6,0,L|445:131,2,120,6|0|0,0:0|0:0|0:0,0:0:0:0:
384,271,59284,2,0,L|374:183,1,80,2|0,0:0|0:0,0:0:0:0:
295,200,59784,2,0,L|304:279,1,80,8|0,0:0|0:0,0:0:0:0:
235,320,60284,6,0,P|143:345|79:283,1,160,2|8,0:0|0:0,0:0:0:0:
112,234,61034,1,0,0:0:0:0:
112,234,61159,1,0,0:0:0:0:
112,234,61284,2,0,L|108:131,1,80,2|0,0:0|0:0,0:0:0:0:
40,112,61784,2,0,L|44:9,1,80,8|0,0:0|0:0,0:0:0:0:
120,12,62284,5,4,0:0:0:0:
275,49,62784,1,4,0:0:0:0:
230,202,63284,2,0,L|208:283,1,80,4|0,0:0|0:0,0:0:0:0:
266,347,63784,1,4,0:3:0:0:
266,347,63909,1,4,0:3:0:0:
266,347,64034,1,4,0:3:0:0:
334,311,64284,6,0,B|377:335|377:335|486:319,1,160,6|8,0:0|0:0,0:0:0:0:
500,239,65034,1,0,0:0:0:0:
502,159,65284,2,0,B|459:135|459:135|350:151,1,160,2|8,0:0|0:0,0:0:0:0:
284,198,66034,1,0,0:0:0:0:
215,156,66284,6,0,P|200:109|227:29,2,120,2|0|0,0:0|0:0|0:0,0:0:0:0:
284,198,67284,2,0,P|299:245|272:325,2,120,2|0|0,0:0|0:0|0:0,0:0:0:0:
348,149,68284,2,0,B|380:131|380:131|489:147,2,120,2|0|0,0:0|0:0|0:0,0:0:0:0:
274,118,69284,2,0,L|177:104,1,80,2|0,0:0|0:0,0:0:0:0:
137,50,69784,2,0,L|40:64,1,80,8|0,0:0|0:0,0:0:0:0:
22,133,70284,5,2,0:0:0:0:
22,133,70534,1,0,0:0:0:0:
72,195,70784,2,0,P|84:246|79:296,1,80,8|0,0:0|0:0,0:0:0:0:
134,335,71284,1,2,0:0:0:0:
204,298,71534,1,0,0:0:0:0:
281,318,71784,2,0,L|287:225,1,80,8|0,0:0|0:0,0:0:0:0:
279,158,72284,6,0,B|183:140|220:204|96:179,1,160,6|8,0:0|0:0,0:0:0:0:
59,138,73034,1,0,0:0:0:0:
99,69,73284,2,0,B|195:87|158:23|282:48,1,160,2|8,0:0|0:0,0:0:0:0:
323,97,74034,1,0,0:0:0:0:
323,97,74159,1,0,0:0:0:0:
323,97,74284,6,0,P|347:150|319:213,2,120,2|0|0,0:0|0:0|0:0,0:0:0:0:
380,39,75284,2,0,L|477:39,1,80,2|0,0:0|0:0,0:0:0:0:
497,109,75784,1,8,0:0:0:0:
449,173,76034,1,0,0:0:0:0:
449,173,76159,1,0,0:0:0:0:
449,173,76284,6,0,L|459:308,2,120,2|0|0,0:0|0:0|0:0,0:0:0:0:
374,143,77284,2,0,P|332:139|269:158,1,80,2|0,0:0|0:0,0:0:0:0:
245,208,77784,2,0,L|251:290,1,80,8|0,0:0|0:0,0:0:0:0:
192,343,78284,5,2,0:0:0:0:
119,308,78534,2,0,P|74:303|20:315,2,80,0|8|0,0:0|0:0|0:0,0:0:0:0:
192,343,79284,2,0,P|237:348|291:336,1,80,2|0,0:0|0:0,0:0:0:0:
330,289,79784,2,0,L|323:197,1,80,8|0,0:0|0:0,0:0:0:0:
337,171,80159,1,0,0:0:0:0:
337,171,80284,6,0,B|399:181|399:181|489:159,2,120,6|0|0,0:0|0:0|0:0,0:0:0:0:
263,139,81284,2,0,P|212:125|156:134,1,80,2|0,0:0|0:0,0:0:0:0:
119,172,81784,2,0,L|127:263,1,80,8|0,0:0|0:0,0:0:0:0:
145,329,82284,5,2,0:0:0:0:
216,293,82534,1,0,0:0:0:0:
216,293,82784,2,0,L|310:299,1,80,8|0,0:0|0:0,0:0:0:0:
355,244,83284,2,0,P|360:191|348:151,1,80,2|0,0:0|0:0,0:0:0:0:
298,108,83784,1,8,0:0:0:0:
351,48,84034,1,0,0:0:0:0:
351,48,84159,1,0,0:0:0:0:
351,48,84284,6,0,B|408:27|408:27|499:37,2,120,6|0|0,0:0|0:0|0:0,0:0:0:0:
287,96,85284,2,0,L|202:96,1,80,2|0,0:0|0:0,0:0:0:0:
139,53,85784,2,0,L|54:53,1,80,8|0,0:0|0:0,0:0:0:0:
9,115,86284,6,0,P|1:158|13:208,1,80,2|0,0:0|0:0,0:0:0:0:
80,225,86784,2,0,P|88:268|76:318,1,80,8|0,0:0|0:0,0:0:0:0:
141,357,87284,1,2,0:0:0:0:
212,321,87534,1,0,0:0:0:0:
283,356,87784,2,0,P|328:363|377:349,1,80,8|0,0:0|0:0,0:0:0:0:
395,334,88159,1,0,0:0:0:0:
395,334,88284,6,0,P|429:281|505:303,2,120,6|0|0,0:0|0:0|0:0,0:0:0:0:
334,282,89284,2,0,P|327:221|322:176,1,80,2|0,0:0|0:0,0:0:0:0:
392,158,89784,2,0,P|399:97|404:52,1,80,8|0,0:0|0:0,0:0:0:0:
341,24,90284,6,0,P|273:-5|216:17,2,120,2|0|0,0:0|0:0|0:0,0:0:0:0:
328,103,91284,2,0,P|323:142|318:182,1,80,2|0,0:0|0:0,0:0:0:0:
301,260,91784,1,2,0:0:0:0:
188,218,92159,1,2,0:0:0:0:
75,258,92534,2,0,L|84:386,2,120,2|2|2,0:0|0:0|0:0,0:0:0:0:
12,155,93659,1,2,0:0:0:0:
114,92,94034,1,2,0:0:0:0:
184,130,94284,6,0,P|252:137|354:90,1,160,6|8,0:0|0:0,0:0:0:0:
407,67,95034,1,0,0:0:0:0:
465,121,95284,2,0,B|459:184|459:184|466:220|466:220|457:289,1,160,2|8,0:0|0:0,0:0:0:0:
387,317,96034,1,0,0:0:0:0:
387,317,96159,1,0,0:0:0:0:
387,317,96284,6,0,P|344:329|281:312,1,80,2|0,0:0|0:0,0:0:0:0:
250,270,96784,1,8,0:0:0:0:
190,216,97034,1,0,0:0:0:0:
190,216,97159,1,0,0:0:0:0:
190,216,97284,2,0,P|147:204|84:221,2,80,2|0|8,0:0|0:0|0:0,0:0:0:0:
250,270,98034,1,0,0:0:0:0:
296,204,98284,6,0,B|321:178|321:178|303:43,1,160,6|8,0:0|0:0,0:0:0:0:
368,6,99034,1,0,0:0:0:0:
412,72,99284,2,0,P|501:78|512:135,1,160,2|8,0:0|0:0,0:0:0:0:
483,213,100034,1,0,0:0:0:0:
483,213,100159,1,0,0:0:0:0:
483,213,100284,6,0,P|473:259|478:309,1,80,2|0,0:0|0:0,0:0:0:0:
407,335,100784,2,0,L|307:334,1,80,8|0,0:0|0:0,0:0:0:0:
298,259,101284,2,0,L|293:209,3,40,2|0|0|0,0:0|0:0|0:0|0:0,0:0:0:0:
263,192,101784,2,0,L|268:142,3,40,8|0|0|0,0:0|0:0|0:0|0:0,0:0:0:0:
244,118,102284,6,0,B|182:96|167:148|77:122,1,160,6|8,0:0|0:0,0:0:0:0:
18,82,103034,1,0,0:0:0:0:
8,161,103284,2,0,L|15:244,1,80,2|0,0:0|0:0,0:0:0:0:
74,293,103784,2,0,L|67:376,1,80,8|0,0:0|0:0,0:0:0:0:
145,356,104284,6,0,P|229:334|312:356,1,160,2|8,0:0|0:0,0:0:0:0:
372,317,105034,1,0,0:0:0:0:
372,317,105159,1,0,0:0:0:0:
372,317,105284,2,0,P|405:257|361:158,1,160,2|8,0:0|0:0,0:0:0:0:
313,128,106034,1,0,0:0:0:0:
313,128,106159,1,0,0:0:0:0:
313,128,106284,6,0,L|220:125,1,80,2|0,0:0|0:0,0:0:0:0:
168,172,106784,2,0,P|160:213|167:254,1,80,8|0,0:0|0:0,0:0:0:0:
206,318,107284,1,2,0:0:0:0:
132,349,107534,1,0,0:0:0:0:
63,307,107784,2,0,L|52:207,1,80,8|0,0:0|0:0,0:0:0:0:
60,187,108159,1,0,0:0:0:0:
60,187,108284,6,0,P|109:188|166:98,1,160,2|8,0:0|0:0,0:0:0:0:
229,54,109034,1,0,0:0:0:0:
229,54,109159,1,0,0:0:0:0:
229,54,109284,2,0,P|297:41|334:45,1,80,2|0,0:0|0:0,0:0:0:0:
376,82,109784,1,8,0:0:0:0:
332,149,110034,1,0,0:0:0:0:
332,149,110159,1,0,0:0:0:0:
332,149,110284,6,0,L|341:320,1,160,2|8,0:0|0:0,0:0:0:0:
274,353,111034,1,0,0:0:0:0:
200,320,111284,2,0,L|112:322,1,80,2|0,0:0|0:0,0:0:0:0:
51,279,111784,1,8,0:0:0:0:
96,212,112034,1,0,0:0:0:0:
96,212,112159,1,0,0:0:0:0:
96,212,112284,6,0,L|85:91,2,120,6|0|0,0:0|0:0|0:0,0:0:0:0:
168,245,113284,2,0,P|216:244|257:227,1,80,2|0,0:0|0:0,0:0:0:0:
317,197,113784,2,0,P|365:198|406:215,1,80,8|0,0:0|0:0,0:0:0:0:
469,179,114284,6,0,B|493:151|493:151|483:68,2,120,2|0|0,0:0|0:0|0:0,0:0:0:0:
401,222,115284,1,2,0:0:0:0:
324,199,115534,1,0,0:0:0:0:
270,258,115784,2,0,L|277:351,1,80,8|0,0:0|0:0,0:0:0:0:
246,363,116159,1,0,0:0:0:0:
246,363,116284,6,0,P|159:374|115:335,2,120,4|0|0,0:0|0:0|0:0,0:0:0:0:
321,336,117284,2,0,L|411:342,1,80,2|0,0:0|0:0,0:0:0:0:
469,300,117784,2,0,P|477:261|474:221,1,80,8|0,0:0|0:0,0:0:0:0:
419,162,118284,6,0,B|350:155|350:155|318:163|318:163|239:158,1,160,2|8,0:0|0:0,0:0:0:0:
197,116,119034,1,0,0:0:0:0:
197,116,119159,1,0,0:0:0:0:
197,116,119284,2,0,B|128:123|128:123|96:115|96:115|17:120,1,160,2|8,0:0|0:0,0:0:0:0:
8,193,120034,1,0,0:0:0:0:
40,265,120284,5,4,0:0:0:0:
174,178,120784,1,4,0:0:0:0:
293,284,121284,2,0,L|372:275,1,80,4|0,0:0|0:0,0:0:0:0:
441,232,121784,1,4,0:3:0:0:
441,232,121909,1,4,0:3:0:0:
441,232,122034,1,4,0:3:0:0:
382,166,122284,5,4,0:0:0:0:
