osu file format v14

[General]
AudioFilename: audio.mp3
AudioLeadIn: 0
PreviewTime: 0
Countdown: 0
SampleSet: Soft
StackLeniency: 0.7
Mode: 0
LetterboxInBreaks: 0
WidescreenStoryboard: 1

[Editor]
DistanceSpacing: 1.3
BeatDivisor: 3
GridSize: 32
TimelineZoom: 1

[Metadata]
Title:Jun Kissa Hato no Su
TitleUnicode:純喫茶ハトの巣
Artist:Totaka Kazumi
ArtistUnicode:戸高一生
Creator:polka
Version:3 Cubes (Insane)
Source:とびだせ どうぶつの森
Tags:Acoustic Veridian PolkaMocha Instrumental Video Game Pidgeon Nest roost of brewster cafe coffee animal crossing new leaf wild world city folk nintendo tea theme ost original soundtrack
BeatmapID:2182776
BeatmapSetID:1044129

[Difficulty]
HPDrainRate:5.8
CircleSize:6.3
OverallDifficulty:7
ApproachRate:7.5
SliderMultiplier:1.8
SliderTickRate:3

[Events]
//Background and Video events
0,0,"d4f514e35f7c5f4204622d4dca5011c9.jpg",0,0
//Break Periods
//Storyboard Layer 0 (Background)
//Storyboard Layer 1 (Fail)
//Storyboard Layer 2 (Pass)
//Storyboard Layer 3 (Foreground)
//Storyboard Layer 4 (Overlay)
//Storyboard Sound Samples

[TimingPoints]
46,975.609756097561,4,2,1,20,1,0
1021,923.076923076923,4,2,1,20,1,0
1944,886.262924667651,4,2,1,20,1,0
2830,933.125972006221,4,2,1,20,1,0
5629,983.606557377049,4,2,1,20,1,0
5956,937.5,4,2,1,20,1,0
6581,952.380952380952,4,2,1,20,1,0
7215,920.951650038373,4,2,1,20,1,0
8442,944.88188976378,4,2,1,20,1,0
9386,923.076923076923,4,2,1,20,1,0
9693,958.466453674121,4,2,1,20,1,0
10331,932.763311309755,4,2,1,20,1,0
12196,923.076923076923,4,2,1,20,1,0
13119,937.5,4,2,1,20,1,0
13744,983.606557377049,4,2,1,20,1,0
14071,923.076923076923,4,2,1,20,1,0
14686,940.438871473354,4,2,1,20,1,0
15312,943.396226415094,4,2,1,20,1,0
15940,935.672514619883,4,2,1,20,1,0
17811,933.852140077821,4,2,1,20,1,0
19678,941.915227629513,4,2,1,20,1,0
21561,970.873786407767,4,2,1,20,1,0
22531,944.88188976378,4,2,1,20,1,0
23475,923.076923076923,4,2,1,20,1,0
24090,983.606557377049,4,2,1,20,1,0
24417,923.076923076923,4,2,1,35,1,0
25340,944.88188976378,4,2,1,55,1,1
25615,-100,4,2,1,20,0,1
25654,913.937547600914,4,2,1,20,1,1
26263,934.579439252336,4,2,1,20,1,1
27197,928.792569659443,4,2,1,20,1,1
28126,952.380952380952,4,2,1,20,1,1
29078,944.138473642801,4,2,1,20,1,0
30022,917.43119266055,4,2,1,20,1,0
30939,914.634146341464,4,2,1,20,1,0
31853,923.076923076923,4,2,1,20,1,0
32776,964.630225080386,4,2,1,20,1,0
33740,983.606557377049,3,2,1,20,1,0
34703,983.606557377049,3,2,1,20,1,0
34723,923.076923076923,3,2,1,20,1,0
35338,987.654320987654,3,2,1,20,1,0
35667,882.352941176471,3,2,1,20,1,0
36255,963.855421686747,3,2,1,20,1,0
36576,937.5,4,2,1,20,1,0
38451,930.232558139535,4,2,1,20,1,0
39381,967.741935483871,4,2,1,20,1,0
39703,937.5,4,2,1,20,1,0
40328,930.232558139535,4,2,1,20,1,0
41785,-100,4,2,0,5,0,0
41863,-100,4,2,1,20,0,0
42188,937.5,4,2,1,20,1,0
43125,958.083832335329,4,2,1,20,1,0
44083,927.357032457496,4,2,1,20,1,0
45937,923.076923076923,4,2,1,20,1,0
46860,952.380952380952,4,2,1,20,1,0
47494,1000,4,2,1,20,1,0
47827,895.522388059701,4,2,1,20,1,0
48424,952.380952380952,4,2,1,20,1,0
49058,937.5,4,2,1,20,1,0
49370,1000,4,2,1,20,1,0
49703,935.672514619883,4,2,1,20,1,0
51574,925.212027756361,4,2,1,20,1,0
53424,952.380952380952,4,2,1,20,1,0
54365,952.380952380952,4,2,1,20,1,0
54376,931.67701863354,4,2,1,20,1,0
55307,983.606557377049,4,2,1,20,1,0
56290,944.88188976378,3,2,1,20,1,0
57234,923.076923076923,3,2,1,20,1,0
57849,967.741935483871,3,2,1,20,1,0
58123,-100,3,2,1,35,0,0
58171,916.030534351145,3,2,1,35,1,0
59087,921.305182341651,4,2,1,55,1,1
59358,-100,4,2,1,20,0,1
60008,923.076923076923,4,2,1,20,1,1
60931,948.241801659423,4,2,1,20,1,1
61879,933.852140077821,4,2,1,20,1,1
62189,957.701516360734,4,2,1,20,1,1
62827,941.176470588235,4,2,1,20,1,0
63768,923.076923076923,3,2,1,20,1,0
64691,909.090909090909,3,2,1,20,1,0
65600,923.076923076923,3,2,1,20,1,0
66523,958.466453674121,3,2,1,20,1,0
67481,996.677740863787,3,2,1,20,1,0
68446,996.677740863787,3,2,1,20,1,0
68477,909.090909090909,3,2,1,20,1,0
69083,986.842105263158,3,2,1,20,1,0
69411,888.888888888889,3,2,1,20,1,0
70003,952.380952380952,3,2,1,20,1,0
70320,937.5,4,2,1,20,1,0
72195,935.307872174591,4,2,1,20,1,0
73130,995.850622406639,4,2,1,20,1,0
73461,933.125972006221,4,2,1,20,1,0
74083,930.232558139535,4,2,1,20,1,0
75943,944.88188976378,4,2,1,20,1,0
76887,923.076923076923,4,2,1,20,1,0
77194,946.372239747634,4,2,1,20,1,0
77824,930.232558139535,4,2,1,20,1,0
78754,935.672514619883,4,2,1,20,1,0
80625,956.175298804781,4,2,1,20,1,0
81581,937.5,4,2,1,20,1,0

[Colours]
Combo1 : 251,237,183
Combo2 : 154,80,48
Combo3 : 249,211,134
Combo4 : 69,141,100
SliderBorder : 176,149,95

[HitObjects]
144,184,2830,6,0,P|152:176|200:176,1,60,6|0,1:2|0:0,0:0:0:0:
216,240,3452,2,0,P|258:301|352:280,1,180,2|0,0:0|0:0,0:0:0:0:
392,216,4696,5,0,1:0:0:0:
456,184,5007,1,0,0:0:0:0:
512,232,5318,1,0,0:0:0:0:
448,264,5629,1,8,0:0:0:0:
392,216,5956,5,2,0:3:0:0:
320,224,6268,1,2,0:0:0:0:
264,312,6581,2,0,P|235:317|210:302,1,60,6|0,1:2|0:0,0:0:0:0:
176,240,7215,2,0,P|94:215|40:281,1,180,2|0,0:0|0:0,0:0:0:0:
64,352,8442,5,0,1:0:0:0:
136,368,8756,1,0,0:0:0:0:
192,320,9071,1,0,0:0:0:0:
120,296,9386,1,8,0:0:0:0:
176,248,9693,5,2,0:0:0:0:
248,272,10012,1,2,0:3:0:0:
256,344,10331,2,0,L|334:357,1,60,4|0,1:2|0:0,0:0:0:0:
435,322,10952,2,0,L|375:311,1,60,2|8,0:3|0:0,0:0:0:0:
292,229,11574,2,0,L|351:239,1,60,2|0,0:0|0:0,0:0:0:0:
424,216,12196,5,0,1:0:0:0:
440,144,12503,1,0,0:0:0:0:
392,88,12811,1,0,0:0:0:0:
368,160,13119,1,8,0:0:0:0:
296,144,13431,1,0,0:0:0:0:
240,192,13744,1,0,0:0:0:0:
240,304,14071,5,4,1:2:0:0:
168,320,14378,1,0,0:0:0:0:
112,272,14686,1,0,0:0:0:0:
112,200,14999,1,8,0:0:0:0:
176,232,15312,5,2,0:3:0:0:
112,272,15626,1,0,3:0:0:0:
48,232,15940,2,0,L|32:145,1,60,2|0,1:2|0:0,0:0:0:0:
77,60,16563,2,0,L|87:119,1,60,2|8,0:3|0:0,0:0:0:0:
152,152,17187,1,2,0:0:0:0:
224,136,17499,1,0,0:0:0:0:
272,40,17811,6,0,L|331:50,1,60,2|0,1:2|0:0,0:0:0:0:
419,122,18433,2,0,L|359:111,1,60,2|8,0:3|0:0,0:0:0:0:
296,152,19056,1,2,0:3:0:0:
288,224,19367,1,0,0:0:0:0:
336,280,19678,1,2,1:2:0:0:
360,216,19991,5,0,0:0:0:0:
288,224,20305,1,0,0:0:0:0:
272,296,20619,1,8,0:0:0:0:
320,344,20933,1,0,0:0:0:0:
384,320,21247,1,0,0:0:0:0:
488,352,21561,5,0,1:0:0:0:
448,296,21884,1,0,0:0:0:0:
456,224,22208,1,0,0:0:0:0:
356,182,22531,6,0,P|308:134|220:158,1,120,10|0,0:0|0:0,0:0:0:0:
184,272,23475,2,0,P|249:254|272:166,1,120,2|0,1:2|0:0,0:0:0:0:
197,84,24417,2,0,P|179:149|244:213,1,120,10|0,0:0|0:0,0:0:0:0:
384,320,25340,1,6,1:2:0:0:
432,264,25654,5,0,0:0:0:0:
432,192,25958,1,0,0:0:0:0:
368,232,26263,1,8,0:0:0:0:
304,192,26574,1,0,0:0:0:0:
304,120,26886,1,0,0:0:0:0:
360,72,27197,6,0,L|446:87,1,60,2|0,1:2|0:0,0:0:0:0:
512,148,27816,2,0,L|453:138,1,60,2|8,0:2|0:0,0:0:0:0:
392,168,28443,1,2,0:3:0:0:
344,112,28760,1,2,0:0:0:0:
200,160,29078,2,0,L|349:186,1,120,6|0,1:2|0:0,0:0:0:0:
360,240,30022,5,8,0:0:0:0:
328,304,30327,1,0,0:0:0:0:
256,312,30633,1,0,0:0:0:0:
288,248,30939,1,0,1:0:0:0:
224,216,31243,1,0,0:0:0:0:
216,144,31548,1,0,0:0:0:0:
280,176,31853,1,8,0:0:0:0:
312,112,32160,1,0,0:0:0:0:
384,104,32468,1,0,0:0:0:0:
488,248,32776,5,0,1:0:0:0:
456,184,33097,1,0,0:0:0:0:
384,176,33419,1,0,0:0:0:0:
317,243,33740,6,0,P|261:283|189:259,1,120,10|0,2:0|0:0,0:0:0:0:
249,214,34723,2,0,P|189:180|180:104,1,120,2|0,1:2|0:0,0:0:0:0:
245,139,35667,2,0,P|250:70|315:30,1,120,10|0,0:0|0:0,0:0:0:0:
389,123,36576,6,0,P|381:115|333:115,1,60,6|0,1:2|0:0,0:0:0:0:
317,179,37201,2,0,P|275:240|181:219,1,180,2|0,0:0|0:0,0:0:0:0:
160,144,38451,5,0,1:0:0:0:
96,112,38761,1,0,0:0:0:0:
40,160,39071,1,0,0:0:0:0:
104,192,39381,1,8,0:0:0:0:
160,144,39703,5,2,0:3:0:0:
245,161,40015,1,2,0:0:0:0:
288,240,40328,2,0,P|317:245|342:230,1,60,6|0,1:2|0:0,0:0:0:0:
376,168,40948,2,0,P|458:143|512:209,1,180,2|0,0:0|0:0,0:0:0:0:
488,280,42188,5,0,1:0:0:0:
416,296,42500,1,0,0:0:0:0:
360,248,42813,1,0,0:0:0:0:
432,224,43125,1,8,0:0:0:0:
376,176,43444,5,2,0:0:0:0:
304,200,43763,1,2,0:3:0:0:
292,272,44083,2,0,L|209:286,1,60,2|0,1:2|0:0,0:0:0:0:
124,242,44701,2,0,L|184:232,1,60,2|8,0:3|0:0,0:0:0:0:
275,157,45319,2,0,L|216:168,1,60,2|0,0:0|0:0,0:0:0:0:
148,144,45937,5,0,1:0:0:0:
136,72,46244,1,0,0:0:0:0:
188,24,46552,1,0,0:0:0:0:
204,96,46860,1,8,0:0:0:0:
148,144,47177,1,0,0:0:0:0:
80,124,47494,1,0,0:0:0:0:
28,256,47827,5,4,1:2:0:0:
92,228,48125,1,0,0:0:0:0:
160,248,48424,1,0,0:0:0:0:
188,316,48741,1,8,0:0:0:0:
232,260,49058,5,2,0:3:0:0:
304,248,49370,1,0,3:0:0:0:
360,296,49703,2,0,L|438:309,1,60,2|0,1:2|0:0,0:0:0:0:
511,254,50326,2,0,L|452:244,1,60,2|8,0:3|0:0,0:0:0:0:
408,184,50950,1,2,0:0:0:0:
424,112,51262,1,0,0:0:0:0:
328,40,51574,6,0,L|338:99,1,60,2|0,1:2|0:0,0:0:0:0:
306,215,52190,2,0,L|296:156,1,60,2|8,0:3|0:0,0:0:0:0:
252,96,52807,1,2,0:3:0:0:
180,104,53116,1,0,0:0:0:0:
148,168,53424,1,2,1:2:0:0:
220,164,53741,5,0,0:0:0:0:
180,104,54058,1,0,0:0:0:0:
108,112,54376,1,8,0:0:0:0:
76,176,54686,1,0,0:0:0:0:
116,236,54997,1,0,0:0:0:0:
256,272,55307,5,0,1:0:0:0:
320,236,55634,1,0,0:0:0:0:
324,164,55962,1,0,0:0:0:0:
156,148,56290,6,0,P|204:196|292:172,1,120,10|0,0:0|0:0,0:0:0:0:
328,58,57234,2,0,P|263:76|240:164,1,120,2|0,1:2|0:0,0:0:0:0:
315,246,58171,2,0,P|333:181|268:117,1,120,10|0,0:0|0:0,0:0:0:0:
112,224,59087,1,6,1:2:0:0:
140,292,59394,5,0,0:0:0:0:
212,304,59701,1,0,0:0:0:0:
260,360,60008,1,8,0:0:0:0:
292,296,60315,1,0,0:0:0:0:
364,284,60623,1,0,0:0:0:0:
416,336,60931,6,0,L|475:325,1,60,2|0,1:2|0:0,0:0:0:0:
511,245,61563,2,0,L|452:256,1,60,2|8,0:3|0:0,0:0:0:0:
392,216,62190,1,2,0:3:0:0:
344,272,62508,1,0,0:0:0:0:
196,224,62827,2,0,L|353:196,1,120,6|0,1:2|0:0,0:0:0:0:
344,272,63768,5,8,0:0:0:0:
376,336,64075,1,0,0:0:0:0:
448,344,64383,1,0,0:0:0:0:
416,280,64691,1,0,1:0:0:0:
480,248,64994,1,0,0:0:0:0:
488,176,65297,1,0,0:0:0:0:
424,208,65600,1,8,0:0:0:0:
392,144,65907,1,0,0:0:0:0:
320,136,66215,1,0,0:0:0:0:
216,280,66523,5,0,1:0:0:0:
248,216,66842,1,0,0:0:0:0:
320,208,67161,1,0,0:0:0:0:
368,264,67481,6,0,P|424:304|496:280,1,120,10|0,0:2|0:0,0:0:0:0:
436,235,68477,2,0,P|496:201|505:125,1,120,2|0,1:2|0:0,0:0:0:0:
440,160,69411,2,0,P|435:91|370:51,1,120,10|0,0:0|0:0,0:0:0:0:
310,122,70320,6,0,P|338:116|364:132,1,60,6|0,1:2|0:0,0:0:0:0:
297,189,70945,2,0,P|255:250|161:229,1,180,2|0,0:0|0:0,0:0:0:0:
121,165,72195,5,0,1:0:0:0:
57,133,72506,1,0,0:0:0:0:
1,181,72818,1,0,0:0:0:0:
65,213,73130,1,8,0:0:0:0:
121,165,73461,5,2,0:3:0:0:
193,173,73772,1,2,0:0:0:0:
249,261,74083,2,0,P|278:266|303:251,1,60,6|0,1:2|0:0,0:0:0:0:
337,189,74703,2,0,P|419:164|473:230,1,180,2|0,0:0|0:0,0:0:0:0:
449,301,75943,5,0,1:0:0:0:
377,317,76257,1,0,0:0:0:0:
321,269,76572,1,0,0:0:0:0:
393,245,76887,1,8,0:0:0:0:
337,197,77194,5,2,0:0:0:0:
265,221,77509,1,2,0:3:0:0:
257,293,77824,2,0,L|179:306,1,60,4|0,1:2|0:0,0:0:0:0:
78,271,78444,2,0,L|138:260,1,60,2|8,0:3|0:0,0:0:0:0:
221,178,79065,2,0,L|162:188,1,60,2|0,0:0|0:0,0:0:0:0:
89,165,79689,5,0,1:0:0:0:
